  0
SECTION
  2
HEADER
  9
$ACADVER
  1
AC1015
  9
$ACADMAINTVER
 70
    20
  9
$DWGCODEPAGE
  3
ANSI_1252
  9
$INSBASE
 10
0.0
 20
0.0
 30
0.0
  9
$EXTMIN
 10
-0.075
 20
-0.075
 30
0.0
  9
$EXTMAX
 10
22.075
 20
17.075
 30
0.0
  9
$LIMMIN
 10
0.0
 20
0.0
  9
$LIMMAX
 10
12.0
 20
9.0
  9
$ORTHOMODE
 70
     0
  9
$REGENMODE
 70
     1
  9
$FILLMODE
 70
     1
  9
$QTEXTMODE
 70
     0
  9
$MIRRTEXT
 70
     1
  9
$LTSCALE
 40
1.0
  9
$ATTMODE
 70
     1
  9
$TEXTSIZE
 40
0.09
  9
$TRACEWID
 40
0.05
  9
$TEXTSTYLE
  7
STANDARD
  9
$CLAYER
  8
0
  9
$CELTYPE
  6
BYLAYER
  9
$CECOLOR
 62
   256
  9
$CELTSCALE
 40
1.0
  9
$DISPSILH
 70
     0
  9
$DIMSCALE
 40
1.0
  9
$DIMASZ
 40
0.125
  9
$DIMEXO
 40
0.0625
  9
$DIMDLI
 40
0.38
  9
$DIMRND
 40
0.0
  9
$DIMDLE
 40
0.0
  9
$DIMEXE
 40
0.125
  9
$DIMTP
 40
0.0
  9
$DIMTM
 40
0.0
  9
$DIMTXT
 40
0.09
  9
$DIMCEN
 40
0.09
  9
$DIMTSZ
 40
0.0
  9
$DIMTOL
 70
     0
  9
$DIMLIM
 70
     0
  9
$DIMTIH
 70
     1
  9
$DIMTOH
 70
     1
  9
$DIMSE1
 70
     0
  9
$DIMSE2
 70
     0
  9
$DIMTAD
 70
     0
  9
$DIMZIN
 70
     0
  9
$DIMBLK
  1

  9
$DIMASO
 70
     1
  9
$DIMSHO
 70
     1
  9
$DIMPOST
  1

  9
$DIMAPOST
  1
mm
  9
$DIMALT
 70
     1
  9
$DIMALTD
 70
     1
  9
$DIMALTF
 40
25.4
  9
$DIMLFAC
 40
1.0
  9
$DIMTOFL
 70
     0
  9
$DIMTVP
 40
0.0
  9
$DIMTIX
 70
     0
  9
$DIMSOXD
 70
     0
  9
$DIMSAH
 70
     0
  9
$DIMBLK1
  1

  9
$DIMBLK2
  1

  9
$DIMSTYLE
  2
STANDARD
  9
$DIMCLRD
 70
     0
  9
$DIMCLRE
 70
     0
  9
$DIMCLRT
 70
     0
  9
$DIMTFAC
 40
1.0
  9
$DIMGAP
 40
0.09
  9
$DIMJUST
 70
     0
  9
$DIMSD1
 70
     0
  9
$DIMSD2
 70
     0
  9
$DIMTOLJ
 70
     1
  9
$DIMTZIN
 70
     0
  9
$DIMALTZ
 70
     0
  9
$DIMALTTZ
 70
     0
  9
$DIMUPT
 70
     0
  9
$DIMDEC
 70
     2
  9
$DIMTDEC
 70
     2
  9
$DIMALTU
 70
     2
  9
$DIMALTTD
 70
     1
  9
$DIMTXSTY
  7
STANDARD
  9
$DIMAUNIT
 70
     0
  9
$DIMADEC
 70
     0
  9
$DIMALTRND
 40
0.0
  9
$DIMAZIN
 70
     0
  9
$DIMDSEP
 70
    46
  9
$DIMATFIT
 70
     3
  9
$DIMFRAC
 70
     0
  9
$DIMLDRBLK
  1

  9
$DIMLUNIT
 70
     2
  9
$DIMLWD
 70
    -2
  9
$DIMLWE
 70
    -2
  9
$DIMTMOVE
 70
     0
  9
$LUNITS
 70
     2
  9
$LUPREC
 70
     2
  9
$SKETCHINC
 40
0.1
  9
$FILLETRAD
 40
0.5
  9
$AUNITS
 70
     0
  9
$AUPREC
 70
     0
  9
$MENU
  1
.
  9
$ELEVATION
 40
0.0
  9
$PELEVATION
 40
0.0
  9
$THICKNESS
 40
0.0
  9
$LIMCHECK
 70
     0
  9
$CHAMFERA
 40
0.5
  9
$CHAMFERB
 40
0.5
  9
$CHAMFERC
 40
1.0
  9
$CHAMFERD
 40
0.0
  9
$SKPOLY
 70
     0
  9
$TDCREATE
 40
2451681.555436007
  9
$TDUCREATE
 40
2451681.763769340
  9
$TDUPDATE
 40
2454294.654264815
  9
$TDUUPDATE
 40
2454294.862598148
  9
$TDINDWG
 40
0.2223300000
  9
$TDUSRTIMER
 40
0.2223300000
  9
$USRTIMER
 70
     1
  9
$ANGBASE
 50
0.0
  9
$ANGDIR
 70
     0
  9
$PDMODE
 70
     2
  9
$PDSIZE
 40
0.075
  9
$PLINEWID
 40
0.0
  9
$SPLFRAME
 70
     0
  9
$SPLINETYPE
 70
     6
  9
$SPLINESEGS
 70
     8
  9
$HANDSEED
  5
C29
  9
$SURFTAB1
 70
     6
  9
$SURFTAB2
 70
     6
  9
$SURFTYPE
 70
     6
  9
$SURFU
 70
     6
  9
$SURFV
 70
     6
  9
$UCSBASE
  2

  9
$UCSNAME
  2

  9
$UCSORG
 10
0.0
 20
0.0
 30
0.0
  9
$UCSXDIR
 10
1.0
 20
0.0
 30
0.0
  9
$UCSYDIR
 10
0.0
 20
1.0
 30
0.0
  9
$UCSORTHOREF
  2

  9
$UCSORTHOVIEW
 70
     0
  9
$UCSORGTOP
 10
0.0
 20
0.0
 30
0.0
  9
$UCSORGBOTTOM
 10
0.0
 20
0.0
 30
0.0
  9
$UCSORGLEFT
 10
0.0
 20
0.0
 30
0.0
  9
$UCSORGRIGHT
 10
0.0
 20
0.0
 30
0.0
  9
$UCSORGFRONT
 10
0.0
 20
0.0
 30
0.0
  9
$UCSORGBACK
 10
0.0
 20
0.0
 30
0.0
  9
$PUCSBASE
  2

  9
$PUCSNAME
  2

  9
$PUCSORG
 10
0.0
 20
0.0
 30
0.0
  9
$PUCSXDIR
 10
1.0
 20
0.0
 30
0.0
  9
$PUCSYDIR
 10
0.0
 20
1.0
 30
0.0
  9
$PUCSORTHOREF
  2

  9
$PUCSORTHOVIEW
 70
     0
  9
$PUCSORGTOP
 10
0.0
 20
0.0
 30
0.0
  9
$PUCSORGBOTTOM
 10
0.0
 20
0.0
 30
0.0
  9
$PUCSORGLEFT
 10
0.0
 20
0.0
 30
0.0
  9
$PUCSORGRIGHT
 10
0.0
 20
0.0
 30
0.0
  9
$PUCSORGFRONT
 10
0.0
 20
0.0
 30
0.0
  9
$PUCSORGBACK
 10
0.0
 20
0.0
 30
0.0
  9
$USERI1
 70
     0
  9
$USERI2
 70
     0
  9
$USERI3
 70
     0
  9
$USERI4
 70
     0
  9
$USERI5
 70
     0
  9
$USERR1
 40
0.0
  9
$USERR2
 40
0.0
  9
$USERR3
 40
0.0
  9
$USERR4
 40
0.0
  9
$USERR5
 40
0.0
  9
$WORLDVIEW
 70
     1
  9
$SHADEDGE
 70
     3
  9
$SHADEDIF
 70
    70
  9
$TILEMODE
 70
     1
  9
$MAXACTVP
 70
    48
  9
$PINSBASE
 10
0.0
 20
0.0
 30
0.0
  9
$PLIMCHECK
 70
     0
  9
$PEXTMIN
 10
1.000000000000000E+20
 20
1.000000000000000E+20
 30
1.000000000000000E+20
  9
$PEXTMAX
 10
-1.000000000000000E+20
 20
-1.000000000000000E+20
 30
-1.000000000000000E+20
  9
$PLIMMIN
 10
0.0
 20
0.0
  9
$PLIMMAX
 10
12.0
 20
9.0
  9
$UNITMODE
 70
     0
  9
$VISRETAIN
 70
     1
  9
$PLINEGEN
 70
     0
  9
$PSLTSCALE
 70
     1
  9
$TREEDEPTH
 70
  3020
  9
$CMLSTYLE
  2
STANDARD
  9
$CMLJUST
 70
     0
  9
$CMLSCALE
 40
1.0
  9
$PROXYGRAPHICS
 70
     1
  9
$MEASUREMENT
 70
     0
  9
$CELWEIGHT
370
    -1
  9
$ENDCAPS
280
     0
  9
$JOINSTYLE
280
     0
  9
$LWDISPLAY
290
     0
  9
$INSUNITS
 70
     0
  9
$HYPERLINKBASE
  1

  9
$STYLESHEET
  1

  9
$XEDIT
290
     1
  9
$CEPSNTYPE
380
     0
  9
$PSTYLEMODE
290
     1
  9
$FINGERPRINTGUID
  2
{71EC7F31-AA06-4ECF-8D30-7E7FC2EDBC33}
  9
$VERSIONGUID
  2
{CF591196-3DCF-4111-88A9-6547FA4E15C8}
  9
$EXTNAMES
290
     1
  9
$PSVPSCALE
 40
0.0
  9
$OLESTARTUP
290
     0
  0
ENDSEC
  0
SECTION
  2
CLASSES
  0
CLASS
  1
ACDBDICTIONARYWDFLT
  2
AcDbDictionaryWithDefault
  3
ObjectDBX Classes
 90
        0
280
     0
281
     0
  0
CLASS
  1
TABLESTYLE
  2
AcDbTableStyle
  3
ObjectDBX Classes
 90
     2047
280
     0
281
     0
  0
CLASS
  1
DICTIONARYVAR
  2
AcDbDictionaryVar
  3
ObjectDBX Classes
 90
        0
280
     0
281
     0
  0
CLASS
  1
ACDBPLACEHOLDER
  2
AcDbPlaceHolder
  3
ObjectDBX Classes
 90
        0
280
     0
281
     0
  0
CLASS
  1
LAYOUT
  2
AcDbLayout
  3
ObjectDBX Classes
 90
        0
280
     0
281
     0
  0
ENDSEC
  0
SECTION
  2
TABLES
  0
TABLE
  2
VPORT
  5
8
330
0
100
AcDbSymbolTable
 70
     2
  0
VPORT
  5
C23
330
8
100
AcDbSymbolTableRecord
100
AcDbViewportTableRecord
  2
*Active
 70
     0
 10
0.0
 20
0.0
 11
1.0
 21
1.0
 12
11.00000015472541
 22
9.103873819164817
 13
0.0
 23
0.0
 14
0.5
 24
0.5
 15
0.5
 25
0.5
 16
0.0
 26
0.0
 36
1.0
 17
0.0
 27
0.0
 37
0.0
 40
18.46820989900854
 41
1.499364675984752
 42
50.0
 43
0.0
 44
0.0
 50
0.0
 51
0.0
 71
     0
 72
   100
 73
     1
 74
     1
 75
     0
 76
     0
 77
     0
 78
     0
281
     0
 65
     1
110
0.0
120
0.0
130
0.0
111
1.0
121
0.0
131
0.0
112
0.0
122
1.0
132
0.0
 79
     0
146
0.0
  0
ENDTAB
  0
TABLE
  2
LTYPE
  5
5
330
0
100
AcDbSymbolTable
 70
     1
  0
LTYPE
  5
12
330
5
100
AcDbSymbolTableRecord
100
AcDbLinetypeTableRecord
  2
BYBLOCK
 70
     0
  3

 72
    65
 73
     0
 40
0.0
  0
LTYPE
  5
13
330
5
100
AcDbSymbolTableRecord
100
AcDbLinetypeTableRecord
  2
BYLAYER
 70
     0
  3

 72
    65
 73
     0
 40
0.0
  0
LTYPE
  5
14
330
5
100
AcDbSymbolTableRecord
100
AcDbLinetypeTableRecord
  2
CONTINUOUS
 70
     0
  3
Solid line
 72
    65
 73
     0
 40
0.0
  0
ENDTAB
  0
TABLE
  2
LAYER
  5
2
102
{ACAD_XDICTIONARY
360
154
102
}
330
0
100
AcDbSymbolTable
 70
     6
  0
LAYER
  5
E
330
2
100
AcDbSymbolTableRecord
100
AcDbLayerTableRecord
  2
0
 70
     0
 62
     7
  6
CONTINUOUS
370
    -3
390
10B
  0
LAYER
  5
20
330
2
100
AcDbSymbolTableRecord
100
AcDbLayerTableRecord
  2
Title Block
 70
     0
 62
     3
  6
CONTINUOUS
370
    -3
390
10B
  0
LAYER
  5
21
330
2
100
AcDbSymbolTableRecord
100
AcDbLayerTableRecord
  2
Dimension
 70
     0
 62
     6
  6
CONTINUOUS
370
    -3
390
10B
  0
LAYER
  5
22
330
2
100
AcDbSymbolTableRecord
100
AcDbLayerTableRecord
  2
Text
 70
     0
 62
     1
  6
CONTINUOUS
370
    -3
390
10B
  0
LAYER
  5
23
330
2
100
AcDbSymbolTableRecord
100
AcDbLayerTableRecord
  2
Object
 70
     0
 62
     5
  6
CONTINUOUS
370
    -3
390
10B
  0
LAYER
  5
179
330
2
100
AcDbSymbolTableRecord
100
AcDbLayerTableRecord
  2
Defpoints
 70
     0
 62
     7
  6
CONTINUOUS
290
     0
370
    -3
390
10B
  0
ENDTAB
  0
TABLE
  2
STYLE
  5
3
330
0
100
AcDbSymbolTable
 70
     1
  0
STYLE
  5
F
330
3
100
AcDbSymbolTableRecord
100
AcDbTextStyleTableRecord
  2
STANDARD
 70
     0
 40
0.0
 41
1.0
 50
0.0
 71
     0
 42
0.09
  3
technic_.ttf
  4

1001
ACAD
1000
Technic
1071
      514
  0
ENDTAB
  0
TABLE
  2
VIEW
  5
6
330
0
100
AcDbSymbolTable
 70
     0
  0
ENDTAB
  0
TABLE
  2
UCS
  5
7
330
0
100
AcDbSymbolTable
 70
     0
  0
ENDTAB
  0
TABLE
  2
APPID
  5
9
330
0
100
AcDbSymbolTable
 70
     4
  0
APPID
  5
10
330
9
100
AcDbSymbolTableRecord
100
AcDbRegAppTableRecord
  2
ACAD
 70
     0
  0
APPID
  5
149
330
9
100
AcDbSymbolTableRecord
100
AcDbRegAppTableRecord
  2
DCO15
 70
     0
  0
APPID
  5
153
330
9
100
AcDbSymbolTableRecord
100
AcDbRegAppTableRecord
  2
AcAecLayerStandard
 70
     0
  0
APPID
  5
1A9
330
9
100
AcDbSymbolTableRecord
100
AcDbRegAppTableRecord
  2
ACAD_DSTYLE_DIMTEXT_FILL
 70
     0
  0
ENDTAB
  0
TABLE
  2
DIMSTYLE
  5
A
330
0
100
AcDbSymbolTable
 70
     1
100
AcDbDimStyleTable
 71
     1
340
1D
  0
DIMSTYLE
105
1D
102
{ACAD_REACTORS
330
B83
330
B91
330
B9F
330
BE9
102
}
330
A
100
AcDbSymbolTableRecord
100
AcDbDimStyleTableRecord
  2
STANDARD
 70
     0
  4
mm
 41
0.125
 44
0.125
140
0.09
170
     1
171
     1
271
     2
272
     2
274
     1
340
F
  0
ENDTAB
  0
TABLE
  2
BLOCK_RECORD
  5
1
330
0
100
AcDbSymbolTable
 70
     4
  0
BLOCK_RECORD
  5
18
330
1
100
AcDbSymbolTableRecord
100
AcDbBlockTableRecord
  2
*MODEL_SPACE
340
112
  0
BLOCK_RECORD
  5
15
330
1
100
AcDbSymbolTableRecord
100
AcDbBlockTableRecord
  2
*PAPER_SPACE
340
113
  0
BLOCK_RECORD
  5
B84
330
1
100
AcDbSymbolTableRecord
100
AcDbBlockTableRecord
  2
*D0
340
0
  0
BLOCK_RECORD
  5
B92
330
1
100
AcDbSymbolTableRecord
100
AcDbBlockTableRecord
  2
*D1
340
0
  0
BLOCK_RECORD
  5
BA0
330
1
100
AcDbSymbolTableRecord
100
AcDbBlockTableRecord
  2
*D2
340
0
  0
BLOCK_RECORD
  5
BEA
330
1
100
AcDbSymbolTableRecord
100
AcDbBlockTableRecord
  2
*D3
340
0
  0
ENDTAB
  0
ENDSEC
  0
SECTION
  2
BLOCKS
  0
BLOCK
  5
19
330
18
100
AcDbEntity
  8
0
100
AcDbBlockBegin
  2
*MODEL_SPACE
 70
     0
 10
0.0
 20
0.0
 30
0.0
  3
*MODEL_SPACE
  1

  0
ENDBLK
  5
1A
330
18
100
AcDbEntity
  8
0
100
AcDbBlockEnd
  0
BLOCK
  5
16
330
15
100
AcDbEntity
 67
     1
  8
0
100
AcDbBlockBegin
  2
*PAPER_SPACE
 70
     0
 10
0.0
 20
0.0
 30
0.0
  3
*PAPER_SPACE
  1

  0
ENDBLK
  5
17
330
15
100
AcDbEntity
 67
     1
  8
0
100
AcDbBlockEnd
  0
BLOCK
  5
B8F
330
B84
100
AcDbEntity
  8
0
100
AcDbBlockBegin
  2
*D0
 70
     1
 10
0.0
 20
0.0
 30
0.0
  3
*D0
  1

  0
LINE
  5
B85
330
B84
100
AcDbEntity
  8
Dimension
 62
     0
370
    -2
100
AcDbLine
 10
12.0595
 20
12.897
 30
0.0
 11
13.72864856345005
 21
12.897
 31
0.0
  0
LINE
  5
B86
330
B84
100
AcDbEntity
  8
Dimension
 62
     0
370
    -2
100
AcDbLine
 10
12.0595
 20
10.897
 30
0.0
 11
13.72864856345005
 21
10.897
 31
0.0
  0
LINE
  5
B87
330
B84
100
AcDbEntity
  8
Dimension
 62
     0
370
    -2
100
AcDbLine
 10
13.60364856345005
 20
12.772
 30
0.0
 11
13.60364856345005
 21
12.05002631578947
 31
0.0
  0
LINE
  5
B88
330
B84
100
AcDbEntity
  8
Dimension
 62
     0
370
    -2
100
AcDbLine
 10
13.60364856345005
 20
11.022
 30
0.0
 11
13.60364856345005
 21
11.74397368421052
 31
0.0
  0
SOLID
  5
B89
330
B84
100
AcDbEntity
  8
Dimension
 62
     0
100
AcDbTrace
 10
13.58281523011672
 20
12.772
 30
0.0
 11
13.62448189678338
 21
12.772
 31
0.0
 12
13.60364856345005
 22
12.897
 32
0.0
 13
13.60364856345005
 23
12.897
 33
0.0
  0
SOLID
  5
B8A
330
B84
100
AcDbEntity
  8
Dimension
 62
     0
100
AcDbTrace
 10
13.58281523011672
 20
11.022
 30
0.0
 11
13.62448189678338
 21
11.022
 31
0.0
 12
13.60364856345005
 22
10.897
 32
0.0
 13
13.60364856345005
 23
10.897
 33
0.0
  0
MTEXT
  5
B8B
330
B84
100
AcDbEntity
  8
Dimension
 62
     0
100
AcDbMText
 10
13.60364856345005
 20
11.897
 30
0.0
 40
0.09
 41
0.0
 71
     5
 72
     1
  1
\A1;2.00 [50.8mm]
 73
     1
 44
1.0
1001
ACAD
1000
MTEXTBEGIN
1070
    73
1070
     1
1070
    44
1040
1.0
1070
    74
1070
     0
1000
MTEXTEND
  0
POINT
  5
B8C
330
B84
100
AcDbEntity
  8
Defpoints
 62
     0
100
AcDbPoint
 10
11.997
 20
12.897
 30
0.0
  0
POINT
  5
B8D
330
B84
100
AcDbEntity
  8
Defpoints
 62
     0
100
AcDbPoint
 10
11.997
 20
10.897
 30
0.0
  0
POINT
  5
B8E
330
B84
100
AcDbEntity
  8
Defpoints
 62
     0
100
AcDbPoint
 10
13.60364856345005
 20
10.897
 30
0.0
  0
ENDBLK
  5
B90
330
B84
100
AcDbEntity
  8
0
100
AcDbBlockEnd
  0
BLOCK
  5
B9D
330
B92
100
AcDbEntity
  8
0
100
AcDbBlockBegin
  2
*D1
 70
     1
 10
0.0
 20
0.0
 30
0.0
  3
*D1
  1

  0
LINE
  5
B93
330
B92
100
AcDbEntity
  8
Dimension
 62
     0
370
    -2
100
AcDbLine
 10
2.371999999999999
 20
5.0335
 30
0.0
 11
2.371999999999999
 21
6.470958373462615
 31
0.0
  0
LINE
  5
B94
330
B92
100
AcDbEntity
  8
Dimension
 62
     0
370
    -2
100
AcDbLine
 10
12.372
 20
5.0335
 30
0.0
 11
12.372
 21
6.470958373462615
 31
0.0
  0
LINE
  5
B95
330
B92
100
AcDbEntity
  8
Dimension
 62
     0
370
    -2
100
AcDbLine
 10
2.496999999999999
 20
6.345958373462615
 30
0.0
 11
6.821605263157894
 21
6.345958373462615
 31
0.0
  0
LINE
  5
B96
330
B92
100
AcDbEntity
  8
Dimension
 62
     0
370
    -2
100
AcDbLine
 10
12.247
 20
6.345958373462615
 30
0.0
 11
7.922394736842105
 21
6.345958373462615
 31
0.0
  0
SOLID
  5
B97
330
B92
100
AcDbEntity
  8
Dimension
 62
     0
100
AcDbTrace
 10
2.496999999999999
 20
6.366791706795948
 30
0.0
 11
2.496999999999999
 21
6.325125040129282
 31
0.0
 12
2.371999999999999
 22
6.345958373462615
 32
0.0
 13
2.371999999999999
 23
6.345958373462615
 33
0.0
  0
SOLID
  5
B98
330
B92
100
AcDbEntity
  8
Dimension
 62
     0
100
AcDbTrace
 10
12.247
 20
6.366791706795948
 30
0.0
 11
12.247
 21
6.325125040129282
 31
0.0
 12
12.372
 22
6.345958373462615
 32
0.0
 13
12.372
 23
6.345958373462615
 33
0.0
  0
MTEXT
  5
B99
330
B92
100
AcDbEntity
  8
Dimension
 62
     0
100
AcDbMText
 10
7.371999999999999
 20
6.345958373462615
 30
0.0
 40
0.09
 41
0.0
 71
     5
 72
     1
  1
\A1;10.00 [254.0mm]
 73
     1
 44
1.0
1001
ACAD
1000
MTEXTBEGIN
1070
    73
1070
     1
1070
    44
1040
1.0
1070
    74
1070
     0
1000
MTEXTEND
  0
POINT
  5
B9A
330
B92
100
AcDbEntity
  8
Defpoints
 62
     0
100
AcDbPoint
 10
2.371999999999999
 20
4.971
 30
0.0
  0
POINT
  5
B9B
330
B92
100
AcDbEntity
  8
Defpoints
 62
     0
100
AcDbPoint
 10
12.372
 20
4.971
 30
0.0
  0
POINT
  5
B9C
330
B92
100
AcDbEntity
  8
Defpoints
 62
     0
100
AcDbPoint
 10
12.372
 20
6.345958373462615
 30
0.0
  0
ENDBLK
  5
B9E
330
B92
100
AcDbEntity
  8
0
100
AcDbBlockEnd
  0
BLOCK
  5
BAB
330
BA0
100
AcDbEntity
  8
0
100
AcDbBlockBegin
  2
*D2
 70
     1
 10
0.0
 20
0.0
 30
0.0
  3
*D2
  1

  0
LINE
  5
BA1
330
BA0
100
AcDbEntity
  8
Dimension
 62
     0
370
    -2
100
AcDbLine
 10
17.0585
 20
4.971
 30
0.0
 11
16.26902037397417
 21
4.971
 31
0.0
  0
LINE
  5
BA2
330
BA0
100
AcDbEntity
  8
Dimension
 62
     0
370
    -2
100
AcDbLine
 10
17.8395
 20
4.567
 30
0.0
 11
16.26902037397417
 21
4.567
 31
0.0
  0
LINE
  5
BA3
330
BA0
100
AcDbEntity
  8
Dimension
 62
     0
370
    -2
100
AcDbLine
 10
16.39402037397417
 20
5.096
 30
0.0
 11
16.39402037397417
 21
5.221
 31
0.0
  0
LINE
  5
BA4
330
BA0
100
AcDbEntity
  8
Dimension
 62
     0
370
    -2
100
AcDbLine
 10
16.39402037397417
 20
4.442
 30
0.0
 11
16.39402037397417
 21
4.317
 31
0.0
  0
SOLID
  5
BA5
330
BA0
100
AcDbEntity
  8
Dimension
 62
     0
100
AcDbTrace
 10
16.37318704064084
 20
5.096
 30
0.0
 11
16.4148537073075
 21
5.096
 31
0.0
 12
16.39402037397417
 22
4.971
 32
0.0
 13
16.39402037397417
 23
4.971
 33
0.0
  0
SOLID
  5
BA6
330
BA0
100
AcDbEntity
  8
Dimension
 62
     0
100
AcDbTrace
 10
16.37318704064084
 20
4.442
 30
0.0
 11
16.4148537073075
 21
4.442
 31
0.0
 12
16.39402037397417
 22
4.567
 32
0.0
 13
16.39402037397417
 23
4.567
 33
0.0
  0
MTEXT
  5
BA7
330
BA0
100
AcDbEntity
  8
Dimension
 62
     0
100
AcDbMText
 10
16.39402037397417
 20
4.769000000000002
 30
0.0
 40
0.09
 41
0.0
 71
     5
 72
     1
  1
\A1;0.40 [10.3mm]
 73
     1
 44
1.0
1001
ACAD
1000
MTEXTBEGIN
1070
    73
1070
     1
1070
    44
1040
1.0
1070
    74
1070
     0
1000
MTEXTEND
  0
POINT
  5
BA8
330
BA0
100
AcDbEntity
  8
Defpoints
 62
     0
100
AcDbPoint
 10
17.121
 20
4.971
 30
0.0
  0
POINT
  5
BA9
330
BA0
100
AcDbEntity
  8
Defpoints
 62
     0
100
AcDbPoint
 10
17.902
 20
4.567
 30
0.0
  0
POINT
  5
BAA
330
BA0
100
AcDbEntity
  8
Defpoints
 62
     0
100
AcDbPoint
 10
16.39402037397417
 20
4.567
 30
0.0
  0
ENDBLK
  5
BAC
330
BA0
100
AcDbEntity
  8
0
100
AcDbBlockEnd
  0
BLOCK
  5
BF3
330
BEA
100
AcDbEntity
  8
0
100
AcDbBlockBegin
  2
*D3
 70
     1
 10
0.0
 20
0.0
 30
0.0
  3
*D3
  1

  0
LINE
  5
C07
330
BEA
100
AcDbEntity
  8
Dimension
 62
     0
370
    -2
100
AcDbLine
 10
5.263719330189686
 20
13.67444203153953
 30
0.0
 11
5.138719330189685
 21
13.67444203153953
 31
0.0
  0
LINE
  5
C08
330
BEA
100
AcDbEntity
  8
Dimension
 62
     0
370
    -2
100
AcDbLine
 10
5.138719330189685
 20
13.67444203153953
 30
0.0
 11
3.689145088803773
 21
12.21524817337405
 31
0.0
  0
MTEXT
  5
C09
330
BEA
100
AcDbEntity
  8
Dimension
 62
     0
100
AcDbMText
 10
5.877600909137056
 20
13.67444203153953
 30
0.0
 40
0.09
 41
0.0
 71
     5
 72
     1
  1
\A1;0.65 DIA [16.5mm]
 73
     1
 44
1.0
1001
ACAD
1000
MTEXTBEGIN
1070
    73
1070
     1
1070
    44
1040
1.0
1070
    74
1070
     0
1000
MTEXTEND
  0
SOLID
  5
C0A
330
BEA
100
AcDbEntity
  8
Dimension
 62
     0
100
AcDbTrace
 10
3.674365060018264
 20
12.2299307660224
 30
0.0
 11
3.703925117589281
 21
12.2005655807257
 31
0.0
 12
3.601049532913685
 22
12.126568000661
 32
0.0
 13
3.601049532913685
 23
12.126568000661
 33
0.0
  0
POINT
  5
C0B
330
BEA
100
AcDbEntity
  8
Defpoints
 62
     0
100
AcDbPoint
 10
3.601049532913685
 20
12.126568000661
 30
0.0
  0
POINT
  5
C0C
330
BEA
100
AcDbEntity
  8
Defpoints
 62
     0
100
AcDbPoint
 10
3.142950467086314
 20
11.66542891291924
 30
0.0
  0
ENDBLK
  5
BF4
330
BEA
100
AcDbEntity
  8
0
100
AcDbBlockEnd
  0
ENDSEC
  0
SECTION
  2
ENTITIES
  0
TEXT
  5
51
330
18
100
AcDbEntity
  8
Title Block
100
AcDbText
 10
17.77669501265554
 20
2.672489851525508
 30
0.0
 40
0.05
  1
FILENAME:
100
AcDbText
  0
TEXT
  5
52
330
18
100
AcDbEntity
  8
Title Block
100
AcDbText
 10
17.76928502872825
 20
2.076224967549325
 30
0.0
 40
0.35
  1
PANDUIT
100
AcDbText
  0
TEXT
  5
53
330
18
100
AcDbEntity
  8
Title Block
100
AcDbText
 10
19.72182039882138
 20
2.061410940562986
 30
0.0
 40
0.125
  1
CORP. TINLEY PARK, IL
100
AcDbText
  0
TEXT
  5
54
330
18
100
AcDbEntity
  8
Title Block
100
AcDbText
 10
17.78039997670861
 20
1.91697409709392
 30
0.0
 40
0.05
  1
TITLE:
100
AcDbText
  0
MTEXT
  5
57
330
18
100
AcDbEntity
  8
Title Block
100
AcDbMText
 10
19.0
 20
1.372215793536348
 30
0.0
 40
0.075
 41
2.5
 71
     5
 72
     5
  1
UNLESS OTHERWISE SPECIFIED,\PDIMENSIONAL TOLERANCES ARE:       
 73
     1
 44
1.0
1001
ACAD
1000
MTEXTBEGIN
1070
    73
1070
     1
1070
    44
1040
1.0
1070
    74
1070
     0
1000
MTEXTEND
  0
MTEXT
  5
58
330
18
100
AcDbEntity
  8
Title Block
100
AcDbMText
 10
18.39237986661001
 20
1.131487708483632
 30
0.0
 40
0.075
 41
2.5
 71
     5
 72
     5
  1
(.X)\P(.XX)
 73
     1
 44
1.0
1001
ACAD
1000
MTEXTBEGIN
1070
    73
1070
     1
1070
    44
1040
1.0
1070
    74
1070
     0
1000
MTEXTEND
  0
MTEXT
  5
59
330
18
100
AcDbEntity
  8
Title Block
100
AcDbMText
 10
19.40014005312411
 20
1.131487708483632
 30
0.0
 40
0.075
 41
2.5
 71
     5
 72
     5
  1
(.XXX)\PANGLES:
 73
     1
 44
1.0
1001
ACAD
1000
MTEXTBEGIN
1070
    73
1070
     1
1070
    44
1040
1.0
1070
    74
1070
     0
1000
MTEXTEND
  0
MTEXT
  5
5A
330
18
100
AcDbEntity
  8
Title Block
100
AcDbMText
 10
21.0
 20
1.25
 30
0.0
 40
0.06
 41
1.5
 71
     5
 72
     5
  1
UNLESS OTHERWISE SPECIFIED,\PALL DIMENSIONS ARE GIVEN IN INCHES, THIRD ANGLE PROJECTION
 73
     1
 44
1.0
1001
ACAD
1000
MTEXTBEGIN
1070
    73
1070
     1
1070
    44
1040
1.0
1070
    74
1070
     0
1000
MTEXTEND
  0
TEXT
  5
5E
330
18
100
AcDbEntity
  8
Title Block
100
AcDbText
 10
17.76076445430618
 20
0.9281373372752312
 30
0.0
 40
0.05
  1
DRAWN BY:
100
AcDbText
  0
TEXT
  5
5F
330
18
100
AcDbEntity
  8
Title Block
100
AcDbText
 10
17.76446947418043
 20
0.6811431865635028
 30
0.0
 40
0.05
  1
DATE:
100
AcDbText
  0
TEXT
  5
60
330
18
100
AcDbEntity
  8
Title Block
100
AcDbText
 10
17.76817443823349
 20
0.4304455338317968
 30
0.0
 40
0.05
  1
CHECKED BY:
100
AcDbText
  0
TEXT
  5
62
330
18
100
AcDbEntity
  8
Title Block
100
AcDbText
 10
18.52028959313306
 20
0.9281373372752312
 30
0.0
 40
0.05
  1
MATERIAL:
100
AcDbText
  0
TEXT
  5
63
330
18
100
AcDbEntity
  8
Title Block
100
AcDbText
 10
20.26534493878154
 20
0.9281373372752312
 30
0.0
 40
0.05
  1
SCALE:
100
AcDbText
  0
TEXT
  5
64
330
18
100
AcDbEntity
  8
Title Block
100
AcDbText
 10
20.26534493878154
 20
0.6725952630490007
 30
0.0
 40
0.05
  1
DRAWING NUMBER:
100
AcDbText
  0
TEXT
  5
65
330
18
100
AcDbEntity
  8
Title Block
100
AcDbText
 10
21.34942622928997
 20
0.6762987650689816
 30
0.0
 40
0.05
  1
DRAWING
100
AcDbText
  0
TEXT
  5
66
330
18
100
AcDbEntity
  8
Title Block
100
AcDbText
 10
21.42723125590085
 20
0.2811642688682026
 30
0.0
 40
0.05
  1
SIZE
100
AcDbText
  0
TEXT
  5
67
330
18
100
AcDbEntity
  8
Title Block
100
AcDbText
 10
21.39373130657865
 20
0.3826699445861052
 30
0.0
 40
0.25
  1
C
100
AcDbText
  0
MTEXT
  5
68
330
18
100
AcDbEntity
  8
Title Block
100
AcDbMText
 10
11.37499999999999
 20
0.375
 30
0.0
 40
0.05
 41
0.25
 71
     5
 72
     5
  1
REV
 73
     1
 44
1.0
1001
ACAD
1000
MTEXTBEGIN
1070
    73
1070
     1
1070
    44
1040
1.0
1070
    74
1070
     0
1000
MTEXTEND
  0
MTEXT
  5
69
330
18
100
AcDbEntity
  8
Title Block
100
AcDbMText
 10
11.74999999999999
 20
0.375
 30
0.0
 40
0.05
 41
0.5
 71
     5
 72
     5
  1
DATE
 73
     1
 44
1.0
1001
ACAD
1000
MTEXTBEGIN
1070
    73
1070
     1
1070
    44
1040
1.0
1070
    74
1070
     0
1000
MTEXTEND
  0
MTEXT
  5
6A
330
18
100
AcDbEntity
  8
Title Block
100
AcDbMText
 10
12.18999999999999
 20
0.375
 30
0.0
 40
0.05
 41
0.38
 71
     5
 72
     5
  1
BY
 73
     1
 44
1.0
1001
ACAD
1000
MTEXTBEGIN
1070
    73
1070
     1
1070
    44
1040
1.0
1070
    74
1070
     0
1000
MTEXTEND
  0
MTEXT
  5
6B
330
18
100
AcDbEntity
  8
Title Block
100
AcDbMText
 10
12.56499999999999
 20
0.375
 30
0.0
 40
0.05
 41
0.38
 71
     5
 72
     5
  1
CHK
 73
     1
 44
1.0
1001
ACAD
1000
MTEXTBEGIN
1070
    73
1070
     1
1070
    44
1040
1.0
1070
    74
1070
     0
1000
MTEXTEND
  0
MTEXT
  5
6C
330
18
100
AcDbEntity
  8
Title Block
100
AcDbMText
 10
14.12499999999999
 20
0.375
 30
0.0
 40
0.05
 41
2.75
 71
     5
 72
     5
  1
DESCRIPTION
 73
     1
 44
1.0
1001
ACAD
1000
MTEXTBEGIN
1070
    73
1070
     1
1070
    44
1040
1.0
1070
    74
1070
     0
1000
MTEXTEND
  0
MTEXT
  5
6D
330
18
100
AcDbEntity
  8
Title Block
100
AcDbMText
 10
16.065
 20
0.375
 30
0.0
 40
0.05
 41
1.129999999999999
 71
     5
 72
     5
  1
ECN   -   R
 73
     1
 44
1.0
1001
ACAD
1000
MTEXTBEGIN
1070
    73
1070
     1
1070
    44
1040
1.0
1070
    74
1070
     0
1000
MTEXTEND
  0
MTEXT
  5
6E
330
18
100
AcDbEntity
  8
Title Block
100
AcDbMText
 10
16.81499999999999
 20
0.375
 30
0.0
 40
0.05
 41
0.38
 71
     5
 72
     5
  1
CUST
 73
     1
 44
1.0
1001
ACAD
1000
MTEXTBEGIN
1070
    73
1070
     1
1070
    44
1040
1.0
1070
    74
1070
     0
1000
MTEXTEND
  0
MTEXT
  5
6F
330
18
100
AcDbEntity
  8
Title Block
100
AcDbMText
 10
17.19
 20
0.375
 30
0.0
 40
0.05
 41
0.38
 71
     5
 72
     5
  1
SUP
 73
     1
 44
1.0
1001
ACAD
1000
MTEXTBEGIN
1070
    73
1070
     1
1070
    44
1040
1.0
1070
    74
1070
     0
1000
MTEXTEND
  0
LINE
  5
A5
330
18
100
AcDbEntity
  8
Title Block
100
AcDbLine
 10
21.75
 20
2.749999999999999
 30
0.0
 11
11.25
 21
2.75
 31
0.0
  0
LINE
  5
A6
330
18
100
AcDbEntity
  8
Title Block
100
AcDbLine
 10
17.74999999999999
 20
2.75
 30
0.0
 11
17.74999999999999
 21
0.25
 31
0.0
  0
LINE
  5
A7
330
18
100
AcDbEntity
  8
Title Block
100
AcDbLine
 10
21.75
 20
2.499999999999999
 30
0.0
 11
11.25
 21
2.5
 31
0.0
  0
LINE
  5
A8
330
18
100
AcDbEntity
  8
Title Block
100
AcDbLine
 10
17.74999999999999
 20
2.25
 30
0.0
 11
11.25
 21
2.25
 31
0.0
  0
LINE
  5
A9
330
18
100
AcDbEntity
  8
Title Block
100
AcDbLine
 10
21.75
 20
1.999999999999999
 30
0.0
 11
11.25
 21
2.0
 31
0.0
  0
LINE
  5
AA
330
18
100
AcDbEntity
  8
Title Block
100
AcDbLine
 10
17.74999999999999
 20
1.75
 30
0.0
 11
11.25
 21
1.75
 31
0.0
  0
LINE
  5
AB
330
18
100
AcDbEntity
  8
Title Block
100
AcDbLine
 10
21.75
 20
1.499999999999999
 30
0.0
 11
11.25
 21
1.5
 31
0.0
  0
LINE
  5
AC
330
18
100
AcDbEntity
  8
Title Block
100
AcDbLine
 10
17.74999999999999
 20
1.25
 30
0.0
 11
11.25
 21
1.25
 31
0.0
  0
LINE
  5
AD
330
18
100
AcDbEntity
  8
Title Block
100
AcDbLine
 10
21.75
 20
0.9999999999999996
 30
0.0
 11
11.25
 21
1.0
 31
0.0
  0
LINE
  5
AE
330
18
100
AcDbEntity
  8
Title Block
100
AcDbLine
 10
18.49999999999999
 20
0.75
 30
0.0
 11
11.25
 21
0.7500000000000009
 31
0.0
  0
LINE
  5
AF
330
18
100
AcDbEntity
  8
Title Block
100
AcDbLine
 10
18.49999999999999
 20
0.5
 30
0.0
 11
11.25
 21
0.5000000000000009
 31
0.0
  0
LINE
  5
B6
330
18
100
AcDbEntity
  8
Title Block
100
AcDbLine
 10
11.25
 20
0.25
 30
0.0
 11
11.25
 21
2.75
 31
0.0
  0
LINE
  5
BC
330
18
100
AcDbEntity
  8
Title Block
100
AcDbLine
 10
11.49999999999999
 20
0.25
 30
0.0
 11
11.49999999999999
 21
2.750000000000001
 31
0.0
  0
LINE
  5
BD
330
18
100
AcDbEntity
  8
Title Block
100
AcDbLine
 10
11.99999999999999
 20
0.25
 30
0.0
 11
11.99999999999999
 21
2.750000000000001
 31
0.0
  0
LINE
  5
C0
330
18
100
AcDbEntity
  8
Title Block
100
AcDbLine
 10
12.375
 20
0.25
 30
0.0
 11
12.375
 21
2.750000000000001
 31
0.0
  0
LINE
  5
C1
330
18
100
AcDbEntity
  8
Title Block
100
AcDbLine
 10
12.74999999999999
 20
0.25
 30
0.0
 11
12.74999999999999
 21
2.750000000000001
 31
0.0
  0
LINE
  5
C2
330
18
100
AcDbEntity
  8
Title Block
100
AcDbLine
 10
17.375
 20
2.75
 30
0.0
 11
17.375
 21
0.25
 31
0.0
  0
LINE
  5
C3
330
18
100
AcDbEntity
  8
Title Block
100
AcDbLine
 10
17.0
 20
2.75
 30
0.0
 11
17.0
 21
0.25
 31
0.0
  0
LINE
  5
C4
330
18
100
AcDbEntity
  8
Title Block
100
AcDbLine
 10
16.62499999999999
 20
2.75
 30
0.0
 11
16.62499999999999
 21
0.25
 31
0.0
  0
LINE
  5
C5
330
18
100
AcDbEntity
  8
Title Block
100
AcDbLine
 10
16.25
 20
2.75
 30
0.0
 11
16.25
 21
0.5000000000000002
 31
0.0
  0
LINE
  5
C6
330
18
100
AcDbEntity
  8
Title Block
100
AcDbLine
 10
15.5
 20
2.75
 30
0.0
 11
15.5
 21
0.25
 31
0.0
  0
LINE
  5
C7
330
18
100
AcDbEntity
  8
Title Block
100
AcDbLine
 10
20.25
 20
0.75
 30
0.0
 11
20.25
 21
1.499999999999999
 31
0.0
  0
LINE
  5
C8
330
18
100
AcDbEntity
  8
Title Block
100
AcDbLine
 10
20.25
 20
0.75
 30
0.0
 11
20.25
 21
0.25
 31
0.0
  0
LINE
  5
C9
330
18
100
AcDbEntity
  8
Title Block
100
AcDbLine
 10
20.25
 20
0.75
 30
0.0
 11
21.75
 21
0.75
 31
0.0
  0
LINE
  5
CA
330
18
100
AcDbEntity
  8
Title Block
100
AcDbLine
 10
18.49999999999999
 20
0.5
 30
0.0
 11
18.49999999999999
 21
0.25
 31
0.0
  0
LINE
  5
CB
330
18
100
AcDbEntity
  8
Title Block
100
AcDbLine
 10
18.49999999999999
 20
0.5
 30
0.0
 11
18.49999999999999
 21
1.0
 31
0.0
  0
LINE
  5
CD
330
18
100
AcDbEntity
  8
Title Block
100
AcDbLine
 10
21.25
 20
0.75
 30
0.0
 11
21.25
 21
0.25
 31
0.0
  0
LWPOLYLINE
  5
F8
330
18
100
AcDbEntity
  8
Title Block
100
AcDbPolyline
 90
        4
 70
     1
 43
0.01
 10
21.75
 20
16.75
 10
21.75
 20
0.25
 10
0.25
 20
0.25
 10
0.250000000000001
 20
16.75
  0
POINT
  5
FC
330
18
100
AcDbEntity
  8
Title Block
100
AcDbPoint
 10
22.0
 20
0.0
 30
0.0
  0
POINT
  5
FF
330
18
100
AcDbEntity
  8
Title Block
100
AcDbPoint
 10
22.0
 20
17.0
 30
0.0
  0
POINT
  5
102
330
18
100
AcDbEntity
  8
Title Block
100
AcDbPoint
 10
0.000000000000001
 20
17.0
 30
0.0
  0
POINT
  5
105
330
18
100
AcDbEntity
  8
Title Block
100
AcDbPoint
 10
0.0
 20
0.0
 30
0.0
  0
MTEXT
  5
12C
330
18
100
AcDbEntity
  8
Text
100
AcDbMText
 10
11.37324893148254
 20
0.6275685908585027
 30
0.0
 40
0.09
 41
0.25
 71
     5
 72
     5
  1
R
 73
     1
 44
1.0
1001
ACAD
1000
MTEXTBEGIN
1070
    73
1070
     1
1070
    44
1040
1.0
1070
    74
1070
     0
1000
MTEXTEND
  0
MTEXT
  5
12D
330
18
100
AcDbEntity
  8
Text
100
AcDbMText
 10
11.74824893148254
 20
0.6275685908585027
 30
0.0
 40
0.07
 41
0.5
 71
     5
 72
     5
  1
10-30-07
 73
     1
 44
1.0
1001
ACAD
1000
MTEXTBEGIN
1070
    73
1070
     1
1070
    44
1040
1.0
1070
    74
1070
     0
1000
MTEXTEND
  0
MTEXT
  5
12E
330
18
100
AcDbEntity
  8
Text
100
AcDbMText
 10
12.18574893148254
 20
0.6275685908585027
 30
0.0
 40
0.09
 41
0.375
 71
     5
 72
     5
  1
MSO
 73
     1
 44
1.0
1001
ACAD
1000
MTEXTBEGIN
1070
    73
1070
     1
1070
    44
1040
1.0
1070
    74
1070
     0
1000
MTEXTEND
  0
MTEXT
  5
130
330
18
100
AcDbEntity
  8
Text
100
AcDbMText
 10
14.12324893148254
 20
0.6275685908585023
 30
0.0
 40
0.09
 41
2.75
 71
     5
 72
     5
  1
DRAWING RELEASED
 73
     1
 44
1.0
1001
ACAD
1000
MTEXTBEGIN
1070
    73
1070
     1
1070
    44
1040
1.0
1070
    74
1070
     0
1000
MTEXTEND
  0
MTEXT
  5
133
330
18
100
AcDbEntity
  8
Text
100
AcDbMText
 10
18.47324893148254
 20
0.8525685908585018
 30
0.0
 40
0.09
 41
0.75
 71
     6
 72
     5
  1
MSO
 73
     1
 44
1.0
1001
ACAD
1000
MTEXTBEGIN
1070
    73
1070
     1
1070
    44
1040
1.0
1070
    74
1070
     0
1000
MTEXTEND
  0
MTEXT
  5
134
330
18
100
AcDbEntity
  8
Text
100
AcDbMText
 10
18.47324893148254
 20
0.6025685908585017
 30
0.0
 40
0.09
 41
0.75
 71
     6
 72
     5
  1
10-30-00
 73
     1
 44
1.0
1001
ACAD
1000
MTEXTBEGIN
1070
    73
1070
     1
1070
    44
1040
1.0
1070
    74
1070
     0
1000
MTEXTEND
  0
MTEXT
  5
135
330
18
100
AcDbEntity
  8
Text
100
AcDbMText
 10
18.47324893148254
 20
0.3525685908585019
 30
0.0
 40
0.09
 41
0.75
 71
     6
 72
     5
  1
HIW
 73
     1
 44
1.0
1001
ACAD
1000
MTEXTBEGIN
1070
    73
1070
     1
1070
    44
1040
1.0
1070
    74
1070
     0
1000
MTEXTEND
  0
MTEXT
  5
136
330
18
100
AcDbEntity
  8
Text
100
AcDbMText
 10
19.74824893148254
 20
2.627568590858501
 30
0.0
 40
0.09
 41
4.0
 71
     5
 72
     5
  1
FR6TRBE58.dwg
 73
     1
 44
1.0
1001
ACAD
1000
MTEXTBEGIN
1070
    73
1070
     1
1070
    44
1040
1.0
1070
    74
1070
     0
1000
MTEXTEND
  0
MTEXT
  5
137
330
18
100
AcDbEntity
  8
Text
100
AcDbMText
 10
19.87484851527828
 20
1.752568590858501
 30
0.0
 40
0.09
 41
4.0
 71
     5
 72
     5
  1
FIBERRUNNER 4x4 AND 6x4 QUIKLOCK EXISTING THREADED\PROD BRACKET - {\H0.7x;\S5#8;}" (M16) THREADED ROD\P(FR6TRBE58, FR6TRBE58M) MARKETING DRAWING
 73
     1
 44
1.0
1001
ACAD
1000
MTEXTBEGIN
1070
    73
1070
     1
1070
    44
1040
1.0
1070
    74
1070
     1
1000
MTEXTEND
  0
MTEXT
  5
138
330
18
100
AcDbEntity
  8
Text
100
AcDbMText
 10
20.99824893148254
 20
0.8775685908585016
 30
0.0
 40
0.12
 41
1.5
 71
     5
 72
     5
  1
FULL
 73
     1
 44
1.0
1001
ACAD
1000
MTEXTBEGIN
1070
    73
1070
     1
1070
    44
1040
1.0
1070
    74
1070
     0
1000
MTEXTEND
  0
MTEXT
  5
139
330
18
100
AcDbEntity
  8
Text
100
AcDbMText
 10
20.74824893148254
 20
0.5025685908585018
 30
0.0
 40
0.12
 41
1.0
 71
     5
 72
     5
  1
36897-309
 73
     1
 44
1.0
1001
ACAD
1000
MTEXTBEGIN
1070
    73
1070
     1
1070
    44
1040
1.0
1070
    74
1070
     0
1000
MTEXTEND
  0
MTEXT
  5
2AA
330
18
100
AcDbEntity
  8
Text
100
AcDbMText
 10
17.9151186709106
 20
15.78324554706533
 30
0.0
 40
0.09
 41
2.689987770043092
 71
     1
 72
     5
  3
{\LNOTES:}\P\P1. THE FIBERRUNER 4x4 AND 6x4 QUIKLOCK\P   EXISTING THREADED BRACKET INCLUDES: \P   ONE (1) BRACKET ASSEMBLY,\P   TWO (2) {\H0.7x;\S5#8;}-11 SPLIT LOCK NUTS \P              (FR6TRBE58 ONLY),\P   TWO (3) M16x2 SPLIT LOCK NUTS \P         
  1
     (FR6TRBE58M ONLY).
 73
     1
 44
1.0
1001
ACAD
1000
MTEXTBEGIN
1070
    73
1070
     1
1070
    44
1040
1.0
1070
    74
1070
     1
1000
MTEXTEND
  0
TEXT
  5
2AB
330
18
100
AcDbEntity
  8
Text
100
AcDbText
 10
7.261304021290399
 20
10.36548618551074
 30
0.0
 40
0.125
  1
TOP VIEW
100
AcDbText
  0
TEXT
  5
2AC
330
18
100
AcDbEntity
  8
Text
100
AcDbText
 10
6.889792740026144
 20
4.076438933261115
 30
0.0
 40
0.125
  1
FRONT VIEW
100
AcDbText
  0
TEXT
  5
2AD
330
18
100
AcDbEntity
  8
Text
100
AcDbText
 10
17.39901292516826
 20
3.98604276523114
 30
0.0
 40
0.125
  1
RIGHT SIDE VIEW
100
AcDbText
  0
MTEXT
  5
2BE
330
18
100
AcDbEntity
  8
Text
100
AcDbMText
 10
12.5604002814227
 20
0.626249074032665
 30
0.0
 40
0.09
 41
0.375
 71
     5
 72
     5
  1
HIW
 73
     1
 44
1.0
1001
ACAD
1000
MTEXTBEGIN
1070
    73
1070
     1
1070
    44
1040
1.0
1070
    74
1070
     0
1000
MTEXTEND
  0
LINE
  5
2CD
330
18
100
AcDbEntity
  8
Object
100
AcDbLine
 10
19.121
 20
4.971
 30
0.0
 11
18.746
 21
4.971
 31
0.0
  0
LINE
  5
2CE
330
18
100
AcDbEntity
  8
Object
100
AcDbLine
 10
18.746
 20
4.971
 30
0.0
 11
17.496
 21
4.971
 31
0.0
  0
LINE
  5
2CF
330
18
100
AcDbEntity
  8
Object
100
AcDbLine
 10
17.496
 20
4.971
 30
0.0
 11
17.121
 21
4.971
 31
0.0
  0
LINE
  5
2D0
330
18
100
AcDbEntity
  8
Object
100
AcDbLine
 10
18.746
 20
4.791999999999999
 30
0.0
 11
19.121
 21
4.791999999999999
 31
0.0
  0
LINE
  5
2D1
330
18
100
AcDbEntity
  8
Object
100
AcDbLine
 10
18.746
 20
4.971
 30
0.0
 11
19.121
 21
4.971
 31
0.0
  0
LINE
  5
2D2
330
18
100
AcDbEntity
  8
Object
100
AcDbLine
 10
19.121
 20
4.971
 30
0.0
 11
19.121
 21
4.791999999999999
 31
0.0
  0
LINE
  5
2D3
330
18
100
AcDbEntity
  8
Object
100
AcDbLine
 10
17.496
 20
4.791999999999999
 30
0.0
 11
17.121
 21
4.791999999999999
 31
0.0
  0
LINE
  5
2D4
330
18
100
AcDbEntity
  8
Object
100
AcDbLine
 10
17.121
 20
4.791999999999999
 30
0.0
 11
17.121
 21
4.971
 31
0.0
  0
LINE
  5
2D5
330
18
100
AcDbEntity
  8
Object
100
AcDbLine
 10
17.121
 20
4.971
 30
0.0
 11
17.496
 21
4.971
 31
0.0
  0
LINE
  5
2D6
330
18
100
AcDbEntity
  8
Object
100
AcDbLine
 10
17.496
 20
4.971
 30
0.0
 11
17.496
 21
4.791999999999999
 31
0.0
  0
LINE
  5
2D7
330
18
100
AcDbEntity
  8
Object
100
AcDbLine
 10
17.121
 20
4.971
 30
0.0
 11
17.121
 21
4.791999999999999
 31
0.0
  0
LINE
  5
2D8
330
18
100
AcDbEntity
  8
Object
100
AcDbLine
 10
17.496
 20
4.971
 30
0.0
 11
18.746
 21
4.971
 31
0.0
  0
LINE
  5
2D9
330
18
100
AcDbEntity
  8
Object
100
AcDbLine
 10
18.746
 20
4.971
 30
0.0
 11
18.746
 21
4.791999999999999
 31
0.0
  0
LINE
  5
2DA
330
18
100
AcDbEntity
  8
Object
100
AcDbLine
 10
18.746
 20
4.791999999999999
 30
0.0
 11
17.496
 21
4.791999999999999
 31
0.0
  0
LINE
  5
2DB
330
18
100
AcDbEntity
  8
Object
100
AcDbLine
 10
19.121
 20
4.971
 30
0.0
 11
19.121
 21
4.791999999999999
 31
0.0
  0
LINE
  5
2DC
330
18
100
AcDbEntity
  8
Object
100
AcDbLine
 10
19.121
 20
4.791999999999999
 30
0.0
 11
18.746
 21
4.791999999999999
 31
0.0
  0
LINE
  5
2DD
330
18
100
AcDbEntity
  8
Object
100
AcDbLine
 10
18.746
 20
4.791999999999999
 30
0.0
 11
17.496
 21
4.791999999999999
 31
0.0
  0
LINE
  5
2DE
330
18
100
AcDbEntity
  8
Object
100
AcDbLine
 10
17.496
 20
4.791999999999999
 30
0.0
 11
17.121
 21
4.791999999999999
 31
0.0
  0
LINE
  5
2DF
330
18
100
AcDbEntity
  8
Object
100
AcDbLine
 10
18.235
 20
5.216
 30
0.0
 11
18.232
 21
5.217
 31
0.0
  0
LINE
  5
2E0
330
18
100
AcDbEntity
  8
Object
100
AcDbLine
 10
18.021
 20
5.23
 30
0.0
 11
18.012
 21
5.23
 31
0.0
  0
LINE
  5
2E1
330
18
100
AcDbEntity
  8
Object
100
AcDbLine
 10
18.012
 20
5.23
 30
0.0
 11
18.0
 21
5.227999999999999
 31
0.0
  0
LINE
  5
2E2
330
18
100
AcDbEntity
  8
Object
100
AcDbLine
 10
18.01
 20
5.217
 30
0.0
 11
17.999
 21
5.224
 31
0.0
  0
LINE
  5
2E3
330
18
100
AcDbEntity
  8
Object
100
AcDbLine
 10
17.999
 20
5.224
 30
0.0
 11
17.996
 21
5.225999999999999
 31
0.0
  0
LINE
  5
2E4
330
18
100
AcDbEntity
  8
Object
100
AcDbLine
 10
17.996
 20
5.225999999999999
 30
0.0
 11
18.0
 21
5.227999999999999
 31
0.0
  0
LINE
  5
2E5
330
18
100
AcDbEntity
  8
Object
100
AcDbLine
 10
17.996
 20
5.23
 30
0.0
 11
17.996
 21
5.225999999999999
 31
0.0
  0
LINE
  5
2E6
330
18
100
AcDbEntity
  8
Object
100
AcDbLine
 10
18.021
 20
5.23
 30
0.0
 11
18.012
 21
5.23
 31
0.0
  0
LINE
  5
2E7
330
18
100
AcDbEntity
  8
Object
100
AcDbLine
 10
18.012
 20
5.23
 30
0.0
 11
18.003
 21
5.23
 31
0.0
  0
LINE
  5
2E8
330
18
100
AcDbEntity
  8
Object
100
AcDbLine
 10
18.003
 20
5.23
 30
0.0
 11
17.998
 21
5.23
 31
0.0
  0
LINE
  5
2E9
330
18
100
AcDbEntity
  8
Object
100
AcDbLine
 10
17.998
 20
5.23
 30
0.0
 11
17.996
 21
5.23
 31
0.0
  0
LINE
  5
2EA
330
18
100
AcDbEntity
  8
Object
100
AcDbLine
 10
18.012
 20
5.23
 30
0.0
 11
18.003
 21
5.23
 31
0.0
  0
LINE
  5
2EB
330
18
100
AcDbEntity
  8
Object
100
AcDbLine
 10
18.003
 20
5.23
 30
0.0
 11
17.998
 21
5.23
 31
0.0
  0
LINE
  5
2EC
330
18
100
AcDbEntity
  8
Object
100
AcDbLine
 10
17.998
 20
5.23
 30
0.0
 11
17.996
 21
5.23
 31
0.0
  0
LINE
  5
2ED
330
18
100
AcDbEntity
  8
Object
100
AcDbLine
 10
18.343
 20
5.137
 30
0.0
 11
18.343
 21
5.118
 31
0.0
  0
LINE
  5
2EE
330
18
100
AcDbEntity
  8
Object
100
AcDbLine
 10
18.343
 20
5.091
 30
0.0
 11
18.343
 21
5.06
 31
0.0
  0
LINE
  5
2EF
330
18
100
AcDbEntity
  8
Object
100
AcDbLine
 10
18.343
 20
5.052999999999999
 30
0.0
 11
18.343
 21
5.048
 31
0.0
  0
LINE
  5
2F0
330
18
100
AcDbEntity
  8
Object
100
AcDbLine
 10
18.343
 20
5.048
 30
0.0
 11
18.343
 21
5.046
 31
0.0
  0
LINE
  5
2F1
330
18
100
AcDbEntity
  8
Object
100
AcDbLine
 10
18.343
 20
5.06
 30
0.0
 11
18.343
 21
5.052999999999999
 31
0.0
  0
LINE
  5
2F2
330
18
100
AcDbEntity
  8
Object
100
AcDbLine
 10
18.343
 20
5.118
 30
0.0
 11
18.343
 21
5.091
 31
0.0
  0
LINE
  5
2F3
330
18
100
AcDbEntity
  8
Object
100
AcDbLine
 10
18.343
 20
5.137
 30
0.0
 11
18.343
 21
5.145
 31
0.0
  0
LINE
  5
2F4
330
18
100
AcDbEntity
  8
Object
100
AcDbLine
 10
18.343
 20
5.145
 30
0.0
 11
18.343
 21
5.163
 31
0.0
  0
LINE
  5
2F5
330
18
100
AcDbEntity
  8
Object
100
AcDbLine
 10
18.746
 20
5.118
 30
0.0
 11
18.746
 21
5.137
 31
0.0
  0
LINE
  5
2F6
330
18
100
AcDbEntity
  8
Object
100
AcDbLine
 10
18.746
 20
5.06
 30
0.0
 11
18.746
 21
5.091
 31
0.0
  0
LINE
  5
2F7
330
18
100
AcDbEntity
  8
Object
100
AcDbLine
 10
18.746
 20
5.048
 30
0.0
 11
18.746
 21
5.052999999999999
 31
0.0
  0
LINE
  5
2F8
330
18
100
AcDbEntity
  8
Object
100
AcDbLine
 10
18.746
 20
4.971
 30
0.0
 11
18.746
 21
5.046
 31
0.0
  0
LINE
  5
2F9
330
18
100
AcDbEntity
  8
Object
100
AcDbLine
 10
18.746
 20
5.046
 30
0.0
 11
18.746
 21
5.048
 31
0.0
  0
LINE
  5
2FA
330
18
100
AcDbEntity
  8
Object
100
AcDbLine
 10
18.746
 20
5.052999999999999
 30
0.0
 11
18.746
 21
5.06
 31
0.0
  0
LINE
  5
2FB
330
18
100
AcDbEntity
  8
Object
100
AcDbLine
 10
18.746
 20
5.091
 30
0.0
 11
18.746
 21
5.118
 31
0.0
  0
LINE
  5
2FC
330
18
100
AcDbEntity
  8
Object
100
AcDbLine
 10
18.746
 20
5.137
 30
0.0
 11
18.746
 21
5.145
 31
0.0
  0
LINE
  5
2FD
330
18
100
AcDbEntity
  8
Object
100
AcDbLine
 10
18.746
 20
5.145
 30
0.0
 11
18.746
 21
5.163
 31
0.0
  0
LINE
  5
2FE
330
18
100
AcDbEntity
  8
Object
100
AcDbLine
 10
18.746
 20
5.046
 30
0.0
 11
18.74
 21
5.046
 31
0.0
  0
LINE
  5
2FF
330
18
100
AcDbEntity
  8
Object
100
AcDbLine
 10
18.74
 20
5.046
 30
0.0
 11
18.722
 21
5.046
 31
0.0
  0
LINE
  5
300
330
18
100
AcDbEntity
  8
Object
100
AcDbLine
 10
18.722
 20
5.046
 30
0.0
 11
18.695
 21
5.046
 31
0.0
  0
LINE
  5
301
330
18
100
AcDbEntity
  8
Object
100
AcDbLine
 10
18.695
 20
5.046
 30
0.0
 11
18.66
 21
5.046
 31
0.0
  0
LINE
  5
302
330
18
100
AcDbEntity
  8
Object
100
AcDbLine
 10
18.66
 20
5.046
 30
0.0
 11
18.621
 21
5.046
 31
0.0
  0
LINE
  5
303
330
18
100
AcDbEntity
  8
Object
100
AcDbLine
 10
18.621
 20
5.046
 30
0.0
 11
17.621
 21
5.046
 31
0.0
  0
LINE
  5
304
330
18
100
AcDbEntity
  8
Object
100
AcDbLine
 10
17.621
 20
5.046
 30
0.0
 11
17.583
 21
5.046
 31
0.0
  0
LINE
  5
305
330
18
100
AcDbEntity
  8
Object
100
AcDbLine
 10
17.583
 20
5.046
 30
0.0
 11
17.548
 21
5.046
 31
0.0
  0
LINE
  5
306
330
18
100
AcDbEntity
  8
Object
100
AcDbLine
 10
17.548
 20
5.046
 30
0.0
 11
17.52
 21
5.046
 31
0.0
  0
LINE
  5
307
330
18
100
AcDbEntity
  8
Object
100
AcDbLine
 10
17.52
 20
5.046
 30
0.0
 11
17.502
 21
5.046
 31
0.0
  0
LINE
  5
308
330
18
100
AcDbEntity
  8
Object
100
AcDbLine
 10
17.502
 20
5.046
 30
0.0
 11
17.496
 21
5.046
 31
0.0
  0
LINE
  5
309
330
18
100
AcDbEntity
  8
Object
100
AcDbLine
 10
18.746
 20
5.137
 30
0.0
 11
18.746
 21
5.145
 31
0.0
  0
LINE
  5
30A
330
18
100
AcDbEntity
  8
Object
100
AcDbLine
 10
18.343
 20
5.137
 30
0.0
 11
18.343
 21
5.145
 31
0.0
  0
LINE
  5
30B
330
18
100
AcDbEntity
  8
Object
100
AcDbLine
 10
18.343
 20
5.145
 30
0.0
 11
18.746
 21
5.145
 31
0.0
  0
LINE
  5
30C
330
18
100
AcDbEntity
  8
Object
100
AcDbLine
 10
18.343
 20
5.137
 30
0.0
 11
18.343
 21
5.118
 31
0.0
  0
LINE
  5
30D
330
18
100
AcDbEntity
  8
Object
100
AcDbLine
 10
18.746
 20
5.137
 30
0.0
 11
18.746
 21
5.118
 31
0.0
  0
LINE
  5
30E
330
18
100
AcDbEntity
  8
Object
100
AcDbLine
 10
18.746
 20
5.118
 30
0.0
 11
18.746
 21
5.091
 31
0.0
  0
LINE
  5
30F
330
18
100
AcDbEntity
  8
Object
100
AcDbLine
 10
18.343
 20
5.118
 30
0.0
 11
18.343
 21
5.091
 31
0.0
  0
LINE
  5
310
330
18
100
AcDbEntity
  8
Object
100
AcDbLine
 10
18.343
 20
5.091
 30
0.0
 11
18.343
 21
5.06
 31
0.0
  0
LINE
  5
311
330
18
100
AcDbEntity
  8
Object
100
AcDbLine
 10
18.746
 20
5.091
 30
0.0
 11
18.746
 21
5.06
 31
0.0
  0
LINE
  5
312
330
18
100
AcDbEntity
  8
Object
100
AcDbLine
 10
18.746
 20
5.06
 30
0.0
 11
18.343
 21
5.06
 31
0.0
  0
LINE
  5
313
330
18
100
AcDbEntity
  8
Object
100
AcDbLine
 10
18.363
 20
5.166
 30
0.0
 11
18.349
 21
5.165
 31
0.0
  0
LINE
  5
314
330
18
100
AcDbEntity
  8
Object
100
AcDbLine
 10
18.349
 20
5.165
 30
0.0
 11
18.343
 21
5.163
 31
0.0
  0
LINE
  5
315
330
18
100
AcDbEntity
  8
Object
100
AcDbLine
 10
18.343
 20
5.052999999999999
 30
0.0
 11
18.343
 21
5.048
 31
0.0
  0
LINE
  5
316
330
18
100
AcDbEntity
  8
Object
100
AcDbLine
 10
18.746
 20
5.052999999999999
 30
0.0
 11
18.746
 21
5.048
 31
0.0
  0
LINE
  5
317
330
18
100
AcDbEntity
  8
Object
100
AcDbLine
 10
18.746
 20
5.048
 30
0.0
 11
18.746
 21
5.046
 31
0.0
  0
LINE
  5
318
330
18
100
AcDbEntity
  8
Object
100
AcDbLine
 10
18.343
 20
5.048
 30
0.0
 11
18.343
 21
5.046
 31
0.0
  0
LINE
  5
319
330
18
100
AcDbEntity
  8
Object
100
AcDbLine
 10
18.746
 20
5.052999999999999
 30
0.0
 11
18.746
 21
5.06
 31
0.0
  0
LINE
  5
31A
330
18
100
AcDbEntity
  8
Object
100
AcDbLine
 10
18.343
 20
5.06
 30
0.0
 11
18.343
 21
5.052999999999999
 31
0.0
  0
LINE
  5
31B
330
18
100
AcDbEntity
  8
Object
100
AcDbLine
 10
18.726
 20
5.166
 30
0.0
 11
18.741
 21
5.165
 31
0.0
  0
LINE
  5
31C
330
18
100
AcDbEntity
  8
Object
100
AcDbLine
 10
18.741
 20
5.165
 30
0.0
 11
18.746
 21
5.163
 31
0.0
  0
LINE
  5
31D
330
18
100
AcDbEntity
  8
Object
100
AcDbLine
 10
18.746
 20
5.163
 30
0.0
 11
18.746
 21
5.145
 31
0.0
  0
LINE
  5
31E
330
18
100
AcDbEntity
  8
Object
100
AcDbLine
 10
18.383
 20
5.166999999999999
 30
0.0
 11
18.363
 21
5.166
 31
0.0
  0
LINE
  5
31F
330
18
100
AcDbEntity
  8
Object
100
AcDbLine
 10
18.343
 20
5.163
 30
0.0
 11
18.343
 21
5.145
 31
0.0
  0
LINE
  5
320
330
18
100
AcDbEntity
  8
Object
100
AcDbLine
 10
18.74
 20
5.046
 30
0.0
 11
18.746
 21
5.046
 31
0.0
  0
LINE
  5
321
330
18
100
AcDbEntity
  8
Object
100
AcDbLine
 10
18.746
 20
5.046
 30
0.0
 11
18.746
 21
4.971
 31
0.0
  0
LINE
  5
322
330
18
100
AcDbEntity
  8
Object
100
AcDbLine
 10
18.74
 20
5.046
 30
0.0
 11
18.722
 21
5.046
 31
0.0
  0
LINE
  5
323
330
18
100
AcDbEntity
  8
Object
100
AcDbLine
 10
18.722
 20
5.046
 30
0.0
 11
18.695
 21
5.046
 31
0.0
  0
LINE
  5
324
330
18
100
AcDbEntity
  8
Object
100
AcDbLine
 10
18.695
 20
5.046
 30
0.0
 11
18.66
 21
5.046
 31
0.0
  0
LINE
  5
325
330
18
100
AcDbEntity
  8
Object
100
AcDbLine
 10
18.66
 20
5.046
 30
0.0
 11
18.621
 21
5.046
 31
0.0
  0
LINE
  5
326
330
18
100
AcDbEntity
  8
Object
100
AcDbLine
 10
18.726
 20
5.166
 30
0.0
 11
18.706
 21
5.166999999999999
 31
0.0
  0
LINE
  5
327
330
18
100
AcDbEntity
  8
Object
100
AcDbLine
 10
18.706
 20
5.166999999999999
 30
0.0
 11
18.383
 21
5.166999999999999
 31
0.0
  0
LINE
  5
328
330
18
100
AcDbEntity
  8
Object
100
AcDbLine
 10
18.621
 20
4.971
 30
0.0
 11
18.621
 21
5.046
 31
0.0
  0
LINE
  5
329
330
18
100
AcDbEntity
  8
Object
100
AcDbLine
 10
18.621
 20
5.046
 30
0.0
 11
17.621
 21
5.046
 31
0.0
  0
LINE
  5
32A
330
18
100
AcDbEntity
  8
Object
100
AcDbLine
 10
17.621
 20
5.046
 30
0.0
 11
17.583
 21
5.046
 31
0.0
  0
LINE
  5
32B
330
18
100
AcDbEntity
  8
Object
100
AcDbLine
 10
17.621
 20
4.971
 30
0.0
 11
17.621
 21
5.046
 31
0.0
  0
LINE
  5
32C
330
18
100
AcDbEntity
  8
Object
100
AcDbLine
 10
17.583
 20
5.046
 30
0.0
 11
17.548
 21
5.046
 31
0.0
  0
LINE
  5
32D
330
18
100
AcDbEntity
  8
Object
100
AcDbLine
 10
17.548
 20
5.046
 30
0.0
 11
17.52
 21
5.046
 31
0.0
  0
LINE
  5
32E
330
18
100
AcDbEntity
  8
Object
100
AcDbLine
 10
17.52
 20
5.046
 30
0.0
 11
17.502
 21
5.046
 31
0.0
  0
LINE
  5
32F
330
18
100
AcDbEntity
  8
Object
100
AcDbLine
 10
17.496
 20
4.971
 30
0.0
 11
17.496
 21
5.046
 31
0.0
  0
LINE
  5
330
330
18
100
AcDbEntity
  8
Object
100
AcDbLine
 10
17.496
 20
5.046
 30
0.0
 11
17.502
 21
5.046
 31
0.0
  0
LINE
  5
331
330
18
100
AcDbEntity
  8
Object
100
AcDbLine
 10
17.899
 20
5.048
 30
0.0
 11
17.899
 21
5.052999999999999
 31
0.0
  0
LINE
  5
332
330
18
100
AcDbEntity
  8
Object
100
AcDbLine
 10
17.496
 20
5.052999999999999
 30
0.0
 11
17.496
 21
5.06
 31
0.0
  0
LINE
  5
333
330
18
100
AcDbEntity
  8
Object
100
AcDbLine
 10
17.496
 20
5.06
 30
0.0
 11
17.899
 21
5.06
 31
0.0
  0
LINE
  5
334
330
18
100
AcDbEntity
  8
Object
100
AcDbLine
 10
17.899
 20
5.06
 30
0.0
 11
17.899
 21
5.052999999999999
 31
0.0
  0
LINE
  5
335
330
18
100
AcDbEntity
  8
Object
100
AcDbLine
 10
17.496
 20
5.052999999999999
 30
0.0
 11
17.496
 21
5.048
 31
0.0
  0
LINE
  5
336
330
18
100
AcDbEntity
  8
Object
100
AcDbLine
 10
17.899
 20
5.046
 30
0.0
 11
17.899
 21
5.048
 31
0.0
  0
LINE
  5
337
330
18
100
AcDbEntity
  8
Object
100
AcDbLine
 10
17.496
 20
5.048
 30
0.0
 11
17.496
 21
5.046
 31
0.0
  0
LINE
  5
338
330
18
100
AcDbEntity
  8
Object
100
AcDbLine
 10
17.496
 20
5.137
 30
0.0
 11
17.496
 21
5.118
 31
0.0
  0
LINE
  5
339
330
18
100
AcDbEntity
  8
Object
100
AcDbLine
 10
17.496
 20
5.091
 30
0.0
 11
17.496
 21
5.06
 31
0.0
  0
LINE
  5
33A
330
18
100
AcDbEntity
  8
Object
100
AcDbLine
 10
17.496
 20
5.052999999999999
 30
0.0
 11
17.496
 21
5.048
 31
0.0
  0
LINE
  5
33B
330
18
100
AcDbEntity
  8
Object
100
AcDbLine
 10
17.496
 20
4.971
 30
0.0
 11
17.496
 21
5.046
 31
0.0
  0
LINE
  5
33C
330
18
100
AcDbEntity
  8
Object
100
AcDbLine
 10
17.496
 20
5.046
 30
0.0
 11
17.496
 21
5.048
 31
0.0
  0
LINE
  5
33D
330
18
100
AcDbEntity
  8
Object
100
AcDbLine
 10
17.496
 20
5.06
 30
0.0
 11
17.496
 21
5.052999999999999
 31
0.0
  0
LINE
  5
33E
330
18
100
AcDbEntity
  8
Object
100
AcDbLine
 10
17.496
 20
5.118
 30
0.0
 11
17.496
 21
5.091
 31
0.0
  0
LINE
  5
33F
330
18
100
AcDbEntity
  8
Object
100
AcDbLine
 10
17.496
 20
5.137
 30
0.0
 11
17.496
 21
5.145
 31
0.0
  0
LINE
  5
340
330
18
100
AcDbEntity
  8
Object
100
AcDbLine
 10
17.496
 20
5.145
 30
0.0
 11
17.496
 21
5.163
 31
0.0
  0
LINE
  5
341
330
18
100
AcDbEntity
  8
Object
100
AcDbLine
 10
17.899
 20
5.118
 30
0.0
 11
17.899
 21
5.137
 31
0.0
  0
LINE
  5
342
330
18
100
AcDbEntity
  8
Object
100
AcDbLine
 10
17.899
 20
5.06
 30
0.0
 11
17.899
 21
5.091
 31
0.0
  0
LINE
  5
343
330
18
100
AcDbEntity
  8
Object
100
AcDbLine
 10
17.899
 20
5.052999999999999
 30
0.0
 11
17.899
 21
5.048
 31
0.0
  0
LINE
  5
344
330
18
100
AcDbEntity
  8
Object
100
AcDbLine
 10
17.899
 20
5.048
 30
0.0
 11
17.899
 21
5.046
 31
0.0
  0
LINE
  5
345
330
18
100
AcDbEntity
  8
Object
100
AcDbLine
 10
17.899
 20
5.052999999999999
 30
0.0
 11
17.899
 21
5.06
 31
0.0
  0
LINE
  5
346
330
18
100
AcDbEntity
  8
Object
100
AcDbLine
 10
17.899
 20
5.091
 30
0.0
 11
17.899
 21
5.118
 31
0.0
  0
LINE
  5
347
330
18
100
AcDbEntity
  8
Object
100
AcDbLine
 10
17.899
 20
5.137
 30
0.0
 11
17.899
 21
5.145
 31
0.0
  0
LINE
  5
348
330
18
100
AcDbEntity
  8
Object
100
AcDbLine
 10
17.899
 20
5.145
 30
0.0
 11
17.899
 21
5.163
 31
0.0
  0
LINE
  5
349
330
18
100
AcDbEntity
  8
Object
100
AcDbLine
 10
17.899
 20
5.137
 30
0.0
 11
17.899
 21
5.145
 31
0.0
  0
LINE
  5
34A
330
18
100
AcDbEntity
  8
Object
100
AcDbLine
 10
17.496
 20
5.137
 30
0.0
 11
17.496
 21
5.145
 31
0.0
  0
LINE
  5
34B
330
18
100
AcDbEntity
  8
Object
100
AcDbLine
 10
17.496
 20
5.145
 30
0.0
 11
17.899
 21
5.145
 31
0.0
  0
LINE
  5
34C
330
18
100
AcDbEntity
  8
Object
100
AcDbLine
 10
17.496
 20
5.137
 30
0.0
 11
17.496
 21
5.118
 31
0.0
  0
LINE
  5
34D
330
18
100
AcDbEntity
  8
Object
100
AcDbLine
 10
17.899
 20
5.137
 30
0.0
 11
17.899
 21
5.118
 31
0.0
  0
LINE
  5
34E
330
18
100
AcDbEntity
  8
Object
100
AcDbLine
 10
17.899
 20
5.118
 30
0.0
 11
17.899
 21
5.091
 31
0.0
  0
LINE
  5
34F
330
18
100
AcDbEntity
  8
Object
100
AcDbLine
 10
17.496
 20
5.118
 30
0.0
 11
17.496
 21
5.091
 31
0.0
  0
LINE
  5
350
330
18
100
AcDbEntity
  8
Object
100
AcDbLine
 10
17.496
 20
5.091
 30
0.0
 11
17.496
 21
5.06
 31
0.0
  0
LINE
  5
351
330
18
100
AcDbEntity
  8
Object
100
AcDbLine
 10
17.899
 20
5.06
 30
0.0
 11
17.899
 21
5.091
 31
0.0
  0
LINE
  5
352
330
18
100
AcDbEntity
  8
Object
100
AcDbLine
 10
17.879
 20
5.166
 30
0.0
 11
17.894
 21
5.165
 31
0.0
  0
LINE
  5
353
330
18
100
AcDbEntity
  8
Object
100
AcDbLine
 10
17.894
 20
5.165
 30
0.0
 11
17.899
 21
5.163
 31
0.0
  0
LINE
  5
354
330
18
100
AcDbEntity
  8
Object
100
AcDbLine
 10
17.899
 20
5.163
 30
0.0
 11
17.899
 21
5.145
 31
0.0
  0
LINE
  5
355
330
18
100
AcDbEntity
  8
Object
100
AcDbLine
 10
17.536
 20
5.166999999999999
 30
0.0
 11
17.516
 21
5.166
 31
0.0
  0
LINE
  5
356
330
18
100
AcDbEntity
  8
Object
100
AcDbLine
 10
17.496
 20
5.163
 30
0.0
 11
17.496
 21
5.145
 31
0.0
  0
LINE
  5
357
330
18
100
AcDbEntity
  8
Object
100
AcDbLine
 10
17.516
 20
5.166
 30
0.0
 11
17.502
 21
5.165
 31
0.0
  0
LINE
  5
358
330
18
100
AcDbEntity
  8
Object
100
AcDbLine
 10
17.502
 20
5.165
 30
0.0
 11
17.496
 21
5.163
 31
0.0
  0
LINE
  5
359
330
18
100
AcDbEntity
  8
Object
100
AcDbLine
 10
17.879
 20
5.166
 30
0.0
 11
17.859
 21
5.166999999999999
 31
0.0
  0
LINE
  5
35A
330
18
100
AcDbEntity
  8
Object
100
AcDbLine
 10
17.859
 20
5.166999999999999
 30
0.0
 11
17.536
 21
5.166999999999999
 31
0.0
  0
LINE
  5
35B
330
18
100
AcDbEntity
  8
Object
100
AcDbLine
 10
18.366
 20
4.73
 30
0.0
 11
18.359
 21
4.73
 31
0.0
  0
LINE
  5
35C
330
18
100
AcDbEntity
  8
Object
100
AcDbLine
 10
18.359
 20
4.73
 30
0.0
 11
18.338
 21
4.73
 31
0.0
  0
LINE
  5
35D
330
18
100
AcDbEntity
  8
Object
100
AcDbLine
 10
18.338
 20
4.73
 30
0.0
 11
18.305
 21
4.73
 31
0.0
  0
LINE
  5
35E
330
18
100
AcDbEntity
  8
Object
100
AcDbLine
 10
18.305
 20
4.73
 30
0.0
 11
18.261
 21
4.73
 31
0.0
  0
LINE
  5
35F
330
18
100
AcDbEntity
  8
Object
100
AcDbLine
 10
18.261
 20
4.73
 30
0.0
 11
18.21
 21
4.73
 31
0.0
  0
LINE
  5
360
330
18
100
AcDbEntity
  8
Object
100
AcDbLine
 10
18.21
 20
4.73
 30
0.0
 11
18.153
 21
4.73
 31
0.0
  0
LINE
  5
361
330
18
100
AcDbEntity
  8
Object
100
AcDbLine
 10
18.153
 20
4.73
 30
0.0
 11
18.095
 21
4.73
 31
0.0
  0
LINE
  5
362
330
18
100
AcDbEntity
  8
Object
100
AcDbLine
 10
18.095
 20
4.73
 30
0.0
 11
18.038
 21
4.73
 31
0.0
  0
LINE
  5
363
330
18
100
AcDbEntity
  8
Object
100
AcDbLine
 10
18.038
 20
4.73
 30
0.0
 11
17.985
 21
4.73
 31
0.0
  0
LINE
  5
364
330
18
100
AcDbEntity
  8
Object
100
AcDbLine
 10
17.985
 20
4.73
 30
0.0
 11
17.941
 21
4.73
 31
0.0
  0
LINE
  5
365
330
18
100
AcDbEntity
  8
Object
100
AcDbLine
 10
17.941
 20
4.73
 30
0.0
 11
17.907
 21
4.73
 31
0.0
  0
LINE
  5
366
330
18
100
AcDbEntity
  8
Object
100
AcDbLine
 10
17.907
 20
4.73
 30
0.0
 11
17.885
 21
4.73
 31
0.0
  0
LINE
  5
367
330
18
100
AcDbEntity
  8
Object
100
AcDbLine
 10
17.885
 20
4.73
 30
0.0
 11
17.877
 21
4.73
 31
0.0
  0
LINE
  5
368
330
18
100
AcDbEntity
  8
Object
100
AcDbLine
 10
18.366
 20
4.791999999999999
 30
0.0
 11
18.366
 21
4.73
 31
0.0
  0
LINE
  5
369
330
18
100
AcDbEntity
  8
Object
100
AcDbLine
 10
18.366
 20
4.73
 30
0.0
 11
18.359
 21
4.73
 31
0.0
  0
LINE
  5
36A
330
18
100
AcDbEntity
  8
Object
100
AcDbLine
 10
18.359
 20
4.73
 30
0.0
 11
18.338
 21
4.73
 31
0.0
  0
LINE
  5
36B
330
18
100
AcDbEntity
  8
Object
100
AcDbLine
 10
18.338
 20
4.73
 30
0.0
 11
18.305
 21
4.73
 31
0.0
  0
LINE
  5
36C
330
18
100
AcDbEntity
  8
Object
100
AcDbLine
 10
18.305
 20
4.73
 30
0.0
 11
18.261
 21
4.73
 31
0.0
  0
LINE
  5
36D
330
18
100
AcDbEntity
  8
Object
100
AcDbLine
 10
18.261
 20
4.73
 30
0.0
 11
18.21
 21
4.73
 31
0.0
  0
LINE
  5
36E
330
18
100
AcDbEntity
  8
Object
100
AcDbLine
 10
18.21
 20
4.73
 30
0.0
 11
18.153
 21
4.73
 31
0.0
  0
LINE
  5
36F
330
18
100
AcDbEntity
  8
Object
100
AcDbLine
 10
18.153
 20
4.73
 30
0.0
 11
18.095
 21
4.73
 31
0.0
  0
LINE
  5
370
330
18
100
AcDbEntity
  8
Object
100
AcDbLine
 10
18.095
 20
4.73
 30
0.0
 11
18.038
 21
4.73
 31
0.0
  0
LINE
  5
371
330
18
100
AcDbEntity
  8
Object
100
AcDbLine
 10
18.038
 20
4.73
 30
0.0
 11
17.985
 21
4.73
 31
0.0
  0
LINE
  5
372
330
18
100
AcDbEntity
  8
Object
100
AcDbLine
 10
17.985
 20
4.73
 30
0.0
 11
17.941
 21
4.73
 31
0.0
  0
LINE
  5
373
330
18
100
AcDbEntity
  8
Object
100
AcDbLine
 10
17.941
 20
4.73
 30
0.0
 11
17.907
 21
4.73
 31
0.0
  0
LINE
  5
374
330
18
100
AcDbEntity
  8
Object
100
AcDbLine
 10
17.907
 20
4.73
 30
0.0
 11
17.885
 21
4.73
 31
0.0
  0
LINE
  5
375
330
18
100
AcDbEntity
  8
Object
100
AcDbLine
 10
17.885
 20
4.73
 30
0.0
 11
17.877
 21
4.73
 31
0.0
  0
LINE
  5
376
330
18
100
AcDbEntity
  8
Object
100
AcDbLine
 10
17.877
 20
4.73
 30
0.0
 11
17.877
 21
4.791999999999999
 31
0.0
  0
LINE
  5
377
330
18
100
AcDbEntity
  8
Object
100
AcDbLine
 10
18.331
 20
5.216
 30
0.0
 11
18.324
 21
5.216
 31
0.0
  0
LINE
  5
378
330
18
100
AcDbEntity
  8
Object
100
AcDbLine
 10
18.324
 20
5.216
 30
0.0
 11
18.303
 21
5.216
 31
0.0
  0
LINE
  5
379
330
18
100
AcDbEntity
  8
Object
100
AcDbLine
 10
18.303
 20
5.216
 30
0.0
 11
18.27
 21
5.216
 31
0.0
  0
LINE
  5
37A
330
18
100
AcDbEntity
  8
Object
100
AcDbLine
 10
18.27
 20
5.216
 30
0.0
 11
18.226
 21
5.216
 31
0.0
  0
LINE
  5
37B
330
18
100
AcDbEntity
  8
Object
100
AcDbLine
 10
18.226
 20
5.216
 30
0.0
 11
18.176
 21
5.216
 31
0.0
  0
LINE
  5
37C
330
18
100
AcDbEntity
  8
Object
100
AcDbLine
 10
18.176
 20
5.216
 30
0.0
 11
18.121
 21
5.216
 31
0.0
  0
LINE
  5
37D
330
18
100
AcDbEntity
  8
Object
100
AcDbLine
 10
18.121
 20
5.216
 30
0.0
 11
18.067
 21
5.216
 31
0.0
  0
LINE
  5
37E
330
18
100
AcDbEntity
  8
Object
100
AcDbLine
 10
18.067
 20
5.216
 30
0.0
 11
18.016
 21
5.216
 31
0.0
  0
LINE
  5
37F
330
18
100
AcDbEntity
  8
Object
100
AcDbLine
 10
18.016
 20
5.216
 30
0.0
 11
17.973
 21
5.216
 31
0.0
  0
LINE
  5
380
330
18
100
AcDbEntity
  8
Object
100
AcDbLine
 10
17.973
 20
5.216
 30
0.0
 11
17.939
 21
5.216
 31
0.0
  0
LINE
  5
381
330
18
100
AcDbEntity
  8
Object
100
AcDbLine
 10
17.939
 20
5.216
 30
0.0
 11
17.918
 21
5.216
 31
0.0
  0
LINE
  5
382
330
18
100
AcDbEntity
  8
Object
100
AcDbLine
 10
17.918
 20
5.216
 30
0.0
 11
17.911
 21
5.216
 31
0.0
  0
LINE
  5
383
330
18
100
AcDbEntity
  8
Object
100
AcDbLine
 10
18.341
 20
5.206
 30
0.0
 11
18.331
 21
5.216
 31
0.0
  0
LINE
  5
384
330
18
100
AcDbEntity
  8
Object
100
AcDbLine
 10
17.911
 20
5.216
 30
0.0
 11
17.901
 21
5.206
 31
0.0
  0
LINE
  5
385
330
18
100
AcDbEntity
  8
Object
100
AcDbLine
 10
18.334
 20
5.206
 30
0.0
 11
18.341
 21
5.206
 31
0.0
  0
LINE
  5
386
330
18
100
AcDbEntity
  8
Object
100
AcDbLine
 10
18.331
 20
5.216
 30
0.0
 11
18.324
 21
5.216
 31
0.0
  0
LINE
  5
387
330
18
100
AcDbEntity
  8
Object
100
AcDbLine
 10
18.324
 20
5.216
 30
0.0
 11
18.303
 21
5.216
 31
0.0
  0
LINE
  5
388
330
18
100
AcDbEntity
  8
Object
100
AcDbLine
 10
18.303
 20
5.216
 30
0.0
 11
18.27
 21
5.216
 31
0.0
  0
LINE
  5
389
330
18
100
AcDbEntity
  8
Object
100
AcDbLine
 10
18.27
 20
5.216
 30
0.0
 11
18.226
 21
5.216
 31
0.0
  0
LINE
  5
38A
330
18
100
AcDbEntity
  8
Object
100
AcDbLine
 10
18.226
 20
5.216
 30
0.0
 11
18.176
 21
5.216
 31
0.0
  0
LINE
  5
38B
330
18
100
AcDbEntity
  8
Object
100
AcDbLine
 10
18.176
 20
5.216
 30
0.0
 11
18.121
 21
5.216
 31
0.0
  0
LINE
  5
38C
330
18
100
AcDbEntity
  8
Object
100
AcDbLine
 10
18.121
 20
5.216
 30
0.0
 11
18.067
 21
5.216
 31
0.0
  0
LINE
  5
38D
330
18
100
AcDbEntity
  8
Object
100
AcDbLine
 10
18.067
 20
5.216
 30
0.0
 11
18.016
 21
5.216
 31
0.0
  0
LINE
  5
38E
330
18
100
AcDbEntity
  8
Object
100
AcDbLine
 10
18.016
 20
5.216
 30
0.0
 11
17.973
 21
5.216
 31
0.0
  0
LINE
  5
38F
330
18
100
AcDbEntity
  8
Object
100
AcDbLine
 10
17.973
 20
5.216
 30
0.0
 11
17.939
 21
5.216
 31
0.0
  0
LINE
  5
390
330
18
100
AcDbEntity
  8
Object
100
AcDbLine
 10
17.939
 20
5.216
 30
0.0
 11
17.918
 21
5.216
 31
0.0
  0
LINE
  5
391
330
18
100
AcDbEntity
  8
Object
100
AcDbLine
 10
17.918
 20
5.216
 30
0.0
 11
17.911
 21
5.216
 31
0.0
  0
LINE
  5
392
330
18
100
AcDbEntity
  8
Object
100
AcDbLine
 10
18.341
 20
5.046
 30
0.0
 11
18.341
 21
5.206
 31
0.0
  0
LINE
  5
393
330
18
100
AcDbEntity
  8
Object
100
AcDbLine
 10
17.901
 20
5.206
 30
0.0
 11
17.901
 21
5.046
 31
0.0
  0
LINE
  5
394
330
18
100
AcDbEntity
  8
Object
100
AcDbLine
 10
18.334
 20
5.206
 30
0.0
 11
18.312
 21
5.206
 31
0.0
  0
LINE
  5
395
330
18
100
AcDbEntity
  8
Object
100
AcDbLine
 10
18.312
 20
5.206
 30
0.0
 11
18.277
 21
5.206
 31
0.0
  0
LINE
  5
396
330
18
100
AcDbEntity
  8
Object
100
AcDbLine
 10
18.277
 20
5.206
 30
0.0
 11
18.231
 21
5.206
 31
0.0
  0
LINE
  5
397
330
18
100
AcDbEntity
  8
Object
100
AcDbLine
 10
18.231
 20
5.206
 30
0.0
 11
18.178
 21
5.206
 31
0.0
  0
LINE
  5
398
330
18
100
AcDbEntity
  8
Object
100
AcDbLine
 10
18.178
 20
5.206
 30
0.0
 11
18.121
 21
5.206
 31
0.0
  0
LINE
  5
399
330
18
100
AcDbEntity
  8
Object
100
AcDbLine
 10
18.121
 20
5.206
 30
0.0
 11
18.064
 21
5.206
 31
0.0
  0
LINE
  5
39A
330
18
100
AcDbEntity
  8
Object
100
AcDbLine
 10
18.064
 20
5.206
 30
0.0
 11
18.011
 21
5.206
 31
0.0
  0
LINE
  5
39B
330
18
100
AcDbEntity
  8
Object
100
AcDbLine
 10
18.011
 20
5.206
 30
0.0
 11
17.966
 21
5.206
 31
0.0
  0
LINE
  5
39C
330
18
100
AcDbEntity
  8
Object
100
AcDbLine
 10
17.966
 20
5.206
 30
0.0
 11
17.931
 21
5.206
 31
0.0
  0
LINE
  5
39D
330
18
100
AcDbEntity
  8
Object
100
AcDbLine
 10
17.931
 20
5.206
 30
0.0
 11
17.909
 21
5.206
 31
0.0
  0
LINE
  5
39E
330
18
100
AcDbEntity
  8
Object
100
AcDbLine
 10
17.909
 20
5.206
 30
0.0
 11
17.901
 21
5.206
 31
0.0
  0
LINE
  5
39F
330
18
100
AcDbEntity
  8
Object
100
AcDbLine
 10
17.902
 20
4.567
 30
0.0
 11
17.91
 21
4.567
 31
0.0
  0
LINE
  5
3A0
330
18
100
AcDbEntity
  8
Object
100
AcDbLine
 10
17.9
 20
4.572
 30
0.0
 11
17.932
 21
4.567
 31
0.0
  0
LINE
  5
3A1
330
18
100
AcDbEntity
  8
Object
100
AcDbLine
 10
17.932
 20
4.567
 30
0.0
 11
17.91
 21
4.567
 31
0.0
  0
LINE
  5
3A2
330
18
100
AcDbEntity
  8
Object
100
AcDbLine
 10
17.902
 20
4.567
 30
0.0
 11
17.868
 21
4.586
 31
0.0
  0
LINE
  5
3A3
330
18
100
AcDbEntity
  8
Object
100
AcDbLine
 10
17.868
 20
4.586
 30
0.0
 11
17.9
 21
4.572
 31
0.0
  0
LINE
  5
3A4
330
18
100
AcDbEntity
  8
Object
100
AcDbLine
 10
17.868
 20
4.709999999999999
 30
0.0
 11
17.868
 21
4.586
 31
0.0
  0
LINE
  5
3A5
330
18
100
AcDbEntity
  8
Object
100
AcDbLine
 10
17.964
 20
4.724
 30
0.0
 11
17.995
 21
4.709999999999999
 31
0.0
  0
LINE
  5
3A6
330
18
100
AcDbEntity
  8
Object
100
AcDbLine
 10
17.995
 20
4.709999999999999
 30
0.0
 11
17.995
 21
4.586
 31
0.0
  0
LINE
  5
3A7
330
18
100
AcDbEntity
  8
Object
100
AcDbLine
 10
17.995
 20
4.586
 30
0.0
 11
17.964
 21
4.572
 31
0.0
  0
LINE
  5
3A8
330
18
100
AcDbEntity
  8
Object
100
AcDbLine
 10
17.964
 20
4.724
 30
0.0
 11
17.932
 21
4.73
 31
0.0
  0
LINE
  5
3A9
330
18
100
AcDbEntity
  8
Object
100
AcDbLine
 10
17.932
 20
4.567
 30
0.0
 11
17.964
 21
4.572
 31
0.0
  0
LINE
  5
3AA
330
18
100
AcDbEntity
  8
Object
100
AcDbLine
 10
17.932
 20
4.73
 30
0.0
 11
17.9
 21
4.724
 31
0.0
  0
LINE
  5
3AB
330
18
100
AcDbEntity
  8
Object
100
AcDbLine
 10
17.9
 20
4.724
 30
0.0
 11
17.868
 21
4.709999999999999
 31
0.0
  0
LINE
  5
3AC
330
18
100
AcDbEntity
  8
Object
100
AcDbLine
 10
18.34
 20
4.567
 30
0.0
 11
18.333
 21
4.567
 31
0.0
  0
LINE
  5
3AD
330
18
100
AcDbEntity
  8
Object
100
AcDbLine
 10
18.333
 20
4.567
 30
0.0
 11
18.311
 21
4.567
 31
0.0
  0
LINE
  5
3AE
330
18
100
AcDbEntity
  8
Object
100
AcDbLine
 10
18.311
 20
4.567
 30
0.0
 11
18.29
 21
4.567
 31
0.0
  0
LINE
  5
3AF
330
18
100
AcDbEntity
  8
Object
100
AcDbLine
 10
18.29
 20
4.567
 30
0.0
 11
18.264
 21
4.567
 31
0.0
  0
LINE
  5
3B0
330
18
100
AcDbEntity
  8
Object
100
AcDbLine
 10
18.264
 20
4.567
 30
0.0
 11
18.235
 21
4.567
 31
0.0
  0
LINE
  5
3B1
330
18
100
AcDbEntity
  8
Object
100
AcDbLine
 10
18.235
 20
4.567
 30
0.0
 11
18.199
 21
4.567
 31
0.0
  0
LINE
  5
3B2
330
18
100
AcDbEntity
  8
Object
100
AcDbLine
 10
18.199
 20
4.567
 30
0.0
 11
18.161
 21
4.567
 31
0.0
  0
LINE
  5
3B3
330
18
100
AcDbEntity
  8
Object
100
AcDbLine
 10
18.161
 20
4.567
 30
0.0
 11
18.121
 21
4.567
 31
0.0
  0
LINE
  5
3B4
330
18
100
AcDbEntity
  8
Object
100
AcDbLine
 10
18.121
 20
4.567
 30
0.0
 11
18.065
 21
4.567
 31
0.0
  0
LINE
  5
3B5
330
18
100
AcDbEntity
  8
Object
100
AcDbLine
 10
18.065
 20
4.567
 30
0.0
 11
18.012
 21
4.567
 31
0.0
  0
LINE
  5
3B6
330
18
100
AcDbEntity
  8
Object
100
AcDbLine
 10
18.012
 20
4.567
 30
0.0
 11
17.966
 21
4.567
 31
0.0
  0
LINE
  5
3B7
330
18
100
AcDbEntity
  8
Object
100
AcDbLine
 10
17.966
 20
4.567
 30
0.0
 11
17.932
 21
4.567
 31
0.0
  0
LINE
  5
3B8
330
18
100
AcDbEntity
  8
Object
100
AcDbLine
 10
17.932
 20
4.567
 30
0.0
 11
17.91
 21
4.567
 31
0.0
  0
LINE
  5
3B9
330
18
100
AcDbEntity
  8
Object
100
AcDbLine
 10
17.91
 20
4.567
 30
0.0
 11
17.902
 21
4.567
 31
0.0
  0
LINE
  5
3BA
330
18
100
AcDbEntity
  8
Object
100
AcDbLine
 10
17.902
 20
4.73
 30
0.0
 11
17.868
 21
4.709999999999999
 31
0.0
  0
LINE
  5
3BB
330
18
100
AcDbEntity
  8
Object
100
AcDbLine
 10
18.185
 20
4.724
 30
0.0
 11
18.248
 21
4.709999999999999
 31
0.0
  0
LINE
  5
3BC
330
18
100
AcDbEntity
  8
Object
100
AcDbLine
 10
18.248
 20
4.709999999999999
 30
0.0
 11
18.248
 21
4.586
 31
0.0
  0
LINE
  5
3BD
330
18
100
AcDbEntity
  8
Object
100
AcDbLine
 10
18.248
 20
4.586
 30
0.0
 11
18.185
 21
4.572
 31
0.0
  0
LINE
  5
3BE
330
18
100
AcDbEntity
  8
Object
100
AcDbLine
 10
18.185
 20
4.724
 30
0.0
 11
18.121
 21
4.73
 31
0.0
  0
LINE
  5
3BF
330
18
100
AcDbEntity
  8
Object
100
AcDbLine
 10
18.185
 20
4.572
 30
0.0
 11
18.121
 21
4.567
 31
0.0
  0
LINE
  5
3C0
330
18
100
AcDbEntity
  8
Object
100
AcDbLine
 10
18.121
 20
4.567
 30
0.0
 11
18.057
 21
4.572
 31
0.0
  0
LINE
  5
3C1
330
18
100
AcDbEntity
  8
Object
100
AcDbLine
 10
18.121
 20
4.73
 30
0.0
 11
18.057
 21
4.724
 31
0.0
  0
LINE
  5
3C2
330
18
100
AcDbEntity
  8
Object
100
AcDbLine
 10
17.995
 20
4.586
 30
0.0
 11
18.057
 21
4.572
 31
0.0
  0
LINE
  5
3C3
330
18
100
AcDbEntity
  8
Object
100
AcDbLine
 10
18.057
 20
4.724
 30
0.0
 11
17.995
 21
4.709999999999999
 31
0.0
  0
LINE
  5
3C4
330
18
100
AcDbEntity
  8
Object
100
AcDbLine
 10
18.121
 20
4.567
 30
0.0
 11
18.065
 21
4.567
 31
0.0
  0
LINE
  5
3C5
330
18
100
AcDbEntity
  8
Object
100
AcDbLine
 10
18.065
 20
4.567
 30
0.0
 11
18.012
 21
4.567
 31
0.0
  0
LINE
  5
3C6
330
18
100
AcDbEntity
  8
Object
100
AcDbLine
 10
18.012
 20
4.567
 30
0.0
 11
17.966
 21
4.567
 31
0.0
  0
LINE
  5
3C7
330
18
100
AcDbEntity
  8
Object
100
AcDbLine
 10
17.966
 20
4.567
 30
0.0
 11
17.932
 21
4.567
 31
0.0
  0
LINE
  5
3C8
330
18
100
AcDbEntity
  8
Object
100
AcDbLine
 10
18.279
 20
4.572
 30
0.0
 11
18.311
 21
4.567
 31
0.0
  0
LINE
  5
3C9
330
18
100
AcDbEntity
  8
Object
100
AcDbLine
 10
18.311
 20
4.567
 30
0.0
 11
18.29
 21
4.567
 31
0.0
  0
LINE
  5
3CA
330
18
100
AcDbEntity
  8
Object
100
AcDbLine
 10
18.29
 20
4.567
 30
0.0
 11
18.264
 21
4.567
 31
0.0
  0
LINE
  5
3CB
330
18
100
AcDbEntity
  8
Object
100
AcDbLine
 10
18.279
 20
4.572
 30
0.0
 11
18.248
 21
4.586
 31
0.0
  0
LINE
  5
3CC
330
18
100
AcDbEntity
  8
Object
100
AcDbLine
 10
18.235
 20
4.567
 30
0.0
 11
18.264
 21
4.567
 31
0.0
  0
LINE
  5
3CD
330
18
100
AcDbEntity
  8
Object
100
AcDbLine
 10
18.343
 20
4.572
 30
0.0
 11
18.374
 21
4.586
 31
0.0
  0
LINE
  5
3CE
330
18
100
AcDbEntity
  8
Object
100
AcDbLine
 10
18.374
 20
4.586
 30
0.0
 11
18.34
 21
4.567
 31
0.0
  0
LINE
  5
3CF
330
18
100
AcDbEntity
  8
Object
100
AcDbLine
 10
18.34
 20
4.567
 30
0.0
 11
18.333
 21
4.567
 31
0.0
  0
LINE
  5
3D0
330
18
100
AcDbEntity
  8
Object
100
AcDbLine
 10
18.333
 20
4.567
 30
0.0
 11
18.311
 21
4.567
 31
0.0
  0
LINE
  5
3D1
330
18
100
AcDbEntity
  8
Object
100
AcDbLine
 10
18.311
 20
4.567
 30
0.0
 11
18.343
 21
4.572
 31
0.0
  0
LINE
  5
3D2
330
18
100
AcDbEntity
  8
Object
100
AcDbLine
 10
18.248
 20
4.586
 30
0.0
 11
18.235
 21
4.567
 31
0.0
  0
LINE
  5
3D3
330
18
100
AcDbEntity
  8
Object
100
AcDbLine
 10
18.235
 20
4.567
 30
0.0
 11
18.199
 21
4.567
 31
0.0
  0
LINE
  5
3D4
330
18
100
AcDbEntity
  8
Object
100
AcDbLine
 10
18.199
 20
4.567
 30
0.0
 11
18.161
 21
4.567
 31
0.0
  0
LINE
  5
3D5
330
18
100
AcDbEntity
  8
Object
100
AcDbLine
 10
18.161
 20
4.567
 30
0.0
 11
18.121
 21
4.567
 31
0.0
  0
LINE
  5
3D6
330
18
100
AcDbEntity
  8
Object
100
AcDbLine
 10
18.374
 20
4.586
 30
0.0
 11
18.374
 21
4.709999999999999
 31
0.0
  0
LINE
  5
3D7
330
18
100
AcDbEntity
  8
Object
100
AcDbLine
 10
18.248
 20
4.709999999999999
 30
0.0
 11
18.235
 21
4.73
 31
0.0
  0
LINE
  5
3D8
330
18
100
AcDbEntity
  8
Object
100
AcDbLine
 10
18.343
 20
4.724
 30
0.0
 11
18.311
 21
4.73
 31
0.0
  0
LINE
  5
3D9
330
18
100
AcDbEntity
  8
Object
100
AcDbLine
 10
18.311
 20
4.73
 30
0.0
 11
18.279
 21
4.724
 31
0.0
  0
LINE
  5
3DA
330
18
100
AcDbEntity
  8
Object
100
AcDbLine
 10
18.279
 20
4.724
 30
0.0
 11
18.248
 21
4.709999999999999
 31
0.0
  0
LINE
  5
3DB
330
18
100
AcDbEntity
  8
Object
100
AcDbLine
 10
18.34
 20
4.73
 30
0.0
 11
18.374
 21
4.709999999999999
 31
0.0
  0
LINE
  5
3DC
330
18
100
AcDbEntity
  8
Object
100
AcDbLine
 10
18.374
 20
4.709999999999999
 30
0.0
 11
18.343
 21
4.724
 31
0.0
  0
LINE
  5
3DD
330
18
100
AcDbEntity
  8
Object
100
AcDbLine
 10
18.214
 20
5.23
 30
0.0
 11
18.23
 21
5.23
 31
0.0
  0
LINE
  5
3DE
330
18
100
AcDbEntity
  8
Object
100
AcDbLine
 10
18.23
 20
5.23
 30
0.0
 11
18.205
 21
5.227
 31
0.0
  0
LINE
  5
3DF
330
18
100
AcDbEntity
  8
Object
100
AcDbLine
 10
18.214
 20
5.23
 30
0.0
 11
18.193
 21
5.23
 31
0.0
  0
LINE
  5
3E0
330
18
100
AcDbEntity
  8
Object
100
AcDbLine
 10
18.17
 20
5.225
 30
0.0
 11
18.205
 21
5.227
 31
0.0
  0
LINE
  5
3E1
330
18
100
AcDbEntity
  8
Object
100
AcDbLine
 10
18.193
 20
5.23
 30
0.0
 11
18.169
 21
5.23
 31
0.0
  0
LINE
  5
3E2
330
18
100
AcDbEntity
  8
Object
100
AcDbLine
 10
18.169
 20
5.23
 30
0.0
 11
18.144
 21
5.23
 31
0.0
  0
LINE
  5
3E3
330
18
100
AcDbEntity
  8
Object
100
AcDbLine
 10
18.131
 20
5.222
 30
0.0
 11
18.17
 21
5.225
 31
0.0
  0
LINE
  5
3E4
330
18
100
AcDbEntity
  8
Object
100
AcDbLine
 10
18.144
 20
5.23
 30
0.0
 11
18.118
 21
5.23
 31
0.0
  0
LINE
  5
3E5
330
18
100
AcDbEntity
  8
Object
100
AcDbLine
 10
18.09
 20
5.219
 30
0.0
 11
18.131
 21
5.222
 31
0.0
  0
LINE
  5
3E6
330
18
100
AcDbEntity
  8
Object
100
AcDbLine
 10
18.118
 20
5.23
 30
0.0
 11
18.094
 21
5.23
 31
0.0
  0
LINE
  5
3E7
330
18
100
AcDbEntity
  8
Object
100
AcDbLine
 10
18.052
 20
5.23
 30
0.0
 11
18.071
 21
5.23
 31
0.0
  0
LINE
  5
3E8
330
18
100
AcDbEntity
  8
Object
100
AcDbLine
 10
18.071
 20
5.23
 30
0.0
 11
18.094
 21
5.23
 31
0.0
  0
LINE
  5
3E9
330
18
100
AcDbEntity
  8
Object
100
AcDbLine
 10
18.052
 20
5.217
 30
0.0
 11
18.09
 21
5.219
 31
0.0
  0
LINE
  5
3EA
330
18
100
AcDbEntity
  8
Object
100
AcDbLine
 10
18.029
 20
5.225999999999999
 30
0.0
 11
18.039
 21
5.227999999999999
 31
0.0
  0
LINE
  5
3EB
330
18
100
AcDbEntity
  8
Object
100
AcDbLine
 10
18.039
 20
5.227999999999999
 30
0.0
 11
18.052
 21
5.23
 31
0.0
  0
LINE
  5
3EC
330
18
100
AcDbEntity
  8
Object
100
AcDbLine
 10
18.041
 20
5.216
 30
0.0
 11
18.052
 21
5.217
 31
0.0
  0
LINE
  5
3ED
330
18
100
AcDbEntity
  8
Object
100
AcDbLine
 10
18.029
 20
5.225999999999999
 30
0.0
 11
18.023
 21
5.225
 31
0.0
  0
LINE
  5
3EE
330
18
100
AcDbEntity
  8
Object
100
AcDbLine
 10
18.023
 20
5.225
 30
0.0
 11
18.007
 21
5.216
 31
0.0
  0
LINE
  5
3EF
330
18
100
AcDbEntity
  8
Object
100
AcDbLine
 10
18.244
 20
5.224
 30
0.0
 11
18.246
 21
5.225999999999999
 31
0.0
  0
LINE
  5
3F0
330
18
100
AcDbEntity
  8
Object
100
AcDbLine
 10
18.225
 20
5.221
 30
0.0
 11
18.237
 21
5.222999999999999
 31
0.0
  0
LINE
  5
3F1
330
18
100
AcDbEntity
  8
Object
100
AcDbLine
 10
18.237
 20
5.222999999999999
 30
0.0
 11
18.244
 21
5.224
 31
0.0
  0
LINE
  5
3F2
330
18
100
AcDbEntity
  8
Object
100
AcDbLine
 10
18.244
 20
5.224
 30
0.0
 11
18.229
 21
5.216
 31
0.0
  0
LINE
  5
3F3
330
18
100
AcDbEntity
  8
Object
100
AcDbLine
 10
18.225
 20
5.221
 30
0.0
 11
18.21
 21
5.219
 31
0.0
  0
LINE
  5
3F4
330
18
100
AcDbEntity
  8
Object
100
AcDbLine
 10
18.21
 20
5.219
 30
0.0
 11
18.191
 21
5.217999999999999
 31
0.0
  0
LINE
  5
3F5
330
18
100
AcDbEntity
  8
Object
100
AcDbLine
 10
18.191
 20
5.217999999999999
 30
0.0
 11
18.169
 21
5.216
 31
0.0
  0
LINE
  5
3F6
330
18
100
AcDbEntity
  8
Object
100
AcDbLine
 10
18.169
 20
5.216
 30
0.0
 11
18.16
 21
5.216
 31
0.0
  0
LINE
  5
3F7
330
18
100
AcDbEntity
  8
Object
100
AcDbLine
 10
18.021
 20
5.23
 30
0.0
 11
18.021
 21
5.224
 31
0.0
  0
LINE
  5
3F8
330
18
100
AcDbEntity
  8
Object
100
AcDbLine
 10
18.245
 20
5.23
 30
0.0
 11
18.246
 21
5.23
 31
0.0
  0
LINE
  5
3F9
330
18
100
AcDbEntity
  8
Object
100
AcDbLine
 10
18.246
 20
5.23
 30
0.0
 11
18.246
 21
5.225999999999999
 31
0.0
  0
LINE
  5
3FA
330
18
100
AcDbEntity
  8
Object
100
AcDbLine
 10
18.245
 20
5.23
 30
0.0
 11
18.239
 21
5.23
 31
0.0
  0
LINE
  5
3FB
330
18
100
AcDbEntity
  8
Object
100
AcDbLine
 10
18.239
 20
5.23
 30
0.0
 11
18.23
 21
5.23
 31
0.0
  0
LINE
  5
3FC
330
18
100
AcDbEntity
  8
Object
100
AcDbLine
 10
18.052
 20
5.23
 30
0.0
 11
18.036
 21
5.23
 31
0.0
  0
LINE
  5
3FD
330
18
100
AcDbEntity
  8
Object
100
AcDbLine
 10
18.036
 20
5.23
 30
0.0
 11
18.025
 21
5.23
 31
0.0
  0
LINE
  5
3FE
330
18
100
AcDbEntity
  8
Object
100
AcDbLine
 10
18.025
 20
5.23
 30
0.0
 11
18.021
 21
5.23
 31
0.0
  0
LINE
  5
3FF
330
18
100
AcDbEntity
  8
Object
100
AcDbLine
 10
18.246
 20
5.23
 30
0.0
 11
18.245
 21
5.23
 31
0.0
  0
LINE
  5
400
330
18
100
AcDbEntity
  8
Object
100
AcDbLine
 10
18.245
 20
5.23
 30
0.0
 11
18.239
 21
5.23
 31
0.0
  0
LINE
  5
401
330
18
100
AcDbEntity
  8
Object
100
AcDbLine
 10
18.239
 20
5.23
 30
0.0
 11
18.23
 21
5.23
 31
0.0
  0
LINE
  5
402
330
18
100
AcDbEntity
  8
Object
100
AcDbLine
 10
18.23
 20
5.23
 30
0.0
 11
18.214
 21
5.23
 31
0.0
  0
LINE
  5
403
330
18
100
AcDbEntity
  8
Object
100
AcDbLine
 10
18.214
 20
5.23
 30
0.0
 11
18.193
 21
5.23
 31
0.0
  0
LINE
  5
404
330
18
100
AcDbEntity
  8
Object
100
AcDbLine
 10
18.193
 20
5.23
 30
0.0
 11
18.169
 21
5.23
 31
0.0
  0
LINE
  5
405
330
18
100
AcDbEntity
  8
Object
100
AcDbLine
 10
18.169
 20
5.23
 30
0.0
 11
18.144
 21
5.23
 31
0.0
  0
LINE
  5
406
330
18
100
AcDbEntity
  8
Object
100
AcDbLine
 10
18.144
 20
5.23
 30
0.0
 11
18.118
 21
5.23
 31
0.0
  0
LINE
  5
407
330
18
100
AcDbEntity
  8
Object
100
AcDbLine
 10
18.118
 20
5.23
 30
0.0
 11
18.094
 21
5.23
 31
0.0
  0
LINE
  5
408
330
18
100
AcDbEntity
  8
Object
100
AcDbLine
 10
18.094
 20
5.23
 30
0.0
 11
18.071
 21
5.23
 31
0.0
  0
LINE
  5
409
330
18
100
AcDbEntity
  8
Object
100
AcDbLine
 10
18.071
 20
5.23
 30
0.0
 11
18.052
 21
5.23
 31
0.0
  0
LINE
  5
40A
330
18
100
AcDbEntity
  8
Object
100
AcDbLine
 10
18.052
 20
5.23
 30
0.0
 11
18.036
 21
5.23
 31
0.0
  0
LINE
  5
40B
330
18
100
AcDbEntity
  8
Object
100
AcDbLine
 10
18.036
 20
5.23
 30
0.0
 11
18.025
 21
5.23
 31
0.0
  0
LINE
  5
40C
330
18
100
AcDbEntity
  8
Object
100
AcDbLine
 10
18.025
 20
5.23
 30
0.0
 11
18.021
 21
5.23
 31
0.0
  0
LINE
  5
40D
330
18
100
AcDbEntity
  8
Object
100
AcDbLine
 10
12.372
 20
4.971
 30
0.0
 11
11.997
 21
4.971
 31
0.0
  0
LINE
  5
40E
330
18
100
AcDbEntity
  8
Object
100
AcDbLine
 10
11.997
 20
4.971
 30
0.0
 11
3.697
 21
4.971
 31
0.0
  0
LINE
  5
40F
330
18
100
AcDbEntity
  8
Object
100
AcDbLine
 10
3.697
 20
4.971
 30
0.0
 11
3.689999999999999
 21
4.971
 31
0.0
  0
LINE
  5
410
330
18
100
AcDbEntity
  8
Object
100
AcDbLine
 10
3.689999999999999
 20
4.971
 30
0.0
 11
3.669
 21
4.971
 31
0.0
  0
LINE
  5
411
330
18
100
AcDbEntity
  8
Object
100
AcDbLine
 10
3.669
 20
4.971
 30
0.0
 11
3.635
 21
4.971
 31
0.0
  0
LINE
  5
412
330
18
100
AcDbEntity
  8
Object
100
AcDbLine
 10
3.635
 20
4.971
 30
0.0
 11
3.588999999999999
 21
4.971
 31
0.0
  0
LINE
  5
413
330
18
100
AcDbEntity
  8
Object
100
AcDbLine
 10
3.588999999999999
 20
4.971
 30
0.0
 11
3.534
 21
4.971
 31
0.0
  0
LINE
  5
414
330
18
100
AcDbEntity
  8
Object
100
AcDbLine
 10
3.534
 20
4.971
 30
0.0
 11
3.471999999999999
 21
4.971
 31
0.0
  0
LINE
  5
415
330
18
100
AcDbEntity
  8
Object
100
AcDbLine
 10
3.471999999999999
 20
4.971
 30
0.0
 11
3.406
 21
4.971
 31
0.0
  0
LINE
  5
416
330
18
100
AcDbEntity
  8
Object
100
AcDbLine
 10
3.406
 20
4.971
 30
0.0
 11
3.338
 21
4.971
 31
0.0
  0
LINE
  5
417
330
18
100
AcDbEntity
  8
Object
100
AcDbLine
 10
3.338
 20
4.971
 30
0.0
 11
3.272
 21
4.971
 31
0.0
  0
LINE
  5
418
330
18
100
AcDbEntity
  8
Object
100
AcDbLine
 10
3.272
 20
4.971
 30
0.0
 11
3.209
 21
4.971
 31
0.0
  0
LINE
  5
419
330
18
100
AcDbEntity
  8
Object
100
AcDbLine
 10
3.209
 20
4.971
 30
0.0
 11
3.153999999999999
 21
4.971
 31
0.0
  0
LINE
  5
41A
330
18
100
AcDbEntity
  8
Object
100
AcDbLine
 10
3.153999999999999
 20
4.971
 30
0.0
 11
3.108999999999999
 21
4.971
 31
0.0
  0
LINE
  5
41B
330
18
100
AcDbEntity
  8
Object
100
AcDbLine
 10
3.108999999999999
 20
4.971
 30
0.0
 11
3.075
 21
4.971
 31
0.0
  0
LINE
  5
41C
330
18
100
AcDbEntity
  8
Object
100
AcDbLine
 10
3.075
 20
4.971
 30
0.0
 11
3.054
 21
4.971
 31
0.0
  0
LINE
  5
41D
330
18
100
AcDbEntity
  8
Object
100
AcDbLine
 10
3.054
 20
4.971
 30
0.0
 11
3.047
 21
4.971
 31
0.0
  0
LINE
  5
41E
330
18
100
AcDbEntity
  8
Object
100
AcDbLine
 10
3.047
 20
4.971
 30
0.0
 11
2.746999999999999
 21
4.971
 31
0.0
  0
LINE
  5
41F
330
18
100
AcDbEntity
  8
Object
100
AcDbLine
 10
2.746999999999999
 20
4.971
 30
0.0
 11
2.371999999999999
 21
4.971
 31
0.0
  0
LINE
  5
420
330
18
100
AcDbEntity
  8
Object
100
AcDbLine
 10
2.746999999999999
 20
4.971
 30
0.0
 11
2.746999999999999
 21
4.791999999999999
 31
0.0
  0
LINE
  5
421
330
18
100
AcDbEntity
  8
Object
100
AcDbLine
 10
2.746999999999999
 20
4.791999999999999
 30
0.0
 11
2.371999999999999
 21
4.791999999999999
 31
0.0
  0
LINE
  5
422
330
18
100
AcDbEntity
  8
Object
100
AcDbLine
 10
2.371999999999999
 20
4.791999999999999
 30
0.0
 11
2.371999999999999
 21
4.971
 31
0.0
  0
LINE
  5
423
330
18
100
AcDbEntity
  8
Object
100
AcDbLine
 10
2.371999999999999
 20
4.971
 30
0.0
 11
2.746999999999999
 21
4.971
 31
0.0
  0
LINE
  5
424
330
18
100
AcDbEntity
  8
Object
100
AcDbLine
 10
3.047
 20
4.791999999999999
 30
0.0
 11
3.047
 21
4.971
 31
0.0
  0
LINE
  5
425
330
18
100
AcDbEntity
  8
Object
100
AcDbLine
 10
3.047
 20
4.971
 30
0.0
 11
3.047
 21
4.791999999999999
 31
0.0
  0
LINE
  5
426
330
18
100
AcDbEntity
  8
Object
100
AcDbLine
 10
3.047
 20
4.791999999999999
 30
0.0
 11
2.746999999999999
 21
4.791999999999999
 31
0.0
  0
LINE
  5
427
330
18
100
AcDbEntity
  8
Object
100
AcDbLine
 10
3.047
 20
4.971
 30
0.0
 11
2.746999999999999
 21
4.971
 31
0.0
  0
LINE
  5
428
330
18
100
AcDbEntity
  8
Object
100
AcDbLine
 10
2.371999999999999
 20
4.971
 30
0.0
 11
2.371999999999999
 21
4.791999999999999
 31
0.0
  0
LINE
  5
429
330
18
100
AcDbEntity
  8
Object
100
AcDbLine
 10
3.697
 20
4.971
 30
0.0
 11
3.697
 21
4.791999999999999
 31
0.0
  0
LINE
  5
42A
330
18
100
AcDbEntity
  8
Object
100
AcDbLine
 10
11.997
 20
4.791999999999999
 30
0.0
 11
12.372
 21
4.791999999999999
 31
0.0
  0
LINE
  5
42B
330
18
100
AcDbEntity
  8
Object
100
AcDbLine
 10
11.997
 20
4.971
 30
0.0
 11
12.372
 21
4.971
 31
0.0
  0
LINE
  5
42C
330
18
100
AcDbEntity
  8
Object
100
AcDbLine
 10
12.372
 20
4.971
 30
0.0
 11
12.372
 21
4.791999999999999
 31
0.0
  0
LINE
  5
42D
330
18
100
AcDbEntity
  8
Object
100
AcDbLine
 10
3.697
 20
4.971
 30
0.0
 11
3.689999999999999
 21
4.971
 31
0.0
  0
LINE
  5
42E
330
18
100
AcDbEntity
  8
Object
100
AcDbLine
 10
3.689999999999999
 20
4.791999999999999
 30
0.0
 11
3.697
 21
4.791999999999999
 31
0.0
  0
LINE
  5
42F
330
18
100
AcDbEntity
  8
Object
100
AcDbLine
 10
3.689999999999999
 20
4.971
 30
0.0
 11
3.669
 21
4.971
 31
0.0
  0
LINE
  5
430
330
18
100
AcDbEntity
  8
Object
100
AcDbLine
 10
3.689999999999999
 20
4.791999999999999
 30
0.0
 11
3.669
 21
4.791999999999999
 31
0.0
  0
LINE
  5
431
330
18
100
AcDbEntity
  8
Object
100
AcDbLine
 10
3.669
 20
4.791999999999999
 30
0.0
 11
3.635
 21
4.791999999999999
 31
0.0
  0
LINE
  5
432
330
18
100
AcDbEntity
  8
Object
100
AcDbLine
 10
3.669
 20
4.971
 30
0.0
 11
3.635
 21
4.971
 31
0.0
  0
LINE
  5
433
330
18
100
AcDbEntity
  8
Object
100
AcDbLine
 10
3.635
 20
4.971
 30
0.0
 11
3.588999999999999
 21
4.971
 31
0.0
  0
LINE
  5
434
330
18
100
AcDbEntity
  8
Object
100
AcDbLine
 10
3.635
 20
4.791999999999999
 30
0.0
 11
3.588999999999999
 21
4.791999999999999
 31
0.0
  0
LINE
  5
435
330
18
100
AcDbEntity
  8
Object
100
AcDbLine
 10
3.588999999999999
 20
4.791999999999999
 30
0.0
 11
3.534
 21
4.791999999999999
 31
0.0
  0
LINE
  5
436
330
18
100
AcDbEntity
  8
Object
100
AcDbLine
 10
3.588999999999999
 20
4.971
 30
0.0
 11
3.534
 21
4.971
 31
0.0
  0
LINE
  5
437
330
18
100
AcDbEntity
  8
Object
100
AcDbLine
 10
3.534
 20
4.971
 30
0.0
 11
3.471999999999999
 21
4.971
 31
0.0
  0
LINE
  5
438
330
18
100
AcDbEntity
  8
Object
100
AcDbLine
 10
3.534
 20
4.791999999999999
 30
0.0
 11
3.471999999999999
 21
4.791999999999999
 31
0.0
  0
LINE
  5
439
330
18
100
AcDbEntity
  8
Object
100
AcDbLine
 10
3.471999999999999
 20
4.791999999999999
 30
0.0
 11
3.406
 21
4.791999999999999
 31
0.0
  0
LINE
  5
43A
330
18
100
AcDbEntity
  8
Object
100
AcDbLine
 10
3.471999999999999
 20
4.971
 30
0.0
 11
3.406
 21
4.971
 31
0.0
  0
LINE
  5
43B
330
18
100
AcDbEntity
  8
Object
100
AcDbLine
 10
3.406
 20
4.971
 30
0.0
 11
3.338
 21
4.971
 31
0.0
  0
LINE
  5
43C
330
18
100
AcDbEntity
  8
Object
100
AcDbLine
 10
3.406
 20
4.791999999999999
 30
0.0
 11
3.338
 21
4.791999999999999
 31
0.0
  0
LINE
  5
43D
330
18
100
AcDbEntity
  8
Object
100
AcDbLine
 10
3.338
 20
4.791999999999999
 30
0.0
 11
3.272
 21
4.791999999999999
 31
0.0
  0
LINE
  5
43E
330
18
100
AcDbEntity
  8
Object
100
AcDbLine
 10
3.338
 20
4.971
 30
0.0
 11
3.272
 21
4.971
 31
0.0
  0
LINE
  5
43F
330
18
100
AcDbEntity
  8
Object
100
AcDbLine
 10
3.272
 20
4.971
 30
0.0
 11
3.209
 21
4.971
 31
0.0
  0
LINE
  5
440
330
18
100
AcDbEntity
  8
Object
100
AcDbLine
 10
3.272
 20
4.791999999999999
 30
0.0
 11
3.209
 21
4.791999999999999
 31
0.0
  0
LINE
  5
441
330
18
100
AcDbEntity
  8
Object
100
AcDbLine
 10
3.209
 20
4.791999999999999
 30
0.0
 11
3.153999999999999
 21
4.791999999999999
 31
0.0
  0
LINE
  5
442
330
18
100
AcDbEntity
  8
Object
100
AcDbLine
 10
3.209
 20
4.971
 30
0.0
 11
3.153999999999999
 21
4.971
 31
0.0
  0
LINE
  5
443
330
18
100
AcDbEntity
  8
Object
100
AcDbLine
 10
3.153999999999999
 20
4.971
 30
0.0
 11
3.108999999999999
 21
4.971
 31
0.0
  0
LINE
  5
444
330
18
100
AcDbEntity
  8
Object
100
AcDbLine
 10
3.153999999999999
 20
4.791999999999999
 30
0.0
 11
3.108999999999999
 21
4.791999999999999
 31
0.0
  0
LINE
  5
445
330
18
100
AcDbEntity
  8
Object
100
AcDbLine
 10
3.108999999999999
 20
4.791999999999999
 30
0.0
 11
3.075
 21
4.791999999999999
 31
0.0
  0
LINE
  5
446
330
18
100
AcDbEntity
  8
Object
100
AcDbLine
 10
3.108999999999999
 20
4.971
 30
0.0
 11
3.075
 21
4.971
 31
0.0
  0
LINE
  5
447
330
18
100
AcDbEntity
  8
Object
100
AcDbLine
 10
3.075
 20
4.971
 30
0.0
 11
3.054
 21
4.971
 31
0.0
  0
LINE
  5
448
330
18
100
AcDbEntity
  8
Object
100
AcDbLine
 10
3.075
 20
4.791999999999999
 30
0.0
 11
3.054
 21
4.791999999999999
 31
0.0
  0
LINE
  5
449
330
18
100
AcDbEntity
  8
Object
100
AcDbLine
 10
3.054
 20
4.791999999999999
 30
0.0
 11
3.047
 21
4.791999999999999
 31
0.0
  0
LINE
  5
44A
330
18
100
AcDbEntity
  8
Object
100
AcDbLine
 10
3.054
 20
4.971
 30
0.0
 11
3.047
 21
4.971
 31
0.0
  0
LINE
  5
44B
330
18
100
AcDbEntity
  8
Object
100
AcDbLine
 10
3.697
 20
4.791999999999999
 30
0.0
 11
3.697
 21
4.971
 31
0.0
  0
LINE
  5
44C
330
18
100
AcDbEntity
  8
Object
100
AcDbLine
 10
3.697
 20
4.971
 30
0.0
 11
11.997
 21
4.971
 31
0.0
  0
LINE
  5
44D
330
18
100
AcDbEntity
  8
Object
100
AcDbLine
 10
11.997
 20
4.971
 30
0.0
 11
11.997
 21
4.791999999999999
 31
0.0
  0
LINE
  5
44E
330
18
100
AcDbEntity
  8
Object
100
AcDbLine
 10
11.997
 20
4.791999999999999
 30
0.0
 11
3.697
 21
4.791999999999999
 31
0.0
  0
LINE
  5
44F
330
18
100
AcDbEntity
  8
Object
100
AcDbLine
 10
12.372
 20
4.971
 30
0.0
 11
12.372
 21
4.791999999999999
 31
0.0
  0
LINE
  5
450
330
18
100
AcDbEntity
  8
Object
100
AcDbLine
 10
12.372
 20
4.791999999999999
 30
0.0
 11
11.997
 21
4.791999999999999
 31
0.0
  0
LINE
  5
451
330
18
100
AcDbEntity
  8
Object
100
AcDbLine
 10
11.997
 20
4.791999999999999
 30
0.0
 11
3.697
 21
4.791999999999999
 31
0.0
  0
LINE
  5
452
330
18
100
AcDbEntity
  8
Object
100
AcDbLine
 10
3.697
 20
4.791999999999999
 30
0.0
 11
3.689999999999999
 21
4.791999999999999
 31
0.0
  0
LINE
  5
453
330
18
100
AcDbEntity
  8
Object
100
AcDbLine
 10
3.689999999999999
 20
4.791999999999999
 30
0.0
 11
3.669
 21
4.791999999999999
 31
0.0
  0
LINE
  5
454
330
18
100
AcDbEntity
  8
Object
100
AcDbLine
 10
3.669
 20
4.791999999999999
 30
0.0
 11
3.635
 21
4.791999999999999
 31
0.0
  0
LINE
  5
455
330
18
100
AcDbEntity
  8
Object
100
AcDbLine
 10
3.635
 20
4.791999999999999
 30
0.0
 11
3.588999999999999
 21
4.791999999999999
 31
0.0
  0
LINE
  5
456
330
18
100
AcDbEntity
  8
Object
100
AcDbLine
 10
3.588999999999999
 20
4.791999999999999
 30
0.0
 11
3.534
 21
4.791999999999999
 31
0.0
  0
LINE
  5
457
330
18
100
AcDbEntity
  8
Object
100
AcDbLine
 10
3.534
 20
4.791999999999999
 30
0.0
 11
3.471999999999999
 21
4.791999999999999
 31
0.0
  0
LINE
  5
458
330
18
100
AcDbEntity
  8
Object
100
AcDbLine
 10
3.471999999999999
 20
4.791999999999999
 30
0.0
 11
3.406
 21
4.791999999999999
 31
0.0
  0
LINE
  5
459
330
18
100
AcDbEntity
  8
Object
100
AcDbLine
 10
3.406
 20
4.791999999999999
 30
0.0
 11
3.338
 21
4.791999999999999
 31
0.0
  0
LINE
  5
45A
330
18
100
AcDbEntity
  8
Object
100
AcDbLine
 10
3.338
 20
4.791999999999999
 30
0.0
 11
3.272
 21
4.791999999999999
 31
0.0
  0
LINE
  5
45B
330
18
100
AcDbEntity
  8
Object
100
AcDbLine
 10
3.272
 20
4.791999999999999
 30
0.0
 11
3.209
 21
4.791999999999999
 31
0.0
  0
LINE
  5
45C
330
18
100
AcDbEntity
  8
Object
100
AcDbLine
 10
3.209
 20
4.791999999999999
 30
0.0
 11
3.153999999999999
 21
4.791999999999999
 31
0.0
  0
LINE
  5
45D
330
18
100
AcDbEntity
  8
Object
100
AcDbLine
 10
3.153999999999999
 20
4.791999999999999
 30
0.0
 11
3.108999999999999
 21
4.791999999999999
 31
0.0
  0
LINE
  5
45E
330
18
100
AcDbEntity
  8
Object
100
AcDbLine
 10
3.108999999999999
 20
4.791999999999999
 30
0.0
 11
3.075
 21
4.791999999999999
 31
0.0
  0
LINE
  5
45F
330
18
100
AcDbEntity
  8
Object
100
AcDbLine
 10
3.075
 20
4.791999999999999
 30
0.0
 11
3.054
 21
4.791999999999999
 31
0.0
  0
LINE
  5
460
330
18
100
AcDbEntity
  8
Object
100
AcDbLine
 10
3.054
 20
4.791999999999999
 30
0.0
 11
3.047
 21
4.791999999999999
 31
0.0
  0
LINE
  5
461
330
18
100
AcDbEntity
  8
Object
100
AcDbLine
 10
3.047
 20
4.791999999999999
 30
0.0
 11
2.746999999999999
 21
4.791999999999999
 31
0.0
  0
LINE
  5
462
330
18
100
AcDbEntity
  8
Object
100
AcDbLine
 10
2.746999999999999
 20
4.791999999999999
 30
0.0
 11
2.371999999999999
 21
4.791999999999999
 31
0.0
  0
LINE
  5
463
330
18
100
AcDbEntity
  8
Object
100
AcDbLine
 10
5.070999999999999
 20
5.070999999999999
 30
0.0
 11
5.065
 21
5.068
 31
0.0
  0
LINE
  5
464
330
18
100
AcDbEntity
  8
Object
100
AcDbLine
 10
5.065
 20
5.068
 30
0.0
 11
5.06
 21
5.062999999999999
 31
0.0
  0
LINE
  5
465
330
18
100
AcDbEntity
  8
Object
100
AcDbLine
 10
5.06
 20
5.062999999999999
 30
0.0
 11
5.057999999999999
 21
5.057
 31
0.0
  0
LINE
  5
466
330
18
100
AcDbEntity
  8
Object
100
AcDbLine
 10
5.064
 20
5.145
 30
0.0
 11
5.227999999999999
 21
5.163
 31
0.0
  0
LINE
  5
467
330
18
100
AcDbEntity
  8
Object
100
AcDbLine
 10
5.227999999999999
 20
5.163
 30
0.0
 11
5.235999999999999
 21
5.088
 31
0.0
  0
LINE
  5
468
330
18
100
AcDbEntity
  8
Object
100
AcDbLine
 10
5.235999999999999
 20
5.088
 30
0.0
 11
5.070999999999999
 21
5.070999999999999
 31
0.0
  0
LINE
  5
469
330
18
100
AcDbEntity
  8
Object
100
AcDbLine
 10
5.070999999999999
 20
5.070999999999999
 30
0.0
 11
5.065
 21
5.068
 31
0.0
  0
LINE
  5
46A
330
18
100
AcDbEntity
  8
Object
100
AcDbLine
 10
5.064
 20
5.145
 30
0.0
 11
5.033
 21
5.137
 31
0.0
  0
LINE
  5
46B
330
18
100
AcDbEntity
  8
Object
100
AcDbLine
 10
5.033
 20
5.137
 30
0.0
 11
5.006999999999999
 21
5.118
 31
0.0
  0
LINE
  5
46C
330
18
100
AcDbEntity
  8
Object
100
AcDbLine
 10
5.065
 20
5.068
 30
0.0
 11
5.06
 21
5.062999999999999
 31
0.0
  0
LINE
  5
46D
330
18
100
AcDbEntity
  8
Object
100
AcDbLine
 10
5.06
 20
5.062999999999999
 30
0.0
 11
5.057999999999999
 21
5.057
 31
0.0
  0
LINE
  5
46E
330
18
100
AcDbEntity
  8
Object
100
AcDbLine
 10
5.006999999999999
 20
5.118
 30
0.0
 11
4.99
 21
5.091
 31
0.0
  0
LINE
  5
46F
330
18
100
AcDbEntity
  8
Object
100
AcDbLine
 10
4.99
 20
5.091
 30
0.0
 11
4.983
 21
5.06
 31
0.0
  0
LINE
  5
470
330
18
100
AcDbEntity
  8
Object
100
AcDbLine
 10
5.057999999999999
 20
5.057
 30
0.0
 11
5.049999999999999
 21
5.022999999999999
 31
0.0
  0
LINE
  5
471
330
18
100
AcDbEntity
  8
Object
100
AcDbLine
 10
5.049999999999999
 20
5.022999999999999
 30
0.0
 11
5.03
 21
4.996
 31
0.0
  0
LINE
  5
472
330
18
100
AcDbEntity
  8
Object
100
AcDbLine
 10
4.983
 20
5.06
 30
0.0
 11
4.980999999999999
 21
5.052999999999999
 31
0.0
  0
LINE
  5
473
330
18
100
AcDbEntity
  8
Object
100
AcDbLine
 10
4.980999999999999
 20
5.052999999999999
 30
0.0
 11
4.975
 21
5.048
 31
0.0
  0
LINE
  5
474
330
18
100
AcDbEntity
  8
Object
100
AcDbLine
 10
5.03
 20
4.996
 30
0.0
 11
5.001999999999999
 21
4.977
 31
0.0
  0
LINE
  5
475
330
18
100
AcDbEntity
  8
Object
100
AcDbLine
 10
5.001999999999999
 20
4.977
 30
0.0
 11
4.967999999999999
 21
4.971
 31
0.0
  0
LINE
  5
476
330
18
100
AcDbEntity
  8
Object
100
AcDbLine
 10
4.975
 20
5.048
 30
0.0
 11
4.967999999999999
 21
5.046
 31
0.0
  0
LINE
  5
477
330
18
100
AcDbEntity
  8
Object
100
AcDbLine
 10
4.967999999999999
 20
5.046
 30
0.0
 11
4.461
 21
5.046
 31
0.0
  0
LINE
  5
478
330
18
100
AcDbEntity
  8
Object
100
AcDbLine
 10
5.057999999999999
 20
5.057
 30
0.0
 11
5.049999999999999
 21
5.022999999999999
 31
0.0
  0
LINE
  5
479
330
18
100
AcDbEntity
  8
Object
100
AcDbLine
 10
5.049999999999999
 20
5.022999999999999
 30
0.0
 11
5.03
 21
4.996
 31
0.0
  0
LINE
  5
47A
330
18
100
AcDbEntity
  8
Object
100
AcDbLine
 10
5.03
 20
4.996
 30
0.0
 11
5.001999999999999
 21
4.977
 31
0.0
  0
LINE
  5
47B
330
18
100
AcDbEntity
  8
Object
100
AcDbLine
 10
5.001999999999999
 20
4.977
 30
0.0
 11
4.967999999999999
 21
4.971
 31
0.0
  0
LINE
  5
47C
330
18
100
AcDbEntity
  8
Object
100
AcDbLine
 10
5.275
 20
5.092
 30
0.0
 11
5.27
 21
5.092
 31
0.0
  0
LINE
  5
47D
330
18
100
AcDbEntity
  8
Object
100
AcDbLine
 10
5.27
 20
5.092
 30
0.0
 11
5.256
 21
5.089999999999999
 31
0.0
  0
LINE
  5
47E
330
18
100
AcDbEntity
  8
Object
100
AcDbLine
 10
5.256
 20
5.089999999999999
 30
0.0
 11
5.235999999999999
 21
5.088
 31
0.0
  0
LINE
  5
47F
330
18
100
AcDbEntity
  8
Object
100
AcDbLine
 10
5.235999999999999
 20
5.088
 30
0.0
 11
5.070999999999999
 21
5.070999999999999
 31
0.0
  0
LINE
  5
480
330
18
100
AcDbEntity
  8
Object
100
AcDbLine
 10
4.967999999999999
 20
5.046
 30
0.0
 11
4.461
 21
5.046
 31
0.0
  0
LINE
  5
481
330
18
100
AcDbEntity
  8
Object
100
AcDbLine
 10
4.461
 20
5.046
 30
0.0
 11
4.421999999999999
 21
5.046
 31
0.0
  0
LINE
  5
482
330
18
100
AcDbEntity
  8
Object
100
AcDbLine
 10
4.421999999999999
 20
5.046
 30
0.0
 11
4.387999999999999
 21
5.046
 31
0.0
  0
LINE
  5
483
330
18
100
AcDbEntity
  8
Object
100
AcDbLine
 10
4.387999999999999
 20
5.046
 30
0.0
 11
4.36
 21
5.046
 31
0.0
  0
LINE
  5
484
330
18
100
AcDbEntity
  8
Object
100
AcDbLine
 10
4.36
 20
5.046
 30
0.0
 11
4.342
 21
5.046
 31
0.0
  0
LINE
  5
485
330
18
100
AcDbEntity
  8
Object
100
AcDbLine
 10
4.342
 20
5.046
 30
0.0
 11
4.336
 21
5.046
 31
0.0
  0
LINE
  5
486
330
18
100
AcDbEntity
  8
Object
100
AcDbLine
 10
5.064
 20
5.145
 30
0.0
 11
5.033
 21
5.137
 31
0.0
  0
LINE
  5
487
330
18
100
AcDbEntity
  8
Object
100
AcDbLine
 10
5.033
 20
5.137
 30
0.0
 11
5.006999999999999
 21
5.118
 31
0.0
  0
LINE
  5
488
330
18
100
AcDbEntity
  8
Object
100
AcDbLine
 10
5.006999999999999
 20
5.118
 30
0.0
 11
4.99
 21
5.091
 31
0.0
  0
LINE
  5
489
330
18
100
AcDbEntity
  8
Object
100
AcDbLine
 10
4.99
 20
5.091
 30
0.0
 11
4.983
 21
5.06
 31
0.0
  0
LINE
  5
48A
330
18
100
AcDbEntity
  8
Object
100
AcDbLine
 10
4.983
 20
5.06
 30
0.0
 11
4.980999999999999
 21
5.052999999999999
 31
0.0
  0
LINE
  5
48B
330
18
100
AcDbEntity
  8
Object
100
AcDbLine
 10
4.980999999999999
 20
5.052999999999999
 30
0.0
 11
4.975
 21
5.048
 31
0.0
  0
LINE
  5
48C
330
18
100
AcDbEntity
  8
Object
100
AcDbLine
 10
4.975
 20
5.048
 30
0.0
 11
4.967999999999999
 21
5.046
 31
0.0
  0
LINE
  5
48D
330
18
100
AcDbEntity
  8
Object
100
AcDbLine
 10
5.267999999999999
 20
5.166999999999999
 30
0.0
 11
5.262
 21
5.166
 31
0.0
  0
LINE
  5
48E
330
18
100
AcDbEntity
  8
Object
100
AcDbLine
 10
5.262
 20
5.166
 30
0.0
 11
5.248
 21
5.165
 31
0.0
  0
LINE
  5
48F
330
18
100
AcDbEntity
  8
Object
100
AcDbLine
 10
5.248
 20
5.165
 30
0.0
 11
5.227999999999999
 21
5.163
 31
0.0
  0
LINE
  5
490
330
18
100
AcDbEntity
  8
Object
100
AcDbLine
 10
5.227999999999999
 20
5.163
 30
0.0
 11
5.064
 21
5.145
 31
0.0
  0
LINE
  5
491
330
18
100
AcDbEntity
  8
Object
100
AcDbLine
 10
4.421999999999999
 20
5.046
 30
0.0
 11
4.461
 21
5.046
 31
0.0
  0
LINE
  5
492
330
18
100
AcDbEntity
  8
Object
100
AcDbLine
 10
4.461
 20
5.046
 30
0.0
 11
4.461
 21
4.971
 31
0.0
  0
LINE
  5
493
330
18
100
AcDbEntity
  8
Object
100
AcDbLine
 10
4.421999999999999
 20
5.046
 30
0.0
 11
4.387999999999999
 21
5.046
 31
0.0
  0
LINE
  5
494
330
18
100
AcDbEntity
  8
Object
100
AcDbLine
 10
4.387999999999999
 20
5.046
 30
0.0
 11
4.36
 21
5.046
 31
0.0
  0
LINE
  5
495
330
18
100
AcDbEntity
  8
Object
100
AcDbLine
 10
4.36
 20
5.046
 30
0.0
 11
4.342
 21
5.046
 31
0.0
  0
LINE
  5
496
330
18
100
AcDbEntity
  8
Object
100
AcDbLine
 10
4.342
 20
5.046
 30
0.0
 11
4.336
 21
5.046
 31
0.0
  0
LINE
  5
497
330
18
100
AcDbEntity
  8
Object
100
AcDbLine
 10
4.336
 20
5.046
 30
0.0
 11
4.336
 21
4.971
 31
0.0
  0
LINE
  5
498
330
18
100
AcDbEntity
  8
Object
100
AcDbLine
 10
5.27
 20
5.092
 30
0.0
 11
5.275
 21
5.092
 31
0.0
  0
LINE
  5
499
330
18
100
AcDbEntity
  8
Object
100
AcDbLine
 10
5.262
 20
5.166
 30
0.0
 11
5.267999999999999
 21
5.166999999999999
 31
0.0
  0
LINE
  5
49A
330
18
100
AcDbEntity
  8
Object
100
AcDbLine
 10
5.267999999999999
 20
5.166999999999999
 30
0.0
 11
5.275
 21
5.092
 31
0.0
  0
LINE
  5
49B
330
18
100
AcDbEntity
  8
Object
100
AcDbLine
 10
5.262
 20
5.166
 30
0.0
 11
5.248
 21
5.165
 31
0.0
  0
LINE
  5
49C
330
18
100
AcDbEntity
  8
Object
100
AcDbLine
 10
5.27
 20
5.092
 30
0.0
 11
5.256
 21
5.089999999999999
 31
0.0
  0
LINE
  5
49D
330
18
100
AcDbEntity
  8
Object
100
AcDbLine
 10
5.256
 20
5.089999999999999
 30
0.0
 11
5.235999999999999
 21
5.088
 31
0.0
  0
LINE
  5
49E
330
18
100
AcDbEntity
  8
Object
100
AcDbLine
 10
5.248
 20
5.165
 30
0.0
 11
5.227999999999999
 21
5.163
 31
0.0
  0
LINE
  5
49F
330
18
100
AcDbEntity
  8
Object
100
AcDbLine
 10
5.275
 20
5.092
 30
0.0
 11
5.267999999999999
 21
5.166999999999999
 31
0.0
  0
LINE
  5
4A0
330
18
100
AcDbEntity
  8
Object
100
AcDbLine
 10
4.336
 20
5.046
 30
0.0
 11
4.336
 21
4.971
 31
0.0
  0
LINE
  5
4A1
330
18
100
AcDbEntity
  8
Object
100
AcDbLine
 10
5.288999999999999
 20
4.732
 30
0.0
 11
5.286
 21
4.735
 31
0.0
  0
LINE
  5
4A2
330
18
100
AcDbEntity
  8
Object
100
AcDbLine
 10
5.286
 20
4.735
 30
0.0
 11
5.278
 21
4.743
 31
0.0
  0
LINE
  5
4A3
330
18
100
AcDbEntity
  8
Object
100
AcDbLine
 10
5.278
 20
4.743
 30
0.0
 11
5.267999999999999
 21
4.754
 31
0.0
  0
LINE
  5
4A4
330
18
100
AcDbEntity
  8
Object
100
AcDbLine
 10
5.049999999999999
 20
4.971
 30
0.0
 11
5.027
 21
4.993999999999999
 31
0.0
  0
LINE
  5
4A5
330
18
100
AcDbEntity
  8
Object
100
AcDbLine
 10
5.267999999999999
 20
4.754
 30
0.0
 11
5.229
 21
4.791999999999999
 31
0.0
  0
LINE
  5
4A6
330
18
100
AcDbEntity
  8
Object
100
AcDbLine
 10
5.235999999999999
 20
4.679
 30
0.0
 11
5.233
 21
4.682
 31
0.0
  0
LINE
  5
4A7
330
18
100
AcDbEntity
  8
Object
100
AcDbLine
 10
5.233
 20
4.682
 30
0.0
 11
5.225
 21
4.69
 31
0.0
  0
LINE
  5
4A8
330
18
100
AcDbEntity
  8
Object
100
AcDbLine
 10
5.225
 20
4.69
 30
0.0
 11
5.214999999999999
 21
4.7
 31
0.0
  0
LINE
  5
4A9
330
18
100
AcDbEntity
  8
Object
100
AcDbLine
 10
5.214999999999999
 20
4.7
 30
0.0
 11
5.123
 21
4.791999999999999
 31
0.0
  0
LINE
  5
4AA
330
18
100
AcDbEntity
  8
Object
100
AcDbLine
 10
5.049999999999999
 20
4.971
 30
0.0
 11
5.027
 21
4.993999999999999
 31
0.0
  0
LINE
  5
4AB
330
18
100
AcDbEntity
  8
Object
100
AcDbLine
 10
5.229
 20
4.791999999999999
 30
0.0
 11
5.267999999999999
 21
4.754
 31
0.0
  0
LINE
  5
4AC
330
18
100
AcDbEntity
  8
Object
100
AcDbLine
 10
5.267999999999999
 20
4.754
 30
0.0
 11
5.214999999999999
 21
4.7
 31
0.0
  0
LINE
  5
4AD
330
18
100
AcDbEntity
  8
Object
100
AcDbLine
 10
5.214999999999999
 20
4.7
 30
0.0
 11
5.123
 21
4.791999999999999
 31
0.0
  0
LINE
  5
4AE
330
18
100
AcDbEntity
  8
Object
100
AcDbLine
 10
5.286
 20
4.735
 30
0.0
 11
5.288999999999999
 21
4.732
 31
0.0
  0
LINE
  5
4AF
330
18
100
AcDbEntity
  8
Object
100
AcDbLine
 10
5.288999999999999
 20
4.732
 30
0.0
 11
5.235999999999999
 21
4.679
 31
0.0
  0
LINE
  5
4B0
330
18
100
AcDbEntity
  8
Object
100
AcDbLine
 10
5.286
 20
4.735
 30
0.0
 11
5.278
 21
4.743
 31
0.0
  0
LINE
  5
4B1
330
18
100
AcDbEntity
  8
Object
100
AcDbLine
 10
5.235999999999999
 20
4.679
 30
0.0
 11
5.233
 21
4.682
 31
0.0
  0
LINE
  5
4B2
330
18
100
AcDbEntity
  8
Object
100
AcDbLine
 10
5.233
 20
4.682
 30
0.0
 11
5.225
 21
4.69
 31
0.0
  0
LINE
  5
4B3
330
18
100
AcDbEntity
  8
Object
100
AcDbLine
 10
5.278
 20
4.743
 30
0.0
 11
5.267999999999999
 21
4.754
 31
0.0
  0
LINE
  5
4B4
330
18
100
AcDbEntity
  8
Object
100
AcDbLine
 10
5.214999999999999
 20
4.7
 30
0.0
 11
5.225
 21
4.69
 31
0.0
  0
LINE
  5
4B5
330
18
100
AcDbEntity
  8
Object
100
AcDbLine
 10
5.235999999999999
 20
4.679
 30
0.0
 11
5.288999999999999
 21
4.732
 31
0.0
  0
LINE
  5
4B6
330
18
100
AcDbEntity
  8
Object
100
AcDbLine
 10
4.879999999999999
 20
4.73
 30
0.0
 11
4.879
 21
4.73
 31
0.0
  0
LINE
  5
4B7
330
18
100
AcDbEntity
  8
Object
100
AcDbLine
 10
4.879
 20
4.73
 30
0.0
 11
4.865
 21
4.73
 31
0.0
  0
LINE
  5
4B8
330
18
100
AcDbEntity
  8
Object
100
AcDbLine
 10
4.865
 20
4.73
 30
0.0
 11
4.836999999999999
 21
4.73
 31
0.0
  0
LINE
  5
4B9
330
18
100
AcDbEntity
  8
Object
100
AcDbLine
 10
4.836999999999999
 20
4.73
 30
0.0
 11
4.798
 21
4.73
 31
0.0
  0
LINE
  5
4BA
330
18
100
AcDbEntity
  8
Object
100
AcDbLine
 10
4.798
 20
4.73
 30
0.0
 11
4.75
 21
4.73
 31
0.0
  0
LINE
  5
4BB
330
18
100
AcDbEntity
  8
Object
100
AcDbLine
 10
4.75
 20
4.73
 30
0.0
 11
4.695
 21
4.73
 31
0.0
  0
LINE
  5
4BC
330
18
100
AcDbEntity
  8
Object
100
AcDbLine
 10
4.695
 20
4.73
 30
0.0
 11
4.637
 21
4.73
 31
0.0
  0
LINE
  5
4BD
330
18
100
AcDbEntity
  8
Object
100
AcDbLine
 10
4.637
 20
4.73
 30
0.0
 11
4.578999999999999
 21
4.73
 31
0.0
  0
LINE
  5
4BE
330
18
100
AcDbEntity
  8
Object
100
AcDbLine
 10
4.578999999999999
 20
4.73
 30
0.0
 11
4.524
 21
4.73
 31
0.0
  0
LINE
  5
4BF
330
18
100
AcDbEntity
  8
Object
100
AcDbLine
 10
4.524
 20
4.73
 30
0.0
 11
4.475999999999999
 21
4.73
 31
0.0
  0
LINE
  5
4C0
330
18
100
AcDbEntity
  8
Object
100
AcDbLine
 10
4.475999999999999
 20
4.73
 30
0.0
 11
4.437
 21
4.73
 31
0.0
  0
LINE
  5
4C1
330
18
100
AcDbEntity
  8
Object
100
AcDbLine
 10
4.437
 20
4.73
 30
0.0
 11
4.408999999999999
 21
4.73
 31
0.0
  0
LINE
  5
4C2
330
18
100
AcDbEntity
  8
Object
100
AcDbLine
 10
4.408999999999999
 20
4.73
 30
0.0
 11
4.395
 21
4.73
 31
0.0
  0
LINE
  5
4C3
330
18
100
AcDbEntity
  8
Object
100
AcDbLine
 10
4.395
 20
4.73
 30
0.0
 11
4.394
 21
4.73
 31
0.0
  0
LINE
  5
4C4
330
18
100
AcDbEntity
  8
Object
100
AcDbLine
 10
4.879
 20
4.73
 30
0.0
 11
4.879999999999999
 21
4.73
 31
0.0
  0
LINE
  5
4C5
330
18
100
AcDbEntity
  8
Object
100
AcDbLine
 10
4.879999999999999
 20
4.73
 30
0.0
 11
4.879999999999999
 21
4.791999999999999
 31
0.0
  0
LINE
  5
4C6
330
18
100
AcDbEntity
  8
Object
100
AcDbLine
 10
4.879
 20
4.73
 30
0.0
 11
4.865
 21
4.73
 31
0.0
  0
LINE
  5
4C7
330
18
100
AcDbEntity
  8
Object
100
AcDbLine
 10
4.865
 20
4.73
 30
0.0
 11
4.836999999999999
 21
4.73
 31
0.0
  0
LINE
  5
4C8
330
18
100
AcDbEntity
  8
Object
100
AcDbLine
 10
4.836999999999999
 20
4.73
 30
0.0
 11
4.798
 21
4.73
 31
0.0
  0
LINE
  5
4C9
330
18
100
AcDbEntity
  8
Object
100
AcDbLine
 10
4.798
 20
4.73
 30
0.0
 11
4.75
 21
4.73
 31
0.0
  0
LINE
  5
4CA
330
18
100
AcDbEntity
  8
Object
100
AcDbLine
 10
4.75
 20
4.73
 30
0.0
 11
4.695
 21
4.73
 31
0.0
  0
LINE
  5
4CB
330
18
100
AcDbEntity
  8
Object
100
AcDbLine
 10
4.695
 20
4.73
 30
0.0
 11
4.637
 21
4.73
 31
0.0
  0
LINE
  5
4CC
330
18
100
AcDbEntity
  8
Object
100
AcDbLine
 10
4.637
 20
4.73
 30
0.0
 11
4.578999999999999
 21
4.73
 31
0.0
  0
LINE
  5
4CD
330
18
100
AcDbEntity
  8
Object
100
AcDbLine
 10
4.637
 20
4.73
 30
0.0
 11
4.637
 21
4.791999999999999
 31
0.0
  0
LINE
  5
4CE
330
18
100
AcDbEntity
  8
Object
100
AcDbLine
 10
4.578999999999999
 20
4.73
 30
0.0
 11
4.524
 21
4.73
 31
0.0
  0
LINE
  5
4CF
330
18
100
AcDbEntity
  8
Object
100
AcDbLine
 10
4.524
 20
4.73
 30
0.0
 11
4.475999999999999
 21
4.73
 31
0.0
  0
LINE
  5
4D0
330
18
100
AcDbEntity
  8
Object
100
AcDbLine
 10
4.475999999999999
 20
4.73
 30
0.0
 11
4.437
 21
4.73
 31
0.0
  0
LINE
  5
4D1
330
18
100
AcDbEntity
  8
Object
100
AcDbLine
 10
4.437
 20
4.73
 30
0.0
 11
4.408999999999999
 21
4.73
 31
0.0
  0
LINE
  5
4D2
330
18
100
AcDbEntity
  8
Object
100
AcDbLine
 10
4.408999999999999
 20
4.73
 30
0.0
 11
4.395
 21
4.73
 31
0.0
  0
LINE
  5
4D3
330
18
100
AcDbEntity
  8
Object
100
AcDbLine
 10
4.394
 20
4.791999999999999
 30
0.0
 11
4.394
 21
4.73
 31
0.0
  0
LINE
  5
4D4
330
18
100
AcDbEntity
  8
Object
100
AcDbLine
 10
4.394
 20
4.73
 30
0.0
 11
4.395
 21
4.73
 31
0.0
  0
LINE
  5
4D5
330
18
100
AcDbEntity
  8
Object
100
AcDbLine
 10
4.847
 20
5.216
 30
0.0
 11
4.839999999999999
 21
5.216
 31
0.0
  0
LINE
  5
4D6
330
18
100
AcDbEntity
  8
Object
100
AcDbLine
 10
4.839999999999999
 20
5.216
 30
0.0
 11
4.818999999999999
 21
5.216
 31
0.0
  0
LINE
  5
4D7
330
18
100
AcDbEntity
  8
Object
100
AcDbLine
 10
4.818999999999999
 20
5.216
 30
0.0
 11
4.786
 21
5.216
 31
0.0
  0
LINE
  5
4D8
330
18
100
AcDbEntity
  8
Object
100
AcDbLine
 10
4.751999999999999
 20
5.216
 30
0.0
 11
4.761
 21
5.216
 31
0.0
  0
LINE
  5
4D9
330
18
100
AcDbEntity
  8
Object
100
AcDbLine
 10
4.786
 20
5.216
 30
0.0
 11
4.741999999999999
 21
5.216
 31
0.0
  0
LINE
  5
4DA
330
18
100
AcDbEntity
  8
Object
100
AcDbLine
 10
4.741999999999999
 20
5.216
 30
0.0
 11
4.690999999999999
 21
5.216
 31
0.0
  0
LINE
  5
4DB
330
18
100
AcDbEntity
  8
Object
100
AcDbLine
 10
4.690999999999999
 20
5.216
 30
0.0
 11
4.637
 21
5.216
 31
0.0
  0
LINE
  5
4DC
330
18
100
AcDbEntity
  8
Object
100
AcDbLine
 10
4.637
 20
5.216
 30
0.0
 11
4.583
 21
5.216
 31
0.0
  0
LINE
  5
4DD
330
18
100
AcDbEntity
  8
Object
100
AcDbLine
 10
4.583
 20
5.216
 30
0.0
 11
4.532
 21
5.216
 31
0.0
  0
LINE
  5
4DE
330
18
100
AcDbEntity
  8
Object
100
AcDbLine
 10
4.532
 20
5.216
 30
0.0
 11
4.488999999999999
 21
5.216
 31
0.0
  0
LINE
  5
4DF
330
18
100
AcDbEntity
  8
Object
100
AcDbLine
 10
4.488999999999999
 20
5.216
 30
0.0
 11
4.455
 21
5.216
 31
0.0
  0
LINE
  5
4E0
330
18
100
AcDbEntity
  8
Object
100
AcDbLine
 10
4.455
 20
5.216
 30
0.0
 11
4.434
 21
5.216
 31
0.0
  0
LINE
  5
4E1
330
18
100
AcDbEntity
  8
Object
100
AcDbLine
 10
4.434
 20
5.216
 30
0.0
 11
4.427
 21
5.216
 31
0.0
  0
LINE
  5
4E2
330
18
100
AcDbEntity
  8
Object
100
AcDbLine
 10
4.85
 20
5.206
 30
0.0
 11
4.857
 21
5.206
 31
0.0
  0
LINE
  5
4E3
330
18
100
AcDbEntity
  8
Object
100
AcDbLine
 10
4.857
 20
5.206
 30
0.0
 11
4.847
 21
5.216
 31
0.0
  0
LINE
  5
4E4
330
18
100
AcDbEntity
  8
Object
100
AcDbLine
 10
4.847
 20
5.216
 30
0.0
 11
4.839999999999999
 21
5.216
 31
0.0
  0
LINE
  5
4E5
330
18
100
AcDbEntity
  8
Object
100
AcDbLine
 10
4.839999999999999
 20
5.216
 30
0.0
 11
4.818999999999999
 21
5.216
 31
0.0
  0
LINE
  5
4E6
330
18
100
AcDbEntity
  8
Object
100
AcDbLine
 10
4.818999999999999
 20
5.216
 30
0.0
 11
4.786
 21
5.216
 31
0.0
  0
LINE
  5
4E7
330
18
100
AcDbEntity
  8
Object
100
AcDbLine
 10
4.828
 20
5.206
 30
0.0
 11
4.793
 21
5.206
 31
0.0
  0
LINE
  5
4E8
330
18
100
AcDbEntity
  8
Object
100
AcDbLine
 10
4.793
 20
5.206
 30
0.0
 11
4.746999999999999
 21
5.206
 31
0.0
  0
LINE
  5
4E9
330
18
100
AcDbEntity
  8
Object
100
AcDbLine
 10
4.786
 20
5.216
 30
0.0
 11
4.741999999999999
 21
5.216
 31
0.0
  0
LINE
  5
4EA
330
18
100
AcDbEntity
  8
Object
100
AcDbLine
 10
4.741999999999999
 20
5.216
 30
0.0
 11
4.690999999999999
 21
5.216
 31
0.0
  0
LINE
  5
4EB
330
18
100
AcDbEntity
  8
Object
100
AcDbLine
 10
4.693999999999999
 20
5.206
 30
0.0
 11
4.746999999999999
 21
5.206
 31
0.0
  0
LINE
  5
4EC
330
18
100
AcDbEntity
  8
Object
100
AcDbLine
 10
4.690999999999999
 20
5.216
 30
0.0
 11
4.637
 21
5.216
 31
0.0
  0
LINE
  5
4ED
330
18
100
AcDbEntity
  8
Object
100
AcDbLine
 10
4.637
 20
5.216
 30
0.0
 11
4.583
 21
5.216
 31
0.0
  0
LINE
  5
4EE
330
18
100
AcDbEntity
  8
Object
100
AcDbLine
 10
4.637
 20
5.206
 30
0.0
 11
4.637
 21
5.216
 31
0.0
  0
LINE
  5
4EF
330
18
100
AcDbEntity
  8
Object
100
AcDbLine
 10
4.583
 20
5.216
 30
0.0
 11
4.532
 21
5.216
 31
0.0
  0
LINE
  5
4F0
330
18
100
AcDbEntity
  8
Object
100
AcDbLine
 10
4.532
 20
5.216
 30
0.0
 11
4.488999999999999
 21
5.216
 31
0.0
  0
LINE
  5
4F1
330
18
100
AcDbEntity
  8
Object
100
AcDbLine
 10
4.488999999999999
 20
5.216
 30
0.0
 11
4.455
 21
5.216
 31
0.0
  0
LINE
  5
4F2
330
18
100
AcDbEntity
  8
Object
100
AcDbLine
 10
4.455
 20
5.216
 30
0.0
 11
4.434
 21
5.216
 31
0.0
  0
LINE
  5
4F3
330
18
100
AcDbEntity
  8
Object
100
AcDbLine
 10
4.416999999999999
 20
5.206
 30
0.0
 11
4.427
 21
5.216
 31
0.0
  0
LINE
  5
4F4
330
18
100
AcDbEntity
  8
Object
100
AcDbLine
 10
4.427
 20
5.216
 30
0.0
 11
4.434
 21
5.216
 31
0.0
  0
LINE
  5
4F5
330
18
100
AcDbEntity
  8
Object
100
AcDbLine
 10
4.857
 20
5.046
 30
0.0
 11
4.857
 21
5.206
 31
0.0
  0
LINE
  5
4F6
330
18
100
AcDbEntity
  8
Object
100
AcDbLine
 10
4.85
 20
5.206
 30
0.0
 11
4.828
 21
5.206
 31
0.0
  0
LINE
  5
4F7
330
18
100
AcDbEntity
  8
Object
100
AcDbLine
 10
4.693999999999999
 20
5.206
 30
0.0
 11
4.637
 21
5.206
 31
0.0
  0
LINE
  5
4F8
330
18
100
AcDbEntity
  8
Object
100
AcDbLine
 10
4.637
 20
5.206
 30
0.0
 11
4.58
 21
5.206
 31
0.0
  0
LINE
  5
4F9
330
18
100
AcDbEntity
  8
Object
100
AcDbLine
 10
4.637
 20
5.046
 30
0.0
 11
4.637
 21
5.206
 31
0.0
  0
LINE
  5
4FA
330
18
100
AcDbEntity
  8
Object
100
AcDbLine
 10
4.58
 20
5.206
 30
0.0
 11
4.527
 21
5.206
 31
0.0
  0
LINE
  5
4FB
330
18
100
AcDbEntity
  8
Object
100
AcDbLine
 10
4.527
 20
5.206
 30
0.0
 11
4.480999999999999
 21
5.206
 31
0.0
  0
LINE
  5
4FC
330
18
100
AcDbEntity
  8
Object
100
AcDbLine
 10
4.480999999999999
 20
5.206
 30
0.0
 11
4.447
 21
5.206
 31
0.0
  0
LINE
  5
4FD
330
18
100
AcDbEntity
  8
Object
100
AcDbLine
 10
4.447
 20
5.206
 30
0.0
 11
4.424999999999999
 21
5.206
 31
0.0
  0
LINE
  5
4FE
330
18
100
AcDbEntity
  8
Object
100
AcDbLine
 10
4.424999999999999
 20
5.206
 30
0.0
 11
4.416999999999999
 21
5.206
 31
0.0
  0
LINE
  5
4FF
330
18
100
AcDbEntity
  8
Object
100
AcDbLine
 10
4.416999999999999
 20
5.206
 30
0.0
 11
4.416999999999999
 21
5.046
 31
0.0
  0
LINE
  5
500
330
18
100
AcDbEntity
  8
Object
100
AcDbLine
 10
4.855999999999999
 20
4.567
 30
0.0
 11
4.849
 21
4.567
 31
0.0
  0
LINE
  5
501
330
18
100
AcDbEntity
  8
Object
100
AcDbLine
 10
4.849
 20
4.567
 30
0.0
 11
4.826999999999999
 21
4.567
 31
0.0
  0
LINE
  5
502
330
18
100
AcDbEntity
  8
Object
100
AcDbLine
 10
4.826999999999999
 20
4.567
 30
0.0
 11
4.791999999999999
 21
4.567
 31
0.0
  0
LINE
  5
503
330
18
100
AcDbEntity
  8
Object
100
AcDbLine
 10
4.791999999999999
 20
4.567
 30
0.0
 11
4.746999999999999
 21
4.567
 31
0.0
  0
LINE
  5
504
330
18
100
AcDbEntity
  8
Object
100
AcDbLine
 10
4.746999999999999
 20
4.567
 30
0.0
 11
4.693999999999999
 21
4.567
 31
0.0
  0
LINE
  5
505
330
18
100
AcDbEntity
  8
Object
100
AcDbLine
 10
4.693999999999999
 20
4.567
 30
0.0
 11
4.637
 21
4.567
 31
0.0
  0
LINE
  5
506
330
18
100
AcDbEntity
  8
Object
100
AcDbLine
 10
4.637
 20
4.567
 30
0.0
 11
4.58
 21
4.567
 31
0.0
  0
LINE
  5
507
330
18
100
AcDbEntity
  8
Object
100
AcDbLine
 10
4.58
 20
4.567
 30
0.0
 11
4.528
 21
4.567
 31
0.0
  0
LINE
  5
508
330
18
100
AcDbEntity
  8
Object
100
AcDbLine
 10
4.528
 20
4.567
 30
0.0
 11
4.496999999999999
 21
4.567
 31
0.0
  0
LINE
  5
509
330
18
100
AcDbEntity
  8
Object
100
AcDbLine
 10
4.496999999999999
 20
4.567
 30
0.0
 11
4.471
 21
4.567
 31
0.0
  0
LINE
  5
50A
330
18
100
AcDbEntity
  8
Object
100
AcDbLine
 10
4.471
 20
4.567
 30
0.0
 11
4.45
 21
4.567
 31
0.0
  0
LINE
  5
50B
330
18
100
AcDbEntity
  8
Object
100
AcDbLine
 10
4.45
 20
4.567
 30
0.0
 11
4.432
 21
4.567
 31
0.0
  0
LINE
  5
50C
330
18
100
AcDbEntity
  8
Object
100
AcDbLine
 10
4.432
 20
4.567
 30
0.0
 11
4.421999999999999
 21
4.567
 31
0.0
  0
LINE
  5
50D
330
18
100
AcDbEntity
  8
Object
100
AcDbLine
 10
4.421999999999999
 20
4.567
 30
0.0
 11
4.418
 21
4.567
 31
0.0
  0
LINE
  5
50E
330
18
100
AcDbEntity
  8
Object
100
AcDbLine
 10
4.855999999999999
 20
4.567
 30
0.0
 11
4.855999999999999
 21
4.572
 31
0.0
  0
LINE
  5
50F
330
18
100
AcDbEntity
  8
Object
100
AcDbLine
 10
4.855999999999999
 20
4.572
 30
0.0
 11
4.855999999999999
 21
4.586
 31
0.0
  0
LINE
  5
510
330
18
100
AcDbEntity
  8
Object
100
AcDbLine
 10
4.855999999999999
 20
4.586
 30
0.0
 11
4.855999999999999
 21
4.709999999999999
 31
0.0
  0
LINE
  5
511
330
18
100
AcDbEntity
  8
Object
100
AcDbLine
 10
4.855999999999999
 20
4.709999999999999
 30
0.0
 11
4.855999999999999
 21
4.724
 31
0.0
  0
LINE
  5
512
330
18
100
AcDbEntity
  8
Object
100
AcDbLine
 10
4.855999999999999
 20
4.724
 30
0.0
 11
4.855999999999999
 21
4.73
 31
0.0
  0
LINE
  5
513
330
18
100
AcDbEntity
  8
Object
100
AcDbLine
 10
4.418
 20
4.73
 30
0.0
 11
4.418
 21
4.724
 31
0.0
  0
LINE
  5
514
330
18
100
AcDbEntity
  8
Object
100
AcDbLine
 10
4.418
 20
4.724
 30
0.0
 11
4.418
 21
4.709999999999999
 31
0.0
  0
LINE
  5
515
330
18
100
AcDbEntity
  8
Object
100
AcDbLine
 10
4.418
 20
4.709999999999999
 30
0.0
 11
4.418
 21
4.586
 31
0.0
  0
LINE
  5
516
330
18
100
AcDbEntity
  8
Object
100
AcDbLine
 10
4.418
 20
4.586
 30
0.0
 11
4.418
 21
4.572
 31
0.0
  0
LINE
  5
517
330
18
100
AcDbEntity
  8
Object
100
AcDbLine
 10
4.418
 20
4.572
 30
0.0
 11
4.418
 21
4.567
 31
0.0
  0
LINE
  5
518
330
18
100
AcDbEntity
  8
Object
100
AcDbLine
 10
4.472
 20
4.572
 30
0.0
 11
4.528
 21
4.567
 31
0.0
  0
LINE
  5
519
330
18
100
AcDbEntity
  8
Object
100
AcDbLine
 10
4.528
 20
4.567
 30
0.0
 11
4.496999999999999
 21
4.567
 31
0.0
  0
LINE
  5
51A
330
18
100
AcDbEntity
  8
Object
100
AcDbLine
 10
4.496999999999999
 20
4.567
 30
0.0
 11
4.471
 21
4.567
 31
0.0
  0
LINE
  5
51B
330
18
100
AcDbEntity
  8
Object
100
AcDbLine
 10
4.472
 20
4.572
 30
0.0
 11
4.418
 21
4.586
 31
0.0
  0
LINE
  5
51C
330
18
100
AcDbEntity
  8
Object
100
AcDbLine
 10
4.471
 20
4.567
 30
0.0
 11
4.45
 21
4.567
 31
0.0
  0
LINE
  5
51D
330
18
100
AcDbEntity
  8
Object
100
AcDbLine
 10
4.45
 20
4.567
 30
0.0
 11
4.418
 21
4.586
 31
0.0
  0
LINE
  5
51E
330
18
100
AcDbEntity
  8
Object
100
AcDbLine
 10
4.693999999999999
 20
4.567
 30
0.0
 11
4.746999999999999
 21
4.567
 31
0.0
  0
LINE
  5
51F
330
18
100
AcDbEntity
  8
Object
100
AcDbLine
 10
4.746999999999999
 20
4.567
 30
0.0
 11
4.690999999999999
 21
4.572
 31
0.0
  0
LINE
  5
520
330
18
100
AcDbEntity
  8
Object
100
AcDbLine
 10
4.637
 20
4.567
 30
0.0
 11
4.693999999999999
 21
4.567
 31
0.0
  0
LINE
  5
521
330
18
100
AcDbEntity
  8
Object
100
AcDbLine
 10
4.690999999999999
 20
4.572
 30
0.0
 11
4.637
 21
4.586
 31
0.0
  0
LINE
  5
522
330
18
100
AcDbEntity
  8
Object
100
AcDbLine
 10
4.637
 20
4.586
 30
0.0
 11
4.583
 21
4.572
 31
0.0
  0
LINE
  5
523
330
18
100
AcDbEntity
  8
Object
100
AcDbLine
 10
4.637
 20
4.567
 30
0.0
 11
4.58
 21
4.567
 31
0.0
  0
LINE
  5
524
330
18
100
AcDbEntity
  8
Object
100
AcDbLine
 10
4.58
 20
4.567
 30
0.0
 11
4.528
 21
4.567
 31
0.0
  0
LINE
  5
525
330
18
100
AcDbEntity
  8
Object
100
AcDbLine
 10
4.528
 20
4.567
 30
0.0
 11
4.583
 21
4.572
 31
0.0
  0
LINE
  5
526
330
18
100
AcDbEntity
  8
Object
100
AcDbLine
 10
4.855999999999999
 20
4.572
 30
0.0
 11
4.855999999999999
 21
4.567
 31
0.0
  0
LINE
  5
527
330
18
100
AcDbEntity
  8
Object
100
AcDbLine
 10
4.855999999999999
 20
4.567
 30
0.0
 11
4.849
 21
4.567
 31
0.0
  0
LINE
  5
528
330
18
100
AcDbEntity
  8
Object
100
AcDbLine
 10
4.855999999999999
 20
4.572
 30
0.0
 11
4.855999999999999
 21
4.586
 31
0.0
  0
LINE
  5
529
330
18
100
AcDbEntity
  8
Object
100
AcDbLine
 10
4.826999999999999
 20
4.567
 30
0.0
 11
4.849
 21
4.567
 31
0.0
  0
LINE
  5
52A
330
18
100
AcDbEntity
  8
Object
100
AcDbLine
 10
4.855999999999999
 20
4.586
 30
0.0
 11
4.802
 21
4.572
 31
0.0
  0
LINE
  5
52B
330
18
100
AcDbEntity
  8
Object
100
AcDbLine
 10
4.826999999999999
 20
4.567
 30
0.0
 11
4.791999999999999
 21
4.567
 31
0.0
  0
LINE
  5
52C
330
18
100
AcDbEntity
  8
Object
100
AcDbLine
 10
4.791999999999999
 20
4.567
 30
0.0
 11
4.746999999999999
 21
4.567
 31
0.0
  0
LINE
  5
52D
330
18
100
AcDbEntity
  8
Object
100
AcDbLine
 10
4.746999999999999
 20
4.567
 30
0.0
 11
4.802
 21
4.572
 31
0.0
  0
LINE
  5
52E
330
18
100
AcDbEntity
  8
Object
100
AcDbLine
 10
4.432
 20
4.567
 30
0.0
 11
4.421999999999999
 21
4.567
 31
0.0
  0
LINE
  5
52F
330
18
100
AcDbEntity
  8
Object
100
AcDbLine
 10
4.421999999999999
 20
4.567
 30
0.0
 11
4.418
 21
4.567
 31
0.0
  0
LINE
  5
530
330
18
100
AcDbEntity
  8
Object
100
AcDbLine
 10
4.418
 20
4.567
 30
0.0
 11
4.418
 21
4.572
 31
0.0
  0
LINE
  5
531
330
18
100
AcDbEntity
  8
Object
100
AcDbLine
 10
4.418
 20
4.572
 30
0.0
 11
4.418
 21
4.586
 31
0.0
  0
LINE
  5
532
330
18
100
AcDbEntity
  8
Object
100
AcDbLine
 10
4.432
 20
4.567
 30
0.0
 11
4.45
 21
4.567
 31
0.0
  0
LINE
  5
533
330
18
100
AcDbEntity
  8
Object
100
AcDbLine
 10
4.855999999999999
 20
4.73
 30
0.0
 11
4.855999999999999
 21
4.724
 31
0.0
  0
LINE
  5
534
330
18
100
AcDbEntity
  8
Object
100
AcDbLine
 10
4.855999999999999
 20
4.724
 30
0.0
 11
4.855999999999999
 21
4.709999999999999
 31
0.0
  0
LINE
  5
535
330
18
100
AcDbEntity
  8
Object
100
AcDbLine
 10
4.855999999999999
 20
4.709999999999999
 30
0.0
 11
4.802
 21
4.724
 31
0.0
  0
LINE
  5
536
330
18
100
AcDbEntity
  8
Object
100
AcDbLine
 10
4.855999999999999
 20
4.586
 30
0.0
 11
4.855999999999999
 21
4.709999999999999
 31
0.0
  0
LINE
  5
537
330
18
100
AcDbEntity
  8
Object
100
AcDbLine
 10
4.802
 20
4.724
 30
0.0
 11
4.746999999999999
 21
4.73
 31
0.0
  0
LINE
  5
538
330
18
100
AcDbEntity
  8
Object
100
AcDbLine
 10
4.746999999999999
 20
4.73
 30
0.0
 11
4.690999999999999
 21
4.724
 31
0.0
  0
LINE
  5
539
330
18
100
AcDbEntity
  8
Object
100
AcDbLine
 10
4.690999999999999
 20
4.724
 30
0.0
 11
4.637
 21
4.709999999999999
 31
0.0
  0
LINE
  5
53A
330
18
100
AcDbEntity
  8
Object
100
AcDbLine
 10
4.418
 20
4.724
 30
0.0
 11
4.418
 21
4.709999999999999
 31
0.0
  0
LINE
  5
53B
330
18
100
AcDbEntity
  8
Object
100
AcDbLine
 10
4.418
 20
4.709999999999999
 30
0.0
 11
4.45
 21
4.73
 31
0.0
  0
LINE
  5
53C
330
18
100
AcDbEntity
  8
Object
100
AcDbLine
 10
4.418
 20
4.73
 30
0.0
 11
4.418
 21
4.724
 31
0.0
  0
LINE
  5
53D
330
18
100
AcDbEntity
  8
Object
100
AcDbLine
 10
4.583
 20
4.724
 30
0.0
 11
4.637
 21
4.709999999999999
 31
0.0
  0
LINE
  5
53E
330
18
100
AcDbEntity
  8
Object
100
AcDbLine
 10
4.637
 20
4.709999999999999
 30
0.0
 11
4.637
 21
4.586
 31
0.0
  0
LINE
  5
53F
330
18
100
AcDbEntity
  8
Object
100
AcDbLine
 10
4.583
 20
4.724
 30
0.0
 11
4.528
 21
4.73
 31
0.0
  0
LINE
  5
540
330
18
100
AcDbEntity
  8
Object
100
AcDbLine
 10
4.528
 20
4.73
 30
0.0
 11
4.472
 21
4.724
 31
0.0
  0
LINE
  5
541
330
18
100
AcDbEntity
  8
Object
100
AcDbLine
 10
4.472
 20
4.724
 30
0.0
 11
4.418
 21
4.709999999999999
 31
0.0
  0
LINE
  5
542
330
18
100
AcDbEntity
  8
Object
100
AcDbLine
 10
4.418
 20
4.709999999999999
 30
0.0
 11
4.418
 21
4.586
 31
0.0
  0
LINE
  5
543
330
18
100
AcDbEntity
  8
Object
100
AcDbLine
 10
4.557
 20
5.23
 30
0.0
 11
4.576
 21
5.23
 31
0.0
  0
LINE
  5
544
330
18
100
AcDbEntity
  8
Object
100
AcDbLine
 10
4.576
 20
5.23
 30
0.0
 11
4.544
 21
5.227
 31
0.0
  0
LINE
  5
545
330
18
100
AcDbEntity
  8
Object
100
AcDbLine
 10
4.557
 20
5.23
 30
0.0
 11
4.541999999999999
 21
5.23
 31
0.0
  0
LINE
  5
546
330
18
100
AcDbEntity
  8
Object
100
AcDbLine
 10
4.525999999999999
 20
5.23
 30
0.0
 11
4.530999999999999
 21
5.23
 31
0.0
  0
LINE
  5
547
330
18
100
AcDbEntity
  8
Object
100
AcDbLine
 10
4.530999999999999
 20
5.23
 30
0.0
 11
4.541999999999999
 21
5.23
 31
0.0
  0
LINE
  5
548
330
18
100
AcDbEntity
  8
Object
100
AcDbLine
 10
4.522
 20
5.225
 30
0.0
 11
4.544
 21
5.227
 31
0.0
  0
LINE
  5
549
330
18
100
AcDbEntity
  8
Object
100
AcDbLine
 10
4.525999999999999
 20
5.23
 30
0.0
 11
4.512
 21
5.222
 31
0.0
  0
LINE
  5
54A
330
18
100
AcDbEntity
  8
Object
100
AcDbLine
 10
4.512
 20
5.222
 30
0.0
 11
4.522
 21
5.225
 31
0.0
  0
LINE
  5
54B
330
18
100
AcDbEntity
  8
Object
100
AcDbLine
 10
4.748
 20
5.23
 30
0.0
 11
4.735999999999999
 21
5.222999999999999
 31
0.0
  0
LINE
  5
54C
330
18
100
AcDbEntity
  8
Object
100
AcDbLine
 10
4.735999999999999
 20
5.222999999999999
 30
0.0
 11
4.729
 21
5.221
 31
0.0
  0
LINE
  5
54D
330
18
100
AcDbEntity
  8
Object
100
AcDbLine
 10
4.748
 20
5.23
 30
0.0
 11
4.743
 21
5.23
 31
0.0
  0
LINE
  5
54E
330
18
100
AcDbEntity
  8
Object
100
AcDbLine
 10
4.717
 20
5.23
 30
0.0
 11
4.733
 21
5.23
 31
0.0
  0
LINE
  5
54F
330
18
100
AcDbEntity
  8
Object
100
AcDbLine
 10
4.733
 20
5.23
 30
0.0
 11
4.743
 21
5.23
 31
0.0
  0
LINE
  5
550
330
18
100
AcDbEntity
  8
Object
100
AcDbLine
 10
4.714
 20
5.217999999999999
 30
0.0
 11
4.729
 21
5.221
 31
0.0
  0
LINE
  5
551
330
18
100
AcDbEntity
  8
Object
100
AcDbLine
 10
4.717
 20
5.23
 30
0.0
 11
4.698
 21
5.23
 31
0.0
  0
LINE
  5
552
330
18
100
AcDbEntity
  8
Object
100
AcDbLine
 10
4.714
 20
5.217999999999999
 30
0.0
 11
4.692
 21
5.216
 31
0.0
  0
LINE
  5
553
330
18
100
AcDbEntity
  8
Object
100
AcDbLine
 10
4.692
 20
5.216
 30
0.0
 11
4.687999999999999
 21
5.216
 31
0.0
  0
LINE
  5
554
330
18
100
AcDbEntity
  8
Object
100
AcDbLine
 10
4.698
 20
5.23
 30
0.0
 11
4.669
 21
5.227999999999999
 31
0.0
  0
LINE
  5
555
330
18
100
AcDbEntity
  8
Object
100
AcDbLine
 10
4.669
 20
5.227999999999999
 30
0.0
 11
4.637
 21
5.225999999999999
 31
0.0
  0
LINE
  5
556
330
18
100
AcDbEntity
  8
Object
100
AcDbLine
 10
4.637
 20
5.225999999999999
 30
0.0
 11
4.613
 21
5.224
 31
0.0
  0
LINE
  5
557
330
18
100
AcDbEntity
  8
Object
100
AcDbLine
 10
4.613
 20
5.224
 30
0.0
 11
4.589
 21
5.222999999999999
 31
0.0
  0
LINE
  5
558
330
18
100
AcDbEntity
  8
Object
100
AcDbLine
 10
4.589
 20
5.222999999999999
 30
0.0
 11
4.568
 21
5.221
 31
0.0
  0
LINE
  5
559
330
18
100
AcDbEntity
  8
Object
100
AcDbLine
 10
4.549
 20
5.219
 30
0.0
 11
4.533
 21
5.217999999999999
 31
0.0
  0
LINE
  5
55A
330
18
100
AcDbEntity
  8
Object
100
AcDbLine
 10
4.533
 20
5.217999999999999
 30
0.0
 11
4.522
 21
5.216
 31
0.0
  0
LINE
  5
55B
330
18
100
AcDbEntity
  8
Object
100
AcDbLine
 10
4.522
 20
5.216
 30
0.0
 11
4.517999999999999
 21
5.216
 31
0.0
  0
LINE
  5
55C
330
18
100
AcDbEntity
  8
Object
100
AcDbLine
 10
4.735999999999999
 20
5.216
 30
0.0
 11
4.735999999999999
 21
5.222999999999999
 31
0.0
  0
LINE
  5
55D
330
18
100
AcDbEntity
  8
Object
100
AcDbLine
 10
4.615999999999999
 20
5.23
 30
0.0
 11
4.637
 21
5.23
 31
0.0
  0
LINE
  5
55E
330
18
100
AcDbEntity
  8
Object
100
AcDbLine
 10
4.637
 20
5.23
 30
0.0
 11
4.637
 21
5.225999999999999
 31
0.0
  0
LINE
  5
55F
330
18
100
AcDbEntity
  8
Object
100
AcDbLine
 10
4.615999999999999
 20
5.23
 30
0.0
 11
4.594999999999999
 21
5.23
 31
0.0
  0
LINE
  5
560
330
18
100
AcDbEntity
  8
Object
100
AcDbLine
 10
4.594999999999999
 20
5.23
 30
0.0
 11
4.576
 21
5.23
 31
0.0
  0
LINE
  5
561
330
18
100
AcDbEntity
  8
Object
100
AcDbLine
 10
4.549
 20
5.219
 30
0.0
 11
4.568
 21
5.221
 31
0.0
  0
LINE
  5
562
330
18
100
AcDbEntity
  8
Object
100
AcDbLine
 10
4.512
 20
5.222
 30
0.0
 11
4.512
 21
5.216
 31
0.0
  0
LINE
  5
563
330
18
100
AcDbEntity
  8
Object
100
AcDbLine
 10
4.748
 20
5.23
 30
0.0
 11
4.743
 21
5.23
 31
0.0
  0
LINE
  5
564
330
18
100
AcDbEntity
  8
Object
100
AcDbLine
 10
4.743
 20
5.23
 30
0.0
 11
4.733
 21
5.23
 31
0.0
  0
LINE
  5
565
330
18
100
AcDbEntity
  8
Object
100
AcDbLine
 10
4.733
 20
5.23
 30
0.0
 11
4.717
 21
5.23
 31
0.0
  0
LINE
  5
566
330
18
100
AcDbEntity
  8
Object
100
AcDbLine
 10
4.717
 20
5.23
 30
0.0
 11
4.698
 21
5.23
 31
0.0
  0
LINE
  5
567
330
18
100
AcDbEntity
  8
Object
100
AcDbLine
 10
4.698
 20
5.23
 30
0.0
 11
4.679
 21
5.23
 31
0.0
  0
LINE
  5
568
330
18
100
AcDbEntity
  8
Object
100
AcDbLine
 10
4.679
 20
5.23
 30
0.0
 11
4.658
 21
5.23
 31
0.0
  0
LINE
  5
569
330
18
100
AcDbEntity
  8
Object
100
AcDbLine
 10
4.658
 20
5.23
 30
0.0
 11
4.637
 21
5.23
 31
0.0
  0
LINE
  5
56A
330
18
100
AcDbEntity
  8
Object
100
AcDbLine
 10
4.637
 20
5.23
 30
0.0
 11
4.615999999999999
 21
5.23
 31
0.0
  0
LINE
  5
56B
330
18
100
AcDbEntity
  8
Object
100
AcDbLine
 10
4.615999999999999
 20
5.23
 30
0.0
 11
4.594999999999999
 21
5.23
 31
0.0
  0
LINE
  5
56C
330
18
100
AcDbEntity
  8
Object
100
AcDbLine
 10
4.594999999999999
 20
5.23
 30
0.0
 11
4.576
 21
5.23
 31
0.0
  0
LINE
  5
56D
330
18
100
AcDbEntity
  8
Object
100
AcDbLine
 10
4.576
 20
5.23
 30
0.0
 11
4.557
 21
5.23
 31
0.0
  0
LINE
  5
56E
330
18
100
AcDbEntity
  8
Object
100
AcDbLine
 10
4.557
 20
5.23
 30
0.0
 11
4.541999999999999
 21
5.23
 31
0.0
  0
LINE
  5
56F
330
18
100
AcDbEntity
  8
Object
100
AcDbLine
 10
4.541999999999999
 20
5.23
 30
0.0
 11
4.530999999999999
 21
5.23
 31
0.0
  0
LINE
  5
570
330
18
100
AcDbEntity
  8
Object
100
AcDbLine
 10
4.530999999999999
 20
5.23
 30
0.0
 11
4.525999999999999
 21
5.23
 31
0.0
  0
LINE
  5
571
330
18
100
AcDbEntity
  8
Object
100
AcDbLine
 10
4.698
 20
5.23
 30
0.0
 11
4.679
 21
5.23
 31
0.0
  0
LINE
  5
572
330
18
100
AcDbEntity
  8
Object
100
AcDbLine
 10
4.679
 20
5.23
 30
0.0
 11
4.658
 21
5.23
 31
0.0
  0
LINE
  5
573
330
18
100
AcDbEntity
  8
Object
100
AcDbLine
 10
4.658
 20
5.23
 30
0.0
 11
4.637
 21
5.23
 31
0.0
  0
LINE
  5
574
330
18
100
AcDbEntity
  8
Object
100
AcDbLine
 10
12.033
 20
5.046
 30
0.0
 11
12.027
 21
5.046
 31
0.0
  0
LINE
  5
575
330
18
100
AcDbEntity
  8
Object
100
AcDbLine
 10
12.027
 20
5.046
 30
0.0
 11
12.01
 21
5.046
 31
0.0
  0
LINE
  5
576
330
18
100
AcDbEntity
  8
Object
100
AcDbLine
 10
12.01
 20
5.046
 30
0.0
 11
11.982
 21
5.046
 31
0.0
  0
LINE
  5
577
330
18
100
AcDbEntity
  8
Object
100
AcDbLine
 10
11.982
 20
5.046
 30
0.0
 11
11.947
 21
5.046
 31
0.0
  0
LINE
  5
578
330
18
100
AcDbEntity
  8
Object
100
AcDbLine
 10
11.947
 20
5.046
 30
0.0
 11
11.908
 21
5.046
 31
0.0
  0
LINE
  5
579
330
18
100
AcDbEntity
  8
Object
100
AcDbLine
 10
11.908
 20
5.046
 30
0.0
 11
11.401
 21
5.046
 31
0.0
  0
LINE
  5
57A
330
18
100
AcDbEntity
  8
Object
100
AcDbLine
 10
12.033
 20
4.971
 30
0.0
 11
12.033
 21
5.046
 31
0.0
  0
LINE
  5
57B
330
18
100
AcDbEntity
  8
Object
100
AcDbLine
 10
12.033
 20
5.046
 30
0.0
 11
12.027
 21
5.046
 31
0.0
  0
LINE
  5
57C
330
18
100
AcDbEntity
  8
Object
100
AcDbLine
 10
12.033
 20
4.971
 30
0.0
 11
12.033
 21
5.046
 31
0.0
  0
LINE
  5
57D
330
18
100
AcDbEntity
  8
Object
100
AcDbLine
 10
12.027
 20
5.046
 30
0.0
 11
12.01
 21
5.046
 31
0.0
  0
LINE
  5
57E
330
18
100
AcDbEntity
  8
Object
100
AcDbLine
 10
12.01
 20
5.046
 30
0.0
 11
11.982
 21
5.046
 31
0.0
  0
LINE
  5
57F
330
18
100
AcDbEntity
  8
Object
100
AcDbLine
 10
11.982
 20
5.046
 30
0.0
 11
11.947
 21
5.046
 31
0.0
  0
LINE
  5
580
330
18
100
AcDbEntity
  8
Object
100
AcDbLine
 10
11.947
 20
5.046
 30
0.0
 11
11.908
 21
5.046
 31
0.0
  0
LINE
  5
581
330
18
100
AcDbEntity
  8
Object
100
AcDbLine
 10
11.401
 20
5.046
 30
0.0
 11
11.394
 21
5.048
 31
0.0
  0
LINE
  5
582
330
18
100
AcDbEntity
  8
Object
100
AcDbLine
 10
11.394
 20
5.048
 30
0.0
 11
11.389
 21
5.052999999999999
 31
0.0
  0
LINE
  5
583
330
18
100
AcDbEntity
  8
Object
100
AcDbLine
 10
11.389
 20
5.052999999999999
 30
0.0
 11
11.386
 21
5.06
 31
0.0
  0
LINE
  5
584
330
18
100
AcDbEntity
  8
Object
100
AcDbLine
 10
11.401
 20
5.046
 30
0.0
 11
11.908
 21
5.046
 31
0.0
  0
LINE
  5
585
330
18
100
AcDbEntity
  8
Object
100
AcDbLine
 10
11.908
 20
5.046
 30
0.0
 11
11.908
 21
4.971
 31
0.0
  0
LINE
  5
586
330
18
100
AcDbEntity
  8
Object
100
AcDbLine
 10
11.368
 20
4.977
 30
0.0
 11
11.401
 21
4.971
 31
0.0
  0
LINE
  5
587
330
18
100
AcDbEntity
  8
Object
100
AcDbLine
 10
11.401
 20
5.046
 30
0.0
 11
11.394
 21
5.048
 31
0.0
  0
LINE
  5
588
330
18
100
AcDbEntity
  8
Object
100
AcDbLine
 10
11.394
 20
5.048
 30
0.0
 11
11.389
 21
5.052999999999999
 31
0.0
  0
LINE
  5
589
330
18
100
AcDbEntity
  8
Object
100
AcDbLine
 10
11.368
 20
4.977
 30
0.0
 11
11.339
 21
4.996
 31
0.0
  0
LINE
  5
58A
330
18
100
AcDbEntity
  8
Object
100
AcDbLine
 10
11.339
 20
4.996
 30
0.0
 11
11.32
 21
5.022999999999999
 31
0.0
  0
LINE
  5
58B
330
18
100
AcDbEntity
  8
Object
100
AcDbLine
 10
11.389
 20
5.052999999999999
 30
0.0
 11
11.386
 21
5.06
 31
0.0
  0
LINE
  5
58C
330
18
100
AcDbEntity
  8
Object
100
AcDbLine
 10
11.386
 20
5.06
 30
0.0
 11
11.379
 21
5.091
 31
0.0
  0
LINE
  5
58D
330
18
100
AcDbEntity
  8
Object
100
AcDbLine
 10
11.32
 20
5.022999999999999
 30
0.0
 11
11.312
 21
5.057
 31
0.0
  0
LINE
  5
58E
330
18
100
AcDbEntity
  8
Object
100
AcDbLine
 10
11.312
 20
5.057
 30
0.0
 11
11.31
 21
5.062999999999999
 31
0.0
  0
LINE
  5
58F
330
18
100
AcDbEntity
  8
Object
100
AcDbLine
 10
11.379
 20
5.091
 30
0.0
 11
11.362
 21
5.118
 31
0.0
  0
LINE
  5
590
330
18
100
AcDbEntity
  8
Object
100
AcDbLine
 10
11.362
 20
5.118
 30
0.0
 11
11.336
 21
5.137
 31
0.0
  0
LINE
  5
591
330
18
100
AcDbEntity
  8
Object
100
AcDbLine
 10
11.31
 20
5.062999999999999
 30
0.0
 11
11.305
 21
5.068
 31
0.0
  0
LINE
  5
592
330
18
100
AcDbEntity
  8
Object
100
AcDbLine
 10
11.305
 20
5.068
 30
0.0
 11
11.298
 21
5.070999999999999
 31
0.0
  0
LINE
  5
593
330
18
100
AcDbEntity
  8
Object
100
AcDbLine
 10
11.336
 20
5.137
 30
0.0
 11
11.306
 21
5.145
 31
0.0
  0
LINE
  5
594
330
18
100
AcDbEntity
  8
Object
100
AcDbLine
 10
11.134
 20
5.088
 30
0.0
 11
11.298
 21
5.070999999999999
 31
0.0
  0
LINE
  5
595
330
18
100
AcDbEntity
  8
Object
100
AcDbLine
 10
11.306
 20
5.145
 30
0.0
 11
11.142
 21
5.163
 31
0.0
  0
LINE
  5
596
330
18
100
AcDbEntity
  8
Object
100
AcDbLine
 10
11.401
 20
4.971
 30
0.0
 11
11.368
 21
4.977
 31
0.0
  0
LINE
  5
597
330
18
100
AcDbEntity
  8
Object
100
AcDbLine
 10
11.368
 20
4.977
 30
0.0
 11
11.339
 21
4.996
 31
0.0
  0
LINE
  5
598
330
18
100
AcDbEntity
  8
Object
100
AcDbLine
 10
11.339
 20
4.996
 30
0.0
 11
11.32
 21
5.022999999999999
 31
0.0
  0
LINE
  5
599
330
18
100
AcDbEntity
  8
Object
100
AcDbLine
 10
11.32
 20
5.022999999999999
 30
0.0
 11
11.312
 21
5.057
 31
0.0
  0
LINE
  5
59A
330
18
100
AcDbEntity
  8
Object
100
AcDbLine
 10
11.386
 20
5.06
 30
0.0
 11
11.379
 21
5.091
 31
0.0
  0
LINE
  5
59B
330
18
100
AcDbEntity
  8
Object
100
AcDbLine
 10
11.379
 20
5.091
 30
0.0
 11
11.362
 21
5.118
 31
0.0
  0
LINE
  5
59C
330
18
100
AcDbEntity
  8
Object
100
AcDbLine
 10
11.362
 20
5.118
 30
0.0
 11
11.336
 21
5.137
 31
0.0
  0
LINE
  5
59D
330
18
100
AcDbEntity
  8
Object
100
AcDbLine
 10
11.336
 20
5.137
 30
0.0
 11
11.306
 21
5.145
 31
0.0
  0
LINE
  5
59E
330
18
100
AcDbEntity
  8
Object
100
AcDbLine
 10
11.312
 20
5.057
 30
0.0
 11
11.31
 21
5.062999999999999
 31
0.0
  0
LINE
  5
59F
330
18
100
AcDbEntity
  8
Object
100
AcDbLine
 10
11.31
 20
5.062999999999999
 30
0.0
 11
11.305
 21
5.068
 31
0.0
  0
LINE
  5
5A0
330
18
100
AcDbEntity
  8
Object
100
AcDbLine
 10
11.305
 20
5.068
 30
0.0
 11
11.298
 21
5.070999999999999
 31
0.0
  0
LINE
  5
5A1
330
18
100
AcDbEntity
  8
Object
100
AcDbLine
 10
11.306
 20
5.145
 30
0.0
 11
11.142
 21
5.163
 31
0.0
  0
LINE
  5
5A2
330
18
100
AcDbEntity
  8
Object
100
AcDbLine
 10
11.142
 20
5.163
 30
0.0
 11
11.122
 21
5.165
 31
0.0
  0
LINE
  5
5A3
330
18
100
AcDbEntity
  8
Object
100
AcDbLine
 10
11.122
 20
5.165
 30
0.0
 11
11.107
 21
5.166
 31
0.0
  0
LINE
  5
5A4
330
18
100
AcDbEntity
  8
Object
100
AcDbLine
 10
11.107
 20
5.166
 30
0.0
 11
11.102
 21
5.166999999999999
 31
0.0
  0
LINE
  5
5A5
330
18
100
AcDbEntity
  8
Object
100
AcDbLine
 10
11.122
 20
5.165
 30
0.0
 11
11.142
 21
5.163
 31
0.0
  0
LINE
  5
5A6
330
18
100
AcDbEntity
  8
Object
100
AcDbLine
 10
11.142
 20
5.163
 30
0.0
 11
11.134
 21
5.088
 31
0.0
  0
LINE
  5
5A7
330
18
100
AcDbEntity
  8
Object
100
AcDbLine
 10
11.134
 20
5.088
 30
0.0
 11
11.114
 21
5.089999999999999
 31
0.0
  0
LINE
  5
5A8
330
18
100
AcDbEntity
  8
Object
100
AcDbLine
 10
11.122
 20
5.165
 30
0.0
 11
11.107
 21
5.166
 31
0.0
  0
LINE
  5
5A9
330
18
100
AcDbEntity
  8
Object
100
AcDbLine
 10
11.099
 20
5.092
 30
0.0
 11
11.114
 21
5.089999999999999
 31
0.0
  0
LINE
  5
5AA
330
18
100
AcDbEntity
  8
Object
100
AcDbLine
 10
11.107
 20
5.166
 30
0.0
 11
11.102
 21
5.166999999999999
 31
0.0
  0
LINE
  5
5AB
330
18
100
AcDbEntity
  8
Object
100
AcDbLine
 10
11.099
 20
5.092
 30
0.0
 11
11.094
 21
5.092
 31
0.0
  0
LINE
  5
5AC
330
18
100
AcDbEntity
  8
Object
100
AcDbLine
 10
11.094
 20
5.092
 30
0.0
 11
11.102
 21
5.166999999999999
 31
0.0
  0
LINE
  5
5AD
330
18
100
AcDbEntity
  8
Object
100
AcDbLine
 10
11.298
 20
5.070999999999999
 30
0.0
 11
11.134
 21
5.088
 31
0.0
  0
LINE
  5
5AE
330
18
100
AcDbEntity
  8
Object
100
AcDbLine
 10
11.134
 20
5.088
 30
0.0
 11
11.114
 21
5.089999999999999
 31
0.0
  0
LINE
  5
5AF
330
18
100
AcDbEntity
  8
Object
100
AcDbLine
 10
11.114
 20
5.089999999999999
 30
0.0
 11
11.099
 21
5.092
 31
0.0
  0
LINE
  5
5B0
330
18
100
AcDbEntity
  8
Object
100
AcDbLine
 10
11.099
 20
5.092
 30
0.0
 11
11.094
 21
5.092
 31
0.0
  0
LINE
  5
5B1
330
18
100
AcDbEntity
  8
Object
100
AcDbLine
 10
11.14
 20
4.791999999999999
 30
0.0
 11
11.102
 21
4.754
 31
0.0
  0
LINE
  5
5B2
330
18
100
AcDbEntity
  8
Object
100
AcDbLine
 10
11.342
 20
4.993
 30
0.0
 11
11.319
 21
4.971
 31
0.0
  0
LINE
  5
5B3
330
18
100
AcDbEntity
  8
Object
100
AcDbLine
 10
11.102
 20
4.754
 30
0.0
 11
11.091
 21
4.743
 31
0.0
  0
LINE
  5
5B4
330
18
100
AcDbEntity
  8
Object
100
AcDbLine
 10
11.091
 20
4.743
 30
0.0
 11
11.084
 21
4.735
 31
0.0
  0
LINE
  5
5B5
330
18
100
AcDbEntity
  8
Object
100
AcDbLine
 10
11.084
 20
4.735
 30
0.0
 11
11.081
 21
4.732
 31
0.0
  0
LINE
  5
5B6
330
18
100
AcDbEntity
  8
Object
100
AcDbLine
 10
11.246
 20
4.791999999999999
 30
0.0
 11
11.155
 21
4.7
 31
0.0
  0
LINE
  5
5B7
330
18
100
AcDbEntity
  8
Object
100
AcDbLine
 10
11.155
 20
4.7
 30
0.0
 11
11.144
 21
4.69
 31
0.0
  0
LINE
  5
5B8
330
18
100
AcDbEntity
  8
Object
100
AcDbLine
 10
11.144
 20
4.69
 30
0.0
 11
11.137
 21
4.682
 31
0.0
  0
LINE
  5
5B9
330
18
100
AcDbEntity
  8
Object
100
AcDbLine
 10
11.137
 20
4.682
 30
0.0
 11
11.134
 21
4.679
 31
0.0
  0
LINE
  5
5BA
330
18
100
AcDbEntity
  8
Object
100
AcDbLine
 10
11.246
 20
4.791999999999999
 30
0.0
 11
11.155
 21
4.7
 31
0.0
  0
LINE
  5
5BB
330
18
100
AcDbEntity
  8
Object
100
AcDbLine
 10
11.155
 20
4.7
 30
0.0
 11
11.102
 21
4.754
 31
0.0
  0
LINE
  5
5BC
330
18
100
AcDbEntity
  8
Object
100
AcDbLine
 10
11.102
 20
4.754
 30
0.0
 11
11.14
 21
4.791999999999999
 31
0.0
  0
LINE
  5
5BD
330
18
100
AcDbEntity
  8
Object
100
AcDbLine
 10
11.342
 20
4.993
 30
0.0
 11
11.319
 21
4.971
 31
0.0
  0
LINE
  5
5BE
330
18
100
AcDbEntity
  8
Object
100
AcDbLine
 10
11.102
 20
5.166999999999999
 30
0.0
 11
11.094
 21
5.092
 31
0.0
  0
LINE
  5
5BF
330
18
100
AcDbEntity
  8
Object
100
AcDbLine
 10
11.081
 20
4.732
 30
0.0
 11
11.134
 21
4.679
 31
0.0
  0
LINE
  5
5C0
330
18
100
AcDbEntity
  8
Object
100
AcDbLine
 10
11.144
 20
4.69
 30
0.0
 11
11.155
 21
4.7
 31
0.0
  0
LINE
  5
5C1
330
18
100
AcDbEntity
  8
Object
100
AcDbLine
 10
11.102
 20
4.754
 30
0.0
 11
11.091
 21
4.743
 31
0.0
  0
LINE
  5
5C2
330
18
100
AcDbEntity
  8
Object
100
AcDbLine
 10
11.091
 20
4.743
 30
0.0
 11
11.084
 21
4.735
 31
0.0
  0
LINE
  5
5C3
330
18
100
AcDbEntity
  8
Object
100
AcDbLine
 10
11.144
 20
4.69
 30
0.0
 11
11.137
 21
4.682
 31
0.0
  0
LINE
  5
5C4
330
18
100
AcDbEntity
  8
Object
100
AcDbLine
 10
11.137
 20
4.682
 30
0.0
 11
11.134
 21
4.679
 31
0.0
  0
LINE
  5
5C5
330
18
100
AcDbEntity
  8
Object
100
AcDbLine
 10
11.134
 20
4.679
 30
0.0
 11
11.081
 21
4.732
 31
0.0
  0
LINE
  5
5C6
330
18
100
AcDbEntity
  8
Object
100
AcDbLine
 10
11.081
 20
4.732
 30
0.0
 11
11.084
 21
4.735
 31
0.0
  0
LINE
  5
5C7
330
18
100
AcDbEntity
  8
Object
100
AcDbLine
 10
11.727
 20
4.73
 30
0.0
 11
11.727
 21
4.791999999999999
 31
0.0
  0
LINE
  5
5C8
330
18
100
AcDbEntity
  8
Object
100
AcDbLine
 10
11.975
 20
4.729
 30
0.0
 11
11.975
 21
4.73
 31
0.0
  0
LINE
  5
5C9
330
18
100
AcDbEntity
  8
Object
100
AcDbLine
 10
11.975
 20
4.73
 30
0.0
 11
11.962
 21
4.73
 31
0.0
  0
LINE
  5
5CA
330
18
100
AcDbEntity
  8
Object
100
AcDbLine
 10
11.962
 20
4.73
 30
0.0
 11
11.936
 21
4.73
 31
0.0
  0
LINE
  5
5CB
330
18
100
AcDbEntity
  8
Object
100
AcDbLine
 10
11.936
 20
4.73
 30
0.0
 11
11.897
 21
4.73
 31
0.0
  0
LINE
  5
5CC
330
18
100
AcDbEntity
  8
Object
100
AcDbLine
 10
11.897
 20
4.73
 30
0.0
 11
11.85
 21
4.73
 31
0.0
  0
LINE
  5
5CD
330
18
100
AcDbEntity
  8
Object
100
AcDbLine
 10
11.85
 20
4.73
 30
0.0
 11
11.795
 21
4.73
 31
0.0
  0
LINE
  5
5CE
330
18
100
AcDbEntity
  8
Object
100
AcDbLine
 10
11.795
 20
4.73
 30
0.0
 11
11.737
 21
4.73
 31
0.0
  0
LINE
  5
5CF
330
18
100
AcDbEntity
  8
Object
100
AcDbLine
 10
11.727
 20
4.73
 30
0.0
 11
11.669
 21
4.73
 31
0.0
  0
LINE
  5
5D0
330
18
100
AcDbEntity
  8
Object
100
AcDbLine
 10
11.669
 20
4.73
 30
0.0
 11
11.615
 21
4.73
 31
0.0
  0
LINE
  5
5D1
330
18
100
AcDbEntity
  8
Object
100
AcDbLine
 10
11.615
 20
4.73
 30
0.0
 11
11.567
 21
4.73
 31
0.0
  0
LINE
  5
5D2
330
18
100
AcDbEntity
  8
Object
100
AcDbLine
 10
11.567
 20
4.73
 30
0.0
 11
11.529
 21
4.73
 31
0.0
  0
LINE
  5
5D3
330
18
100
AcDbEntity
  8
Object
100
AcDbLine
 10
11.529
 20
4.73
 30
0.0
 11
11.503
 21
4.73
 31
0.0
  0
LINE
  5
5D4
330
18
100
AcDbEntity
  8
Object
100
AcDbLine
 10
11.503
 20
4.73
 30
0.0
 11
11.489
 21
4.73
 31
0.0
  0
LINE
  5
5D5
330
18
100
AcDbEntity
  8
Object
100
AcDbLine
 10
11.975
 20
4.791999999999999
 30
0.0
 11
11.975
 21
4.791
 31
0.0
  0
LINE
  5
5D6
330
18
100
AcDbEntity
  8
Object
100
AcDbLine
 10
11.727
 20
4.791999999999999
 30
0.0
 11
11.727
 21
4.73
 31
0.0
  0
LINE
  5
5D7
330
18
100
AcDbEntity
  8
Object
100
AcDbLine
 10
11.727
 20
4.73
 30
0.0
 11
11.669
 21
4.73
 31
0.0
  0
LINE
  5
5D8
330
18
100
AcDbEntity
  8
Object
100
AcDbLine
 10
11.669
 20
4.73
 30
0.0
 11
11.615
 21
4.73
 31
0.0
  0
LINE
  5
5D9
330
18
100
AcDbEntity
  8
Object
100
AcDbLine
 10
11.615
 20
4.73
 30
0.0
 11
11.567
 21
4.73
 31
0.0
  0
LINE
  5
5DA
330
18
100
AcDbEntity
  8
Object
100
AcDbLine
 10
11.567
 20
4.73
 30
0.0
 11
11.529
 21
4.73
 31
0.0
  0
LINE
  5
5DB
330
18
100
AcDbEntity
  8
Object
100
AcDbLine
 10
11.529
 20
4.73
 30
0.0
 11
11.503
 21
4.73
 31
0.0
  0
LINE
  5
5DC
330
18
100
AcDbEntity
  8
Object
100
AcDbLine
 10
11.503
 20
4.73
 30
0.0
 11
11.489
 21
4.73
 31
0.0
  0
LINE
  5
5DD
330
18
100
AcDbEntity
  8
Object
100
AcDbLine
 10
11.489
 20
4.73
 30
0.0
 11
11.489
 21
4.791999999999999
 31
0.0
  0
LINE
  5
5DE
330
18
100
AcDbEntity
  8
Object
100
AcDbLine
 10
11.975
 20
4.73
 30
0.0
 11
11.975
 21
4.791999999999999
 31
0.0
  0
LINE
  5
5DF
330
18
100
AcDbEntity
  8
Object
100
AcDbLine
 10
11.975
 20
4.791999999999999
 30
0.0
 11
11.975
 21
4.73
 31
0.0
  0
LINE
  5
5E0
330
18
100
AcDbEntity
  8
Object
100
AcDbLine
 10
11.975
 20
4.73
 30
0.0
 11
11.962
 21
4.73
 31
0.0
  0
LINE
  5
5E1
330
18
100
AcDbEntity
  8
Object
100
AcDbLine
 10
11.962
 20
4.73
 30
0.0
 11
11.936
 21
4.73
 31
0.0
  0
LINE
  5
5E2
330
18
100
AcDbEntity
  8
Object
100
AcDbLine
 10
11.936
 20
4.73
 30
0.0
 11
11.897
 21
4.73
 31
0.0
  0
LINE
  5
5E3
330
18
100
AcDbEntity
  8
Object
100
AcDbLine
 10
11.897
 20
4.73
 30
0.0
 11
11.85
 21
4.73
 31
0.0
  0
LINE
  5
5E4
330
18
100
AcDbEntity
  8
Object
100
AcDbLine
 10
11.85
 20
4.73
 30
0.0
 11
11.795
 21
4.73
 31
0.0
  0
LINE
  5
5E5
330
18
100
AcDbEntity
  8
Object
100
AcDbLine
 10
11.795
 20
4.73
 30
0.0
 11
11.737
 21
4.73
 31
0.0
  0
LINE
  5
5E6
330
18
100
AcDbEntity
  8
Object
100
AcDbLine
 10
11.737
 20
4.73
 30
0.0
 11
11.737
 21
4.791999999999999
 31
0.0
  0
LINE
  5
5E7
330
18
100
AcDbEntity
  8
Object
100
AcDbLine
 10
11.737
 20
4.791999999999999
 30
0.0
 11
11.737
 21
4.73
 31
0.0
  0
LINE
  5
5E8
330
18
100
AcDbEntity
  8
Object
100
AcDbLine
 10
11.942
 20
5.216
 30
0.0
 11
11.935
 21
5.216
 31
0.0
  0
LINE
  5
5E9
330
18
100
AcDbEntity
  8
Object
100
AcDbLine
 10
11.935
 20
5.216
 30
0.0
 11
11.914
 21
5.216
 31
0.0
  0
LINE
  5
5EA
330
18
100
AcDbEntity
  8
Object
100
AcDbLine
 10
11.914
 20
5.216
 30
0.0
 11
11.881
 21
5.216
 31
0.0
  0
LINE
  5
5EB
330
18
100
AcDbEntity
  8
Object
100
AcDbLine
 10
11.881
 20
5.216
 30
0.0
 11
11.837
 21
5.216
 31
0.0
  0
LINE
  5
5EC
330
18
100
AcDbEntity
  8
Object
100
AcDbLine
 10
11.837
 20
5.216
 30
0.0
 11
11.787
 21
5.216
 31
0.0
  0
LINE
  5
5ED
330
18
100
AcDbEntity
  8
Object
100
AcDbLine
 10
11.787
 20
5.216
 30
0.0
 11
11.732
 21
5.216
 31
0.0
  0
LINE
  5
5EE
330
18
100
AcDbEntity
  8
Object
100
AcDbLine
 10
11.732
 20
5.216
 30
0.0
 11
11.678
 21
5.216
 31
0.0
  0
LINE
  5
5EF
330
18
100
AcDbEntity
  8
Object
100
AcDbLine
 10
11.678
 20
5.216
 30
0.0
 11
11.627
 21
5.216
 31
0.0
  0
LINE
  5
5F0
330
18
100
AcDbEntity
  8
Object
100
AcDbLine
 10
11.609
 20
5.216
 30
0.0
 11
11.618
 21
5.216
 31
0.0
  0
LINE
  5
5F1
330
18
100
AcDbEntity
  8
Object
100
AcDbLine
 10
11.627
 20
5.216
 30
0.0
 11
11.584
 21
5.216
 31
0.0
  0
LINE
  5
5F2
330
18
100
AcDbEntity
  8
Object
100
AcDbLine
 10
11.584
 20
5.216
 30
0.0
 11
11.551
 21
5.216
 31
0.0
  0
LINE
  5
5F3
330
18
100
AcDbEntity
  8
Object
100
AcDbLine
 10
11.551
 20
5.216
 30
0.0
 11
11.53
 21
5.216
 31
0.0
  0
LINE
  5
5F4
330
18
100
AcDbEntity
  8
Object
100
AcDbLine
 10
11.53
 20
5.216
 30
0.0
 11
11.522
 21
5.216
 31
0.0
  0
LINE
  5
5F5
330
18
100
AcDbEntity
  8
Object
100
AcDbLine
 10
11.678
 20
5.216
 30
0.0
 11
11.732
 21
5.216
 31
0.0
  0
LINE
  5
5F6
330
18
100
AcDbEntity
  8
Object
100
AcDbLine
 10
11.732
 20
5.216
 30
0.0
 11
11.732
 21
5.206
 31
0.0
  0
LINE
  5
5F7
330
18
100
AcDbEntity
  8
Object
100
AcDbLine
 10
11.678
 20
5.216
 30
0.0
 11
11.627
 21
5.216
 31
0.0
  0
LINE
  5
5F8
330
18
100
AcDbEntity
  8
Object
100
AcDbLine
 10
11.627
 20
5.216
 30
0.0
 11
11.584
 21
5.216
 31
0.0
  0
LINE
  5
5F9
330
18
100
AcDbEntity
  8
Object
100
AcDbLine
 10
11.584
 20
5.216
 30
0.0
 11
11.551
 21
5.216
 31
0.0
  0
LINE
  5
5FA
330
18
100
AcDbEntity
  8
Object
100
AcDbLine
 10
11.522
 20
5.216
 30
0.0
 11
11.53
 21
5.216
 31
0.0
  0
LINE
  5
5FB
330
18
100
AcDbEntity
  8
Object
100
AcDbLine
 10
11.53
 20
5.216
 30
0.0
 11
11.551
 21
5.216
 31
0.0
  0
LINE
  5
5FC
330
18
100
AcDbEntity
  8
Object
100
AcDbLine
 10
11.522
 20
5.216
 30
0.0
 11
11.512
 21
5.206
 31
0.0
  0
LINE
  5
5FD
330
18
100
AcDbEntity
  8
Object
100
AcDbLine
 10
11.942
 20
5.216
 30
0.0
 11
11.952
 21
5.206
 31
0.0
  0
LINE
  5
5FE
330
18
100
AcDbEntity
  8
Object
100
AcDbLine
 10
11.952
 20
5.206
 30
0.0
 11
11.945
 21
5.206
 31
0.0
  0
LINE
  5
5FF
330
18
100
AcDbEntity
  8
Object
100
AcDbLine
 10
11.942
 20
5.216
 30
0.0
 11
11.935
 21
5.216
 31
0.0
  0
LINE
  5
600
330
18
100
AcDbEntity
  8
Object
100
AcDbLine
 10
11.923
 20
5.206
 30
0.0
 11
11.945
 21
5.206
 31
0.0
  0
LINE
  5
601
330
18
100
AcDbEntity
  8
Object
100
AcDbLine
 10
11.935
 20
5.216
 30
0.0
 11
11.914
 21
5.216
 31
0.0
  0
LINE
  5
602
330
18
100
AcDbEntity
  8
Object
100
AcDbLine
 10
11.914
 20
5.216
 30
0.0
 11
11.881
 21
5.216
 31
0.0
  0
LINE
  5
603
330
18
100
AcDbEntity
  8
Object
100
AcDbLine
 10
11.923
 20
5.206
 30
0.0
 11
11.888
 21
5.206
 31
0.0
  0
LINE
  5
604
330
18
100
AcDbEntity
  8
Object
100
AcDbLine
 10
11.888
 20
5.206
 30
0.0
 11
11.842
 21
5.206
 31
0.0
  0
LINE
  5
605
330
18
100
AcDbEntity
  8
Object
100
AcDbLine
 10
11.881
 20
5.216
 30
0.0
 11
11.837
 21
5.216
 31
0.0
  0
LINE
  5
606
330
18
100
AcDbEntity
  8
Object
100
AcDbLine
 10
11.837
 20
5.216
 30
0.0
 11
11.787
 21
5.216
 31
0.0
  0
LINE
  5
607
330
18
100
AcDbEntity
  8
Object
100
AcDbLine
 10
11.789
 20
5.206
 30
0.0
 11
11.842
 21
5.206
 31
0.0
  0
LINE
  5
608
330
18
100
AcDbEntity
  8
Object
100
AcDbLine
 10
11.787
 20
5.216
 30
0.0
 11
11.732
 21
5.216
 31
0.0
  0
LINE
  5
609
330
18
100
AcDbEntity
  8
Object
100
AcDbLine
 10
11.676
 20
5.206
 30
0.0
 11
11.732
 21
5.206
 31
0.0
  0
LINE
  5
60A
330
18
100
AcDbEntity
  8
Object
100
AcDbLine
 10
11.732
 20
5.206
 30
0.0
 11
11.732
 21
5.046
 31
0.0
  0
LINE
  5
60B
330
18
100
AcDbEntity
  8
Object
100
AcDbLine
 10
11.676
 20
5.206
 30
0.0
 11
11.622
 21
5.206
 31
0.0
  0
LINE
  5
60C
330
18
100
AcDbEntity
  8
Object
100
AcDbLine
 10
11.622
 20
5.206
 30
0.0
 11
11.577
 21
5.206
 31
0.0
  0
LINE
  5
60D
330
18
100
AcDbEntity
  8
Object
100
AcDbLine
 10
11.577
 20
5.206
 30
0.0
 11
11.542
 21
5.206
 31
0.0
  0
LINE
  5
60E
330
18
100
AcDbEntity
  8
Object
100
AcDbLine
 10
11.542
 20
5.206
 30
0.0
 11
11.52
 21
5.206
 31
0.0
  0
LINE
  5
60F
330
18
100
AcDbEntity
  8
Object
100
AcDbLine
 10
11.52
 20
5.206
 30
0.0
 11
11.512
 21
5.206
 31
0.0
  0
LINE
  5
610
330
18
100
AcDbEntity
  8
Object
100
AcDbLine
 10
11.512
 20
5.206
 30
0.0
 11
11.512
 21
5.046
 31
0.0
  0
LINE
  5
611
330
18
100
AcDbEntity
  8
Object
100
AcDbLine
 10
11.952
 20
5.046
 30
0.0
 11
11.952
 21
5.206
 31
0.0
  0
LINE
  5
612
330
18
100
AcDbEntity
  8
Object
100
AcDbLine
 10
11.789
 20
5.206
 30
0.0
 11
11.732
 21
5.206
 31
0.0
  0
LINE
  5
613
330
18
100
AcDbEntity
  8
Object
100
AcDbLine
 10
11.787
 20
4.572
 30
0.0
 11
11.842
 21
4.567
 31
0.0
  0
LINE
  5
614
330
18
100
AcDbEntity
  8
Object
100
AcDbLine
 10
11.842
 20
4.567
 30
0.0
 11
11.789
 21
4.567
 31
0.0
  0
LINE
  5
615
330
18
100
AcDbEntity
  8
Object
100
AcDbLine
 10
11.787
 20
4.572
 30
0.0
 11
11.732
 21
4.586
 31
0.0
  0
LINE
  5
616
330
18
100
AcDbEntity
  8
Object
100
AcDbLine
 10
11.732
 20
4.567
 30
0.0
 11
11.789
 21
4.567
 31
0.0
  0
LINE
  5
617
330
18
100
AcDbEntity
  8
Object
100
AcDbLine
 10
11.732
 20
4.586
 30
0.0
 11
11.678
 21
4.572
 31
0.0
  0
LINE
  5
618
330
18
100
AcDbEntity
  8
Object
100
AcDbLine
 10
11.732
 20
4.567
 30
0.0
 11
11.676
 21
4.567
 31
0.0
  0
LINE
  5
619
330
18
100
AcDbEntity
  8
Object
100
AcDbLine
 10
11.676
 20
4.567
 30
0.0
 11
11.623
 21
4.567
 31
0.0
  0
LINE
  5
61A
330
18
100
AcDbEntity
  8
Object
100
AcDbLine
 10
11.623
 20
4.567
 30
0.0
 11
11.678
 21
4.572
 31
0.0
  0
LINE
  5
61B
330
18
100
AcDbEntity
  8
Object
100
AcDbLine
 10
11.678
 20
4.724
 30
0.0
 11
11.732
 21
4.709999999999999
 31
0.0
  0
LINE
  5
61C
330
18
100
AcDbEntity
  8
Object
100
AcDbLine
 10
11.732
 20
4.709999999999999
 30
0.0
 11
11.732
 21
4.586
 31
0.0
  0
LINE
  5
61D
330
18
100
AcDbEntity
  8
Object
100
AcDbLine
 10
11.678
 20
4.724
 30
0.0
 11
11.623
 21
4.73
 31
0.0
  0
LINE
  5
61E
330
18
100
AcDbEntity
  8
Object
100
AcDbLine
 10
11.568
 20
4.572
 30
0.0
 11
11.623
 21
4.567
 31
0.0
  0
LINE
  5
61F
330
18
100
AcDbEntity
  8
Object
100
AcDbLine
 10
11.623
 20
4.73
 30
0.0
 11
11.568
 21
4.724
 31
0.0
  0
LINE
  5
620
330
18
100
AcDbEntity
  8
Object
100
AcDbLine
 10
11.568
 20
4.724
 30
0.0
 11
11.513
 21
4.709999999999999
 31
0.0
  0
LINE
  5
621
330
18
100
AcDbEntity
  8
Object
100
AcDbLine
 10
11.568
 20
4.572
 30
0.0
 11
11.513
 21
4.586
 31
0.0
  0
LINE
  5
622
330
18
100
AcDbEntity
  8
Object
100
AcDbLine
 10
11.513
 20
4.586
 30
0.0
 11
11.513
 21
4.709999999999999
 31
0.0
  0
LINE
  5
623
330
18
100
AcDbEntity
  8
Object
100
AcDbLine
 10
11.897
 20
4.724
 30
0.0
 11
11.951
 21
4.709999999999999
 31
0.0
  0
LINE
  5
624
330
18
100
AcDbEntity
  8
Object
100
AcDbLine
 10
11.951
 20
4.709999999999999
 30
0.0
 11
11.951
 21
4.586
 31
0.0
  0
LINE
  5
625
330
18
100
AcDbEntity
  8
Object
100
AcDbLine
 10
11.951
 20
4.586
 30
0.0
 11
11.897
 21
4.572
 31
0.0
  0
LINE
  5
626
330
18
100
AcDbEntity
  8
Object
100
AcDbLine
 10
11.897
 20
4.724
 30
0.0
 11
11.842
 21
4.73
 31
0.0
  0
LINE
  5
627
330
18
100
AcDbEntity
  8
Object
100
AcDbLine
 10
11.842
 20
4.567
 30
0.0
 11
11.897
 21
4.572
 31
0.0
  0
LINE
  5
628
330
18
100
AcDbEntity
  8
Object
100
AcDbLine
 10
11.842
 20
4.73
 30
0.0
 11
11.787
 21
4.724
 31
0.0
  0
LINE
  5
629
330
18
100
AcDbEntity
  8
Object
100
AcDbLine
 10
11.787
 20
4.724
 30
0.0
 11
11.732
 21
4.709999999999999
 31
0.0
  0
LINE
  5
62A
330
18
100
AcDbEntity
  8
Object
100
AcDbLine
 10
11.951
 20
4.567
 30
0.0
 11
11.944
 21
4.567
 31
0.0
  0
LINE
  5
62B
330
18
100
AcDbEntity
  8
Object
100
AcDbLine
 10
11.944
 20
4.567
 30
0.0
 11
11.922
 21
4.567
 31
0.0
  0
LINE
  5
62C
330
18
100
AcDbEntity
  8
Object
100
AcDbLine
 10
11.922
 20
4.567
 30
0.0
 11
11.887
 21
4.567
 31
0.0
  0
LINE
  5
62D
330
18
100
AcDbEntity
  8
Object
100
AcDbLine
 10
11.887
 20
4.567
 30
0.0
 11
11.842
 21
4.567
 31
0.0
  0
LINE
  5
62E
330
18
100
AcDbEntity
  8
Object
100
AcDbLine
 10
11.842
 20
4.567
 30
0.0
 11
11.789
 21
4.567
 31
0.0
  0
LINE
  5
62F
330
18
100
AcDbEntity
  8
Object
100
AcDbLine
 10
11.789
 20
4.567
 30
0.0
 11
11.732
 21
4.567
 31
0.0
  0
LINE
  5
630
330
18
100
AcDbEntity
  8
Object
100
AcDbLine
 10
11.732
 20
4.567
 30
0.0
 11
11.676
 21
4.567
 31
0.0
  0
LINE
  5
631
330
18
100
AcDbEntity
  8
Object
100
AcDbLine
 10
11.676
 20
4.567
 30
0.0
 11
11.623
 21
4.567
 31
0.0
  0
LINE
  5
632
330
18
100
AcDbEntity
  8
Object
100
AcDbLine
 10
11.623
 20
4.567
 30
0.0
 11
11.578
 21
4.567
 31
0.0
  0
LINE
  5
633
330
18
100
AcDbEntity
  8
Object
100
AcDbLine
 10
11.578
 20
4.567
 30
0.0
 11
11.543
 21
4.567
 31
0.0
  0
LINE
  5
634
330
18
100
AcDbEntity
  8
Object
100
AcDbLine
 10
11.543
 20
4.567
 30
0.0
 11
11.521
 21
4.567
 31
0.0
  0
LINE
  5
635
330
18
100
AcDbEntity
  8
Object
100
AcDbLine
 10
11.521
 20
4.567
 30
0.0
 11
11.513
 21
4.567
 31
0.0
  0
LINE
  5
636
330
18
100
AcDbEntity
  8
Object
100
AcDbLine
 10
11.513
 20
4.709999999999999
 30
0.0
 11
11.513
 21
4.724
 31
0.0
  0
LINE
  5
637
330
18
100
AcDbEntity
  8
Object
100
AcDbLine
 10
11.513
 20
4.724
 30
0.0
 11
11.513
 21
4.73
 31
0.0
  0
LINE
  5
638
330
18
100
AcDbEntity
  8
Object
100
AcDbLine
 10
11.513
 20
4.73
 30
0.0
 11
11.513
 21
4.724
 31
0.0
  0
LINE
  5
639
330
18
100
AcDbEntity
  8
Object
100
AcDbLine
 10
11.513
 20
4.724
 30
0.0
 11
11.513
 21
4.709999999999999
 31
0.0
  0
LINE
  5
63A
330
18
100
AcDbEntity
  8
Object
100
AcDbLine
 10
11.513
 20
4.709999999999999
 30
0.0
 11
11.513
 21
4.586
 31
0.0
  0
LINE
  5
63B
330
18
100
AcDbEntity
  8
Object
100
AcDbLine
 10
11.513
 20
4.586
 30
0.0
 11
11.513
 21
4.572
 31
0.0
  0
LINE
  5
63C
330
18
100
AcDbEntity
  8
Object
100
AcDbLine
 10
11.513
 20
4.572
 30
0.0
 11
11.513
 21
4.567
 31
0.0
  0
LINE
  5
63D
330
18
100
AcDbEntity
  8
Object
100
AcDbLine
 10
11.737
 20
4.73
 30
0.0
 11
11.732
 21
4.73
 31
0.0
  0
LINE
  5
63E
330
18
100
AcDbEntity
  8
Object
100
AcDbLine
 10
11.732
 20
4.73
 30
0.0
 11
11.727
 21
4.73
 31
0.0
  0
LINE
  5
63F
330
18
100
AcDbEntity
  8
Object
100
AcDbLine
 10
11.623
 20
4.567
 30
0.0
 11
11.578
 21
4.567
 31
0.0
  0
LINE
  5
640
330
18
100
AcDbEntity
  8
Object
100
AcDbLine
 10
11.578
 20
4.567
 30
0.0
 11
11.543
 21
4.567
 31
0.0
  0
LINE
  5
641
330
18
100
AcDbEntity
  8
Object
100
AcDbLine
 10
11.513
 20
4.586
 30
0.0
 11
11.513
 21
4.572
 31
0.0
  0
LINE
  5
642
330
18
100
AcDbEntity
  8
Object
100
AcDbLine
 10
11.543
 20
4.567
 30
0.0
 11
11.521
 21
4.567
 31
0.0
  0
LINE
  5
643
330
18
100
AcDbEntity
  8
Object
100
AcDbLine
 10
11.521
 20
4.567
 30
0.0
 11
11.513
 21
4.567
 31
0.0
  0
LINE
  5
644
330
18
100
AcDbEntity
  8
Object
100
AcDbLine
 10
11.513
 20
4.567
 30
0.0
 11
11.513
 21
4.572
 31
0.0
  0
LINE
  5
645
330
18
100
AcDbEntity
  8
Object
100
AcDbLine
 10
11.951
 20
4.567
 30
0.0
 11
11.951
 21
4.572
 31
0.0
  0
LINE
  5
646
330
18
100
AcDbEntity
  8
Object
100
AcDbLine
 10
11.951
 20
4.572
 30
0.0
 11
11.951
 21
4.586
 31
0.0
  0
LINE
  5
647
330
18
100
AcDbEntity
  8
Object
100
AcDbLine
 10
11.951
 20
4.586
 30
0.0
 11
11.951
 21
4.709999999999999
 31
0.0
  0
LINE
  5
648
330
18
100
AcDbEntity
  8
Object
100
AcDbLine
 10
11.951
 20
4.709999999999999
 30
0.0
 11
11.951
 21
4.724
 31
0.0
  0
LINE
  5
649
330
18
100
AcDbEntity
  8
Object
100
AcDbLine
 10
11.951
 20
4.724
 30
0.0
 11
11.951
 21
4.73
 31
0.0
  0
LINE
  5
64A
330
18
100
AcDbEntity
  8
Object
100
AcDbLine
 10
11.951
 20
4.73
 30
0.0
 11
11.951
 21
4.724
 31
0.0
  0
LINE
  5
64B
330
18
100
AcDbEntity
  8
Object
100
AcDbLine
 10
11.951
 20
4.724
 30
0.0
 11
11.951
 21
4.709999999999999
 31
0.0
  0
LINE
  5
64C
330
18
100
AcDbEntity
  8
Object
100
AcDbLine
 10
11.944
 20
4.567
 30
0.0
 11
11.951
 21
4.567
 31
0.0
  0
LINE
  5
64D
330
18
100
AcDbEntity
  8
Object
100
AcDbLine
 10
11.951
 20
4.567
 30
0.0
 11
11.951
 21
4.572
 31
0.0
  0
LINE
  5
64E
330
18
100
AcDbEntity
  8
Object
100
AcDbLine
 10
11.922
 20
4.567
 30
0.0
 11
11.944
 21
4.567
 31
0.0
  0
LINE
  5
64F
330
18
100
AcDbEntity
  8
Object
100
AcDbLine
 10
11.951
 20
4.572
 30
0.0
 11
11.951
 21
4.586
 31
0.0
  0
LINE
  5
650
330
18
100
AcDbEntity
  8
Object
100
AcDbLine
 10
11.922
 20
4.567
 30
0.0
 11
11.887
 21
4.567
 31
0.0
  0
LINE
  5
651
330
18
100
AcDbEntity
  8
Object
100
AcDbLine
 10
11.887
 20
4.567
 30
0.0
 11
11.842
 21
4.567
 31
0.0
  0
LINE
  5
652
330
18
100
AcDbEntity
  8
Object
100
AcDbLine
 10
11.737
 20
4.73
 30
0.0
 11
11.732
 21
4.73
 31
0.0
  0
LINE
  5
653
330
18
100
AcDbEntity
  8
Object
100
AcDbLine
 10
11.732
 20
4.73
 30
0.0
 11
11.727
 21
4.73
 31
0.0
  0
LINE
  5
654
330
18
100
AcDbEntity
  8
Object
100
AcDbLine
 10
11.727
 20
4.758
 30
0.0
 11
11.732
 21
4.759
 31
0.0
  0
LINE
  5
655
330
18
100
AcDbEntity
  8
Object
100
AcDbLine
 10
11.732
 20
4.759
 30
0.0
 11
11.732
 21
4.73
 31
0.0
  0
LINE
  5
656
330
18
100
AcDbEntity
  8
Object
100
AcDbLine
 10
11.737
 20
4.759
 30
0.0
 11
11.732
 21
4.759
 31
0.0
  0
LINE
  5
657
330
18
100
AcDbEntity
  8
Object
100
AcDbLine
 10
11.843
 20
5.23
 30
0.0
 11
11.857
 21
5.222
 31
0.0
  0
LINE
  5
658
330
18
100
AcDbEntity
  8
Object
100
AcDbLine
 10
11.857
 20
5.222
 30
0.0
 11
11.853
 21
5.219
 31
0.0
  0
LINE
  5
659
330
18
100
AcDbEntity
  8
Object
100
AcDbLine
 10
11.843
 20
5.23
 30
0.0
 11
11.836
 21
5.23
 31
0.0
  0
LINE
  5
65A
330
18
100
AcDbEntity
  8
Object
100
AcDbLine
 10
11.837
 20
5.217
 30
0.0
 11
11.853
 21
5.219
 31
0.0
  0
LINE
  5
65B
330
18
100
AcDbEntity
  8
Object
100
AcDbLine
 10
11.836
 20
5.23
 30
0.0
 11
11.823
 21
5.23
 31
0.0
  0
LINE
  5
65C
330
18
100
AcDbEntity
  8
Object
100
AcDbLine
 10
11.823
 20
5.23
 30
0.0
 11
11.805
 21
5.23
 31
0.0
  0
LINE
  5
65D
330
18
100
AcDbEntity
  8
Object
100
AcDbLine
 10
11.826
 20
5.216
 30
0.0
 11
11.837
 21
5.217
 31
0.0
  0
LINE
  5
65E
330
18
100
AcDbEntity
  8
Object
100
AcDbLine
 10
11.79
 20
5.227999999999999
 30
0.0
 11
11.772
 21
5.225999999999999
 31
0.0
  0
LINE
  5
65F
330
18
100
AcDbEntity
  8
Object
100
AcDbLine
 10
11.772
 20
5.225999999999999
 30
0.0
 11
11.753
 21
5.225
 31
0.0
  0
LINE
  5
660
330
18
100
AcDbEntity
  8
Object
100
AcDbLine
 10
11.753
 20
5.225
 30
0.0
 11
11.732
 21
5.222999999999999
 31
0.0
  0
LINE
  5
661
330
18
100
AcDbEntity
  8
Object
100
AcDbLine
 10
11.737
 20
4.774
 30
0.0
 11
11.732
 21
4.772999999999999
 31
0.0
  0
LINE
  5
662
330
18
100
AcDbEntity
  8
Object
100
AcDbLine
 10
11.732
 20
5.222999999999999
 30
0.0
 11
11.694
 21
5.219999999999999
 31
0.0
  0
LINE
  5
663
330
18
100
AcDbEntity
  8
Object
100
AcDbLine
 10
11.732
 20
4.772999999999999
 30
0.0
 11
11.727
 21
4.772999999999999
 31
0.0
  0
LINE
  5
664
330
18
100
AcDbEntity
  8
Object
100
AcDbLine
 10
11.694
 20
5.219999999999999
 30
0.0
 11
11.662
 21
5.217
 31
0.0
  0
LINE
  5
665
330
18
100
AcDbEntity
  8
Object
100
AcDbLine
 10
11.662
 20
5.217
 30
0.0
 11
11.652
 21
5.216
 31
0.0
  0
LINE
  5
666
330
18
100
AcDbEntity
  8
Object
100
AcDbLine
 10
11.737
 20
4.786999999999999
 30
0.0
 11
11.732
 21
4.786
 31
0.0
  0
LINE
  5
667
330
18
100
AcDbEntity
  8
Object
100
AcDbLine
 10
11.732
 20
4.786
 30
0.0
 11
11.727
 21
4.786
 31
0.0
  0
LINE
  5
668
330
18
100
AcDbEntity
  8
Object
100
AcDbLine
 10
11.642
 20
5.23
 30
0.0
 11
11.66
 21
5.23
 31
0.0
  0
LINE
  5
669
330
18
100
AcDbEntity
  8
Object
100
AcDbLine
 10
11.66
 20
5.23
 30
0.0
 11
11.643
 21
5.227999999999999
 31
0.0
  0
LINE
  5
66A
330
18
100
AcDbEntity
  8
Object
100
AcDbLine
 10
11.643
 20
5.227999999999999
 30
0.0
 11
11.634
 21
5.225
 31
0.0
  0
LINE
  5
66B
330
18
100
AcDbEntity
  8
Object
100
AcDbLine
 10
11.642
 20
5.23
 30
0.0
 11
11.629
 21
5.23
 31
0.0
  0
LINE
  5
66C
330
18
100
AcDbEntity
  8
Object
100
AcDbLine
 10
11.629
 20
5.23
 30
0.0
 11
11.622
 21
5.23
 31
0.0
  0
LINE
  5
66D
330
18
100
AcDbEntity
  8
Object
100
AcDbLine
 10
11.622
 20
5.23
 30
0.0
 11
11.633
 21
5.222999999999999
 31
0.0
  0
LINE
  5
66E
330
18
100
AcDbEntity
  8
Object
100
AcDbLine
 10
11.633
 20
5.222999999999999
 30
0.0
 11
11.634
 21
5.225
 31
0.0
  0
LINE
  5
66F
330
18
100
AcDbEntity
  8
Object
100
AcDbLine
 10
11.622
 20
5.23
 30
0.0
 11
11.633
 21
5.222999999999999
 31
0.0
  0
LINE
  5
670
330
18
100
AcDbEntity
  8
Object
100
AcDbLine
 10
11.706
 20
5.23
 30
0.0
 11
11.732
 21
5.23
 31
0.0
  0
LINE
  5
671
330
18
100
AcDbEntity
  8
Object
100
AcDbLine
 10
11.732
 20
5.23
 30
0.0
 11
11.732
 21
5.222999999999999
 31
0.0
  0
LINE
  5
672
330
18
100
AcDbEntity
  8
Object
100
AcDbLine
 10
11.706
 20
5.23
 30
0.0
 11
11.681
 21
5.23
 31
0.0
  0
LINE
  5
673
330
18
100
AcDbEntity
  8
Object
100
AcDbLine
 10
11.681
 20
5.23
 30
0.0
 11
11.66
 21
5.23
 31
0.0
  0
LINE
  5
674
330
18
100
AcDbEntity
  8
Object
100
AcDbLine
 10
11.633
 20
5.222999999999999
 30
0.0
 11
11.632
 21
5.216
 31
0.0
  0
LINE
  5
675
330
18
100
AcDbEntity
  8
Object
100
AcDbLine
 10
11.857
 20
5.216
 30
0.0
 11
11.857
 21
5.222
 31
0.0
  0
LINE
  5
676
330
18
100
AcDbEntity
  8
Object
100
AcDbLine
 10
11.784
 20
5.23
 30
0.0
 11
11.805
 21
5.23
 31
0.0
  0
LINE
  5
677
330
18
100
AcDbEntity
  8
Object
100
AcDbLine
 10
11.805
 20
5.23
 30
0.0
 11
11.79
 21
5.227999999999999
 31
0.0
  0
LINE
  5
678
330
18
100
AcDbEntity
  8
Object
100
AcDbLine
 10
11.784
 20
5.23
 30
0.0
 11
11.759
 21
5.23
 31
0.0
  0
LINE
  5
679
330
18
100
AcDbEntity
  8
Object
100
AcDbLine
 10
11.759
 20
5.23
 30
0.0
 11
11.732
 21
5.23
 31
0.0
  0
LINE
  5
67A
330
18
100
AcDbEntity
  8
Object
100
AcDbLine
 10
11.732
 20
4.772999999999999
 30
0.0
 11
11.732
 21
4.786
 31
0.0
  0
LINE
  5
67B
330
18
100
AcDbEntity
  8
Object
100
AcDbLine
 10
11.843
 20
5.23
 30
0.0
 11
11.836
 21
5.23
 31
0.0
  0
LINE
  5
67C
330
18
100
AcDbEntity
  8
Object
100
AcDbLine
 10
11.836
 20
5.23
 30
0.0
 11
11.823
 21
5.23
 31
0.0
  0
LINE
  5
67D
330
18
100
AcDbEntity
  8
Object
100
AcDbLine
 10
11.823
 20
5.23
 30
0.0
 11
11.805
 21
5.23
 31
0.0
  0
LINE
  5
67E
330
18
100
AcDbEntity
  8
Object
100
AcDbLine
 10
11.805
 20
5.23
 30
0.0
 11
11.784
 21
5.23
 31
0.0
  0
LINE
  5
67F
330
18
100
AcDbEntity
  8
Object
100
AcDbLine
 10
11.784
 20
5.23
 30
0.0
 11
11.759
 21
5.23
 31
0.0
  0
LINE
  5
680
330
18
100
AcDbEntity
  8
Object
100
AcDbLine
 10
11.759
 20
5.23
 30
0.0
 11
11.732
 21
5.23
 31
0.0
  0
LINE
  5
681
330
18
100
AcDbEntity
  8
Object
100
AcDbLine
 10
11.732
 20
5.23
 30
0.0
 11
11.706
 21
5.23
 31
0.0
  0
LINE
  5
682
330
18
100
AcDbEntity
  8
Object
100
AcDbLine
 10
11.706
 20
5.23
 30
0.0
 11
11.681
 21
5.23
 31
0.0
  0
LINE
  5
683
330
18
100
AcDbEntity
  8
Object
100
AcDbLine
 10
11.681
 20
5.23
 30
0.0
 11
11.66
 21
5.23
 31
0.0
  0
LINE
  5
684
330
18
100
AcDbEntity
  8
Object
100
AcDbLine
 10
11.66
 20
5.23
 30
0.0
 11
11.642
 21
5.23
 31
0.0
  0
LINE
  5
685
330
18
100
AcDbEntity
  8
Object
100
AcDbLine
 10
11.642
 20
5.23
 30
0.0
 11
11.629
 21
5.23
 31
0.0
  0
LINE
  5
686
330
18
100
AcDbEntity
  8
Object
100
AcDbLine
 10
11.629
 20
5.23
 30
0.0
 11
11.622
 21
5.23
 31
0.0
  0
LINE
  5
687
330
18
100
AcDbEntity
  8
Object
100
AcDbLine
 10
11.622
 20
5.23
 30
0.0
 11
11.622
 21
5.229
 31
0.0
  0
LINE
  5
688
330
18
100
AcDbEntity
  8
Object
100
AcDbLine
 10
7.246999999999999
 20
12.621
 30
0.0
 11
7.323
 21
12.621
 31
0.0
  0
LINE
  5
689
330
18
100
AcDbEntity
  8
Object
100
AcDbLine
 10
7.323
 20
12.621
 30
0.0
 11
7.323
 21
12.632
 31
0.0
  0
LINE
  5
68A
330
18
100
AcDbEntity
  8
Object
100
AcDbLine
 10
7.246999999999999
 20
12.621
 30
0.0
 11
7.246999999999999
 21
12.575
 31
0.0
  0
LINE
  5
68B
330
18
100
AcDbEntity
  8
Object
100
AcDbLine
 10
12.372
 20
11.272
 30
0.0
 11
12.372
 21
12.522
 31
0.0
  0
LINE
  5
68C
330
18
100
AcDbEntity
  8
Object
100
AcDbLine
 10
12.372
 20
12.522
 30
0.0
 11
11.997
 21
12.897
 31
0.0
  0
LINE
  5
68D
330
18
100
AcDbEntity
  8
Object
100
AcDbLine
 10
11.997
 20
10.897
 30
0.0
 11
12.372
 21
11.272
 31
0.0
  0
LINE
  5
68E
330
18
100
AcDbEntity
  8
Object
100
AcDbLine
 10
9.012
 20
12.037
 30
0.0
 11
11.475
 21
12.037
 31
0.0
  0
LINE
  5
68F
330
18
100
AcDbEntity
  8
Object
100
AcDbLine
 10
11.475
 20
11.757
 30
0.0
 11
9.012
 21
11.757
 31
0.0
  0
LINE
  5
690
330
18
100
AcDbEntity
  8
Object
100
AcDbLine
 10
8.496999999999999
 20
11.897
 30
0.0
 11
8.49
 21
11.854
 31
0.0
  0
LINE
  5
691
330
18
100
AcDbEntity
  8
Object
100
AcDbLine
 10
8.871999999999999
 20
11.897
 30
0.0
 11
8.878999999999999
 21
11.854
 31
0.0
  0
LINE
  5
692
330
18
100
AcDbEntity
  8
Object
100
AcDbLine
 10
8.878999999999999
 20
11.854
 30
0.0
 11
8.899
 21
11.815
 31
0.0
  0
LINE
  5
693
330
18
100
AcDbEntity
  8
Object
100
AcDbLine
 10
8.49
 20
11.941
 30
0.0
 11
8.496999999999999
 21
11.897
 31
0.0
  0
LINE
  5
694
330
18
100
AcDbEntity
  8
Object
100
AcDbLine
 10
8.871999999999999
 20
11.897
 30
0.0
 11
8.878999999999999
 21
11.941
 31
0.0
  0
LINE
  5
695
330
18
100
AcDbEntity
  8
Object
100
AcDbLine
 10
8.929999999999999
 20
12.011
 30
0.0
 11
8.899
 21
11.98
 31
0.0
  0
LINE
  5
696
330
18
100
AcDbEntity
  8
Object
100
AcDbLine
 10
8.899
 20
11.98
 30
0.0
 11
8.878999999999999
 21
11.941
 31
0.0
  0
LINE
  5
697
330
18
100
AcDbEntity
  8
Object
100
AcDbLine
 10
8.471
 20
11.98
 30
0.0
 11
8.49
 21
11.941
 31
0.0
  0
LINE
  5
698
330
18
100
AcDbEntity
  8
Object
100
AcDbLine
 10
8.929999999999999
 20
11.784
 30
0.0
 11
8.899
 21
11.815
 31
0.0
  0
LINE
  5
699
330
18
100
AcDbEntity
  8
Object
100
AcDbLine
 10
8.49
 20
11.854
 30
0.0
 11
8.471
 21
11.815
 31
0.0
  0
LINE
  5
69A
330
18
100
AcDbEntity
  8
Object
100
AcDbLine
 10
8.439999999999999
 20
12.011
 30
0.0
 11
8.471
 21
11.98
 31
0.0
  0
LINE
  5
69B
330
18
100
AcDbEntity
  8
Object
100
AcDbLine
 10
8.471
 20
11.815
 30
0.0
 11
8.439999999999999
 21
11.784
 31
0.0
  0
LINE
  5
69C
330
18
100
AcDbEntity
  8
Object
100
AcDbLine
 10
8.968999999999999
 20
11.764
 30
0.0
 11
8.929999999999999
 21
11.784
 31
0.0
  0
LINE
  5
69D
330
18
100
AcDbEntity
  8
Object
100
AcDbLine
 10
8.434000000000001
 20
12.562
 30
0.0
 11
8.434000000000001
 21
12.52
 31
0.0
  0
LINE
  5
69E
330
18
100
AcDbEntity
  8
Object
100
AcDbLine
 10
8.968999999999999
 20
12.03
 30
0.0
 11
9.012
 21
12.037
 31
0.0
  0
LINE
  5
69F
330
18
100
AcDbEntity
  8
Object
100
AcDbLine
 10
8.434000000000001
 20
12.619
 30
0.0
 11
8.434000000000001
 21
12.578
 31
0.0
  0
LINE
  5
6A0
330
18
100
AcDbEntity
  8
Object
100
AcDbLine
 10
8.929999999999999
 20
12.011
 30
0.0
 11
8.968999999999999
 21
12.03
 31
0.0
  0
LINE
  5
6A1
330
18
100
AcDbEntity
  8
Object
100
AcDbLine
 10
8.434000000000001
 20
12.562
 30
0.0
 11
8.419
 21
12.57
 31
0.0
  0
LINE
  5
6A2
330
18
100
AcDbEntity
  8
Object
100
AcDbLine
 10
8.419
 20
12.57
 30
0.0
 11
8.434000000000001
 21
12.578
 31
0.0
  0
LINE
  5
6A3
330
18
100
AcDbEntity
  8
Object
100
AcDbLine
 10
8.407999999999999
 20
12.632
 30
0.0
 11
8.434000000000001
 21
12.619
 31
0.0
  0
LINE
  5
6A4
330
18
100
AcDbEntity
  8
Object
100
AcDbLine
 10
8.400999999999999
 20
12.03
 30
0.0
 11
8.439999999999999
 21
12.011
 31
0.0
  0
LINE
  5
6A5
330
18
100
AcDbEntity
  8
Object
100
AcDbLine
 10
8.434000000000001
 20
12.52
 30
0.0
 11
8.407999999999999
 21
12.507
 31
0.0
  0
LINE
  5
6A6
330
18
100
AcDbEntity
  8
Object
100
AcDbLine
 10
8.439999999999999
 20
11.784
 30
0.0
 11
8.400999999999999
 21
11.764
 31
0.0
  0
LINE
  5
6A7
330
18
100
AcDbEntity
  8
Object
100
AcDbLine
 10
8.356999999999999
 20
12.037
 30
0.0
 11
8.400999999999999
 21
12.03
 31
0.0
  0
LINE
  5
6A8
330
18
100
AcDbEntity
  8
Object
100
AcDbLine
 10
9.012
 20
11.757
 30
0.0
 11
8.968999999999999
 21
11.764
 31
0.0
  0
LINE
  5
6A9
330
18
100
AcDbEntity
  8
Object
100
AcDbLine
 10
8.400999999999999
 20
11.764
 30
0.0
 11
8.356999999999999
 21
11.757
 31
0.0
  0
LINE
  5
6AA
330
18
100
AcDbEntity
  8
Object
100
AcDbLine
 10
8.355
 20
12.632
 30
0.0
 11
8.407999999999999
 21
12.632
 31
0.0
  0
LINE
  5
6AB
330
18
100
AcDbEntity
  8
Object
100
AcDbLine
 10
8.407999999999999
 20
12.507
 30
0.0
 11
8.355
 21
12.507
 31
0.0
  0
LINE
  5
6AC
330
18
100
AcDbEntity
  8
Object
100
AcDbLine
 10
8.329
 20
12.578
 30
0.0
 11
8.345
 21
12.57
 31
0.0
  0
LINE
  5
6AD
330
18
100
AcDbEntity
  8
Object
100
AcDbLine
 10
8.345
 20
12.57
 30
0.0
 11
8.329
 21
12.562
 31
0.0
  0
LINE
  5
6AE
330
18
100
AcDbEntity
  8
Object
100
AcDbLine
 10
8.287
 20
12.632
 30
0.0
 11
8.287
 21
12.621
 31
0.0
  0
LINE
  5
6AF
330
18
100
AcDbEntity
  8
Object
100
AcDbLine
 10
8.329
 20
12.578
 30
0.0
 11
8.329
 21
12.619
 31
0.0
  0
LINE
  5
6B0
330
18
100
AcDbEntity
  8
Object
100
AcDbLine
 10
8.329
 20
12.562
 30
0.0
 11
8.329
 21
12.52
 31
0.0
  0
LINE
  5
6B1
330
18
100
AcDbEntity
  8
Object
100
AcDbLine
 10
8.329
 20
12.52
 30
0.0
 11
8.355
 21
12.507
 31
0.0
  0
LINE
  5
6B2
330
18
100
AcDbEntity
  8
Object
100
AcDbLine
 10
8.329
 20
12.619
 30
0.0
 11
8.355
 21
12.632
 31
0.0
  0
LINE
  5
6B3
330
18
100
AcDbEntity
  8
Object
100
AcDbLine
 10
8.287
 20
12.52
 30
0.0
 11
8.287
 21
12.574
 31
0.0
  0
LINE
  5
6B4
330
18
100
AcDbEntity
  8
Object
100
AcDbLine
 10
8.287
 20
12.574
 30
0.0
 11
8.259999999999999
 21
12.587
 31
0.0
  0
LINE
  5
6B5
330
18
100
AcDbEntity
  8
Object
100
AcDbLine
 10
8.287
 20
12.52
 30
0.0
 11
8.259999999999999
 21
12.507
 31
0.0
  0
LINE
  5
6B6
330
18
100
AcDbEntity
  8
Object
100
AcDbLine
 10
8.246
 20
12.575
 30
0.0
 11
8.271
 21
12.562
 31
0.0
  0
LINE
  5
6B7
330
18
100
AcDbEntity
  8
Object
100
AcDbLine
 10
8.271
 20
12.562
 30
0.0
 11
8.271
 21
12.532
 31
0.0
  0
LINE
  5
6B8
330
18
100
AcDbEntity
  8
Object
100
AcDbLine
 10
8.271
 20
12.532
 30
0.0
 11
8.246
 21
12.519
 31
0.0
  0
LINE
  5
6B9
330
18
100
AcDbEntity
  8
Object
100
AcDbLine
 10
8.246
 20
12.519
 30
0.0
 11
8.223
 21
12.519
 31
0.0
  0
LINE
  5
6BA
330
18
100
AcDbEntity
  8
Object
100
AcDbLine
 10
8.246
 20
12.575
 30
0.0
 11
8.223
 21
12.575
 31
0.0
  0
LINE
  5
6BB
330
18
100
AcDbEntity
  8
Object
100
AcDbLine
 10
8.259999999999999
 20
12.507
 30
0.0
 11
8.208
 21
12.507
 31
0.0
  0
LINE
  5
6BC
330
18
100
AcDbEntity
  8
Object
100
AcDbLine
 10
8.259999999999999
 20
12.587
 30
0.0
 11
8.208
 21
12.587
 31
0.0
  0
LINE
  5
6BD
330
18
100
AcDbEntity
  8
Object
100
AcDbLine
 10
8.208
 20
12.587
 30
0.0
 11
8.197
 21
12.581
 31
0.0
  0
LINE
  5
6BE
330
18
100
AcDbEntity
  8
Object
100
AcDbLine
 10
8.197
 20
12.581
 30
0.0
 11
8.197
 21
12.621
 31
0.0
  0
LINE
  5
6BF
330
18
100
AcDbEntity
  8
Object
100
AcDbLine
 10
8.197
 20
12.621
 30
0.0
 11
8.287
 21
12.621
 31
0.0
  0
LINE
  5
6C0
330
18
100
AcDbEntity
  8
Object
100
AcDbLine
 10
8.223
 20
12.575
 30
0.0
 11
8.197
 21
12.562
 31
0.0
  0
LINE
  5
6C1
330
18
100
AcDbEntity
  8
Object
100
AcDbLine
 10
8.223
 20
12.519
 30
0.0
 11
8.197
 21
12.532
 31
0.0
  0
LINE
  5
6C2
330
18
100
AcDbEntity
  8
Object
100
AcDbLine
 10
8.197
 20
12.532
 30
0.0
 11
8.197
 21
12.542
 31
0.0
  0
LINE
  5
6C3
330
18
100
AcDbEntity
  8
Object
100
AcDbLine
 10
8.197
 20
12.562
 30
0.0
 11
8.182
 21
12.562
 31
0.0
  0
LINE
  5
6C4
330
18
100
AcDbEntity
  8
Object
100
AcDbLine
 10
8.182
 20
12.542
 30
0.0
 11
8.197
 21
12.542
 31
0.0
  0
LINE
  5
6C5
330
18
100
AcDbEntity
  8
Object
100
AcDbLine
 10
8.182
 20
12.632
 30
0.0
 11
8.287
 21
12.632
 31
0.0
  0
LINE
  5
6C6
330
18
100
AcDbEntity
  8
Object
100
AcDbLine
 10
8.182
 20
12.52
 30
0.0
 11
8.182
 21
12.542
 31
0.0
  0
LINE
  5
6C7
330
18
100
AcDbEntity
  8
Object
100
AcDbLine
 10
8.144
 20
12.632
 30
0.0
 11
8.144
 21
12.621
 31
0.0
  0
LINE
  5
6C8
330
18
100
AcDbEntity
  8
Object
100
AcDbLine
 10
8.182
 20
12.562
 30
0.0
 11
8.182
 21
12.632
 31
0.0
  0
LINE
  5
6C9
330
18
100
AcDbEntity
  8
Object
100
AcDbLine
 10
8.144
 20
12.519
 30
0.0
 11
8.144
 21
12.507
 31
0.0
  0
LINE
  5
6CA
330
18
100
AcDbEntity
  8
Object
100
AcDbLine
 10
8.208
 20
12.507
 30
0.0
 11
8.182
 21
12.52
 31
0.0
  0
LINE
  5
6CB
330
18
100
AcDbEntity
  8
Object
100
AcDbLine
 10
8.121999999999999
 20
12.575
 30
0.0
 11
8.121999999999999
 21
12.565
 31
0.0
  0
LINE
  5
6CC
330
18
100
AcDbEntity
  8
Object
100
AcDbLine
 10
8.144
 20
12.621
 30
0.0
 11
8.067
 21
12.621
 31
0.0
  0
LINE
  5
6CD
330
18
100
AcDbEntity
  8
Object
100
AcDbLine
 10
8.144
 20
12.519
 30
0.0
 11
8.067
 21
12.519
 31
0.0
  0
LINE
  5
6CE
330
18
100
AcDbEntity
  8
Object
100
AcDbLine
 10
8.067
 20
12.519
 30
0.0
 11
8.067
 21
12.565
 31
0.0
  0
LINE
  5
6CF
330
18
100
AcDbEntity
  8
Object
100
AcDbLine
 10
8.067
 20
12.565
 30
0.0
 11
8.121999999999999
 21
12.565
 31
0.0
  0
LINE
  5
6D0
330
18
100
AcDbEntity
  8
Object
100
AcDbLine
 10
8.121999999999999
 20
12.575
 30
0.0
 11
8.067
 21
12.575
 31
0.0
  0
LINE
  5
6D1
330
18
100
AcDbEntity
  8
Object
100
AcDbLine
 10
8.067
 20
12.575
 30
0.0
 11
8.067
 21
12.621
 31
0.0
  0
LINE
  5
6D2
330
18
100
AcDbEntity
  8
Object
100
AcDbLine
 10
8.051999999999999
 20
12.632
 30
0.0
 11
8.144
 21
12.632
 31
0.0
  0
LINE
  5
6D3
330
18
100
AcDbEntity
  8
Object
100
AcDbLine
 10
8.144
 20
12.507
 30
0.0
 11
8.051999999999999
 21
12.507
 31
0.0
  0
LINE
  5
6D4
330
18
100
AcDbEntity
  8
Object
100
AcDbLine
 10
8.051999999999999
 20
12.507
 30
0.0
 11
8.051999999999999
 21
12.632
 31
0.0
  0
LINE
  5
6D5
330
18
100
AcDbEntity
  8
Object
100
AcDbLine
 10
8.013999999999999
 20
12.568
 30
0.0
 11
8.013999999999999
 21
12.52
 31
0.0
  0
LINE
  5
6D6
330
18
100
AcDbEntity
  8
Object
100
AcDbLine
 10
8.003999999999999
 20
12.621
 30
0.0
 11
8.003999999999999
 21
12.58
 31
0.0
  0
LINE
  5
6D7
330
18
100
AcDbEntity
  8
Object
100
AcDbLine
 10
8.013999999999999
 20
12.568
 30
0.0
 11
8.000999999999999
 21
12.576
 31
0.0
  0
LINE
  5
6D8
330
18
100
AcDbEntity
  8
Object
100
AcDbLine
 10
8.000999999999999
 20
12.576
 30
0.0
 11
8.003999999999999
 21
12.58
 31
0.0
  0
LINE
  5
6D9
330
18
100
AcDbEntity
  8
Object
100
AcDbLine
 10
7.993999999999999
 20
12.632
 30
0.0
 11
8.003999999999999
 21
12.621
 31
0.0
  0
LINE
  5
6DA
330
18
100
AcDbEntity
  8
Object
100
AcDbLine
 10
8.013999999999999
 20
12.52
 30
0.0
 11
7.993999999999999
 21
12.507
 31
0.0
  0
LINE
  5
6DB
330
18
100
AcDbEntity
  8
Object
100
AcDbLine
 10
7.908999999999999
 20
12.632
 30
0.0
 11
7.993999999999999
 21
12.632
 31
0.0
  0
LINE
  5
6DC
330
18
100
AcDbEntity
  8
Object
100
AcDbLine
 10
7.993999999999999
 20
12.507
 30
0.0
 11
7.908999999999999
 21
12.507
 31
0.0
  0
LINE
  5
6DD
330
18
100
AcDbEntity
  8
Object
100
AcDbLine
 10
7.868999999999999
 20
12.618
 30
0.0
 11
7.868999999999999
 21
12.578
 31
0.0
  0
LINE
  5
6DE
330
18
100
AcDbEntity
  8
Object
100
AcDbLine
 10
7.908999999999999
 20
12.507
 30
0.0
 11
7.908999999999999
 21
12.632
 31
0.0
  0
LINE
  5
6DF
330
18
100
AcDbEntity
  8
Object
100
AcDbLine
 10
7.852
 20
12.507
 30
0.0
 11
7.868999999999999
 21
12.507
 31
0.0
  0
LINE
  5
6E0
330
18
100
AcDbEntity
  8
Object
100
AcDbLine
 10
7.868999999999999
 20
12.507
 30
0.0
 11
7.847
 21
12.567
 31
0.0
  0
LINE
  5
6E1
330
18
100
AcDbEntity
  8
Object
100
AcDbLine
 10
7.847
 20
12.567
 30
0.0
 11
7.868999999999999
 21
12.578
 31
0.0
  0
LINE
  5
6E2
330
18
100
AcDbEntity
  8
Object
100
AcDbLine
 10
7.841
 20
12.632
 30
0.0
 11
7.868999999999999
 21
12.618
 31
0.0
  0
LINE
  5
6E3
330
18
100
AcDbEntity
  8
Object
100
AcDbLine
 10
7.778999999999999
 20
12.507
 30
0.0
 11
7.778999999999999
 21
12.565
 31
0.0
  0
LINE
  5
6E4
330
18
100
AcDbEntity
  8
Object
100
AcDbLine
 10
7.778999999999999
 20
12.565
 30
0.0
 11
7.831999999999999
 21
12.565
 31
0.0
  0
LINE
  5
6E5
330
18
100
AcDbEntity
  8
Object
100
AcDbLine
 10
7.831999999999999
 20
12.565
 30
0.0
 11
7.852
 21
12.507
 31
0.0
  0
LINE
  5
6E6
330
18
100
AcDbEntity
  8
Object
100
AcDbLine
 10
7.764
 20
12.632
 30
0.0
 11
7.841
 21
12.632
 31
0.0
  0
LINE
  5
6E7
330
18
100
AcDbEntity
  8
Object
100
AcDbLine
 10
7.778999999999999
 20
12.507
 30
0.0
 11
7.764
 21
12.507
 31
0.0
  0
LINE
  5
6E8
330
18
100
AcDbEntity
  8
Object
100
AcDbLine
 10
7.722
 20
12.632
 30
0.0
 11
7.722
 21
12.621
 31
0.0
  0
LINE
  5
6E9
330
18
100
AcDbEntity
  8
Object
100
AcDbLine
 10
7.764
 20
12.507
 30
0.0
 11
7.764
 21
12.632
 31
0.0
  0
LINE
  5
6EA
330
18
100
AcDbEntity
  8
Object
100
AcDbLine
 10
7.69
 20
12.507
 30
0.0
 11
7.69
 21
12.621
 31
0.0
  0
LINE
  5
6EB
330
18
100
AcDbEntity
  8
Object
100
AcDbLine
 10
7.69
 20
12.621
 30
0.0
 11
7.722
 21
12.621
 31
0.0
  0
LINE
  5
6EC
330
18
100
AcDbEntity
  8
Object
100
AcDbLine
 10
7.69
 20
12.507
 30
0.0
 11
7.677
 21
12.507
 31
0.0
  0
LINE
  5
6ED
330
18
100
AcDbEntity
  8
Object
100
AcDbLine
 10
7.645
 20
12.632
 30
0.0
 11
7.722
 21
12.632
 31
0.0
  0
LINE
  5
6EE
330
18
100
AcDbEntity
  8
Object
100
AcDbLine
 10
7.612
 20
12.619
 30
0.0
 11
7.612
 21
12.597
 31
0.0
  0
LINE
  5
6EF
330
18
100
AcDbEntity
  8
Object
100
AcDbLine
 10
7.612
 20
12.574
 30
0.0
 11
7.612
 21
12.52
 31
0.0
  0
LINE
  5
6F0
330
18
100
AcDbEntity
  8
Object
100
AcDbLine
 10
7.645
 20
12.632
 30
0.0
 11
7.645
 21
12.621
 31
0.0
  0
LINE
  5
6F1
330
18
100
AcDbEntity
  8
Object
100
AcDbLine
 10
7.645
 20
12.621
 30
0.0
 11
7.677
 21
12.621
 31
0.0
  0
LINE
  5
6F2
330
18
100
AcDbEntity
  8
Object
100
AcDbLine
 10
7.677
 20
12.621
 30
0.0
 11
7.677
 21
12.507
 31
0.0
  0
LINE
  5
6F3
330
18
100
AcDbEntity
  8
Object
100
AcDbLine
 10
7.612
 20
12.597
 30
0.0
 11
7.597
 21
12.597
 31
0.0
  0
LINE
  5
6F4
330
18
100
AcDbEntity
  8
Object
100
AcDbLine
 10
7.586
 20
12.632
 30
0.0
 11
7.612
 21
12.619
 31
0.0
  0
LINE
  5
6F5
330
18
100
AcDbEntity
  8
Object
100
AcDbLine
 10
7.612
 20
12.52
 30
0.0
 11
7.586
 21
12.507
 31
0.0
  0
LINE
  5
6F6
330
18
100
AcDbEntity
  8
Object
100
AcDbLine
 10
7.586
 20
12.587
 30
0.0
 11
7.612
 21
12.574
 31
0.0
  0
LINE
  5
6F7
330
18
100
AcDbEntity
  8
Object
100
AcDbLine
 10
7.572
 20
12.621
 30
0.0
 11
7.597
 21
12.608
 31
0.0
  0
LINE
  5
6F8
330
18
100
AcDbEntity
  8
Object
100
AcDbLine
 10
7.597
 20
12.608
 30
0.0
 11
7.597
 21
12.597
 31
0.0
  0
LINE
  5
6F9
330
18
100
AcDbEntity
  8
Object
100
AcDbLine
 10
7.572
 20
12.621
 30
0.0
 11
7.549
 21
12.621
 31
0.0
  0
LINE
  5
6FA
330
18
100
AcDbEntity
  8
Object
100
AcDbLine
 10
7.533999999999999
 20
12.632
 30
0.0
 11
7.586
 21
12.632
 31
0.0
  0
LINE
  5
6FB
330
18
100
AcDbEntity
  8
Object
100
AcDbLine
 10
7.533999999999999
 20
12.587
 30
0.0
 11
7.586
 21
12.587
 31
0.0
  0
LINE
  5
6FC
330
18
100
AcDbEntity
  8
Object
100
AcDbLine
 10
7.586
 20
12.507
 30
0.0
 11
7.533999999999999
 21
12.507
 31
0.0
  0
LINE
  5
6FD
330
18
100
AcDbEntity
  8
Object
100
AcDbLine
 10
7.533999999999999
 20
12.587
 30
0.0
 11
7.523
 21
12.581
 31
0.0
  0
LINE
  5
6FE
330
18
100
AcDbEntity
  8
Object
100
AcDbLine
 10
7.523
 20
12.581
 30
0.0
 11
7.523
 21
12.608
 31
0.0
  0
LINE
  5
6FF
330
18
100
AcDbEntity
  8
Object
100
AcDbLine
 10
7.523
 20
12.608
 30
0.0
 11
7.549
 21
12.621
 31
0.0
  0
LINE
  5
700
330
18
100
AcDbEntity
  8
Object
100
AcDbLine
 10
7.507
 20
12.619
 30
0.0
 11
7.507
 21
12.52
 31
0.0
  0
LINE
  5
701
330
18
100
AcDbEntity
  8
Object
100
AcDbLine
 10
7.507
 20
12.52
 30
0.0
 11
7.533999999999999
 21
12.507
 31
0.0
  0
LINE
  5
702
330
18
100
AcDbEntity
  8
Object
100
AcDbLine
 10
7.469
 20
12.618
 30
0.0
 11
7.469
 21
12.578
 31
0.0
  0
LINE
  5
703
330
18
100
AcDbEntity
  8
Object
100
AcDbLine
 10
7.451999999999999
 20
12.507
 30
0.0
 11
7.469
 21
12.507
 31
0.0
  0
LINE
  5
704
330
18
100
AcDbEntity
  8
Object
100
AcDbLine
 10
7.469
 20
12.507
 30
0.0
 11
7.447
 21
12.567
 31
0.0
  0
LINE
  5
705
330
18
100
AcDbEntity
  8
Object
100
AcDbLine
 10
7.447
 20
12.567
 30
0.0
 11
7.469
 21
12.578
 31
0.0
  0
LINE
  5
706
330
18
100
AcDbEntity
  8
Object
100
AcDbLine
 10
7.507
 20
12.619
 30
0.0
 11
7.533999999999999
 21
12.632
 31
0.0
  0
LINE
  5
707
330
18
100
AcDbEntity
  8
Object
100
AcDbLine
 10
7.440999999999999
 20
12.632
 30
0.0
 11
7.469
 21
12.618
 31
0.0
  0
LINE
  5
708
330
18
100
AcDbEntity
  8
Object
100
AcDbLine
 10
7.451999999999999
 20
12.507
 30
0.0
 11
7.432
 21
12.565
 31
0.0
  0
LINE
  5
709
330
18
100
AcDbEntity
  8
Object
100
AcDbLine
 10
7.379
 20
12.507
 30
0.0
 11
7.379
 21
12.565
 31
0.0
  0
LINE
  5
70A
330
18
100
AcDbEntity
  8
Object
100
AcDbLine
 10
7.379
 20
12.565
 30
0.0
 11
7.432
 21
12.565
 31
0.0
  0
LINE
  5
70B
330
18
100
AcDbEntity
  8
Object
100
AcDbLine
 10
7.363999999999999
 20
12.632
 30
0.0
 11
7.440999999999999
 21
12.632
 31
0.0
  0
LINE
  5
70C
330
18
100
AcDbEntity
  8
Object
100
AcDbLine
 10
7.379
 20
12.507
 30
0.0
 11
7.363999999999999
 21
12.507
 31
0.0
  0
LINE
  5
70D
330
18
100
AcDbEntity
  8
Object
100
AcDbLine
 10
7.323
 20
12.632
 30
0.0
 11
7.323
 21
12.621
 31
0.0
  0
LINE
  5
70E
330
18
100
AcDbEntity
  8
Object
100
AcDbLine
 10
7.363999999999999
 20
12.507
 30
0.0
 11
7.363999999999999
 21
12.632
 31
0.0
  0
LINE
  5
70F
330
18
100
AcDbEntity
  8
Object
100
AcDbLine
 10
7.302
 20
12.575
 30
0.0
 11
7.302
 21
12.565
 31
0.0
  0
LINE
  5
710
330
18
100
AcDbEntity
  8
Object
100
AcDbLine
 10
7.323
 20
12.621
 30
0.0
 11
7.246999999999999
 21
12.621
 31
0.0
  0
LINE
  5
711
330
18
100
AcDbEntity
  8
Object
100
AcDbLine
 10
7.246999999999999
 20
12.507
 30
0.0
 11
7.246999999999999
 21
12.565
 31
0.0
  0
LINE
  5
712
330
18
100
AcDbEntity
  8
Object
100
AcDbLine
 10
7.246999999999999
 20
12.565
 30
0.0
 11
7.302
 21
12.565
 31
0.0
  0
LINE
  5
713
330
18
100
AcDbEntity
  8
Object
100
AcDbLine
 10
7.302
 20
12.575
 30
0.0
 11
7.246999999999999
 21
12.575
 31
0.0
  0
LINE
  5
714
330
18
100
AcDbEntity
  8
Object
100
AcDbLine
 10
7.246999999999999
 20
12.575
 30
0.0
 11
7.246999999999999
 21
12.621
 31
0.0
  0
LINE
  5
715
330
18
100
AcDbEntity
  8
Object
100
AcDbLine
 10
7.246999999999999
 20
12.507
 30
0.0
 11
7.232
 21
12.507
 31
0.0
  0
LINE
  5
716
330
18
100
AcDbEntity
  8
Object
100
AcDbLine
 10
7.232
 20
12.507
 30
0.0
 11
7.232
 21
12.632
 31
0.0
  0
LINE
  5
717
330
18
100
AcDbEntity
  8
Object
100
AcDbLine
 10
6.532
 20
12.632
 30
0.0
 11
6.532
 21
12.621
 31
0.0
  0
LINE
  5
718
330
18
100
AcDbEntity
  8
Object
100
AcDbLine
 10
6.501
 20
12.507
 30
0.0
 11
6.501
 21
12.621
 31
0.0
  0
LINE
  5
719
330
18
100
AcDbEntity
  8
Object
100
AcDbLine
 10
6.501
 20
12.621
 30
0.0
 11
6.532
 21
12.621
 31
0.0
  0
LINE
  5
71A
330
18
100
AcDbEntity
  8
Object
100
AcDbLine
 10
6.456
 20
12.621
 30
0.0
 11
6.487
 21
12.621
 31
0.0
  0
LINE
  5
71B
330
18
100
AcDbEntity
  8
Object
100
AcDbLine
 10
6.487
 20
12.621
 30
0.0
 11
6.487
 21
12.507
 31
0.0
  0
LINE
  5
71C
330
18
100
AcDbEntity
  8
Object
100
AcDbLine
 10
6.4
 20
12.632
 30
0.0
 11
6.4
 21
12.621
 31
0.0
  0
LINE
  5
71D
330
18
100
AcDbEntity
  8
Object
100
AcDbLine
 10
6.4
 20
12.519
 30
0.0
 11
6.4
 21
12.507
 31
0.0
  0
LINE
  5
71E
330
18
100
AcDbEntity
  8
Object
100
AcDbLine
 10
6.456
 20
12.621
 30
0.0
 11
6.456
 21
12.632
 31
0.0
  0
LINE
  5
71F
330
18
100
AcDbEntity
  8
Object
100
AcDbLine
 10
6.4
 20
12.621
 30
0.0
 11
6.397
 21
12.621
 31
0.0
  0
LINE
  5
720
330
18
100
AcDbEntity
  8
Object
100
AcDbLine
 10
6.4
 20
12.519
 30
0.0
 11
6.397
 21
12.519
 31
0.0
  0
LINE
  5
721
330
18
100
AcDbEntity
  8
Object
100
AcDbLine
 10
6.397
 20
12.519
 30
0.0
 11
6.397
 21
12.621
 31
0.0
  0
LINE
  5
722
330
18
100
AcDbEntity
  8
Object
100
AcDbLine
 10
6.387999999999999
 20
12.519
 30
0.0
 11
6.39
 21
12.519
 31
0.0
  0
LINE
  5
723
330
18
100
AcDbEntity
  8
Object
100
AcDbLine
 10
6.387999999999999
 20
12.621
 30
0.0
 11
6.39
 21
12.621
 31
0.0
  0
LINE
  5
724
330
18
100
AcDbEntity
  8
Object
100
AcDbLine
 10
6.39
 20
12.621
 30
0.0
 11
6.39
 21
12.519
 31
0.0
  0
LINE
  5
725
330
18
100
AcDbEntity
  8
Object
100
AcDbLine
 10
6.387999999999999
 20
12.621
 30
0.0
 11
6.387999999999999
 21
12.632
 31
0.0
  0
LINE
  5
726
330
18
100
AcDbEntity
  8
Object
100
AcDbLine
 10
6.387999999999999
 20
12.507
 30
0.0
 11
6.387999999999999
 21
12.519
 31
0.0
  0
LINE
  5
727
330
18
100
AcDbEntity
  8
Object
100
AcDbLine
 10
6.347
 20
12.632
 30
0.0
 11
6.347
 21
12.533
 31
0.0
  0
LINE
  5
728
330
18
100
AcDbEntity
  8
Object
100
AcDbLine
 10
6.347
 20
12.533
 30
0.0
 11
6.323
 21
12.507
 31
0.0
  0
LINE
  5
729
330
18
100
AcDbEntity
  8
Object
100
AcDbLine
 10
6.331
 20
12.541
 30
0.0
 11
6.310999999999999
 21
12.519
 31
0.0
  0
LINE
  5
72A
330
18
100
AcDbEntity
  8
Object
100
AcDbLine
 10
6.310999999999999
 20
12.519
 30
0.0
 11
6.277
 21
12.519
 31
0.0
  0
LINE
  5
72B
330
18
100
AcDbEntity
  8
Object
100
AcDbLine
 10
6.277
 20
12.519
 30
0.0
 11
6.257
 21
12.541
 31
0.0
  0
LINE
  5
72C
330
18
100
AcDbEntity
  8
Object
100
AcDbLine
 10
6.257
 20
12.541
 30
0.0
 11
6.257
 21
12.632
 31
0.0
  0
LINE
  5
72D
330
18
100
AcDbEntity
  8
Object
100
AcDbLine
 10
6.331
 20
12.541
 30
0.0
 11
6.331
 21
12.632
 31
0.0
  0
LINE
  5
72E
330
18
100
AcDbEntity
  8
Object
100
AcDbLine
 10
6.198999999999999
 20
12.601
 30
0.0
 11
6.198999999999999
 21
12.539
 31
0.0
  0
LINE
  5
72F
330
18
100
AcDbEntity
  8
Object
100
AcDbLine
 10
6.241999999999999
 20
12.533
 30
0.0
 11
6.241999999999999
 21
12.632
 31
0.0
  0
LINE
  5
730
330
18
100
AcDbEntity
  8
Object
100
AcDbLine
 10
6.169999999999999
 20
12.632
 30
0.0
 11
6.198999999999999
 21
12.601
 31
0.0
  0
LINE
  5
731
330
18
100
AcDbEntity
  8
Object
100
AcDbLine
 10
6.198999999999999
 20
12.539
 30
0.0
 11
6.169999999999999
 21
12.507
 31
0.0
  0
LINE
  5
732
330
18
100
AcDbEntity
  8
Object
100
AcDbLine
 10
6.265
 20
12.507
 30
0.0
 11
6.241999999999999
 21
12.533
 31
0.0
  0
LINE
  5
733
330
18
100
AcDbEntity
  8
Object
100
AcDbLine
 10
6.094
 20
12.507
 30
0.0
 11
6.094
 21
12.632
 31
0.0
  0
LINE
  5
734
330
18
100
AcDbEntity
  8
Object
100
AcDbLine
 10
6.049
 20
12.632
 30
0.0
 11
6.049
 21
12.507
 31
0.0
  0
LINE
  5
735
330
18
100
AcDbEntity
  8
Object
100
AcDbLine
 10
6.033999999999999
 20
12.632
 30
0.0
 11
6.033999999999999
 21
12.536
 31
0.0
  0
LINE
  5
736
330
18
100
AcDbEntity
  8
Object
100
AcDbLine
 10
6.033999999999999
 20
12.536
 30
0.0
 11
5.959999999999999
 21
12.632
 31
0.0
  0
LINE
  5
737
330
18
100
AcDbEntity
  8
Object
100
AcDbLine
 10
5.959999999999999
 20
12.507
 30
0.0
 11
5.959999999999999
 21
12.604
 31
0.0
  0
LINE
  5
738
330
18
100
AcDbEntity
  8
Object
100
AcDbLine
 10
5.959999999999999
 20
12.604
 30
0.0
 11
6.033999999999999
 21
12.507
 31
0.0
  0
LINE
  5
739
330
18
100
AcDbEntity
  8
Object
100
AcDbLine
 10
5.943999999999999
 20
12.507
 30
0.0
 11
5.943999999999999
 21
12.632
 31
0.0
  0
LINE
  5
73A
330
18
100
AcDbEntity
  8
Object
100
AcDbLine
 10
5.849
 20
12.632
 30
0.0
 11
5.894
 21
12.507
 31
0.0
  0
LINE
  5
73B
330
18
100
AcDbEntity
  8
Object
100
AcDbLine
 10
5.802999999999999
 20
12.507
 30
0.0
 11
5.812
 21
12.529
 31
0.0
  0
LINE
  5
73C
330
18
100
AcDbEntity
  8
Object
100
AcDbLine
 10
5.812
 20
12.529
 30
0.0
 11
5.868999999999999
 21
12.529
 31
0.0
  0
LINE
  5
73D
330
18
100
AcDbEntity
  8
Object
100
AcDbLine
 10
5.868999999999999
 20
12.529
 30
0.0
 11
5.876999999999999
 21
12.507
 31
0.0
  0
LINE
  5
73E
330
18
100
AcDbEntity
  8
Object
100
AcDbLine
 10
5.749
 20
12.618
 30
0.0
 11
5.749
 21
12.578
 31
0.0
  0
LINE
  5
73F
330
18
100
AcDbEntity
  8
Object
100
AcDbLine
 10
5.786999999999999
 20
12.507
 30
0.0
 11
5.831999999999999
 21
12.632
 31
0.0
  0
LINE
  5
740
330
18
100
AcDbEntity
  8
Object
100
AcDbLine
 10
5.749
 20
12.578
 30
0.0
 11
5.722
 21
12.565
 31
0.0
  0
LINE
  5
741
330
18
100
AcDbEntity
  8
Object
100
AcDbLine
 10
5.722
 20
12.632
 30
0.0
 11
5.749
 21
12.618
 31
0.0
  0
LINE
  5
742
330
18
100
AcDbEntity
  8
Object
100
AcDbLine
 10
5.66
 20
12.507
 30
0.0
 11
5.66
 21
12.565
 31
0.0
  0
LINE
  5
743
330
18
100
AcDbEntity
  8
Object
100
AcDbLine
 10
5.66
 20
12.565
 30
0.0
 11
5.722
 21
12.565
 31
0.0
  0
LINE
  5
744
330
18
100
AcDbEntity
  8
Object
100
AcDbLine
 10
5.802999999999999
 20
12.507
 30
0.0
 11
5.786999999999999
 21
12.507
 31
0.0
  0
LINE
  5
745
330
18
100
AcDbEntity
  8
Object
100
AcDbLine
 10
5.894
 20
12.507
 30
0.0
 11
5.876999999999999
 21
12.507
 31
0.0
  0
LINE
  5
746
330
18
100
AcDbEntity
  8
Object
100
AcDbLine
 10
5.959999999999999
 20
12.507
 30
0.0
 11
5.943999999999999
 21
12.507
 31
0.0
  0
LINE
  5
747
330
18
100
AcDbEntity
  8
Object
100
AcDbLine
 10
6.323
 20
12.507
 30
0.0
 11
6.265
 21
12.507
 31
0.0
  0
LINE
  5
748
330
18
100
AcDbEntity
  8
Object
100
AcDbLine
 10
4.892999999999999
 20
12.037
 30
0.0
 11
8.356999999999999
 21
12.037
 31
0.0
  0
LINE
  5
749
330
18
100
AcDbEntity
  8
Object
100
AcDbLine
 10
6.501
 20
12.507
 30
0.0
 11
6.487
 21
12.507
 31
0.0
  0
LINE
  5
74A
330
18
100
AcDbEntity
  8
Object
100
AcDbLine
 10
6.4
 20
12.507
 30
0.0
 11
6.387999999999999
 21
12.507
 31
0.0
  0
LINE
  5
74B
330
18
100
AcDbEntity
  8
Object
100
AcDbLine
 10
6.169999999999999
 20
12.507
 30
0.0
 11
6.094
 21
12.507
 31
0.0
  0
LINE
  5
74C
330
18
100
AcDbEntity
  8
Object
100
AcDbLine
 10
6.049
 20
12.507
 30
0.0
 11
6.033999999999999
 21
12.507
 31
0.0
  0
LINE
  5
74D
330
18
100
AcDbEntity
  8
Object
100
AcDbLine
 10
5.644
 20
12.632
 30
0.0
 11
5.644
 21
12.507
 31
0.0
  0
LINE
  5
74E
330
18
100
AcDbEntity
  8
Object
100
AcDbLine
 10
5.644
 20
12.507
 30
0.0
 11
5.66
 21
12.507
 31
0.0
  0
LINE
  5
74F
330
18
100
AcDbEntity
  8
Object
100
AcDbLine
 10
8.356999999999999
 20
11.757
 30
0.0
 11
4.892999999999999
 21
11.757
 31
0.0
  0
LINE
  5
750
330
18
100
AcDbEntity
  8
Object
100
AcDbLine
 10
11.997
 20
10.897
 30
0.0
 11
3.697
 21
10.897
 31
0.0
  0
LINE
  5
751
330
18
100
AcDbEntity
  8
Object
100
AcDbLine
 10
3.697
 20
10.897
 30
0.0
 11
3.697
 21
11.897
 31
0.0
  0
LINE
  5
752
330
18
100
AcDbEntity
  8
Object
100
AcDbLine
 10
3.697
 20
11.897
 30
0.0
 11
3.689999999999999
 21
11.965
 31
0.0
  0
LINE
  5
753
330
18
100
AcDbEntity
  8
Object
100
AcDbLine
 10
3.689999999999999
 20
11.965
 30
0.0
 11
3.669
 21
12.029
 31
0.0
  0
LINE
  5
754
330
18
100
AcDbEntity
  8
Object
100
AcDbLine
 10
3.669
 20
12.029
 30
0.0
 11
3.635
 21
12.088
 31
0.0
  0
LINE
  5
755
330
18
100
AcDbEntity
  8
Object
100
AcDbLine
 10
3.635
 20
12.088
 30
0.0
 11
3.588999999999999
 21
12.139
 31
0.0
  0
LINE
  5
756
330
18
100
AcDbEntity
  8
Object
100
AcDbLine
 10
3.588999999999999
 20
12.139
 30
0.0
 11
3.534
 21
12.179
 31
0.0
  0
LINE
  5
757
330
18
100
AcDbEntity
  8
Object
100
AcDbLine
 10
6.094
 20
12.632
 30
0.0
 11
6.169999999999999
 21
12.632
 31
0.0
  0
LINE
  5
758
330
18
100
AcDbEntity
  8
Object
100
AcDbLine
 10
7.232
 20
12.632
 30
0.0
 11
7.323
 21
12.632
 31
0.0
  0
LINE
  5
759
330
18
100
AcDbEntity
  8
Object
100
AcDbLine
 10
6.456
 20
12.632
 30
0.0
 11
6.532
 21
12.632
 31
0.0
  0
LINE
  5
75A
330
18
100
AcDbEntity
  8
Object
100
AcDbLine
 10
5.831999999999999
 20
12.632
 30
0.0
 11
5.849
 21
12.632
 31
0.0
  0
LINE
  5
75B
330
18
100
AcDbEntity
  8
Object
100
AcDbLine
 10
6.033999999999999
 20
12.632
 30
0.0
 11
6.049
 21
12.632
 31
0.0
  0
LINE
  5
75C
330
18
100
AcDbEntity
  8
Object
100
AcDbLine
 10
6.331
 20
12.632
 30
0.0
 11
6.347
 21
12.632
 31
0.0
  0
LINE
  5
75D
330
18
100
AcDbEntity
  8
Object
100
AcDbLine
 10
11.997
 20
12.897
 30
0.0
 11
2.746999999999999
 21
12.897
 31
0.0
  0
LINE
  5
75E
330
18
100
AcDbEntity
  8
Object
100
AcDbLine
 10
6.387999999999999
 20
12.632
 30
0.0
 11
6.4
 21
12.632
 31
0.0
  0
LINE
  5
75F
330
18
100
AcDbEntity
  8
Object
100
AcDbLine
 10
6.241999999999999
 20
12.632
 30
0.0
 11
6.257
 21
12.632
 31
0.0
  0
LINE
  5
760
330
18
100
AcDbEntity
  8
Object
100
AcDbLine
 10
5.943999999999999
 20
12.632
 30
0.0
 11
5.959999999999999
 21
12.632
 31
0.0
  0
LINE
  5
761
330
18
100
AcDbEntity
  8
Object
100
AcDbLine
 10
5.644
 20
12.632
 30
0.0
 11
5.722
 21
12.632
 31
0.0
  0
LINE
  5
762
330
18
100
AcDbEntity
  8
Object
100
AcDbLine
 10
3.534
 20
12.179
 30
0.0
 11
3.471999999999999
 21
12.206
 31
0.0
  0
LINE
  5
763
330
18
100
AcDbEntity
  8
Object
100
AcDbLine
 10
3.471999999999999
 20
12.206
 30
0.0
 11
3.406
 21
12.221
 31
0.0
  0
LINE
  5
764
330
18
100
AcDbEntity
  8
Object
100
AcDbLine
 10
3.406
 20
12.221
 30
0.0
 11
3.338
 21
12.221
 31
0.0
  0
LINE
  5
765
330
18
100
AcDbEntity
  8
Object
100
AcDbLine
 10
3.338
 20
12.221
 30
0.0
 11
3.272
 21
12.206
 31
0.0
  0
LINE
  5
766
330
18
100
AcDbEntity
  8
Object
100
AcDbLine
 10
3.272
 20
12.206
 30
0.0
 11
3.209
 21
12.179
 31
0.0
  0
LINE
  5
767
330
18
100
AcDbEntity
  8
Object
100
AcDbLine
 10
3.209
 20
12.179
 30
0.0
 11
3.153999999999999
 21
12.139
 31
0.0
  0
LINE
  5
768
330
18
100
AcDbEntity
  8
Object
100
AcDbLine
 10
3.047
 20
11.897
 30
0.0
 11
3.047
 21
10.897
 31
0.0
  0
LINE
  5
769
330
18
100
AcDbEntity
  8
Object
100
AcDbLine
 10
3.047
 20
10.897
 30
0.0
 11
2.746999999999999
 21
10.897
 31
0.0
  0
LINE
  5
76A
330
18
100
AcDbEntity
  8
Object
100
AcDbLine
 10
2.746999999999999
 20
12.897
 30
0.0
 11
2.371999999999999
 21
12.522
 31
0.0
  0
LINE
  5
76B
330
18
100
AcDbEntity
  8
Object
100
AcDbLine
 10
3.153999999999999
 20
12.139
 30
0.0
 11
3.108999999999999
 21
12.088
 31
0.0
  0
LINE
  5
76C
330
18
100
AcDbEntity
  8
Object
100
AcDbLine
 10
3.108999999999999
 20
12.088
 30
0.0
 11
3.075
 21
12.029
 31
0.0
  0
LINE
  5
76D
330
18
100
AcDbEntity
  8
Object
100
AcDbLine
 10
3.075
 20
12.029
 30
0.0
 11
3.054
 21
11.965
 31
0.0
  0
LINE
  5
76E
330
18
100
AcDbEntity
  8
Object
100
AcDbLine
 10
3.054
 20
11.965
 30
0.0
 11
3.047
 21
11.897
 31
0.0
  0
LINE
  5
76F
330
18
100
AcDbEntity
  8
Object
100
AcDbLine
 10
2.371999999999999
 20
12.522
 30
0.0
 11
2.371999999999999
 21
11.272
 31
0.0
  0
LINE
  5
770
330
18
100
AcDbEntity
  8
Object
100
AcDbLine
 10
2.371999999999999
 20
11.272
 30
0.0
 11
2.746999999999999
 21
10.897
 31
0.0
  0
LINE
  5
771
330
18
100
AcDbEntity
  8
Object
100
AcDbLine
 10
7.232
 20
12.632
 30
0.0
 11
7.323
 21
12.632
 31
0.0
  0
LINE
  5
772
330
18
100
AcDbEntity
  8
Object
100
AcDbLine
 10
7.246999999999999
 20
12.575
 30
0.0
 11
7.302
 21
12.575
 31
0.0
  0
LINE
  5
773
330
18
100
AcDbEntity
  8
Object
100
AcDbLine
 10
7.246999999999999
 20
12.565
 30
0.0
 11
7.246999999999999
 21
12.507
 31
0.0
  0
LINE
  5
774
330
18
100
AcDbEntity
  8
Object
100
AcDbLine
 10
7.246999999999999
 20
12.507
 30
0.0
 11
7.232
 21
12.507
 31
0.0
  0
LINE
  5
775
330
18
100
AcDbEntity
  8
Object
100
AcDbLine
 10
7.232
 20
12.507
 30
0.0
 11
7.232
 21
12.632
 31
0.0
  0
LINE
  5
776
330
18
100
AcDbEntity
  8
Object
100
AcDbLine
 10
7.302
 20
12.575
 30
0.0
 11
7.302
 21
12.565
 31
0.0
  0
LINE
  5
777
330
18
100
AcDbEntity
  8
Object
100
AcDbLine
 10
7.302
 20
12.565
 30
0.0
 11
7.246999999999999
 21
12.565
 31
0.0
  0
LINE
  5
778
330
18
100
AcDbEntity
  8
Object
100
AcDbLine
 10
7.597
 20
12.608
 30
0.0
 11
7.572
 21
12.621
 31
0.0
  0
LINE
  5
779
330
18
100
AcDbEntity
  8
Object
100
AcDbLine
 10
7.868999999999999
 20
12.578
 30
0.0
 11
7.847
 21
12.567
 31
0.0
  0
LINE
  5
77A
330
18
100
AcDbEntity
  8
Object
100
AcDbLine
 10
8.345
 20
12.57
 30
0.0
 11
8.329
 21
12.578
 31
0.0
  0
LINE
  5
77B
330
18
100
AcDbEntity
  8
Object
100
AcDbLine
 10
9.012
 20
12.037
 30
0.0
 11
11.475
 21
12.037
 31
0.0
  0
LINE
  5
77C
330
18
100
AcDbEntity
  8
Object
100
AcDbLine
 10
6.487
 20
12.621
 30
0.0
 11
6.456
 21
12.621
 31
0.0
  0
LINE
  5
77D
330
18
100
AcDbEntity
  8
Object
100
AcDbLine
 10
6.241999999999999
 20
12.632
 30
0.0
 11
6.257
 21
12.632
 31
0.0
  0
LINE
  5
77E
330
18
100
AcDbEntity
  8
Object
100
AcDbLine
 10
6.265
 20
12.507
 30
0.0
 11
6.241999999999999
 21
12.533
 31
0.0
  0
LINE
  5
77F
330
18
100
AcDbEntity
  8
Object
100
AcDbLine
 10
7.831999999999999
 20
12.565
 30
0.0
 11
7.778999999999999
 21
12.565
 31
0.0
  0
LINE
  5
780
330
18
100
AcDbEntity
  8
Object
100
AcDbLine
 10
8.144
 20
12.519
 30
0.0
 11
8.144
 21
12.507
 31
0.0
  0
LINE
  5
781
330
18
100
AcDbEntity
  8
Object
100
AcDbLine
 10
8.407999999999999
 20
12.632
 30
0.0
 11
8.434000000000001
 21
12.619
 31
0.0
  0
LINE
  5
782
330
18
100
AcDbEntity
  8
Object
100
AcDbLine
 10
12.372
 20
12.522
 30
0.0
 11
11.997
 21
12.897
 31
0.0
  0
LINE
  5
783
330
18
100
AcDbEntity
  8
Object
100
AcDbLine
 10
6.456
 20
12.621
 30
0.0
 11
6.456
 21
12.632
 31
0.0
  0
LINE
  5
784
330
18
100
AcDbEntity
  8
Object
100
AcDbLine
 10
6.487
 20
12.507
 30
0.0
 11
6.487
 21
12.621
 31
0.0
  0
LINE
  5
785
330
18
100
AcDbEntity
  8
Object
100
AcDbLine
 10
6.501
 20
12.621
 30
0.0
 11
6.501
 21
12.507
 31
0.0
  0
LINE
  5
786
330
18
100
AcDbEntity
  8
Object
100
AcDbLine
 10
6.310999999999999
 20
12.519
 30
0.0
 11
6.331
 21
12.541
 31
0.0
  0
LINE
  5
787
330
18
100
AcDbEntity
  8
Object
100
AcDbLine
 10
5.959999999999999
 20
12.632
 30
0.0
 11
6.033999999999999
 21
12.536
 31
0.0
  0
LINE
  5
788
330
18
100
AcDbEntity
  8
Object
100
AcDbLine
 10
5.66
 20
12.507
 30
0.0
 11
5.644
 21
12.507
 31
0.0
  0
LINE
  5
789
330
18
100
AcDbEntity
  8
Object
100
AcDbLine
 10
8.197
 20
12.542
 30
0.0
 11
8.182
 21
12.542
 31
0.0
  0
LINE
  5
78A
330
18
100
AcDbEntity
  8
Object
100
AcDbLine
 10
8.182
 20
12.542
 30
0.0
 11
8.182
 21
12.52
 31
0.0
  0
LINE
  5
78B
330
18
100
AcDbEntity
  8
Object
100
AcDbLine
 10
8.287
 20
12.574
 30
0.0
 11
8.287
 21
12.52
 31
0.0
  0
LINE
  5
78C
330
18
100
AcDbEntity
  8
Object
100
AcDbLine
 10
7.447
 20
12.567
 30
0.0
 11
7.469
 21
12.507
 31
0.0
  0
LINE
  5
78D
330
18
100
AcDbEntity
  8
Object
100
AcDbLine
 10
7.533999999999999
 20
12.507
 30
0.0
 11
7.507
 21
12.52
 31
0.0
  0
LINE
  5
78E
330
18
100
AcDbEntity
  8
Object
100
AcDbLine
 10
7.764
 20
12.632
 30
0.0
 11
7.841
 21
12.632
 31
0.0
  0
LINE
  5
78F
330
18
100
AcDbEntity
  8
Object
100
AcDbLine
 10
7.778999999999999
 20
12.507
 30
0.0
 11
7.764
 21
12.507
 31
0.0
  0
LINE
  5
790
330
18
100
AcDbEntity
  8
Object
100
AcDbLine
 10
8.121999999999999
 20
12.575
 30
0.0
 11
8.121999999999999
 21
12.565
 31
0.0
  0
LINE
  5
791
330
18
100
AcDbEntity
  8
Object
100
AcDbLine
 10
6.169999999999999
 20
12.632
 30
0.0
 11
6.198999999999999
 21
12.601
 31
0.0
  0
LINE
  5
792
330
18
100
AcDbEntity
  8
Object
100
AcDbLine
 10
6.4
 20
12.621
 30
0.0
 11
6.397
 21
12.621
 31
0.0
  0
LINE
  5
793
330
18
100
AcDbEntity
  8
Object
100
AcDbLine
 10
6.39
 20
12.519
 30
0.0
 11
6.39
 21
12.621
 31
0.0
  0
LINE
  5
794
330
18
100
AcDbEntity
  8
Object
100
AcDbLine
 10
6.387999999999999
 20
12.507
 30
0.0
 11
6.387999999999999
 21
12.519
 31
0.0
  0
LINE
  5
795
330
18
100
AcDbEntity
  8
Object
100
AcDbLine
 10
11.475
 20
11.757
 30
0.0
 11
9.012
 21
11.757
 31
0.0
  0
LINE
  5
796
330
18
100
AcDbEntity
  8
Object
100
AcDbLine
 10
2.371999999999999
 20
11.272
 30
0.0
 11
2.746999999999999
 21
10.897
 31
0.0
  0
LINE
  5
797
330
18
100
AcDbEntity
  8
Object
100
AcDbLine
 10
6.347
 20
12.632
 30
0.0
 11
6.347
 21
12.533
 31
0.0
  0
LINE
  5
798
330
18
100
AcDbEntity
  8
Object
100
AcDbLine
 10
8.271
 20
12.562
 30
0.0
 11
8.246
 21
12.575
 31
0.0
  0
LINE
  5
799
330
18
100
AcDbEntity
  8
Object
100
AcDbLine
 10
7.69
 20
12.507
 30
0.0
 11
7.677
 21
12.507
 31
0.0
  0
LINE
  5
79A
330
18
100
AcDbEntity
  8
Object
100
AcDbLine
 10
7.722
 20
12.621
 30
0.0
 11
7.69
 21
12.621
 31
0.0
  0
LINE
  5
79B
330
18
100
AcDbEntity
  8
Object
100
AcDbLine
 10
7.523
 20
12.581
 30
0.0
 11
7.533999999999999
 21
12.587
 31
0.0
  0
LINE
  5
79C
330
18
100
AcDbEntity
  8
Object
100
AcDbLine
 10
7.612
 20
12.619
 30
0.0
 11
7.612
 21
12.597
 31
0.0
  0
LINE
  5
79D
330
18
100
AcDbEntity
  8
Object
100
AcDbLine
 10
7.533999999999999
 20
12.587
 30
0.0
 11
7.586
 21
12.587
 31
0.0
  0
LINE
  5
79E
330
18
100
AcDbEntity
  8
Object
100
AcDbLine
 10
7.841
 20
12.632
 30
0.0
 11
7.868999999999999
 21
12.618
 31
0.0
  0
LINE
  5
79F
330
18
100
AcDbEntity
  8
Object
100
AcDbLine
 10
5.831999999999999
 20
12.632
 30
0.0
 11
5.849
 21
12.632
 31
0.0
  0
LINE
  5
7A0
330
18
100
AcDbEntity
  8
Object
100
AcDbLine
 10
6.331
 20
12.541
 30
0.0
 11
6.331
 21
12.632
 31
0.0
  0
LINE
  5
7A1
330
18
100
AcDbEntity
  8
Object
100
AcDbLine
 10
5.749
 20
12.618
 30
0.0
 11
5.749
 21
12.578
 31
0.0
  0
LINE
  5
7A2
330
18
100
AcDbEntity
  8
Object
100
AcDbLine
 10
7.993999999999999
 20
12.632
 30
0.0
 11
8.003999999999999
 21
12.621
 31
0.0
  0
LINE
  5
7A3
330
18
100
AcDbEntity
  8
Object
100
AcDbLine
 10
7.432
 20
12.565
 30
0.0
 11
7.379
 21
12.565
 31
0.0
  0
LINE
  5
7A4
330
18
100
AcDbEntity
  8
Object
100
AcDbLine
 10
7.469
 20
12.507
 30
0.0
 11
7.451999999999999
 21
12.507
 31
0.0
  0
LINE
  5
7A5
330
18
100
AcDbEntity
  8
Object
100
AcDbLine
 10
7.523
 20
12.608
 30
0.0
 11
7.523
 21
12.581
 31
0.0
  0
LINE
  5
7A6
330
18
100
AcDbEntity
  8
Object
100
AcDbLine
 10
7.612
 20
12.597
 30
0.0
 11
7.597
 21
12.597
 31
0.0
  0
LINE
  5
7A7
330
18
100
AcDbEntity
  8
Object
100
AcDbLine
 10
6.049
 20
12.632
 30
0.0
 11
6.049
 21
12.507
 31
0.0
  0
LINE
  5
7A8
330
18
100
AcDbEntity
  8
Object
100
AcDbLine
 10
5.722
 20
12.565
 30
0.0
 11
5.66
 21
12.565
 31
0.0
  0
LINE
  5
7A9
330
18
100
AcDbEntity
  8
Object
100
AcDbLine
 10
8.197
 20
12.542
 30
0.0
 11
8.197
 21
12.532
 31
0.0
  0
LINE
  5
7AA
330
18
100
AcDbEntity
  8
Object
100
AcDbLine
 10
7.379
 20
12.507
 30
0.0
 11
7.363999999999999
 21
12.507
 31
0.0
  0
LINE
  5
7AB
330
18
100
AcDbEntity
  8
Object
100
AcDbLine
 10
7.533999999999999
 20
12.632
 30
0.0
 11
7.586
 21
12.632
 31
0.0
  0
LINE
  5
7AC
330
18
100
AcDbEntity
  8
Object
100
AcDbLine
 10
7.586
 20
12.587
 30
0.0
 11
7.612
 21
12.574
 31
0.0
  0
LINE
  5
7AD
330
18
100
AcDbEntity
  8
Object
100
AcDbLine
 10
8.067
 20
12.621
 30
0.0
 11
8.067
 21
12.575
 31
0.0
  0
LINE
  5
7AE
330
18
100
AcDbEntity
  8
Object
100
AcDbLine
 10
8.144
 20
12.632
 30
0.0
 11
8.144
 21
12.621
 31
0.0
  0
LINE
  5
7AF
330
18
100
AcDbEntity
  8
Object
100
AcDbLine
 10
8.407999999999999
 20
12.507
 30
0.0
 11
8.355
 21
12.507
 31
0.0
  0
LINE
  5
7B0
330
18
100
AcDbEntity
  8
Object
100
AcDbLine
 10
5.894
 20
12.507
 30
0.0
 11
5.876999999999999
 21
12.507
 31
0.0
  0
LINE
  5
7B1
330
18
100
AcDbEntity
  8
Object
100
AcDbLine
 10
6.169999999999999
 20
12.507
 30
0.0
 11
6.094
 21
12.507
 31
0.0
  0
LINE
  5
7B2
330
18
100
AcDbEntity
  8
Object
100
AcDbLine
 10
6.4
 20
12.519
 30
0.0
 11
6.4
 21
12.507
 31
0.0
  0
LINE
  5
7B3
330
18
100
AcDbEntity
  8
Object
100
AcDbLine
 10
3.047
 20
11.897
 30
0.0
 11
3.047
 21
10.897
 31
0.0
  0
LINE
  5
7B4
330
18
100
AcDbEntity
  8
Object
100
AcDbLine
 10
3.047
 20
10.897
 30
0.0
 11
2.746999999999999
 21
10.897
 31
0.0
  0
LINE
  5
7B5
330
18
100
AcDbEntity
  8
Object
100
AcDbLine
 10
6.501
 20
12.507
 30
0.0
 11
6.487
 21
12.507
 31
0.0
  0
LINE
  5
7B6
330
18
100
AcDbEntity
  8
Object
100
AcDbLine
 10
8.271
 20
12.532
 30
0.0
 11
8.271
 21
12.562
 31
0.0
  0
LINE
  5
7B7
330
18
100
AcDbEntity
  8
Object
100
AcDbLine
 10
8.003999999999999
 20
12.621
 30
0.0
 11
8.003999999999999
 21
12.58
 31
0.0
  0
LINE
  5
7B8
330
18
100
AcDbEntity
  8
Object
100
AcDbLine
 10
8.003999999999999
 20
12.58
 30
0.0
 11
8.000999999999999
 21
12.576
 31
0.0
  0
LINE
  5
7B9
330
18
100
AcDbEntity
  8
Object
100
AcDbLine
 10
7.69
 20
12.621
 30
0.0
 11
7.69
 21
12.507
 31
0.0
  0
LINE
  5
7BA
330
18
100
AcDbEntity
  8
Object
100
AcDbLine
 10
7.440999999999999
 20
12.632
 30
0.0
 11
7.469
 21
12.618
 31
0.0
  0
LINE
  5
7BB
330
18
100
AcDbEntity
  8
Object
100
AcDbLine
 10
8.144
 20
12.621
 30
0.0
 11
8.067
 21
12.621
 31
0.0
  0
LINE
  5
7BC
330
18
100
AcDbEntity
  8
Object
100
AcDbLine
 10
8.329
 20
12.562
 30
0.0
 11
8.345
 21
12.57
 31
0.0
  0
LINE
  5
7BD
330
18
100
AcDbEntity
  8
Object
100
AcDbLine
 10
8.434000000000001
 20
12.562
 30
0.0
 11
8.434000000000001
 21
12.52
 31
0.0
  0
LINE
  5
7BE
330
18
100
AcDbEntity
  8
Object
100
AcDbLine
 10
5.786999999999999
 20
12.507
 30
0.0
 11
5.831999999999999
 21
12.632
 31
0.0
  0
LINE
  5
7BF
330
18
100
AcDbEntity
  8
Object
100
AcDbLine
 10
6.4
 20
12.632
 30
0.0
 11
6.4
 21
12.621
 31
0.0
  0
LINE
  5
7C0
330
18
100
AcDbEntity
  8
Object
100
AcDbLine
 10
4.892999999999999
 20
12.037
 30
0.0
 11
8.356999999999999
 21
12.037
 31
0.0
  0
LINE
  5
7C1
330
18
100
AcDbEntity
  8
Object
100
AcDbLine
 10
6.532
 20
12.632
 30
0.0
 11
6.532
 21
12.621
 31
0.0
  0
LINE
  5
7C2
330
18
100
AcDbEntity
  8
Object
100
AcDbLine
 10
8.197
 20
12.562
 30
0.0
 11
8.182
 21
12.562
 31
0.0
  0
LINE
  5
7C3
330
18
100
AcDbEntity
  8
Object
100
AcDbLine
 10
7.722
 20
12.632
 30
0.0
 11
7.722
 21
12.621
 31
0.0
  0
LINE
  5
7C4
330
18
100
AcDbEntity
  8
Object
100
AcDbLine
 10
7.379
 20
12.565
 30
0.0
 11
7.379
 21
12.507
 31
0.0
  0
LINE
  5
7C5
330
18
100
AcDbEntity
  8
Object
100
AcDbLine
 10
7.612
 20
12.52
 30
0.0
 11
7.586
 21
12.507
 31
0.0
  0
LINE
  5
7C6
330
18
100
AcDbEntity
  8
Object
100
AcDbLine
 10
7.868999999999999
 20
12.507
 30
0.0
 11
7.852
 21
12.507
 31
0.0
  0
LINE
  5
7C7
330
18
100
AcDbEntity
  8
Object
100
AcDbLine
 10
6.198999999999999
 20
12.539
 30
0.0
 11
6.169999999999999
 21
12.507
 31
0.0
  0
LINE
  5
7C8
330
18
100
AcDbEntity
  8
Object
100
AcDbLine
 10
2.371999999999999
 20
11.272
 30
0.0
 11
2.371999999999999
 21
12.522
 31
0.0
  0
LINE
  5
7C9
330
18
100
AcDbEntity
  8
Object
100
AcDbLine
 10
2.371999999999999
 20
12.522
 30
0.0
 11
2.746999999999999
 21
12.897
 31
0.0
  0
LINE
  5
7CA
330
18
100
AcDbEntity
  8
Object
100
AcDbLine
 10
5.722
 20
12.632
 30
0.0
 11
5.749
 21
12.618
 31
0.0
  0
LINE
  5
7CB
330
18
100
AcDbEntity
  8
Object
100
AcDbLine
 10
8.287
 20
12.621
 30
0.0
 11
8.197
 21
12.621
 31
0.0
  0
LINE
  5
7CC
330
18
100
AcDbEntity
  8
Object
100
AcDbLine
 10
8.259999999999999
 20
12.507
 30
0.0
 11
8.208
 21
12.507
 31
0.0
  0
LINE
  5
7CD
330
18
100
AcDbEntity
  8
Object
100
AcDbLine
 10
7.469
 20
12.578
 30
0.0
 11
7.447
 21
12.567
 31
0.0
  0
LINE
  5
7CE
330
18
100
AcDbEntity
  8
Object
100
AcDbLine
 10
7.847
 20
12.567
 30
0.0
 11
7.868999999999999
 21
12.507
 31
0.0
  0
LINE
  5
7CF
330
18
100
AcDbEntity
  8
Object
100
AcDbLine
 10
8.051999999999999
 20
12.632
 30
0.0
 11
8.144
 21
12.632
 31
0.0
  0
LINE
  5
7D0
330
18
100
AcDbEntity
  8
Object
100
AcDbLine
 10
8.434000000000001
 20
12.578
 30
0.0
 11
8.419
 21
12.57
 31
0.0
  0
LINE
  5
7D1
330
18
100
AcDbEntity
  8
Object
100
AcDbLine
 10
5.876999999999999
 20
12.507
 30
0.0
 11
5.868999999999999
 21
12.529
 31
0.0
  0
LINE
  5
7D2
330
18
100
AcDbEntity
  8
Object
100
AcDbLine
 10
6.094
 20
12.507
 30
0.0
 11
6.094
 21
12.632
 31
0.0
  0
LINE
  5
7D3
330
18
100
AcDbEntity
  8
Object
100
AcDbLine
 10
9.012
 20
12.037
 30
0.0
 11
8.968999999999999
 21
12.03
 31
0.0
  0
LINE
  5
7D4
330
18
100
AcDbEntity
  8
Object
100
AcDbLine
 10
8.968999999999999
 20
12.03
 30
0.0
 11
8.929999999999999
 21
12.011
 31
0.0
  0
LINE
  5
7D5
330
18
100
AcDbEntity
  8
Object
100
AcDbLine
 10
8.929999999999999
 20
12.011
 30
0.0
 11
8.899
 21
11.98
 31
0.0
  0
LINE
  5
7D6
330
18
100
AcDbEntity
  8
Object
100
AcDbLine
 10
8.899
 20
11.98
 30
0.0
 11
8.878999999999999
 21
11.941
 31
0.0
  0
LINE
  5
7D7
330
18
100
AcDbEntity
  8
Object
100
AcDbLine
 10
8.878999999999999
 20
11.941
 30
0.0
 11
8.871999999999999
 21
11.897
 31
0.0
  0
LINE
  5
7D8
330
18
100
AcDbEntity
  8
Object
100
AcDbLine
 10
8.356999999999999
 20
11.757
 30
0.0
 11
4.892999999999999
 21
11.757
 31
0.0
  0
LINE
  5
7D9
330
18
100
AcDbEntity
  8
Object
100
AcDbLine
 10
8.49
 20
11.941
 30
0.0
 11
8.496999999999999
 21
11.897
 31
0.0
  0
LINE
  5
7DA
330
18
100
AcDbEntity
  8
Object
100
AcDbLine
 10
8.496999999999999
 20
11.897
 30
0.0
 11
8.49
 21
11.854
 31
0.0
  0
LINE
  5
7DB
330
18
100
AcDbEntity
  8
Object
100
AcDbLine
 10
8.471
 20
11.98
 30
0.0
 11
8.49
 21
11.941
 31
0.0
  0
LINE
  5
7DC
330
18
100
AcDbEntity
  8
Object
100
AcDbLine
 10
8.49
 20
11.854
 30
0.0
 11
8.471
 21
11.815
 31
0.0
  0
LINE
  5
7DD
330
18
100
AcDbEntity
  8
Object
100
AcDbLine
 10
8.439999999999999
 20
12.011
 30
0.0
 11
8.471
 21
11.98
 31
0.0
  0
LINE
  5
7DE
330
18
100
AcDbEntity
  8
Object
100
AcDbLine
 10
8.471
 20
11.815
 30
0.0
 11
8.439999999999999
 21
11.784
 31
0.0
  0
LINE
  5
7DF
330
18
100
AcDbEntity
  8
Object
100
AcDbLine
 10
8.439999999999999
 20
11.784
 30
0.0
 11
8.400999999999999
 21
11.764
 31
0.0
  0
LINE
  5
7E0
330
18
100
AcDbEntity
  8
Object
100
AcDbLine
 10
8.439999999999999
 20
12.011
 30
0.0
 11
8.400999999999999
 21
12.03
 31
0.0
  0
LINE
  5
7E1
330
18
100
AcDbEntity
  8
Object
100
AcDbLine
 10
8.400999999999999
 20
12.03
 30
0.0
 11
8.356999999999999
 21
12.037
 31
0.0
  0
LINE
  5
7E2
330
18
100
AcDbEntity
  8
Object
100
AcDbLine
 10
8.400999999999999
 20
11.764
 30
0.0
 11
8.356999999999999
 21
11.757
 31
0.0
  0
LINE
  5
7E3
330
18
100
AcDbEntity
  8
Object
100
AcDbLine
 10
6.257
 20
12.541
 30
0.0
 11
6.277
 21
12.519
 31
0.0
  0
LINE
  5
7E4
330
18
100
AcDbEntity
  8
Object
100
AcDbLine
 10
6.347
 20
12.533
 30
0.0
 11
6.323
 21
12.507
 31
0.0
  0
LINE
  5
7E5
330
18
100
AcDbEntity
  8
Object
100
AcDbLine
 10
5.959999999999999
 20
12.604
 30
0.0
 11
5.959999999999999
 21
12.507
 31
0.0
  0
LINE
  5
7E6
330
18
100
AcDbEntity
  8
Object
100
AcDbLine
 10
5.722
 20
12.632
 30
0.0
 11
5.644
 21
12.632
 31
0.0
  0
LINE
  5
7E7
330
18
100
AcDbEntity
  8
Object
100
AcDbLine
 10
5.644
 20
12.632
 30
0.0
 11
5.644
 21
12.507
 31
0.0
  0
LINE
  5
7E8
330
18
100
AcDbEntity
  8
Object
100
AcDbLine
 10
5.66
 20
12.565
 30
0.0
 11
5.66
 21
12.507
 31
0.0
  0
LINE
  5
7E9
330
18
100
AcDbEntity
  8
Object
100
AcDbLine
 10
8.287
 20
12.52
 30
0.0
 11
8.259999999999999
 21
12.507
 31
0.0
  0
LINE
  5
7EA
330
18
100
AcDbEntity
  8
Object
100
AcDbLine
 10
7.469
 20
12.618
 30
0.0
 11
7.469
 21
12.578
 31
0.0
  0
LINE
  5
7EB
330
18
100
AcDbEntity
  8
Object
100
AcDbLine
 10
7.507
 20
12.52
 30
0.0
 11
7.507
 21
12.619
 31
0.0
  0
LINE
  5
7EC
330
18
100
AcDbEntity
  8
Object
100
AcDbLine
 10
8.121999999999999
 20
12.565
 30
0.0
 11
8.067
 21
12.565
 31
0.0
  0
LINE
  5
7ED
330
18
100
AcDbEntity
  8
Object
100
AcDbLine
 10
8.144
 20
12.507
 30
0.0
 11
8.051999999999999
 21
12.507
 31
0.0
  0
LINE
  5
7EE
330
18
100
AcDbEntity
  8
Object
100
AcDbLine
 10
6.39
 20
12.621
 30
0.0
 11
6.387999999999999
 21
12.621
 31
0.0
  0
LINE
  5
7EF
330
18
100
AcDbEntity
  8
Object
100
AcDbLine
 10
3.697
 20
11.897
 30
0.0
 11
3.697
 21
10.897
 31
0.0
  0
LINE
  5
7F0
330
18
100
AcDbEntity
  8
Object
100
AcDbLine
 10
6.277
 20
12.519
 30
0.0
 11
6.310999999999999
 21
12.519
 31
0.0
  0
LINE
  5
7F1
330
18
100
AcDbEntity
  8
Object
100
AcDbLine
 10
5.749
 20
12.578
 30
0.0
 11
5.722
 21
12.565
 31
0.0
  0
LINE
  5
7F2
330
18
100
AcDbEntity
  8
Object
100
AcDbLine
 10
7.523
 20
12.608
 30
0.0
 11
7.549
 21
12.621
 31
0.0
  0
LINE
  5
7F3
330
18
100
AcDbEntity
  8
Object
100
AcDbLine
 10
7.549
 20
12.621
 30
0.0
 11
7.572
 21
12.621
 31
0.0
  0
LINE
  5
7F4
330
18
100
AcDbEntity
  8
Object
100
AcDbLine
 10
7.586
 20
12.632
 30
0.0
 11
7.612
 21
12.619
 31
0.0
  0
LINE
  5
7F5
330
18
100
AcDbEntity
  8
Object
100
AcDbLine
 10
8.434000000000001
 20
12.619
 30
0.0
 11
8.434000000000001
 21
12.578
 31
0.0
  0
LINE
  5
7F6
330
18
100
AcDbEntity
  8
Object
100
AcDbLine
 10
6.198999999999999
 20
12.601
 30
0.0
 11
6.198999999999999
 21
12.539
 31
0.0
  0
LINE
  5
7F7
330
18
100
AcDbEntity
  8
Object
100
AcDbLine
 10
9.012
 20
11.757
 30
0.0
 11
8.968999999999999
 21
11.764
 31
0.0
  0
LINE
  5
7F8
330
18
100
AcDbEntity
  8
Object
100
AcDbLine
 10
8.968999999999999
 20
11.764
 30
0.0
 11
8.929999999999999
 21
11.784
 31
0.0
  0
LINE
  5
7F9
330
18
100
AcDbEntity
  8
Object
100
AcDbLine
 10
8.929999999999999
 20
11.784
 30
0.0
 11
8.899
 21
11.815
 31
0.0
  0
LINE
  5
7FA
330
18
100
AcDbEntity
  8
Object
100
AcDbLine
 10
8.899
 20
11.815
 30
0.0
 11
8.878999999999999
 21
11.854
 31
0.0
  0
LINE
  5
7FB
330
18
100
AcDbEntity
  8
Object
100
AcDbLine
 10
8.878999999999999
 20
11.854
 30
0.0
 11
8.871999999999999
 21
11.897
 31
0.0
  0
LINE
  5
7FC
330
18
100
AcDbEntity
  8
Object
100
AcDbLine
 10
6.049
 20
12.507
 30
0.0
 11
6.033999999999999
 21
12.507
 31
0.0
  0
LINE
  5
7FD
330
18
100
AcDbEntity
  8
Object
100
AcDbLine
 10
5.959999999999999
 20
12.507
 30
0.0
 11
5.943999999999999
 21
12.507
 31
0.0
  0
LINE
  5
7FE
330
18
100
AcDbEntity
  8
Object
100
AcDbLine
 10
8.197
 20
12.581
 30
0.0
 11
8.208
 21
12.587
 31
0.0
  0
LINE
  5
7FF
330
18
100
AcDbEntity
  8
Object
100
AcDbLine
 10
7.677
 20
12.507
 30
0.0
 11
7.677
 21
12.621
 31
0.0
  0
LINE
  5
800
330
18
100
AcDbEntity
  8
Object
100
AcDbLine
 10
8.419
 20
12.57
 30
0.0
 11
8.434000000000001
 21
12.562
 31
0.0
  0
LINE
  5
801
330
18
100
AcDbEntity
  8
Object
100
AcDbLine
 10
5.812
 20
12.529
 30
0.0
 11
5.802999999999999
 21
12.507
 31
0.0
  0
LINE
  5
802
330
18
100
AcDbEntity
  8
Object
100
AcDbLine
 10
6.387999999999999
 20
12.621
 30
0.0
 11
6.387999999999999
 21
12.632
 31
0.0
  0
LINE
  5
803
330
18
100
AcDbEntity
  8
Object
100
AcDbLine
 10
11.997
 20
10.897
 30
0.0
 11
12.372
 21
11.272
 31
0.0
  0
LINE
  5
804
330
18
100
AcDbEntity
  8
Object
100
AcDbLine
 10
3.697
 20
11.897
 30
0.0
 11
3.689999999999999
 21
11.965
 31
0.0
  0
LINE
  5
805
330
18
100
AcDbEntity
  8
Object
100
AcDbLine
 10
3.689999999999999
 20
11.965
 30
0.0
 11
3.669
 21
12.029
 31
0.0
  0
LINE
  5
806
330
18
100
AcDbEntity
  8
Object
100
AcDbLine
 10
3.669
 20
12.029
 30
0.0
 11
3.635
 21
12.088
 31
0.0
  0
LINE
  5
807
330
18
100
AcDbEntity
  8
Object
100
AcDbLine
 10
3.635
 20
12.088
 30
0.0
 11
3.588999999999999
 21
12.139
 31
0.0
  0
LINE
  5
808
330
18
100
AcDbEntity
  8
Object
100
AcDbLine
 10
3.588999999999999
 20
12.139
 30
0.0
 11
3.534
 21
12.179
 31
0.0
  0
LINE
  5
809
330
18
100
AcDbEntity
  8
Object
100
AcDbLine
 10
3.534
 20
12.179
 30
0.0
 11
3.471999999999999
 21
12.206
 31
0.0
  0
LINE
  5
80A
330
18
100
AcDbEntity
  8
Object
100
AcDbLine
 10
3.471999999999999
 20
12.206
 30
0.0
 11
3.406
 21
12.221
 31
0.0
  0
LINE
  5
80B
330
18
100
AcDbEntity
  8
Object
100
AcDbLine
 10
3.406
 20
12.221
 30
0.0
 11
3.338
 21
12.221
 31
0.0
  0
LINE
  5
80C
330
18
100
AcDbEntity
  8
Object
100
AcDbLine
 10
3.338
 20
12.221
 30
0.0
 11
3.272
 21
12.206
 31
0.0
  0
LINE
  5
80D
330
18
100
AcDbEntity
  8
Object
100
AcDbLine
 10
3.272
 20
12.206
 30
0.0
 11
3.209
 21
12.179
 31
0.0
  0
LINE
  5
80E
330
18
100
AcDbEntity
  8
Object
100
AcDbLine
 10
3.209
 20
12.179
 30
0.0
 11
3.153999999999999
 21
12.139
 31
0.0
  0
LINE
  5
80F
330
18
100
AcDbEntity
  8
Object
100
AcDbLine
 10
3.153999999999999
 20
12.139
 30
0.0
 11
3.108999999999999
 21
12.088
 31
0.0
  0
LINE
  5
810
330
18
100
AcDbEntity
  8
Object
100
AcDbLine
 10
3.108999999999999
 20
12.088
 30
0.0
 11
3.075
 21
12.029
 31
0.0
  0
LINE
  5
811
330
18
100
AcDbEntity
  8
Object
100
AcDbLine
 10
3.075
 20
12.029
 30
0.0
 11
3.054
 21
11.965
 31
0.0
  0
LINE
  5
812
330
18
100
AcDbEntity
  8
Object
100
AcDbLine
 10
3.054
 20
11.965
 30
0.0
 11
3.047
 21
11.897
 31
0.0
  0
LINE
  5
813
330
18
100
AcDbEntity
  8
Object
100
AcDbLine
 10
6.456
 20
12.632
 30
0.0
 11
6.532
 21
12.632
 31
0.0
  0
LINE
  5
814
330
18
100
AcDbEntity
  8
Object
100
AcDbLine
 10
6.241999999999999
 20
12.533
 30
0.0
 11
6.241999999999999
 21
12.632
 31
0.0
  0
LINE
  5
815
330
18
100
AcDbEntity
  8
Object
100
AcDbLine
 10
6.331
 20
12.632
 30
0.0
 11
6.347
 21
12.632
 31
0.0
  0
LINE
  5
816
330
18
100
AcDbEntity
  8
Object
100
AcDbLine
 10
6.049
 20
12.632
 30
0.0
 11
6.033999999999999
 21
12.632
 31
0.0
  0
LINE
  5
817
330
18
100
AcDbEntity
  8
Object
100
AcDbLine
 10
6.033999999999999
 20
12.632
 30
0.0
 11
6.033999999999999
 21
12.536
 31
0.0
  0
LINE
  5
818
330
18
100
AcDbEntity
  8
Object
100
AcDbLine
 10
8.246
 20
12.519
 30
0.0
 11
8.271
 21
12.532
 31
0.0
  0
LINE
  5
819
330
18
100
AcDbEntity
  8
Object
100
AcDbLine
 10
8.197
 20
12.532
 30
0.0
 11
8.223
 21
12.519
 31
0.0
  0
LINE
  5
81A
330
18
100
AcDbEntity
  8
Object
100
AcDbLine
 10
7.363999999999999
 20
12.632
 30
0.0
 11
7.440999999999999
 21
12.632
 31
0.0
  0
LINE
  5
81B
330
18
100
AcDbEntity
  8
Object
100
AcDbLine
 10
7.507
 20
12.619
 30
0.0
 11
7.533999999999999
 21
12.632
 31
0.0
  0
LINE
  5
81C
330
18
100
AcDbEntity
  8
Object
100
AcDbLine
 10
7.586
 20
12.507
 30
0.0
 11
7.533999999999999
 21
12.507
 31
0.0
  0
LINE
  5
81D
330
18
100
AcDbEntity
  8
Object
100
AcDbLine
 10
7.852
 20
12.507
 30
0.0
 11
7.831999999999999
 21
12.565
 31
0.0
  0
LINE
  5
81E
330
18
100
AcDbEntity
  8
Object
100
AcDbLine
 10
8.067
 20
12.565
 30
0.0
 11
8.067
 21
12.519
 31
0.0
  0
LINE
  5
81F
330
18
100
AcDbEntity
  8
Object
100
AcDbLine
 10
8.051999999999999
 20
12.507
 30
0.0
 11
8.051999999999999
 21
12.632
 31
0.0
  0
LINE
  5
820
330
18
100
AcDbEntity
  8
Object
100
AcDbLine
 10
8.434000000000001
 20
12.52
 30
0.0
 11
8.407999999999999
 21
12.507
 31
0.0
  0
LINE
  5
821
330
18
100
AcDbEntity
  8
Object
100
AcDbLine
 10
6.094
 20
12.632
 30
0.0
 11
6.169999999999999
 21
12.632
 31
0.0
  0
LINE
  5
822
330
18
100
AcDbEntity
  8
Object
100
AcDbLine
 10
3.697
 20
10.897
 30
0.0
 11
11.997
 21
10.897
 31
0.0
  0
LINE
  5
823
330
18
100
AcDbEntity
  8
Object
100
AcDbLine
 10
6.033999999999999
 20
12.507
 30
0.0
 11
5.959999999999999
 21
12.604
 31
0.0
  0
LINE
  5
824
330
18
100
AcDbEntity
  8
Object
100
AcDbLine
 10
8.208
 20
12.587
 30
0.0
 11
8.259999999999999
 21
12.587
 31
0.0
  0
LINE
  5
825
330
18
100
AcDbEntity
  8
Object
100
AcDbLine
 10
8.287
 20
12.632
 30
0.0
 11
8.287
 21
12.621
 31
0.0
  0
LINE
  5
826
330
18
100
AcDbEntity
  8
Object
100
AcDbLine
 10
8.182
 20
12.562
 30
0.0
 11
8.182
 21
12.632
 31
0.0
  0
LINE
  5
827
330
18
100
AcDbEntity
  8
Object
100
AcDbLine
 10
8.208
 20
12.507
 30
0.0
 11
8.182
 21
12.52
 31
0.0
  0
LINE
  5
828
330
18
100
AcDbEntity
  8
Object
100
AcDbLine
 10
7.993999999999999
 20
12.507
 30
0.0
 11
8.013999999999999
 21
12.52
 31
0.0
  0
LINE
  5
829
330
18
100
AcDbEntity
  8
Object
100
AcDbLine
 10
8.013999999999999
 20
12.52
 30
0.0
 11
8.013999999999999
 21
12.568
 31
0.0
  0
LINE
  5
82A
330
18
100
AcDbEntity
  8
Object
100
AcDbLine
 10
8.013999999999999
 20
12.568
 30
0.0
 11
8.000999999999999
 21
12.576
 31
0.0
  0
LINE
  5
82B
330
18
100
AcDbEntity
  8
Object
100
AcDbLine
 10
7.677
 20
12.621
 30
0.0
 11
7.645
 21
12.621
 31
0.0
  0
LINE
  5
82C
330
18
100
AcDbEntity
  8
Object
100
AcDbLine
 10
7.645
 20
12.632
 30
0.0
 11
7.722
 21
12.632
 31
0.0
  0
LINE
  5
82D
330
18
100
AcDbEntity
  8
Object
100
AcDbLine
 10
8.067
 20
12.519
 30
0.0
 11
8.144
 21
12.519
 31
0.0
  0
LINE
  5
82E
330
18
100
AcDbEntity
  8
Object
100
AcDbLine
 10
8.355
 20
12.632
 30
0.0
 11
8.407999999999999
 21
12.632
 31
0.0
  0
LINE
  5
82F
330
18
100
AcDbEntity
  8
Object
100
AcDbLine
 10
8.355
 20
12.507
 30
0.0
 11
8.329
 21
12.52
 31
0.0
  0
LINE
  5
830
330
18
100
AcDbEntity
  8
Object
100
AcDbLine
 10
6.387999999999999
 20
12.519
 30
0.0
 11
6.39
 21
12.519
 31
0.0
  0
LINE
  5
831
330
18
100
AcDbEntity
  8
Object
100
AcDbLine
 10
12.372
 20
11.272
 30
0.0
 11
12.372
 21
12.522
 31
0.0
  0
LINE
  5
832
330
18
100
AcDbEntity
  8
Object
100
AcDbLine
 10
11.997
 20
12.897
 30
0.0
 11
2.746999999999999
 21
12.897
 31
0.0
  0
LINE
  5
833
330
18
100
AcDbEntity
  8
Object
100
AcDbLine
 10
6.323
 20
12.507
 30
0.0
 11
6.265
 21
12.507
 31
0.0
  0
LINE
  5
834
330
18
100
AcDbEntity
  8
Object
100
AcDbLine
 10
5.959999999999999
 20
12.632
 30
0.0
 11
5.943999999999999
 21
12.632
 31
0.0
  0
LINE
  5
835
330
18
100
AcDbEntity
  8
Object
100
AcDbLine
 10
5.943999999999999
 20
12.632
 30
0.0
 11
5.943999999999999
 21
12.507
 31
0.0
  0
LINE
  5
836
330
18
100
AcDbEntity
  8
Object
100
AcDbLine
 10
8.197
 20
12.621
 30
0.0
 11
8.197
 21
12.581
 31
0.0
  0
LINE
  5
837
330
18
100
AcDbEntity
  8
Object
100
AcDbLine
 10
8.246
 20
12.575
 30
0.0
 11
8.223
 21
12.575
 31
0.0
  0
LINE
  5
838
330
18
100
AcDbEntity
  8
Object
100
AcDbLine
 10
7.868999999999999
 20
12.618
 30
0.0
 11
7.868999999999999
 21
12.578
 31
0.0
  0
LINE
  5
839
330
18
100
AcDbEntity
  8
Object
100
AcDbLine
 10
8.329
 20
12.578
 30
0.0
 11
8.329
 21
12.619
 31
0.0
  0
LINE
  5
83A
330
18
100
AcDbEntity
  8
Object
100
AcDbLine
 10
6.387999999999999
 20
12.632
 30
0.0
 11
6.4
 21
12.632
 31
0.0
  0
LINE
  5
83B
330
18
100
AcDbEntity
  8
Object
100
AcDbLine
 10
6.532
 20
12.621
 30
0.0
 11
6.501
 21
12.621
 31
0.0
  0
LINE
  5
83C
330
18
100
AcDbEntity
  8
Object
100
AcDbLine
 10
6.257
 20
12.632
 30
0.0
 11
6.257
 21
12.541
 31
0.0
  0
LINE
  5
83D
330
18
100
AcDbEntity
  8
Object
100
AcDbLine
 10
8.223
 20
12.575
 30
0.0
 11
8.197
 21
12.562
 31
0.0
  0
LINE
  5
83E
330
18
100
AcDbEntity
  8
Object
100
AcDbLine
 10
8.223
 20
12.519
 30
0.0
 11
8.246
 21
12.519
 31
0.0
  0
LINE
  5
83F
330
18
100
AcDbEntity
  8
Object
100
AcDbLine
 10
7.908999999999999
 20
12.632
 30
0.0
 11
7.993999999999999
 21
12.632
 31
0.0
  0
LINE
  5
840
330
18
100
AcDbEntity
  8
Object
100
AcDbLine
 10
7.363999999999999
 20
12.507
 30
0.0
 11
7.363999999999999
 21
12.632
 31
0.0
  0
LINE
  5
841
330
18
100
AcDbEntity
  8
Object
100
AcDbLine
 10
5.868999999999999
 20
12.529
 30
0.0
 11
5.812
 21
12.529
 31
0.0
  0
LINE
  5
842
330
18
100
AcDbEntity
  8
Object
100
AcDbLine
 10
5.849
 20
12.632
 30
0.0
 11
5.894
 21
12.507
 31
0.0
  0
LINE
  5
843
330
18
100
AcDbEntity
  8
Object
100
AcDbLine
 10
8.259999999999999
 20
12.587
 30
0.0
 11
8.287
 21
12.574
 31
0.0
  0
LINE
  5
844
330
18
100
AcDbEntity
  8
Object
100
AcDbLine
 10
8.182
 20
12.632
 30
0.0
 11
8.287
 21
12.632
 31
0.0
  0
LINE
  5
845
330
18
100
AcDbEntity
  8
Object
100
AcDbLine
 10
7.908999999999999
 20
12.632
 30
0.0
 11
7.908999999999999
 21
12.507
 31
0.0
  0
LINE
  5
846
330
18
100
AcDbEntity
  8
Object
100
AcDbLine
 10
7.908999999999999
 20
12.507
 30
0.0
 11
7.993999999999999
 21
12.507
 31
0.0
  0
LINE
  5
847
330
18
100
AcDbEntity
  8
Object
100
AcDbLine
 10
7.645
 20
12.621
 30
0.0
 11
7.645
 21
12.632
 31
0.0
  0
LINE
  5
848
330
18
100
AcDbEntity
  8
Object
100
AcDbLine
 10
7.451999999999999
 20
12.507
 30
0.0
 11
7.432
 21
12.565
 31
0.0
  0
LINE
  5
849
330
18
100
AcDbEntity
  8
Object
100
AcDbLine
 10
7.597
 20
12.597
 30
0.0
 11
7.597
 21
12.608
 31
0.0
  0
LINE
  5
84A
330
18
100
AcDbEntity
  8
Object
100
AcDbLine
 10
7.612
 20
12.574
 30
0.0
 11
7.612
 21
12.52
 31
0.0
  0
LINE
  5
84B
330
18
100
AcDbEntity
  8
Object
100
AcDbLine
 10
7.764
 20
12.507
 30
0.0
 11
7.764
 21
12.632
 31
0.0
  0
LINE
  5
84C
330
18
100
AcDbEntity
  8
Object
100
AcDbLine
 10
7.778999999999999
 20
12.565
 30
0.0
 11
7.778999999999999
 21
12.507
 31
0.0
  0
LINE
  5
84D
330
18
100
AcDbEntity
  8
Object
100
AcDbLine
 10
8.067
 20
12.575
 30
0.0
 11
8.121999999999999
 21
12.575
 31
0.0
  0
LINE
  5
84E
330
18
100
AcDbEntity
  8
Object
100
AcDbLine
 10
8.329
 20
12.619
 30
0.0
 11
8.355
 21
12.632
 31
0.0
  0
LINE
  5
84F
330
18
100
AcDbEntity
  8
Object
100
AcDbLine
 10
8.329
 20
12.52
 30
0.0
 11
8.329
 21
12.562
 31
0.0
  0
LINE
  5
850
330
18
100
AcDbEntity
  8
Object
100
AcDbLine
 10
5.802999999999999
 20
12.507
 30
0.0
 11
5.786999999999999
 21
12.507
 31
0.0
  0
LINE
  5
851
330
18
100
AcDbEntity
  8
Object
100
AcDbLine
 10
6.397
 20
12.621
 30
0.0
 11
6.397
 21
12.519
 31
0.0
  0
LINE
  5
852
330
18
100
AcDbEntity
  8
Object
100
AcDbLine
 10
6.4
 20
12.507
 30
0.0
 11
6.387999999999999
 21
12.507
 31
0.0
  0
LINE
  5
853
330
18
100
AcDbEntity
  8
Object
100
AcDbLine
 10
6.397
 20
12.519
 30
0.0
 11
6.4
 21
12.519
 31
0.0
  0
LINE
  5
854
330
18
100
AcDbEntity
  8
Object
100
AcDbLine
 10
7.597
 20
12.562
 30
0.0
 11
7.572
 21
12.575
 31
0.0
  0
LINE
  5
855
330
18
100
AcDbEntity
  8
Object
100
AcDbLine
 10
7.572
 20
12.575
 30
0.0
 11
7.549
 21
12.575
 31
0.0
  0
LINE
  5
856
330
18
100
AcDbEntity
  8
Object
100
AcDbLine
 10
7.549
 20
12.519
 30
0.0
 11
7.572
 21
12.519
 31
0.0
  0
LINE
  5
857
330
18
100
AcDbEntity
  8
Object
100
AcDbLine
 10
7.523
 20
12.562
 30
0.0
 11
7.523
 21
12.532
 31
0.0
  0
LINE
  5
858
330
18
100
AcDbEntity
  8
Object
100
AcDbLine
 10
7.597
 20
12.532
 30
0.0
 11
7.597
 21
12.562
 31
0.0
  0
LINE
  5
859
330
18
100
AcDbEntity
  8
Object
100
AcDbLine
 10
7.549
 20
12.575
 30
0.0
 11
7.523
 21
12.562
 31
0.0
  0
LINE
  5
85A
330
18
100
AcDbEntity
  8
Object
100
AcDbLine
 10
7.523
 20
12.532
 30
0.0
 11
7.549
 21
12.519
 31
0.0
  0
LINE
  5
85B
330
18
100
AcDbEntity
  8
Object
100
AcDbLine
 10
7.572
 20
12.519
 30
0.0
 11
7.597
 21
12.532
 31
0.0
  0
LINE
  5
85C
330
18
100
AcDbEntity
  8
Object
100
AcDbLine
 10
7.778999999999999
 20
12.575
 30
0.0
 11
7.826999999999999
 21
12.575
 31
0.0
  0
LINE
  5
85D
330
18
100
AcDbEntity
  8
Object
100
AcDbLine
 10
7.826999999999999
 20
12.575
 30
0.0
 11
7.852999999999999
 21
12.589
 31
0.0
  0
LINE
  5
85E
330
18
100
AcDbEntity
  8
Object
100
AcDbLine
 10
7.852999999999999
 20
12.589
 30
0.0
 11
7.852999999999999
 21
12.608
 31
0.0
  0
LINE
  5
85F
330
18
100
AcDbEntity
  8
Object
100
AcDbLine
 10
7.778999999999999
 20
12.621
 30
0.0
 11
7.778999999999999
 21
12.575
 31
0.0
  0
LINE
  5
860
330
18
100
AcDbEntity
  8
Object
100
AcDbLine
 10
7.852999999999999
 20
12.608
 30
0.0
 11
7.826999999999999
 21
12.621
 31
0.0
  0
LINE
  5
861
330
18
100
AcDbEntity
  8
Object
100
AcDbLine
 10
7.826999999999999
 20
12.621
 30
0.0
 11
7.778999999999999
 21
12.621
 31
0.0
  0
LINE
  5
862
330
18
100
AcDbEntity
  8
Object
100
AcDbLine
 10
8.345
 20
12.608
 30
0.0
 11
8.345
 21
12.588
 31
0.0
  0
LINE
  5
863
330
18
100
AcDbEntity
  8
Object
100
AcDbLine
 10
8.393
 20
12.519
 30
0.0
 11
8.419
 21
12.532
 31
0.0
  0
LINE
  5
864
330
18
100
AcDbEntity
  8
Object
100
AcDbLine
 10
8.371
 20
12.621
 30
0.0
 11
8.345
 21
12.608
 31
0.0
  0
LINE
  5
865
330
18
100
AcDbEntity
  8
Object
100
AcDbLine
 10
8.419
 20
12.588
 30
0.0
 11
8.419
 21
12.608
 31
0.0
  0
LINE
  5
866
330
18
100
AcDbEntity
  8
Object
100
AcDbLine
 10
8.393
 20
12.565
 30
0.0
 11
8.371
 21
12.565
 31
0.0
  0
LINE
  5
867
330
18
100
AcDbEntity
  8
Object
100
AcDbLine
 10
8.419
 20
12.608
 30
0.0
 11
8.393
 21
12.621
 31
0.0
  0
LINE
  5
868
330
18
100
AcDbEntity
  8
Object
100
AcDbLine
 10
8.393
 20
12.621
 30
0.0
 11
8.371
 21
12.621
 31
0.0
  0
LINE
  5
869
330
18
100
AcDbEntity
  8
Object
100
AcDbLine
 10
8.371
 20
12.565
 30
0.0
 11
8.345
 21
12.552
 31
0.0
  0
LINE
  5
86A
330
18
100
AcDbEntity
  8
Object
100
AcDbLine
 10
8.371
 20
12.575
 30
0.0
 11
8.393
 21
12.575
 31
0.0
  0
LINE
  5
86B
330
18
100
AcDbEntity
  8
Object
100
AcDbLine
 10
8.419
 20
12.552
 30
0.0
 11
8.393
 21
12.565
 31
0.0
  0
LINE
  5
86C
330
18
100
AcDbEntity
  8
Object
100
AcDbLine
 10
8.393
 20
12.575
 30
0.0
 11
8.419
 21
12.588
 31
0.0
  0
LINE
  5
86D
330
18
100
AcDbEntity
  8
Object
100
AcDbLine
 10
8.393
 20
12.519
 30
0.0
 11
8.371
 21
12.519
 31
0.0
  0
LINE
  5
86E
330
18
100
AcDbEntity
  8
Object
100
AcDbLine
 10
8.371
 20
12.519
 30
0.0
 11
8.345
 21
12.532
 31
0.0
  0
LINE
  5
86F
330
18
100
AcDbEntity
  8
Object
100
AcDbLine
 10
8.345
 20
12.532
 30
0.0
 11
8.345
 21
12.552
 31
0.0
  0
LINE
  5
870
330
18
100
AcDbEntity
  8
Object
100
AcDbLine
 10
8.419
 20
12.532
 30
0.0
 11
8.419
 21
12.552
 31
0.0
  0
LINE
  5
871
330
18
100
AcDbEntity
  8
Object
100
AcDbLine
 10
8.345
 20
12.588
 30
0.0
 11
8.371
 21
12.575
 31
0.0
  0
LINE
  5
872
330
18
100
AcDbEntity
  8
Object
100
AcDbLine
 10
5.66
 20
12.575
 30
0.0
 11
5.706999999999999
 21
12.575
 31
0.0
  0
LINE
  5
873
330
18
100
AcDbEntity
  8
Object
100
AcDbLine
 10
5.706999999999999
 20
12.575
 30
0.0
 11
5.733999999999999
 21
12.589
 31
0.0
  0
LINE
  5
874
330
18
100
AcDbEntity
  8
Object
100
AcDbLine
 10
5.66
 20
12.575
 30
0.0
 11
5.66
 21
12.621
 31
0.0
  0
LINE
  5
875
330
18
100
AcDbEntity
  8
Object
100
AcDbLine
 10
5.66
 20
12.621
 30
0.0
 11
5.706999999999999
 21
12.621
 31
0.0
  0
LINE
  5
876
330
18
100
AcDbEntity
  8
Object
100
AcDbLine
 10
5.706999999999999
 20
12.621
 30
0.0
 11
5.733999999999999
 21
12.608
 31
0.0
  0
LINE
  5
877
330
18
100
AcDbEntity
  8
Object
100
AcDbLine
 10
5.733999999999999
 20
12.608
 30
0.0
 11
5.733999999999999
 21
12.589
 31
0.0
  0
LINE
  5
878
330
18
100
AcDbEntity
  8
Object
100
AcDbLine
 10
7.427
 20
12.621
 30
0.0
 11
7.379
 21
12.621
 31
0.0
  0
LINE
  5
879
330
18
100
AcDbEntity
  8
Object
100
AcDbLine
 10
7.379
 20
12.575
 30
0.0
 11
7.427
 21
12.575
 31
0.0
  0
LINE
  5
87A
330
18
100
AcDbEntity
  8
Object
100
AcDbLine
 10
7.453
 20
12.608
 30
0.0
 11
7.453
 21
12.589
 31
0.0
  0
LINE
  5
87B
330
18
100
AcDbEntity
  8
Object
100
AcDbLine
 10
7.453
 20
12.589
 30
0.0
 11
7.427
 21
12.575
 31
0.0
  0
LINE
  5
87C
330
18
100
AcDbEntity
  8
Object
100
AcDbLine
 10
7.453
 20
12.608
 30
0.0
 11
7.427
 21
12.621
 31
0.0
  0
LINE
  5
87D
330
18
100
AcDbEntity
  8
Object
100
AcDbLine
 10
7.379
 20
12.621
 30
0.0
 11
7.379
 21
12.575
 31
0.0
  0
LINE
  5
87E
330
18
100
AcDbEntity
  8
Object
100
AcDbLine
 10
6.184
 20
12.593
 30
0.0
 11
6.184
 21
12.546
 31
0.0
  0
LINE
  5
87F
330
18
100
AcDbEntity
  8
Object
100
AcDbLine
 10
6.184
 20
12.546
 30
0.0
 11
6.158
 21
12.519
 31
0.0
  0
LINE
  5
880
330
18
100
AcDbEntity
  8
Object
100
AcDbLine
 10
6.11
 20
12.519
 30
0.0
 11
6.11
 21
12.621
 31
0.0
  0
LINE
  5
881
330
18
100
AcDbEntity
  8
Object
100
AcDbLine
 10
6.11
 20
12.621
 30
0.0
 11
6.158
 21
12.621
 31
0.0
  0
LINE
  5
882
330
18
100
AcDbEntity
  8
Object
100
AcDbLine
 10
6.158
 20
12.621
 30
0.0
 11
6.184
 21
12.593
 31
0.0
  0
LINE
  5
883
330
18
100
AcDbEntity
  8
Object
100
AcDbLine
 10
6.11
 20
12.519
 30
0.0
 11
6.158
 21
12.519
 31
0.0
  0
LINE
  5
884
330
18
100
AcDbEntity
  8
Object
100
AcDbLine
 10
5.865
 20
12.541
 30
0.0
 11
5.841
 21
12.609
 31
0.0
  0
LINE
  5
885
330
18
100
AcDbEntity
  8
Object
100
AcDbLine
 10
5.841
 20
12.609
 30
0.0
 11
5.815999999999999
 21
12.541
 31
0.0
  0
LINE
  5
886
330
18
100
AcDbEntity
  8
Object
100
AcDbLine
 10
5.815999999999999
 20
12.541
 30
0.0
 11
5.865
 21
12.541
 31
0.0
  0
LINE
  5
887
330
18
100
AcDbEntity
  8
Object
100
AcDbLine
 10
7.999
 20
12.558
 30
0.0
 11
7.980999999999999
 21
12.57
 31
0.0
  0
LINE
  5
888
330
18
100
AcDbEntity
  8
Object
100
AcDbLine
 10
7.988
 20
12.614
 30
0.0
 11
7.982
 21
12.621
 31
0.0
  0
LINE
  5
889
330
18
100
AcDbEntity
  8
Object
100
AcDbLine
 10
7.980999999999999
 20
12.57
 30
0.0
 11
7.924999999999999
 21
12.57
 31
0.0
  0
LINE
  5
88A
330
18
100
AcDbEntity
  8
Object
100
AcDbLine
 10
7.924999999999999
 20
12.58
 30
0.0
 11
7.982
 21
12.58
 31
0.0
  0
LINE
  5
88B
330
18
100
AcDbEntity
  8
Object
100
AcDbLine
 10
7.982
 20
12.58
 30
0.0
 11
7.988
 21
12.588
 31
0.0
  0
LINE
  5
88C
330
18
100
AcDbEntity
  8
Object
100
AcDbLine
 10
7.982
 20
12.621
 30
0.0
 11
7.924999999999999
 21
12.621
 31
0.0
  0
LINE
  5
88D
330
18
100
AcDbEntity
  8
Object
100
AcDbLine
 10
7.988
 20
12.588
 30
0.0
 11
7.988
 21
12.614
 31
0.0
  0
LINE
  5
88E
330
18
100
AcDbEntity
  8
Object
100
AcDbLine
 10
7.999
 20
12.529
 30
0.0
 11
7.999
 21
12.558
 31
0.0
  0
LINE
  5
88F
330
18
100
AcDbEntity
  8
Object
100
AcDbLine
 10
7.924999999999999
 20
12.57
 30
0.0
 11
7.924999999999999
 21
12.519
 31
0.0
  0
LINE
  5
890
330
18
100
AcDbEntity
  8
Object
100
AcDbLine
 10
7.924999999999999
 20
12.519
 30
0.0
 11
7.980999999999999
 21
12.519
 31
0.0
  0
LINE
  5
891
330
18
100
AcDbEntity
  8
Object
100
AcDbLine
 10
7.924999999999999
 20
12.621
 30
0.0
 11
7.924999999999999
 21
12.58
 31
0.0
  0
LINE
  5
892
330
18
100
AcDbEntity
  8
Object
100
AcDbLine
 10
7.980999999999999
 20
12.519
 30
0.0
 11
7.999
 21
12.529
 31
0.0
  0
LINE
  5
893
330
18
100
AcDbEntity
  8
Object
100
AcDbLine
 10
7.572
 20
12.519
 30
0.0
 11
7.597
 21
12.532
 31
0.0
  0
LINE
  5
894
330
18
100
AcDbEntity
  8
Object
100
AcDbLine
 10
7.597
 20
12.532
 30
0.0
 11
7.597
 21
12.562
 31
0.0
  0
LINE
  5
895
330
18
100
AcDbEntity
  8
Object
100
AcDbLine
 10
7.597
 20
12.562
 30
0.0
 11
7.572
 21
12.575
 31
0.0
  0
LINE
  5
896
330
18
100
AcDbEntity
  8
Object
100
AcDbLine
 10
7.572
 20
12.575
 30
0.0
 11
7.549
 21
12.575
 31
0.0
  0
LINE
  5
897
330
18
100
AcDbEntity
  8
Object
100
AcDbLine
 10
7.572
 20
12.519
 30
0.0
 11
7.549
 21
12.519
 31
0.0
  0
LINE
  5
898
330
18
100
AcDbEntity
  8
Object
100
AcDbLine
 10
7.549
 20
12.519
 30
0.0
 11
7.523
 21
12.532
 31
0.0
  0
LINE
  5
899
330
18
100
AcDbEntity
  8
Object
100
AcDbLine
 10
7.523
 20
12.532
 30
0.0
 11
7.523
 21
12.562
 31
0.0
  0
LINE
  5
89A
330
18
100
AcDbEntity
  8
Object
100
AcDbLine
 10
7.523
 20
12.562
 30
0.0
 11
7.549
 21
12.575
 31
0.0
  0
LINE
  5
89B
330
18
100
AcDbEntity
  8
Object
100
AcDbLine
 10
7.826999999999999
 20
12.575
 30
0.0
 11
7.852999999999999
 21
12.589
 31
0.0
  0
LINE
  5
89C
330
18
100
AcDbEntity
  8
Object
100
AcDbLine
 10
7.826999999999999
 20
12.621
 30
0.0
 11
7.852999999999999
 21
12.608
 31
0.0
  0
LINE
  5
89D
330
18
100
AcDbEntity
  8
Object
100
AcDbLine
 10
7.852999999999999
 20
12.608
 30
0.0
 11
7.852999999999999
 21
12.589
 31
0.0
  0
LINE
  5
89E
330
18
100
AcDbEntity
  8
Object
100
AcDbLine
 10
7.826999999999999
 20
12.575
 30
0.0
 11
7.778999999999999
 21
12.575
 31
0.0
  0
LINE
  5
89F
330
18
100
AcDbEntity
  8
Object
100
AcDbLine
 10
7.778999999999999
 20
12.575
 30
0.0
 11
7.778999999999999
 21
12.621
 31
0.0
  0
LINE
  5
8A0
330
18
100
AcDbEntity
  8
Object
100
AcDbLine
 10
7.778999999999999
 20
12.621
 30
0.0
 11
7.826999999999999
 21
12.621
 31
0.0
  0
LINE
  5
8A1
330
18
100
AcDbEntity
  8
Object
100
AcDbLine
 10
8.393
 20
12.621
 30
0.0
 11
8.419
 21
12.608
 31
0.0
  0
LINE
  5
8A2
330
18
100
AcDbEntity
  8
Object
100
AcDbLine
 10
8.419
 20
12.608
 30
0.0
 11
8.419
 21
12.588
 31
0.0
  0
LINE
  5
8A3
330
18
100
AcDbEntity
  8
Object
100
AcDbLine
 10
8.419
 20
12.588
 30
0.0
 11
8.393
 21
12.575
 31
0.0
  0
LINE
  5
8A4
330
18
100
AcDbEntity
  8
Object
100
AcDbLine
 10
8.393
 20
12.575
 30
0.0
 11
8.371
 21
12.575
 31
0.0
  0
LINE
  5
8A5
330
18
100
AcDbEntity
  8
Object
100
AcDbLine
 10
8.393
 20
12.621
 30
0.0
 11
8.371
 21
12.621
 31
0.0
  0
LINE
  5
8A6
330
18
100
AcDbEntity
  8
Object
100
AcDbLine
 10
8.371
 20
12.575
 30
0.0
 11
8.345
 21
12.588
 31
0.0
  0
LINE
  5
8A7
330
18
100
AcDbEntity
  8
Object
100
AcDbLine
 10
8.345
 20
12.588
 30
0.0
 11
8.345
 21
12.608
 31
0.0
  0
LINE
  5
8A8
330
18
100
AcDbEntity
  8
Object
100
AcDbLine
 10
8.345
 20
12.608
 30
0.0
 11
8.371
 21
12.621
 31
0.0
  0
LINE
  5
8A9
330
18
100
AcDbEntity
  8
Object
100
AcDbLine
 10
8.393
 20
12.565
 30
0.0
 11
8.419
 21
12.552
 31
0.0
  0
LINE
  5
8AA
330
18
100
AcDbEntity
  8
Object
100
AcDbLine
 10
8.419
 20
12.552
 30
0.0
 11
8.419
 21
12.532
 31
0.0
  0
LINE
  5
8AB
330
18
100
AcDbEntity
  8
Object
100
AcDbLine
 10
8.419
 20
12.532
 30
0.0
 11
8.393
 21
12.519
 31
0.0
  0
LINE
  5
8AC
330
18
100
AcDbEntity
  8
Object
100
AcDbLine
 10
8.393
 20
12.565
 30
0.0
 11
8.371
 21
12.565
 31
0.0
  0
LINE
  5
8AD
330
18
100
AcDbEntity
  8
Object
100
AcDbLine
 10
8.393
 20
12.519
 30
0.0
 11
8.371
 21
12.519
 31
0.0
  0
LINE
  5
8AE
330
18
100
AcDbEntity
  8
Object
100
AcDbLine
 10
8.371
 20
12.519
 30
0.0
 11
8.345
 21
12.532
 31
0.0
  0
LINE
  5
8AF
330
18
100
AcDbEntity
  8
Object
100
AcDbLine
 10
8.345
 20
12.532
 30
0.0
 11
8.345
 21
12.552
 31
0.0
  0
LINE
  5
8B0
330
18
100
AcDbEntity
  8
Object
100
AcDbLine
 10
8.345
 20
12.552
 30
0.0
 11
8.371
 21
12.565
 31
0.0
  0
LINE
  5
8B1
330
18
100
AcDbEntity
  8
Object
100
AcDbLine
 10
5.706999999999999
 20
12.621
 30
0.0
 11
5.733999999999999
 21
12.608
 31
0.0
  0
LINE
  5
8B2
330
18
100
AcDbEntity
  8
Object
100
AcDbLine
 10
5.733999999999999
 20
12.608
 30
0.0
 11
5.733999999999999
 21
12.589
 31
0.0
  0
LINE
  5
8B3
330
18
100
AcDbEntity
  8
Object
100
AcDbLine
 10
5.733999999999999
 20
12.589
 30
0.0
 11
5.706999999999999
 21
12.575
 31
0.0
  0
LINE
  5
8B4
330
18
100
AcDbEntity
  8
Object
100
AcDbLine
 10
5.706999999999999
 20
12.575
 30
0.0
 11
5.66
 21
12.575
 31
0.0
  0
LINE
  5
8B5
330
18
100
AcDbEntity
  8
Object
100
AcDbLine
 10
5.66
 20
12.575
 30
0.0
 11
5.66
 21
12.621
 31
0.0
  0
LINE
  5
8B6
330
18
100
AcDbEntity
  8
Object
100
AcDbLine
 10
5.66
 20
12.621
 30
0.0
 11
5.706999999999999
 21
12.621
 31
0.0
  0
LINE
  5
8B7
330
18
100
AcDbEntity
  8
Object
100
AcDbLine
 10
7.427
 20
12.575
 30
0.0
 11
7.453
 21
12.589
 31
0.0
  0
LINE
  5
8B8
330
18
100
AcDbEntity
  8
Object
100
AcDbLine
 10
7.427
 20
12.621
 30
0.0
 11
7.453
 21
12.608
 31
0.0
  0
LINE
  5
8B9
330
18
100
AcDbEntity
  8
Object
100
AcDbLine
 10
7.453
 20
12.608
 30
0.0
 11
7.453
 21
12.589
 31
0.0
  0
LINE
  5
8BA
330
18
100
AcDbEntity
  8
Object
100
AcDbLine
 10
7.427
 20
12.621
 30
0.0
 11
7.379
 21
12.621
 31
0.0
  0
LINE
  5
8BB
330
18
100
AcDbEntity
  8
Object
100
AcDbLine
 10
7.379
 20
12.621
 30
0.0
 11
7.379
 21
12.575
 31
0.0
  0
LINE
  5
8BC
330
18
100
AcDbEntity
  8
Object
100
AcDbLine
 10
7.379
 20
12.575
 30
0.0
 11
7.427
 21
12.575
 31
0.0
  0
LINE
  5
8BD
330
18
100
AcDbEntity
  8
Object
100
AcDbLine
 10
6.158
 20
12.621
 30
0.0
 11
6.184
 21
12.593
 31
0.0
  0
LINE
  5
8BE
330
18
100
AcDbEntity
  8
Object
100
AcDbLine
 10
6.184
 20
12.593
 30
0.0
 11
6.184
 21
12.546
 31
0.0
  0
LINE
  5
8BF
330
18
100
AcDbEntity
  8
Object
100
AcDbLine
 10
6.184
 20
12.546
 30
0.0
 11
6.158
 21
12.519
 31
0.0
  0
LINE
  5
8C0
330
18
100
AcDbEntity
  8
Object
100
AcDbLine
 10
6.158
 20
12.519
 30
0.0
 11
6.11
 21
12.519
 31
0.0
  0
LINE
  5
8C1
330
18
100
AcDbEntity
  8
Object
100
AcDbLine
 10
6.11
 20
12.519
 30
0.0
 11
6.11
 21
12.621
 31
0.0
  0
LINE
  5
8C2
330
18
100
AcDbEntity
  8
Object
100
AcDbLine
 10
6.11
 20
12.621
 30
0.0
 11
6.158
 21
12.621
 31
0.0
  0
LINE
  5
8C3
330
18
100
AcDbEntity
  8
Object
100
AcDbLine
 10
5.865
 20
12.541
 30
0.0
 11
5.815999999999999
 21
12.541
 31
0.0
  0
LINE
  5
8C4
330
18
100
AcDbEntity
  8
Object
100
AcDbLine
 10
5.815999999999999
 20
12.541
 30
0.0
 11
5.841
 21
12.609
 31
0.0
  0
LINE
  5
8C5
330
18
100
AcDbEntity
  8
Object
100
AcDbLine
 10
5.841
 20
12.609
 30
0.0
 11
5.865
 21
12.541
 31
0.0
  0
LINE
  5
8C6
330
18
100
AcDbEntity
  8
Object
100
AcDbLine
 10
7.980999999999999
 20
12.57
 30
0.0
 11
7.999
 21
12.558
 31
0.0
  0
LINE
  5
8C7
330
18
100
AcDbEntity
  8
Object
100
AcDbLine
 10
7.999
 20
12.558
 30
0.0
 11
7.999
 21
12.529
 31
0.0
  0
LINE
  5
8C8
330
18
100
AcDbEntity
  8
Object
100
AcDbLine
 10
7.999
 20
12.529
 30
0.0
 11
7.980999999999999
 21
12.519
 31
0.0
  0
LINE
  5
8C9
330
18
100
AcDbEntity
  8
Object
100
AcDbLine
 10
7.980999999999999
 20
12.519
 30
0.0
 11
7.924999999999999
 21
12.519
 31
0.0
  0
LINE
  5
8CA
330
18
100
AcDbEntity
  8
Object
100
AcDbLine
 10
7.924999999999999
 20
12.519
 30
0.0
 11
7.924999999999999
 21
12.57
 31
0.0
  0
LINE
  5
8CB
330
18
100
AcDbEntity
  8
Object
100
AcDbLine
 10
7.924999999999999
 20
12.57
 30
0.0
 11
7.980999999999999
 21
12.57
 31
0.0
  0
LINE
  5
8CC
330
18
100
AcDbEntity
  8
Object
100
AcDbLine
 10
7.982
 20
12.621
 30
0.0
 11
7.988
 21
12.614
 31
0.0
  0
LINE
  5
8CD
330
18
100
AcDbEntity
  8
Object
100
AcDbLine
 10
7.988
 20
12.614
 30
0.0
 11
7.988
 21
12.588
 31
0.0
  0
LINE
  5
8CE
330
18
100
AcDbEntity
  8
Object
100
AcDbLine
 10
7.988
 20
12.588
 30
0.0
 11
7.982
 21
12.58
 31
0.0
  0
LINE
  5
8CF
330
18
100
AcDbEntity
  8
Object
100
AcDbLine
 10
7.982
 20
12.58
 30
0.0
 11
7.924999999999999
 21
12.58
 31
0.0
  0
LINE
  5
8D0
330
18
100
AcDbEntity
  8
Object
100
AcDbLine
 10
7.924999999999999
 20
12.58
 30
0.0
 11
7.924999999999999
 21
12.621
 31
0.0
  0
LINE
  5
8D1
330
18
100
AcDbEntity
  8
Object
100
AcDbLine
 10
7.924999999999999
 20
12.621
 30
0.0
 11
7.982
 21
12.621
 31
0.0
  0
LINE
  5
8D2
330
18
100
AcDbEntity
  8
Object
100
AcDbLine
 10
5.235999999999999
 20
11.675
 30
0.0
 11
5.227999999999999
 21
11.675
 31
0.0
  0
LINE
  5
8D3
330
18
100
AcDbEntity
  8
Object
100
AcDbLine
 10
5.227999999999999
 20
11.675
 30
0.0
 11
5.064
 21
11.675
 31
0.0
  0
LINE
  5
8D4
330
18
100
AcDbEntity
  8
Object
100
AcDbLine
 10
5.064
 20
11.675
 30
0.0
 11
5.033
 21
11.675
 31
0.0
  0
LINE
  5
8D5
330
18
100
AcDbEntity
  8
Object
100
AcDbLine
 10
5.033
 20
11.675
 30
0.0
 11
5.006999999999999
 21
11.675
 31
0.0
  0
LINE
  5
8D6
330
18
100
AcDbEntity
  8
Object
100
AcDbLine
 10
5.006999999999999
 20
11.675
 30
0.0
 11
4.99
 21
11.675
 31
0.0
  0
LINE
  5
8D7
330
18
100
AcDbEntity
  8
Object
100
AcDbLine
 10
4.99
 20
11.675
 30
0.0
 11
4.983
 21
11.675
 31
0.0
  0
LINE
  5
8D8
330
18
100
AcDbEntity
  8
Object
100
AcDbLine
 10
4.983
 20
11.675
 30
0.0
 11
4.980999999999999
 21
11.675
 31
0.0
  0
LINE
  5
8D9
330
18
100
AcDbEntity
  8
Object
100
AcDbLine
 10
4.980999999999999
 20
11.675
 30
0.0
 11
4.975
 21
11.675
 31
0.0
  0
LINE
  5
8DA
330
18
100
AcDbEntity
  8
Object
100
AcDbLine
 10
4.975
 20
11.675
 30
0.0
 11
4.967999999999999
 21
11.675
 31
0.0
  0
LINE
  5
8DB
330
18
100
AcDbEntity
  8
Object
100
AcDbLine
 10
4.967999999999999
 20
11.675
 30
0.0
 11
4.918
 21
11.675
 31
0.0
  0
LINE
  5
8DC
330
18
100
AcDbEntity
  8
Object
100
AcDbLine
 10
5.235999999999999
 20
11.272
 30
0.0
 11
5.227999999999999
 21
11.272
 31
0.0
  0
LINE
  5
8DD
330
18
100
AcDbEntity
  8
Object
100
AcDbLine
 10
5.227999999999999
 20
11.272
 30
0.0
 11
5.064
 21
11.272
 31
0.0
  0
LINE
  5
8DE
330
18
100
AcDbEntity
  8
Object
100
AcDbLine
 10
5.064
 20
11.272
 30
0.0
 11
5.033
 21
11.272
 31
0.0
  0
LINE
  5
8DF
330
18
100
AcDbEntity
  8
Object
100
AcDbLine
 10
5.033
 20
11.272
 30
0.0
 11
5.006999999999999
 21
11.272
 31
0.0
  0
LINE
  5
8E0
330
18
100
AcDbEntity
  8
Object
100
AcDbLine
 10
5.006999999999999
 20
11.272
 30
0.0
 11
4.99
 21
11.272
 31
0.0
  0
LINE
  5
8E1
330
18
100
AcDbEntity
  8
Object
100
AcDbLine
 10
4.99
 20
11.272
 30
0.0
 11
4.983
 21
11.272
 31
0.0
  0
LINE
  5
8E2
330
18
100
AcDbEntity
  8
Object
100
AcDbLine
 10
4.983
 20
11.272
 30
0.0
 11
4.980999999999999
 21
11.272
 31
0.0
  0
LINE
  5
8E3
330
18
100
AcDbEntity
  8
Object
100
AcDbLine
 10
4.980999999999999
 20
11.272
 30
0.0
 11
4.975
 21
11.272
 31
0.0
  0
LINE
  5
8E4
330
18
100
AcDbEntity
  8
Object
100
AcDbLine
 10
4.975
 20
11.272
 30
0.0
 11
4.967999999999999
 21
11.272
 31
0.0
  0
LINE
  5
8E5
330
18
100
AcDbEntity
  8
Object
100
AcDbLine
 10
4.967999999999999
 20
11.272
 30
0.0
 11
4.461
 21
11.272
 31
0.0
  0
LINE
  5
8E6
330
18
100
AcDbEntity
  8
Object
100
AcDbLine
 10
5.275
 20
11.635
 30
0.0
 11
5.27
 21
11.655
 31
0.0
  0
LINE
  5
8E7
330
18
100
AcDbEntity
  8
Object
100
AcDbLine
 10
5.27
 20
11.655
 30
0.0
 11
5.256
 21
11.67
 31
0.0
  0
LINE
  5
8E8
330
18
100
AcDbEntity
  8
Object
100
AcDbLine
 10
5.256
 20
11.278
 30
0.0
 11
5.27
 21
11.292
 31
0.0
  0
LINE
  5
8E9
330
18
100
AcDbEntity
  8
Object
100
AcDbLine
 10
5.27
 20
11.292
 30
0.0
 11
5.275
 21
11.312
 31
0.0
  0
LINE
  5
8EA
330
18
100
AcDbEntity
  8
Object
100
AcDbLine
 10
5.275
 20
11.312
 30
0.0
 11
5.275
 21
11.635
 31
0.0
  0
LINE
  5
8EB
330
18
100
AcDbEntity
  8
Object
100
AcDbLine
 10
4.967999999999999
 20
12.522
 30
0.0
 11
4.967999999999999
 21
12.119
 31
0.0
  0
LINE
  5
8EC
330
18
100
AcDbEntity
  8
Object
100
AcDbLine
 10
4.967999999999999
 20
12.119
 30
0.0
 11
4.918
 21
12.119
 31
0.0
  0
LINE
  5
8ED
330
18
100
AcDbEntity
  8
Object
100
AcDbLine
 10
4.918
 20
11.675
 30
0.0
 11
4.967999999999999
 21
11.675
 31
0.0
  0
LINE
  5
8EE
330
18
100
AcDbEntity
  8
Object
100
AcDbLine
 10
4.967999999999999
 20
11.675
 30
0.0
 11
4.967999999999999
 21
11.272
 31
0.0
  0
LINE
  5
8EF
330
18
100
AcDbEntity
  8
Object
100
AcDbLine
 10
4.895999999999999
 20
12.113
 30
0.0
 11
4.918
 21
12.119
 31
0.0
  0
LINE
  5
8F0
330
18
100
AcDbEntity
  8
Object
100
AcDbLine
 10
4.918
 20
11.675
 30
0.0
 11
4.895999999999999
 21
11.681
 31
0.0
  0
LINE
  5
8F1
330
18
100
AcDbEntity
  8
Object
100
AcDbLine
 10
4.895999999999999
 20
12.035
 30
0.0
 11
4.918
 21
12.029
 31
0.0
  0
LINE
  5
8F2
330
18
100
AcDbEntity
  8
Object
100
AcDbLine
 10
4.918
 20
12.029
 30
0.0
 11
4.937999999999999
 21
12.029
 31
0.0
  0
LINE
  5
8F3
330
18
100
AcDbEntity
  8
Object
100
AcDbLine
 10
4.937999999999999
 20
12.029
 30
0.0
 11
4.937999999999999
 21
11.765
 31
0.0
  0
LINE
  5
8F4
330
18
100
AcDbEntity
  8
Object
100
AcDbLine
 10
4.937999999999999
 20
11.765
 30
0.0
 11
4.918
 21
11.765
 31
0.0
  0
LINE
  5
8F5
330
18
100
AcDbEntity
  8
Object
100
AcDbLine
 10
4.918
 20
11.765
 30
0.0
 11
4.895999999999999
 21
11.759
 31
0.0
  0
LINE
  5
8F6
330
18
100
AcDbEntity
  8
Object
100
AcDbLine
 10
4.895999999999999
 20
12.035
 30
0.0
 11
4.879
 21
12.052
 31
0.0
  0
LINE
  5
8F7
330
18
100
AcDbEntity
  8
Object
100
AcDbLine
 10
4.879
 20
11.743
 30
0.0
 11
4.895999999999999
 21
11.759
 31
0.0
  0
LINE
  5
8F8
330
18
100
AcDbEntity
  8
Object
100
AcDbLine
 10
4.879
 20
12.052
 30
0.0
 11
4.873
 21
12.074
 31
0.0
  0
LINE
  5
8F9
330
18
100
AcDbEntity
  8
Object
100
AcDbLine
 10
4.873
 20
11.72
 30
0.0
 11
4.879
 21
11.743
 31
0.0
  0
LINE
  5
8FA
330
18
100
AcDbEntity
  8
Object
100
AcDbLine
 10
4.873
 20
12.074
 30
0.0
 11
4.879
 21
12.097
 31
0.0
  0
LINE
  5
8FB
330
18
100
AcDbEntity
  8
Object
100
AcDbLine
 10
4.879
 20
11.698
 30
0.0
 11
4.873
 21
11.72
 31
0.0
  0
LINE
  5
8FC
330
18
100
AcDbEntity
  8
Object
100
AcDbLine
 10
4.879
 20
12.097
 30
0.0
 11
4.895999999999999
 21
12.113
 31
0.0
  0
LINE
  5
8FD
330
18
100
AcDbEntity
  8
Object
100
AcDbLine
 10
4.895999999999999
 20
11.681
 30
0.0
 11
4.879
 21
11.698
 31
0.0
  0
LINE
  5
8FE
330
18
100
AcDbEntity
  8
Object
100
AcDbLine
 10
4.967999999999999
 20
12.522
 30
0.0
 11
4.461
 21
12.522
 31
0.0
  0
LINE
  5
8FF
330
18
100
AcDbEntity
  8
Object
100
AcDbLine
 10
4.461
 20
11.272
 30
0.0
 11
4.967999999999999
 21
11.272
 31
0.0
  0
LINE
  5
900
330
18
100
AcDbEntity
  8
Object
100
AcDbLine
 10
4.387999999999999
 20
12.498
 30
0.0
 11
4.36
 21
12.471
 31
0.0
  0
LINE
  5
901
330
18
100
AcDbEntity
  8
Object
100
AcDbLine
 10
4.336
 20
12.397
 30
0.0
 11
4.342
 21
12.436
 31
0.0
  0
LINE
  5
902
330
18
100
AcDbEntity
  8
Object
100
AcDbLine
 10
4.342
 20
12.436
 30
0.0
 11
4.36
 21
12.471
 31
0.0
  0
LINE
  5
903
330
18
100
AcDbEntity
  8
Object
100
AcDbLine
 10
4.387999999999999
 20
12.498
 30
0.0
 11
4.421999999999999
 21
12.516
 31
0.0
  0
LINE
  5
904
330
18
100
AcDbEntity
  8
Object
100
AcDbLine
 10
4.421999999999999
 20
12.516
 30
0.0
 11
4.461
 21
12.522
 31
0.0
  0
LINE
  5
905
330
18
100
AcDbEntity
  8
Object
100
AcDbLine
 10
4.336
 20
12.397
 30
0.0
 11
4.336
 21
11.397
 31
0.0
  0
LINE
  5
906
330
18
100
AcDbEntity
  8
Object
100
AcDbLine
 10
4.461
 20
11.272
 30
0.0
 11
4.421999999999999
 21
11.278
 31
0.0
  0
LINE
  5
907
330
18
100
AcDbEntity
  8
Object
100
AcDbLine
 10
4.421999999999999
 20
11.278
 30
0.0
 11
4.387999999999999
 21
11.296
 31
0.0
  0
LINE
  5
908
330
18
100
AcDbEntity
  8
Object
100
AcDbLine
 10
4.387999999999999
 20
11.296
 30
0.0
 11
4.36
 21
11.324
 31
0.0
  0
LINE
  5
909
330
18
100
AcDbEntity
  8
Object
100
AcDbLine
 10
4.36
 20
11.324
 30
0.0
 11
4.342
 21
11.359
 31
0.0
  0
LINE
  5
90A
330
18
100
AcDbEntity
  8
Object
100
AcDbLine
 10
4.342
 20
11.359
 30
0.0
 11
4.336
 21
11.397
 31
0.0
  0
LINE
  5
90B
330
18
100
AcDbEntity
  8
Object
100
AcDbLine
 10
5.033
 20
11.272
 30
0.0
 11
5.064
 21
11.272
 31
0.0
  0
LINE
  5
90C
330
18
100
AcDbEntity
  8
Object
100
AcDbLine
 10
5.033
 20
11.675
 30
0.0
 11
5.064
 21
11.675
 31
0.0
  0
LINE
  5
90D
330
18
100
AcDbEntity
  8
Object
100
AcDbLine
 10
5.064
 20
11.675
 30
0.0
 11
5.064
 21
11.272
 31
0.0
  0
LINE
  5
90E
330
18
100
AcDbEntity
  8
Object
100
AcDbLine
 10
5.033
 20
11.675
 30
0.0
 11
5.006999999999999
 21
11.675
 31
0.0
  0
LINE
  5
90F
330
18
100
AcDbEntity
  8
Object
100
AcDbLine
 10
5.033
 20
11.272
 30
0.0
 11
5.006999999999999
 21
11.272
 31
0.0
  0
LINE
  5
910
330
18
100
AcDbEntity
  8
Object
100
AcDbLine
 10
5.006999999999999
 20
11.272
 30
0.0
 11
4.99
 21
11.272
 31
0.0
  0
LINE
  5
911
330
18
100
AcDbEntity
  8
Object
100
AcDbLine
 10
5.006999999999999
 20
11.675
 30
0.0
 11
4.99
 21
11.675
 31
0.0
  0
LINE
  5
912
330
18
100
AcDbEntity
  8
Object
100
AcDbLine
 10
4.99
 20
11.675
 30
0.0
 11
4.983
 21
11.675
 31
0.0
  0
LINE
  5
913
330
18
100
AcDbEntity
  8
Object
100
AcDbLine
 10
4.983
 20
11.272
 30
0.0
 11
4.99
 21
11.272
 31
0.0
  0
LINE
  5
914
330
18
100
AcDbEntity
  8
Object
100
AcDbLine
 10
5.267999999999999
 20
11.635
 30
0.0
 11
5.275
 21
11.635
 31
0.0
  0
LINE
  5
915
330
18
100
AcDbEntity
  8
Object
100
AcDbLine
 10
5.248
 20
11.67
 30
0.0
 11
5.227999999999999
 21
11.675
 31
0.0
  0
LINE
  5
916
330
18
100
AcDbEntity
  8
Object
100
AcDbLine
 10
5.227999999999999
 20
11.675
 30
0.0
 11
5.235999999999999
 21
11.675
 31
0.0
  0
LINE
  5
917
330
18
100
AcDbEntity
  8
Object
100
AcDbLine
 10
5.235999999999999
 20
11.675
 30
0.0
 11
5.256
 21
11.67
 31
0.0
  0
LINE
  5
918
330
18
100
AcDbEntity
  8
Object
100
AcDbLine
 10
4.895999999999999
 20
11.759
 30
0.0
 11
4.918
 21
11.765
 31
0.0
  0
LINE
  5
919
330
18
100
AcDbEntity
  8
Object
100
AcDbLine
 10
4.918
 20
11.675
 30
0.0
 11
4.895999999999999
 21
11.681
 31
0.0
  0
LINE
  5
91A
330
18
100
AcDbEntity
  8
Object
100
AcDbLine
 10
4.895999999999999
 20
11.681
 30
0.0
 11
4.879
 21
11.698
 31
0.0
  0
LINE
  5
91B
330
18
100
AcDbEntity
  8
Object
100
AcDbLine
 10
4.895999999999999
 20
11.759
 30
0.0
 11
4.879
 21
11.743
 31
0.0
  0
LINE
  5
91C
330
18
100
AcDbEntity
  8
Object
100
AcDbLine
 10
4.879
 20
11.743
 30
0.0
 11
4.873
 21
11.72
 31
0.0
  0
LINE
  5
91D
330
18
100
AcDbEntity
  8
Object
100
AcDbLine
 10
4.873
 20
11.72
 30
0.0
 11
4.879
 21
11.698
 31
0.0
  0
LINE
  5
91E
330
18
100
AcDbEntity
  8
Object
100
AcDbLine
 10
4.980999999999999
 20
11.272
 30
0.0
 11
4.983
 21
11.272
 31
0.0
  0
LINE
  5
91F
330
18
100
AcDbEntity
  8
Object
100
AcDbLine
 10
4.980999999999999
 20
11.675
 30
0.0
 11
4.983
 21
11.675
 31
0.0
  0
LINE
  5
920
330
18
100
AcDbEntity
  8
Object
100
AcDbLine
 10
4.983
 20
11.675
 30
0.0
 11
4.983
 21
11.272
 31
0.0
  0
LINE
  5
921
330
18
100
AcDbEntity
  8
Object
100
AcDbLine
 10
4.980999999999999
 20
11.675
 30
0.0
 11
4.975
 21
11.675
 31
0.0
  0
LINE
  5
922
330
18
100
AcDbEntity
  8
Object
100
AcDbLine
 10
4.980999999999999
 20
11.272
 30
0.0
 11
4.975
 21
11.272
 31
0.0
  0
LINE
  5
923
330
18
100
AcDbEntity
  8
Object
100
AcDbLine
 10
4.975
 20
11.272
 30
0.0
 11
4.967999999999999
 21
11.272
 31
0.0
  0
LINE
  5
924
330
18
100
AcDbEntity
  8
Object
100
AcDbLine
 10
4.975
 20
11.675
 30
0.0
 11
4.967999999999999
 21
11.675
 31
0.0
  0
LINE
  5
925
330
18
100
AcDbEntity
  8
Object
100
AcDbLine
 10
5.267999999999999
 20
11.635
 30
0.0
 11
5.262
 21
11.655
 31
0.0
  0
LINE
  5
926
330
18
100
AcDbEntity
  8
Object
100
AcDbLine
 10
5.262
 20
11.655
 30
0.0
 11
5.248
 21
11.67
 31
0.0
  0
LINE
  5
927
330
18
100
AcDbEntity
  8
Object
100
AcDbLine
 10
5.267999999999999
 20
11.312
 30
0.0
 11
5.262
 21
11.292
 31
0.0
  0
LINE
  5
928
330
18
100
AcDbEntity
  8
Object
100
AcDbLine
 10
5.262
 20
11.292
 30
0.0
 11
5.248
 21
11.278
 31
0.0
  0
LINE
  5
929
330
18
100
AcDbEntity
  8
Object
100
AcDbLine
 10
5.248
 20
11.278
 30
0.0
 11
5.227999999999999
 21
11.272
 31
0.0
  0
LINE
  5
92A
330
18
100
AcDbEntity
  8
Object
100
AcDbLine
 10
5.227999999999999
 20
11.675
 30
0.0
 11
5.064
 21
11.675
 31
0.0
  0
LINE
  5
92B
330
18
100
AcDbEntity
  8
Object
100
AcDbLine
 10
5.064
 20
11.272
 30
0.0
 11
5.227999999999999
 21
11.272
 31
0.0
  0
LINE
  5
92C
330
18
100
AcDbEntity
  8
Object
100
AcDbLine
 10
5.267999999999999
 20
11.312
 30
0.0
 11
5.267999999999999
 21
11.635
 31
0.0
  0
LINE
  5
92D
330
18
100
AcDbEntity
  8
Object
100
AcDbLine
 10
4.461
 20
11.272
 30
0.0
 11
4.421999999999999
 21
11.278
 31
0.0
  0
LINE
  5
92E
330
18
100
AcDbEntity
  8
Object
100
AcDbLine
 10
4.421999999999999
 20
11.278
 30
0.0
 11
4.387999999999999
 21
11.296
 31
0.0
  0
LINE
  5
92F
330
18
100
AcDbEntity
  8
Object
100
AcDbLine
 10
4.387999999999999
 20
11.296
 30
0.0
 11
4.36
 21
11.324
 31
0.0
  0
LINE
  5
930
330
18
100
AcDbEntity
  8
Object
100
AcDbLine
 10
4.36
 20
11.324
 30
0.0
 11
4.342
 21
11.359
 31
0.0
  0
LINE
  5
931
330
18
100
AcDbEntity
  8
Object
100
AcDbLine
 10
4.342
 20
11.359
 30
0.0
 11
4.336
 21
11.397
 31
0.0
  0
LINE
  5
932
330
18
100
AcDbEntity
  8
Object
100
AcDbLine
 10
5.275
 20
11.312
 30
0.0
 11
5.267999999999999
 21
11.312
 31
0.0
  0
LINE
  5
933
330
18
100
AcDbEntity
  8
Object
100
AcDbLine
 10
5.256
 20
11.278
 30
0.0
 11
5.235999999999999
 21
11.272
 31
0.0
  0
LINE
  5
934
330
18
100
AcDbEntity
  8
Object
100
AcDbLine
 10
5.235999999999999
 20
11.272
 30
0.0
 11
5.227999999999999
 21
11.272
 31
0.0
  0
LINE
  5
935
330
18
100
AcDbEntity
  8
Object
100
AcDbLine
 10
4.336
 20
12.397
 30
0.0
 11
4.336
 21
11.397
 31
0.0
  0
LINE
  5
936
330
18
100
AcDbEntity
  8
Object
100
AcDbLine
 10
4.937999999999999
 20
12.029
 30
0.0
 11
4.918
 21
12.029
 31
0.0
  0
LINE
  5
937
330
18
100
AcDbEntity
  8
Object
100
AcDbLine
 10
4.461
 20
12.522
 30
0.0
 11
4.421999999999999
 21
12.516
 31
0.0
  0
LINE
  5
938
330
18
100
AcDbEntity
  8
Object
100
AcDbLine
 10
4.421999999999999
 20
12.516
 30
0.0
 11
4.387999999999999
 21
12.498
 31
0.0
  0
LINE
  5
939
330
18
100
AcDbEntity
  8
Object
100
AcDbLine
 10
4.387999999999999
 20
12.498
 30
0.0
 11
4.36
 21
12.471
 31
0.0
  0
LINE
  5
93A
330
18
100
AcDbEntity
  8
Object
100
AcDbLine
 10
4.36
 20
12.471
 30
0.0
 11
4.342
 21
12.436
 31
0.0
  0
LINE
  5
93B
330
18
100
AcDbEntity
  8
Object
100
AcDbLine
 10
4.342
 20
12.436
 30
0.0
 11
4.336
 21
12.397
 31
0.0
  0
LINE
  5
93C
330
18
100
AcDbEntity
  8
Object
100
AcDbLine
 10
4.980999999999999
 20
12.522
 30
0.0
 11
4.983
 21
12.522
 31
0.0
  0
LINE
  5
93D
330
18
100
AcDbEntity
  8
Object
100
AcDbLine
 10
4.983
 20
12.522
 30
0.0
 11
4.983
 21
12.119
 31
0.0
  0
LINE
  5
93E
330
18
100
AcDbEntity
  8
Object
100
AcDbLine
 10
4.983
 20
12.119
 30
0.0
 11
4.980999999999999
 21
12.119
 31
0.0
  0
LINE
  5
93F
330
18
100
AcDbEntity
  8
Object
100
AcDbLine
 10
4.980999999999999
 20
12.119
 30
0.0
 11
4.975
 21
12.119
 31
0.0
  0
LINE
  5
940
330
18
100
AcDbEntity
  8
Object
100
AcDbLine
 10
4.980999999999999
 20
12.522
 30
0.0
 11
4.975
 21
12.522
 31
0.0
  0
LINE
  5
941
330
18
100
AcDbEntity
  8
Object
100
AcDbLine
 10
4.967999999999999
 20
12.119
 30
0.0
 11
4.975
 21
12.119
 31
0.0
  0
LINE
  5
942
330
18
100
AcDbEntity
  8
Object
100
AcDbLine
 10
4.975
 20
12.522
 30
0.0
 11
4.967999999999999
 21
12.522
 31
0.0
  0
LINE
  5
943
330
18
100
AcDbEntity
  8
Object
100
AcDbLine
 10
5.235999999999999
 20
12.522
 30
0.0
 11
5.227999999999999
 21
12.522
 31
0.0
  0
LINE
  5
944
330
18
100
AcDbEntity
  8
Object
100
AcDbLine
 10
5.227999999999999
 20
12.522
 30
0.0
 11
5.064
 21
12.522
 31
0.0
  0
LINE
  5
945
330
18
100
AcDbEntity
  8
Object
100
AcDbLine
 10
5.064
 20
12.522
 30
0.0
 11
5.033
 21
12.522
 31
0.0
  0
LINE
  5
946
330
18
100
AcDbEntity
  8
Object
100
AcDbLine
 10
5.033
 20
12.522
 30
0.0
 11
5.006999999999999
 21
12.522
 31
0.0
  0
LINE
  5
947
330
18
100
AcDbEntity
  8
Object
100
AcDbLine
 10
5.006999999999999
 20
12.522
 30
0.0
 11
4.99
 21
12.522
 31
0.0
  0
LINE
  5
948
330
18
100
AcDbEntity
  8
Object
100
AcDbLine
 10
4.99
 20
12.522
 30
0.0
 11
4.983
 21
12.522
 31
0.0
  0
LINE
  5
949
330
18
100
AcDbEntity
  8
Object
100
AcDbLine
 10
4.983
 20
12.522
 30
0.0
 11
4.980999999999999
 21
12.522
 31
0.0
  0
LINE
  5
94A
330
18
100
AcDbEntity
  8
Object
100
AcDbLine
 10
4.980999999999999
 20
12.522
 30
0.0
 11
4.975
 21
12.522
 31
0.0
  0
LINE
  5
94B
330
18
100
AcDbEntity
  8
Object
100
AcDbLine
 10
4.975
 20
12.522
 30
0.0
 11
4.967999999999999
 21
12.522
 31
0.0
  0
LINE
  5
94C
330
18
100
AcDbEntity
  8
Object
100
AcDbLine
 10
4.967999999999999
 20
12.522
 30
0.0
 11
4.461
 21
12.522
 31
0.0
  0
LINE
  5
94D
330
18
100
AcDbEntity
  8
Object
100
AcDbLine
 10
5.235999999999999
 20
12.119
 30
0.0
 11
5.227999999999999
 21
12.119
 31
0.0
  0
LINE
  5
94E
330
18
100
AcDbEntity
  8
Object
100
AcDbLine
 10
5.227999999999999
 20
12.119
 30
0.0
 11
5.064
 21
12.119
 31
0.0
  0
LINE
  5
94F
330
18
100
AcDbEntity
  8
Object
100
AcDbLine
 10
5.064
 20
12.119
 30
0.0
 11
5.033
 21
12.119
 31
0.0
  0
LINE
  5
950
330
18
100
AcDbEntity
  8
Object
100
AcDbLine
 10
5.033
 20
12.119
 30
0.0
 11
5.006999999999999
 21
12.119
 31
0.0
  0
LINE
  5
951
330
18
100
AcDbEntity
  8
Object
100
AcDbLine
 10
5.006999999999999
 20
12.119
 30
0.0
 11
4.99
 21
12.119
 31
0.0
  0
LINE
  5
952
330
18
100
AcDbEntity
  8
Object
100
AcDbLine
 10
4.99
 20
12.119
 30
0.0
 11
4.983
 21
12.119
 31
0.0
  0
LINE
  5
953
330
18
100
AcDbEntity
  8
Object
100
AcDbLine
 10
4.983
 20
12.119
 30
0.0
 11
4.980999999999999
 21
12.119
 31
0.0
  0
LINE
  5
954
330
18
100
AcDbEntity
  8
Object
100
AcDbLine
 10
4.980999999999999
 20
12.119
 30
0.0
 11
4.975
 21
12.119
 31
0.0
  0
LINE
  5
955
330
18
100
AcDbEntity
  8
Object
100
AcDbLine
 10
4.975
 20
12.119
 30
0.0
 11
4.967999999999999
 21
12.119
 31
0.0
  0
LINE
  5
956
330
18
100
AcDbEntity
  8
Object
100
AcDbLine
 10
4.967999999999999
 20
12.119
 30
0.0
 11
4.918
 21
12.119
 31
0.0
  0
LINE
  5
957
330
18
100
AcDbEntity
  8
Object
100
AcDbLine
 10
4.918
 20
12.119
 30
0.0
 11
4.895999999999999
 21
12.113
 31
0.0
  0
LINE
  5
958
330
18
100
AcDbEntity
  8
Object
100
AcDbLine
 10
4.918
 20
12.029
 30
0.0
 11
4.895999999999999
 21
12.035
 31
0.0
  0
LINE
  5
959
330
18
100
AcDbEntity
  8
Object
100
AcDbLine
 10
4.895999999999999
 20
12.035
 30
0.0
 11
4.879
 21
12.052
 31
0.0
  0
LINE
  5
95A
330
18
100
AcDbEntity
  8
Object
100
AcDbLine
 10
4.895999999999999
 20
12.113
 30
0.0
 11
4.879
 21
12.097
 31
0.0
  0
LINE
  5
95B
330
18
100
AcDbEntity
  8
Object
100
AcDbLine
 10
4.879
 20
12.097
 30
0.0
 11
4.873
 21
12.074
 31
0.0
  0
LINE
  5
95C
330
18
100
AcDbEntity
  8
Object
100
AcDbLine
 10
4.873
 20
12.074
 30
0.0
 11
4.879
 21
12.052
 31
0.0
  0
LINE
  5
95D
330
18
100
AcDbEntity
  8
Object
100
AcDbLine
 10
4.918
 20
11.765
 30
0.0
 11
4.937999999999999
 21
11.765
 31
0.0
  0
LINE
  5
95E
330
18
100
AcDbEntity
  8
Object
100
AcDbLine
 10
4.983
 20
12.029
 30
0.0
 11
5.001999999999999
 21
12.029
 31
0.0
  0
LINE
  5
95F
330
18
100
AcDbEntity
  8
Object
100
AcDbLine
 10
5.001999999999999
 20
12.029
 30
0.0
 11
5.001999999999999
 21
11.765
 31
0.0
  0
LINE
  5
960
330
18
100
AcDbEntity
  8
Object
100
AcDbLine
 10
5.001999999999999
 20
11.765
 30
0.0
 11
4.983
 21
11.765
 31
0.0
  0
LINE
  5
961
330
18
100
AcDbEntity
  8
Object
100
AcDbLine
 10
4.983
 20
11.765
 30
0.0
 11
4.961
 21
11.765
 31
0.0
  0
LINE
  5
962
330
18
100
AcDbEntity
  8
Object
100
AcDbLine
 10
4.983
 20
12.029
 30
0.0
 11
4.961
 21
12.029
 31
0.0
  0
LINE
  5
963
330
18
100
AcDbEntity
  8
Object
100
AcDbLine
 10
4.961
 20
12.029
 30
0.0
 11
4.937999999999999
 21
12.029
 31
0.0
  0
LINE
  5
964
330
18
100
AcDbEntity
  8
Object
100
AcDbLine
 10
4.937999999999999
 20
11.765
 30
0.0
 11
4.961
 21
11.765
 31
0.0
  0
LINE
  5
965
330
18
100
AcDbEntity
  8
Object
100
AcDbLine
 10
5.001999999999999
 20
12.029
 30
0.0
 11
4.983
 21
12.029
 31
0.0
  0
LINE
  5
966
330
18
100
AcDbEntity
  8
Object
100
AcDbLine
 10
4.983
 20
12.029
 30
0.0
 11
4.961
 21
12.029
 31
0.0
  0
LINE
  5
967
330
18
100
AcDbEntity
  8
Object
100
AcDbLine
 10
4.961
 20
12.029
 30
0.0
 11
4.937999999999999
 21
12.029
 31
0.0
  0
LINE
  5
968
330
18
100
AcDbEntity
  8
Object
100
AcDbLine
 10
5.033
 20
12.522
 30
0.0
 11
5.064
 21
12.522
 31
0.0
  0
LINE
  5
969
330
18
100
AcDbEntity
  8
Object
100
AcDbLine
 10
5.064
 20
12.522
 30
0.0
 11
5.064
 21
12.119
 31
0.0
  0
LINE
  5
96A
330
18
100
AcDbEntity
  8
Object
100
AcDbLine
 10
5.064
 20
12.119
 30
0.0
 11
5.033
 21
12.119
 31
0.0
  0
LINE
  5
96B
330
18
100
AcDbEntity
  8
Object
100
AcDbLine
 10
5.033
 20
12.119
 30
0.0
 11
5.006999999999999
 21
12.119
 31
0.0
  0
LINE
  5
96C
330
18
100
AcDbEntity
  8
Object
100
AcDbLine
 10
5.033
 20
12.522
 30
0.0
 11
5.006999999999999
 21
12.522
 31
0.0
  0
LINE
  5
96D
330
18
100
AcDbEntity
  8
Object
100
AcDbLine
 10
5.006999999999999
 20
12.522
 30
0.0
 11
4.99
 21
12.522
 31
0.0
  0
LINE
  5
96E
330
18
100
AcDbEntity
  8
Object
100
AcDbLine
 10
4.99
 20
12.119
 30
0.0
 11
5.006999999999999
 21
12.119
 31
0.0
  0
LINE
  5
96F
330
18
100
AcDbEntity
  8
Object
100
AcDbLine
 10
4.99
 20
12.522
 30
0.0
 11
4.983
 21
12.522
 31
0.0
  0
LINE
  5
970
330
18
100
AcDbEntity
  8
Object
100
AcDbLine
 10
4.983
 20
12.119
 30
0.0
 11
4.99
 21
12.119
 31
0.0
  0
LINE
  5
971
330
18
100
AcDbEntity
  8
Object
100
AcDbLine
 10
5.227999999999999
 20
12.522
 30
0.0
 11
5.248
 21
12.517
 31
0.0
  0
LINE
  5
972
330
18
100
AcDbEntity
  8
Object
100
AcDbLine
 10
5.248
 20
12.517
 30
0.0
 11
5.262
 21
12.502
 31
0.0
  0
LINE
  5
973
330
18
100
AcDbEntity
  8
Object
100
AcDbLine
 10
5.262
 20
12.502
 30
0.0
 11
5.267999999999999
 21
12.482
 31
0.0
  0
LINE
  5
974
330
18
100
AcDbEntity
  8
Object
100
AcDbLine
 10
5.267999999999999
 20
12.159
 30
0.0
 11
5.262
 21
12.139
 31
0.0
  0
LINE
  5
975
330
18
100
AcDbEntity
  8
Object
100
AcDbLine
 10
5.262
 20
12.139
 30
0.0
 11
5.248
 21
12.125
 31
0.0
  0
LINE
  5
976
330
18
100
AcDbEntity
  8
Object
100
AcDbLine
 10
5.248
 20
12.125
 30
0.0
 11
5.227999999999999
 21
12.119
 31
0.0
  0
LINE
  5
977
330
18
100
AcDbEntity
  8
Object
100
AcDbLine
 10
5.227999999999999
 20
12.522
 30
0.0
 11
5.064
 21
12.522
 31
0.0
  0
LINE
  5
978
330
18
100
AcDbEntity
  8
Object
100
AcDbLine
 10
5.064
 20
12.119
 30
0.0
 11
5.227999999999999
 21
12.119
 31
0.0
  0
LINE
  5
979
330
18
100
AcDbEntity
  8
Object
100
AcDbLine
 10
5.267999999999999
 20
12.159
 30
0.0
 11
5.267999999999999
 21
12.482
 31
0.0
  0
LINE
  5
97A
330
18
100
AcDbEntity
  8
Object
100
AcDbLine
 10
5.267999999999999
 20
12.482
 30
0.0
 11
5.275
 21
12.482
 31
0.0
  0
LINE
  5
97B
330
18
100
AcDbEntity
  8
Object
100
AcDbLine
 10
5.227999999999999
 20
12.522
 30
0.0
 11
5.235999999999999
 21
12.522
 31
0.0
  0
LINE
  5
97C
330
18
100
AcDbEntity
  8
Object
100
AcDbLine
 10
5.235999999999999
 20
12.522
 30
0.0
 11
5.256
 21
12.517
 31
0.0
  0
LINE
  5
97D
330
18
100
AcDbEntity
  8
Object
100
AcDbLine
 10
5.256
 20
12.517
 30
0.0
 11
5.27
 21
12.502
 31
0.0
  0
LINE
  5
97E
330
18
100
AcDbEntity
  8
Object
100
AcDbLine
 10
5.27
 20
12.502
 30
0.0
 11
5.275
 21
12.482
 31
0.0
  0
LINE
  5
97F
330
18
100
AcDbEntity
  8
Object
100
AcDbLine
 10
5.256
 20
12.125
 30
0.0
 11
5.27
 21
12.139
 31
0.0
  0
LINE
  5
980
330
18
100
AcDbEntity
  8
Object
100
AcDbLine
 10
5.27
 20
12.139
 30
0.0
 11
5.275
 21
12.159
 31
0.0
  0
LINE
  5
981
330
18
100
AcDbEntity
  8
Object
100
AcDbLine
 10
5.275
 20
12.159
 30
0.0
 11
5.275
 21
12.482
 31
0.0
  0
LINE
  5
982
330
18
100
AcDbEntity
  8
Object
100
AcDbLine
 10
5.275
 20
12.159
 30
0.0
 11
5.267999999999999
 21
12.159
 31
0.0
  0
LINE
  5
983
330
18
100
AcDbEntity
  8
Object
100
AcDbLine
 10
5.256
 20
12.125
 30
0.0
 11
5.235999999999999
 21
12.119
 31
0.0
  0
LINE
  5
984
330
18
100
AcDbEntity
  8
Object
100
AcDbLine
 10
5.235999999999999
 20
12.119
 30
0.0
 11
5.227999999999999
 21
12.119
 31
0.0
  0
LINE
  5
985
330
18
100
AcDbEntity
  8
Object
100
AcDbLine
 10
5.001999999999999
 20
11.765
 30
0.0
 11
4.983
 21
11.765
 31
0.0
  0
LINE
  5
986
330
18
100
AcDbEntity
  8
Object
100
AcDbLine
 10
4.983
 20
11.765
 30
0.0
 11
4.961
 21
11.765
 31
0.0
  0
LINE
  5
987
330
18
100
AcDbEntity
  8
Object
100
AcDbLine
 10
4.961
 20
11.765
 30
0.0
 11
4.937999999999999
 21
11.765
 31
0.0
  0
LINE
  5
988
330
18
100
AcDbEntity
  8
Object
100
AcDbLine
 10
5.267999999999999
 20
12.029
 30
0.0
 11
5.001999999999999
 21
12.029
 31
0.0
  0
LINE
  5
989
330
18
100
AcDbEntity
  8
Object
100
AcDbLine
 10
5.001999999999999
 20
11.765
 30
0.0
 11
5.267999999999999
 21
11.765
 31
0.0
  0
LINE
  5
98A
330
18
100
AcDbEntity
  8
Object
100
AcDbLine
 10
5.267999999999999
 20
12.029
 30
0.0
 11
5.001999999999999
 21
12.029
 31
0.0
  0
LINE
  5
98B
330
18
100
AcDbEntity
  8
Object
100
AcDbLine
 10
5.001999999999999
 20
11.765
 30
0.0
 11
5.267999999999999
 21
11.765
 31
0.0
  0
LINE
  5
98C
330
18
100
AcDbEntity
  8
Object
100
AcDbLine
 10
5.288999999999999
 20
11.795
 30
0.0
 11
5.286
 21
11.78
 31
0.0
  0
LINE
  5
98D
330
18
100
AcDbEntity
  8
Object
100
AcDbLine
 10
5.286
 20
11.78
 30
0.0
 11
5.278
 21
11.769
 31
0.0
  0
LINE
  5
98E
330
18
100
AcDbEntity
  8
Object
100
AcDbLine
 10
5.278
 20
11.769
 30
0.0
 11
5.267999999999999
 21
11.765
 31
0.0
  0
LINE
  5
98F
330
18
100
AcDbEntity
  8
Object
100
AcDbLine
 10
5.288999999999999
 20
11.795
 30
0.0
 11
5.288999999999999
 21
11.999
 31
0.0
  0
LINE
  5
990
330
18
100
AcDbEntity
  8
Object
100
AcDbLine
 10
5.288999999999999
 20
11.999
 30
0.0
 11
5.286
 21
12.014
 31
0.0
  0
LINE
  5
991
330
18
100
AcDbEntity
  8
Object
100
AcDbLine
 10
5.286
 20
12.014
 30
0.0
 11
5.278
 21
12.025
 31
0.0
  0
LINE
  5
992
330
18
100
AcDbEntity
  8
Object
100
AcDbLine
 10
5.278
 20
12.025
 30
0.0
 11
5.267999999999999
 21
12.029
 31
0.0
  0
LINE
  5
993
330
18
100
AcDbEntity
  8
Object
100
AcDbLine
 10
4.75
 20
11.95
 30
0.0
 11
4.725999999999999
 21
11.985
 31
0.0
  0
LINE
  5
994
330
18
100
AcDbEntity
  8
Object
100
AcDbLine
 10
4.725999999999999
 20
11.985
 30
0.0
 11
4.692
 21
12.01
 31
0.0
  0
LINE
  5
995
330
18
100
AcDbEntity
  8
Object
100
AcDbLine
 10
4.687999999999999
 20
12.01
 30
0.0
 11
4.693
 21
12.009
 31
0.0
  0
LINE
  5
996
330
18
100
AcDbEntity
  8
Object
100
AcDbLine
 10
4.650999999999999
 20
12.022
 30
0.0
 11
4.692
 21
12.01
 31
0.0
  0
LINE
  5
997
330
18
100
AcDbEntity
  8
Object
100
AcDbLine
 10
4.756
 20
11.925
 30
0.0
 11
4.756
 21
11.899
 31
0.0
  0
LINE
  5
998
330
18
100
AcDbEntity
  8
Object
100
AcDbLine
 10
4.847
 20
11.897
 30
0.0
 11
4.839999999999999
 21
11.952
 31
0.0
  0
LINE
  5
999
330
18
100
AcDbEntity
  8
Object
100
AcDbLine
 10
4.756
 20
11.899
 30
0.0
 11
4.751
 21
11.874
 31
0.0
  0
LINE
  5
99A
330
18
100
AcDbEntity
  8
Object
100
AcDbLine
 10
4.839999999999999
 20
11.843
 30
0.0
 11
4.847
 21
11.897
 31
0.0
  0
LINE
  5
99B
330
18
100
AcDbEntity
  8
Object
100
AcDbLine
 10
4.839999999999999
 20
11.952
 30
0.0
 11
4.818999999999999
 21
12.002
 31
0.0
  0
LINE
  5
99C
330
18
100
AcDbEntity
  8
Object
100
AcDbLine
 10
4.75
 20
11.95
 30
0.0
 11
4.756
 21
11.925
 31
0.0
  0
LINE
  5
99D
330
18
100
AcDbEntity
  8
Object
100
AcDbLine
 10
4.818999999999999
 20
11.792
 30
0.0
 11
4.839999999999999
 21
11.843
 31
0.0
  0
LINE
  5
99E
330
18
100
AcDbEntity
  8
Object
100
AcDbLine
 10
4.751
 20
11.874
 30
0.0
 11
4.745
 21
11.862
 31
0.0
  0
LINE
  5
99F
330
18
100
AcDbEntity
  8
Object
100
AcDbLine
 10
4.741999999999999
 20
12.079
 30
0.0
 11
4.786
 21
12.046
 31
0.0
  0
LINE
  5
9A0
330
18
100
AcDbEntity
  8
Object
100
AcDbLine
 10
4.786
 20
12.046
 30
0.0
 11
4.818999999999999
 21
12.002
 31
0.0
  0
LINE
  5
9A1
330
18
100
AcDbEntity
  8
Object
100
AcDbLine
 10
4.818999999999999
 20
11.792
 30
0.0
 11
4.786
 21
11.749
 31
0.0
  0
LINE
  5
9A2
330
18
100
AcDbEntity
  8
Object
100
AcDbLine
 10
4.786
 20
11.749
 30
0.0
 11
4.741999999999999
 21
11.715
 31
0.0
  0
LINE
  5
9A3
330
18
100
AcDbEntity
  8
Object
100
AcDbLine
 10
4.741999999999999
 20
12.079
 30
0.0
 11
4.690999999999999
 21
12.1
 31
0.0
  0
LINE
  5
9A4
330
18
100
AcDbEntity
  8
Object
100
AcDbLine
 10
4.690999999999999
 20
11.694
 30
0.0
 11
4.741999999999999
 21
11.715
 31
0.0
  0
LINE
  5
9A5
330
18
100
AcDbEntity
  8
Object
100
AcDbLine
 10
4.690999999999999
 20
12.1
 30
0.0
 11
4.637
 21
12.107
 31
0.0
  0
LINE
  5
9A6
330
18
100
AcDbEntity
  8
Object
100
AcDbLine
 10
4.637
 20
11.687
 30
0.0
 11
4.690999999999999
 21
11.694
 31
0.0
  0
LINE
  5
9A7
330
18
100
AcDbEntity
  8
Object
100
AcDbLine
 10
4.650999999999999
 20
12.022
 30
0.0
 11
4.625
 21
12.019
 31
0.0
  0
LINE
  5
9A8
330
18
100
AcDbEntity
  8
Object
100
AcDbLine
 10
4.625
 20
12.019
 30
0.0
 11
4.600999999999999
 21
12.011
 31
0.0
  0
LINE
  5
9A9
330
18
100
AcDbEntity
  8
Object
100
AcDbLine
 10
4.600999999999999
 20
12.011
 30
0.0
 11
4.592999999999999
 21
12.006
 31
0.0
  0
LINE
  5
9AA
330
18
100
AcDbEntity
  8
Object
100
AcDbLine
 10
4.455
 20
12.002
 30
0.0
 11
4.434
 21
11.952
 31
0.0
  0
LINE
  5
9AB
330
18
100
AcDbEntity
  8
Object
100
AcDbLine
 10
4.725999999999999
 20
11.984
 30
0.0
 11
4.725
 21
11.985
 31
0.0
  0
LINE
  5
9AC
330
18
100
AcDbEntity
  8
Object
100
AcDbLine
 10
4.85
 20
11.84
 30
0.0
 11
4.857
 21
11.897
 31
0.0
  0
LINE
  5
9AD
330
18
100
AcDbEntity
  8
Object
100
AcDbLine
 10
4.857
 20
11.897
 30
0.0
 11
4.85
 21
11.954
 31
0.0
  0
LINE
  5
9AE
330
18
100
AcDbEntity
  8
Object
100
AcDbLine
 10
4.828
 20
11.787
 30
0.0
 11
4.85
 21
11.84
 31
0.0
  0
LINE
  5
9AF
330
18
100
AcDbEntity
  8
Object
100
AcDbLine
 10
4.85
 20
11.954
 30
0.0
 11
4.828
 21
12.007
 31
0.0
  0
LINE
  5
9B0
330
18
100
AcDbEntity
  8
Object
100
AcDbLine
 10
4.828
 20
12.007
 30
0.0
 11
4.793
 21
12.053
 31
0.0
  0
LINE
  5
9B1
330
18
100
AcDbEntity
  8
Object
100
AcDbLine
 10
4.793
 20
11.742
 30
0.0
 11
4.828
 21
11.787
 31
0.0
  0
LINE
  5
9B2
330
18
100
AcDbEntity
  8
Object
100
AcDbLine
 10
4.793
 20
12.053
 30
0.0
 11
4.746999999999999
 21
12.088
 31
0.0
  0
LINE
  5
9B3
330
18
100
AcDbEntity
  8
Object
100
AcDbLine
 10
4.746999999999999
 20
11.707
 30
0.0
 11
4.793
 21
11.742
 31
0.0
  0
LINE
  5
9B4
330
18
100
AcDbEntity
  8
Object
100
AcDbLine
 10
4.746999999999999
 20
12.088
 30
0.0
 11
4.693999999999999
 21
12.11
 31
0.0
  0
LINE
  5
9B5
330
18
100
AcDbEntity
  8
Object
100
AcDbLine
 10
4.693999999999999
 20
11.685
 30
0.0
 11
4.746999999999999
 21
11.707
 31
0.0
  0
LINE
  5
9B6
330
18
100
AcDbEntity
  8
Object
100
AcDbLine
 10
4.693999999999999
 20
12.11
 30
0.0
 11
4.637
 21
12.117
 31
0.0
  0
LINE
  5
9B7
330
18
100
AcDbEntity
  8
Object
100
AcDbLine
 10
4.637
 20
11.677
 30
0.0
 11
4.693999999999999
 21
11.685
 31
0.0
  0
LINE
  5
9B8
330
18
100
AcDbEntity
  8
Object
100
AcDbLine
 10
4.583
 20
12.1
 30
0.0
 11
4.637
 21
12.107
 31
0.0
  0
LINE
  5
9B9
330
18
100
AcDbEntity
  8
Object
100
AcDbLine
 10
4.58
 20
12.11
 30
0.0
 11
4.637
 21
12.117
 31
0.0
  0
LINE
  5
9BA
330
18
100
AcDbEntity
  8
Object
100
AcDbLine
 10
4.637
 20
12.117
 30
0.0
 11
4.637
 21
12.107
 31
0.0
  0
LINE
  5
9BB
330
18
100
AcDbEntity
  8
Object
100
AcDbLine
 10
4.583
 20
11.694
 30
0.0
 11
4.637
 21
11.687
 31
0.0
  0
LINE
  5
9BC
330
18
100
AcDbEntity
  8
Object
100
AcDbLine
 10
4.637
 20
11.687
 30
0.0
 11
4.637
 21
11.677
 31
0.0
  0
LINE
  5
9BD
330
18
100
AcDbEntity
  8
Object
100
AcDbLine
 10
4.637
 20
11.677
 30
0.0
 11
4.58
 21
11.685
 31
0.0
  0
LINE
  5
9BE
330
18
100
AcDbEntity
  8
Object
100
AcDbLine
 10
4.58
 20
12.11
 30
0.0
 11
4.527
 21
12.088
 31
0.0
  0
LINE
  5
9BF
330
18
100
AcDbEntity
  8
Object
100
AcDbLine
 10
4.532
 20
12.079
 30
0.0
 11
4.583
 21
12.1
 31
0.0
  0
LINE
  5
9C0
330
18
100
AcDbEntity
  8
Object
100
AcDbLine
 10
4.527
 20
11.707
 30
0.0
 11
4.58
 21
11.685
 31
0.0
  0
LINE
  5
9C1
330
18
100
AcDbEntity
  8
Object
100
AcDbLine
 10
4.583
 20
11.694
 30
0.0
 11
4.532
 21
11.715
 31
0.0
  0
LINE
  5
9C2
330
18
100
AcDbEntity
  8
Object
100
AcDbLine
 10
4.488999999999999
 20
12.046
 30
0.0
 11
4.532
 21
12.079
 31
0.0
  0
LINE
  5
9C3
330
18
100
AcDbEntity
  8
Object
100
AcDbLine
 10
4.527
 20
12.088
 30
0.0
 11
4.480999999999999
 21
12.053
 31
0.0
  0
LINE
  5
9C4
330
18
100
AcDbEntity
  8
Object
100
AcDbLine
 10
4.532
 20
11.715
 30
0.0
 11
4.488999999999999
 21
11.749
 31
0.0
  0
LINE
  5
9C5
330
18
100
AcDbEntity
  8
Object
100
AcDbLine
 10
4.480999999999999
 20
11.742
 30
0.0
 11
4.527
 21
11.707
 31
0.0
  0
LINE
  5
9C6
330
18
100
AcDbEntity
  8
Object
100
AcDbLine
 10
4.480999999999999
 20
12.053
 30
0.0
 11
4.447
 21
12.007
 31
0.0
  0
LINE
  5
9C7
330
18
100
AcDbEntity
  8
Object
100
AcDbLine
 10
4.455
 20
12.002
 30
0.0
 11
4.488999999999999
 21
12.046
 31
0.0
  0
LINE
  5
9C8
330
18
100
AcDbEntity
  8
Object
100
AcDbLine
 10
4.447
 20
11.787
 30
0.0
 11
4.480999999999999
 21
11.742
 31
0.0
  0
LINE
  5
9C9
330
18
100
AcDbEntity
  8
Object
100
AcDbLine
 10
4.488999999999999
 20
11.749
 30
0.0
 11
4.455
 21
11.792
 31
0.0
  0
LINE
  5
9CA
330
18
100
AcDbEntity
  8
Object
100
AcDbLine
 10
4.447
 20
12.007
 30
0.0
 11
4.424999999999999
 21
11.954
 31
0.0
  0
LINE
  5
9CB
330
18
100
AcDbEntity
  8
Object
100
AcDbLine
 10
4.455
 20
11.792
 30
0.0
 11
4.434
 21
11.843
 31
0.0
  0
LINE
  5
9CC
330
18
100
AcDbEntity
  8
Object
100
AcDbLine
 10
4.427
 20
11.897
 30
0.0
 11
4.434
 21
11.952
 31
0.0
  0
LINE
  5
9CD
330
18
100
AcDbEntity
  8
Object
100
AcDbLine
 10
4.447
 20
11.787
 30
0.0
 11
4.424999999999999
 21
11.84
 31
0.0
  0
LINE
  5
9CE
330
18
100
AcDbEntity
  8
Object
100
AcDbLine
 10
4.424999999999999
 20
11.84
 30
0.0
 11
4.416999999999999
 21
11.897
 31
0.0
  0
LINE
  5
9CF
330
18
100
AcDbEntity
  8
Object
100
AcDbLine
 10
4.416999999999999
 20
11.897
 30
0.0
 11
4.424999999999999
 21
11.954
 31
0.0
  0
LINE
  5
9D0
330
18
100
AcDbEntity
  8
Object
100
AcDbLine
 10
4.434
 20
11.843
 30
0.0
 11
4.427
 21
11.897
 31
0.0
  0
LINE
  5
9D1
330
18
100
AcDbEntity
  8
Object
100
AcDbLine
 10
4.85
 20
11.84
 30
0.0
 11
4.857
 21
11.897
 31
0.0
  0
LINE
  5
9D2
330
18
100
AcDbEntity
  8
Object
100
AcDbLine
 10
4.857
 20
11.897
 30
0.0
 11
4.85
 21
11.954
 31
0.0
  0
LINE
  5
9D3
330
18
100
AcDbEntity
  8
Object
100
AcDbLine
 10
4.828
 20
11.787
 30
0.0
 11
4.85
 21
11.84
 31
0.0
  0
LINE
  5
9D4
330
18
100
AcDbEntity
  8
Object
100
AcDbLine
 10
4.85
 20
11.954
 30
0.0
 11
4.828
 21
12.007
 31
0.0
  0
LINE
  5
9D5
330
18
100
AcDbEntity
  8
Object
100
AcDbLine
 10
4.828
 20
12.007
 30
0.0
 11
4.793
 21
12.053
 31
0.0
  0
LINE
  5
9D6
330
18
100
AcDbEntity
  8
Object
100
AcDbLine
 10
4.828
 20
11.787
 30
0.0
 11
4.793
 21
11.742
 31
0.0
  0
LINE
  5
9D7
330
18
100
AcDbEntity
  8
Object
100
AcDbLine
 10
4.793
 20
11.742
 30
0.0
 11
4.746999999999999
 21
11.707
 31
0.0
  0
LINE
  5
9D8
330
18
100
AcDbEntity
  8
Object
100
AcDbLine
 10
4.793
 20
12.053
 30
0.0
 11
4.746999999999999
 21
12.088
 31
0.0
  0
LINE
  5
9D9
330
18
100
AcDbEntity
  8
Object
100
AcDbLine
 10
4.746999999999999
 20
12.088
 30
0.0
 11
4.693999999999999
 21
12.11
 31
0.0
  0
LINE
  5
9DA
330
18
100
AcDbEntity
  8
Object
100
AcDbLine
 10
4.693999999999999
 20
11.685
 30
0.0
 11
4.746999999999999
 21
11.707
 31
0.0
  0
LINE
  5
9DB
330
18
100
AcDbEntity
  8
Object
100
AcDbLine
 10
4.693999999999999
 20
12.11
 30
0.0
 11
4.637
 21
12.117
 31
0.0
  0
LINE
  5
9DC
330
18
100
AcDbEntity
  8
Object
100
AcDbLine
 10
4.693999999999999
 20
11.685
 30
0.0
 11
4.637
 21
11.677
 31
0.0
  0
LINE
  5
9DD
330
18
100
AcDbEntity
  8
Object
100
AcDbLine
 10
4.637
 20
11.677
 30
0.0
 11
4.58
 21
11.685
 31
0.0
  0
LINE
  5
9DE
330
18
100
AcDbEntity
  8
Object
100
AcDbLine
 10
4.637
 20
12.117
 30
0.0
 11
4.58
 21
12.11
 31
0.0
  0
LINE
  5
9DF
330
18
100
AcDbEntity
  8
Object
100
AcDbLine
 10
4.58
 20
12.11
 30
0.0
 11
4.527
 21
12.088
 31
0.0
  0
LINE
  5
9E0
330
18
100
AcDbEntity
  8
Object
100
AcDbLine
 10
4.58
 20
11.685
 30
0.0
 11
4.527
 21
11.707
 31
0.0
  0
LINE
  5
9E1
330
18
100
AcDbEntity
  8
Object
100
AcDbLine
 10
4.527
 20
11.707
 30
0.0
 11
4.480999999999999
 21
11.742
 31
0.0
  0
LINE
  5
9E2
330
18
100
AcDbEntity
  8
Object
100
AcDbLine
 10
4.527
 20
12.088
 30
0.0
 11
4.480999999999999
 21
12.053
 31
0.0
  0
LINE
  5
9E3
330
18
100
AcDbEntity
  8
Object
100
AcDbLine
 10
4.480999999999999
 20
12.053
 30
0.0
 11
4.447
 21
12.007
 31
0.0
  0
LINE
  5
9E4
330
18
100
AcDbEntity
  8
Object
100
AcDbLine
 10
4.480999999999999
 20
11.742
 30
0.0
 11
4.447
 21
11.787
 31
0.0
  0
LINE
  5
9E5
330
18
100
AcDbEntity
  8
Object
100
AcDbLine
 10
4.447
 20
11.787
 30
0.0
 11
4.424999999999999
 21
11.84
 31
0.0
  0
LINE
  5
9E6
330
18
100
AcDbEntity
  8
Object
100
AcDbLine
 10
4.447
 20
12.007
 30
0.0
 11
4.424999999999999
 21
11.954
 31
0.0
  0
LINE
  5
9E7
330
18
100
AcDbEntity
  8
Object
100
AcDbLine
 10
4.424999999999999
 20
11.954
 30
0.0
 11
4.416999999999999
 21
11.897
 31
0.0
  0
LINE
  5
9E8
330
18
100
AcDbEntity
  8
Object
100
AcDbLine
 10
4.416999999999999
 20
11.897
 30
0.0
 11
4.424999999999999
 21
11.84
 31
0.0
  0
LINE
  5
9E9
330
18
100
AcDbEntity
  8
Object
100
AcDbLine
 10
4.565
 20
11.966
 30
0.0
 11
4.58
 21
11.979
 31
0.0
  0
LINE
  5
9EA
330
18
100
AcDbEntity
  8
Object
100
AcDbLine
 10
4.557
 20
11.805
 30
0.0
 11
4.576
 21
11.788
 31
0.0
  0
LINE
  5
9EB
330
18
100
AcDbEntity
  8
Object
100
AcDbLine
 10
4.576
 20
11.788
 30
0.0
 11
4.544
 21
11.814
 31
0.0
  0
LINE
  5
9EC
330
18
100
AcDbEntity
  8
Object
100
AcDbLine
 10
4.557
 20
11.805
 30
0.0
 11
4.541999999999999
 21
11.826
 31
0.0
  0
LINE
  5
9ED
330
18
100
AcDbEntity
  8
Object
100
AcDbLine
 10
4.543
 20
11.977
 30
0.0
 11
4.533
 21
11.966
 31
0.0
  0
LINE
  5
9EE
330
18
100
AcDbEntity
  8
Object
100
AcDbLine
 10
4.525999999999999
 20
11.875
 30
0.0
 11
4.530999999999999
 21
11.849
 31
0.0
  0
LINE
  5
9EF
330
18
100
AcDbEntity
  8
Object
100
AcDbLine
 10
4.530999999999999
 20
11.849
 30
0.0
 11
4.541999999999999
 21
11.826
 31
0.0
  0
LINE
  5
9F0
330
18
100
AcDbEntity
  8
Object
100
AcDbLine
 10
4.522
 20
11.848
 30
0.0
 11
4.544
 21
11.814
 31
0.0
  0
LINE
  5
9F1
330
18
100
AcDbEntity
  8
Object
100
AcDbLine
 10
4.533
 20
11.966
 30
0.0
 11
4.516
 21
11.929
 31
0.0
  0
LINE
  5
9F2
330
18
100
AcDbEntity
  8
Object
100
AcDbLine
 10
4.527
 20
11.9
 30
0.0
 11
4.533999999999999
 21
11.925
 31
0.0
  0
LINE
  5
9F3
330
18
100
AcDbEntity
  8
Object
100
AcDbLine
 10
4.516
 20
11.929
 30
0.0
 11
4.512
 21
11.888
 31
0.0
  0
LINE
  5
9F4
330
18
100
AcDbEntity
  8
Object
100
AcDbLine
 10
4.525999999999999
 20
11.875
 30
0.0
 11
4.527
 21
11.9
 31
0.0
  0
LINE
  5
9F5
330
18
100
AcDbEntity
  8
Object
100
AcDbLine
 10
4.512
 20
11.888
 30
0.0
 11
4.522
 21
11.848
 31
0.0
  0
LINE
  5
9F6
330
18
100
AcDbEntity
  8
Object
100
AcDbLine
 10
4.748
 20
11.875
 30
0.0
 11
4.746999999999999
 21
11.9
 31
0.0
  0
LINE
  5
9F7
330
18
100
AcDbEntity
  8
Object
100
AcDbLine
 10
4.746999999999999
 20
11.9
 30
0.0
 11
4.74
 21
11.925
 31
0.0
  0
LINE
  5
9F8
330
18
100
AcDbEntity
  8
Object
100
AcDbLine
 10
4.74
 20
11.925
 30
0.0
 11
4.727
 21
11.948
 31
0.0
  0
LINE
  5
9F9
330
18
100
AcDbEntity
  8
Object
100
AcDbLine
 10
4.698
 20
11.788
 30
0.0
 11
4.717
 21
11.805
 31
0.0
  0
LINE
  5
9FA
330
18
100
AcDbEntity
  8
Object
100
AcDbLine
 10
4.709999999999999
 20
11.966
 30
0.0
 11
4.708
 21
11.968
 31
0.0
  0
LINE
  5
9FB
330
18
100
AcDbEntity
  8
Object
100
AcDbLine
 10
4.708
 20
11.968
 30
0.0
 11
4.687999999999999
 21
11.983
 31
0.0
  0
LINE
  5
9FC
330
18
100
AcDbEntity
  8
Object
100
AcDbLine
 10
4.687999999999999
 20
11.983
 30
0.0
 11
4.674999999999999
 21
11.99
 31
0.0
  0
LINE
  5
9FD
330
18
100
AcDbEntity
  8
Object
100
AcDbLine
 10
4.674999999999999
 20
11.99
 30
0.0
 11
4.663999999999999
 21
11.994
 31
0.0
  0
LINE
  5
9FE
330
18
100
AcDbEntity
  8
Object
100
AcDbLine
 10
4.663999999999999
 20
11.994
 30
0.0
 11
4.637
 21
11.997
 31
0.0
  0
LINE
  5
9FF
330
18
100
AcDbEntity
  8
Object
100
AcDbLine
 10
4.637
 20
11.772
 30
0.0
 11
4.615999999999999
 21
11.774
 31
0.0
  0
LINE
  5
A00
330
18
100
AcDbEntity
  8
Object
100
AcDbLine
 10
4.615999999999999
 20
11.774
 30
0.0
 11
4.613
 21
11.775
 31
0.0
  0
LINE
  5
A01
330
18
100
AcDbEntity
  8
Object
100
AcDbLine
 10
4.613
 20
11.775
 30
0.0
 11
4.594999999999999
 21
11.779
 31
0.0
  0
LINE
  5
A02
330
18
100
AcDbEntity
  8
Object
100
AcDbLine
 10
4.594999999999999
 20
11.779
 30
0.0
 11
4.589
 21
11.782
 31
0.0
  0
LINE
  5
A03
330
18
100
AcDbEntity
  8
Object
100
AcDbLine
 10
4.589
 20
11.782
 30
0.0
 11
4.576
 21
11.788
 31
0.0
  0
LINE
  5
A04
330
18
100
AcDbEntity
  8
Object
100
AcDbLine
 10
4.549
 20
11.809
 30
0.0
 11
4.568
 21
11.793
 31
0.0
  0
LINE
  5
A05
330
18
100
AcDbEntity
  8
Object
100
AcDbLine
 10
4.568
 20
11.793
 30
0.0
 11
4.576
 21
11.788
 31
0.0
  0
LINE
  5
A06
330
18
100
AcDbEntity
  8
Object
100
AcDbLine
 10
4.549
 20
11.809
 30
0.0
 11
4.544
 21
11.814
 31
0.0
  0
LINE
  5
A07
330
18
100
AcDbEntity
  8
Object
100
AcDbLine
 10
4.544
 20
11.814
 30
0.0
 11
4.533
 21
11.828
 31
0.0
  0
LINE
  5
A08
330
18
100
AcDbEntity
  8
Object
100
AcDbLine
 10
4.533
 20
11.828
 30
0.0
 11
4.522
 21
11.848
 31
0.0
  0
LINE
  5
A09
330
18
100
AcDbEntity
  8
Object
100
AcDbLine
 10
4.517999999999999
 20
11.935
 30
0.0
 11
4.516
 21
11.929
 31
0.0
  0
LINE
  5
A0A
330
18
100
AcDbEntity
  8
Object
100
AcDbLine
 10
4.512
 20
11.888
 30
0.0
 11
4.512999999999999
 21
11.875
 31
0.0
  0
LINE
  5
A0B
330
18
100
AcDbEntity
  8
Object
100
AcDbLine
 10
4.514
 20
11.87
 30
0.0
 11
4.522
 21
11.848
 31
0.0
  0
LINE
  5
A0C
330
18
100
AcDbEntity
  8
Object
100
AcDbLine
 10
4.512
 20
11.894
 30
0.0
 11
4.512
 21
11.888
 31
0.0
  0
LINE
  5
A0D
330
18
100
AcDbEntity
  8
Object
100
AcDbLine
 10
4.516
 20
11.929
 30
0.0
 11
4.514999999999999
 21
11.925
 31
0.0
  0
LINE
  5
A0E
330
18
100
AcDbEntity
  8
Object
100
AcDbLine
 10
4.637
 20
11.997
 30
0.0
 11
4.616999999999999
 21
11.995
 31
0.0
  0
LINE
  5
A0F
330
18
100
AcDbEntity
  8
Object
100
AcDbLine
 10
4.616999999999999
 20
11.995
 30
0.0
 11
4.637
 21
11.997
 31
0.0
  0
LINE
  5
A10
330
18
100
AcDbEntity
  8
Object
100
AcDbLine
 10
4.616999999999999
 20
11.995
 30
0.0
 11
4.61
 21
11.994
 31
0.0
  0
LINE
  5
A11
330
18
100
AcDbEntity
  8
Object
100
AcDbLine
 10
4.61
 20
11.994
 30
0.0
 11
4.597999999999999
 21
11.989
 31
0.0
  0
LINE
  5
A12
330
18
100
AcDbEntity
  8
Object
100
AcDbLine
 10
4.597999999999999
 20
11.989
 30
0.0
 11
4.586
 21
11.983
 31
0.0
  0
LINE
  5
A13
330
18
100
AcDbEntity
  8
Object
100
AcDbLine
 10
4.586
 20
11.983
 30
0.0
 11
4.58
 21
11.979
 31
0.0
  0
LINE
  5
A14
330
18
100
AcDbEntity
  8
Object
100
AcDbLine
 10
4.743
 20
11.85
 30
0.0
 11
4.748
 21
11.875
 31
0.0
  0
LINE
  5
A15
330
18
100
AcDbEntity
  8
Object
100
AcDbLine
 10
4.727
 20
11.948
 30
0.0
 11
4.709999999999999
 21
11.966
 31
0.0
  0
LINE
  5
A16
330
18
100
AcDbEntity
  8
Object
100
AcDbLine
 10
4.743
 20
11.85
 30
0.0
 11
4.733
 21
11.826
 31
0.0
  0
LINE
  5
A17
330
18
100
AcDbEntity
  8
Object
100
AcDbLine
 10
4.733
 20
11.826
 30
0.0
 11
4.717
 21
11.805
 31
0.0
  0
LINE
  5
A18
330
18
100
AcDbEntity
  8
Object
100
AcDbLine
 10
4.679
 20
11.779
 30
0.0
 11
4.658
 21
11.774
 31
0.0
  0
LINE
  5
A19
330
18
100
AcDbEntity
  8
Object
100
AcDbLine
 10
4.658
 20
11.774
 30
0.0
 11
4.637
 21
11.772
 31
0.0
  0
LINE
  5
A1A
330
18
100
AcDbEntity
  8
Object
100
AcDbLine
 10
4.637
 20
11.772
 30
0.0
 11
4.615999999999999
 21
11.774
 31
0.0
  0
LINE
  5
A1B
330
18
100
AcDbEntity
  8
Object
100
AcDbLine
 10
4.637
 20
11.997
 30
0.0
 11
4.663999999999999
 21
11.994
 31
0.0
  0
LINE
  5
A1C
330
18
100
AcDbEntity
  8
Object
100
AcDbLine
 10
4.663999999999999
 20
11.994
 30
0.0
 11
4.687999999999999
 21
11.983
 31
0.0
  0
LINE
  5
A1D
330
18
100
AcDbEntity
  8
Object
100
AcDbLine
 10
4.687999999999999
 20
11.983
 30
0.0
 11
4.709999999999999
 21
11.966
 31
0.0
  0
LINE
  5
A1E
330
18
100
AcDbEntity
  8
Object
100
AcDbLine
 10
4.637
 20
11.997
 30
0.0
 11
4.61
 21
11.994
 31
0.0
  0
LINE
  5
A1F
330
18
100
AcDbEntity
  8
Object
100
AcDbLine
 10
4.61
 20
11.994
 30
0.0
 11
4.586
 21
11.983
 31
0.0
  0
LINE
  5
A20
330
18
100
AcDbEntity
  8
Object
100
AcDbLine
 10
4.615999999999999
 20
11.774
 30
0.0
 11
4.594999999999999
 21
11.779
 31
0.0
  0
LINE
  5
A21
330
18
100
AcDbEntity
  8
Object
100
AcDbLine
 10
4.594999999999999
 20
11.779
 30
0.0
 11
4.576
 21
11.788
 31
0.0
  0
LINE
  5
A22
330
18
100
AcDbEntity
  8
Object
100
AcDbLine
 10
4.586
 20
11.983
 30
0.0
 11
4.565
 21
11.966
 31
0.0
  0
LINE
  5
A23
330
18
100
AcDbEntity
  8
Object
100
AcDbLine
 10
4.533999999999999
 20
11.925
 30
0.0
 11
4.546999999999999
 21
11.948
 31
0.0
  0
LINE
  5
A24
330
18
100
AcDbEntity
  8
Object
100
AcDbLine
 10
4.546999999999999
 20
11.948
 30
0.0
 11
4.565
 21
11.966
 31
0.0
  0
LINE
  5
A25
330
18
100
AcDbEntity
  8
Object
100
AcDbLine
 10
4.698
 20
11.788
 30
0.0
 11
4.679
 21
11.779
 31
0.0
  0
LINE
  5
A26
330
18
100
AcDbEntity
  8
Object
100
AcDbLine
 10
4.679
 20
11.779
 30
0.0
 11
4.669
 21
11.776
 31
0.0
  0
LINE
  5
A27
330
18
100
AcDbEntity
  8
Object
100
AcDbLine
 10
4.669
 20
11.776
 30
0.0
 11
4.658
 21
11.774
 31
0.0
  0
LINE
  5
A28
330
18
100
AcDbEntity
  8
Object
100
AcDbLine
 10
4.658
 20
11.774
 30
0.0
 11
4.637
 21
11.772
 31
0.0
  0
LINE
  5
A29
330
18
100
AcDbEntity
  8
Object
100
AcDbLine
 10
11.451
 20
12.119
 30
0.0
 11
11.401
 21
12.119
 31
0.0
  0
LINE
  5
A2A
330
18
100
AcDbEntity
  8
Object
100
AcDbLine
 10
11.401
 20
12.119
 30
0.0
 11
11.394
 21
12.119
 31
0.0
  0
LINE
  5
A2B
330
18
100
AcDbEntity
  8
Object
100
AcDbLine
 10
11.394
 20
12.119
 30
0.0
 11
11.389
 21
12.119
 31
0.0
  0
LINE
  5
A2C
330
18
100
AcDbEntity
  8
Object
100
AcDbLine
 10
11.389
 20
12.119
 30
0.0
 11
11.386
 21
12.119
 31
0.0
  0
LINE
  5
A2D
330
18
100
AcDbEntity
  8
Object
100
AcDbLine
 10
11.386
 20
12.119
 30
0.0
 11
11.379
 21
12.119
 31
0.0
  0
LINE
  5
A2E
330
18
100
AcDbEntity
  8
Object
100
AcDbLine
 10
11.379
 20
12.119
 30
0.0
 11
11.362
 21
12.119
 31
0.0
  0
LINE
  5
A2F
330
18
100
AcDbEntity
  8
Object
100
AcDbLine
 10
11.362
 20
12.119
 30
0.0
 11
11.336
 21
12.119
 31
0.0
  0
LINE
  5
A30
330
18
100
AcDbEntity
  8
Object
100
AcDbLine
 10
11.336
 20
12.119
 30
0.0
 11
11.306
 21
12.119
 31
0.0
  0
LINE
  5
A31
330
18
100
AcDbEntity
  8
Object
100
AcDbLine
 10
11.306
 20
12.119
 30
0.0
 11
11.142
 21
12.119
 31
0.0
  0
LINE
  5
A32
330
18
100
AcDbEntity
  8
Object
100
AcDbLine
 10
11.142
 20
12.119
 30
0.0
 11
11.134
 21
12.119
 31
0.0
  0
LINE
  5
A33
330
18
100
AcDbEntity
  8
Object
100
AcDbLine
 10
11.908
 20
12.522
 30
0.0
 11
11.401
 21
12.522
 31
0.0
  0
LINE
  5
A34
330
18
100
AcDbEntity
  8
Object
100
AcDbLine
 10
11.401
 20
12.522
 30
0.0
 11
11.394
 21
12.522
 31
0.0
  0
LINE
  5
A35
330
18
100
AcDbEntity
  8
Object
100
AcDbLine
 10
11.394
 20
12.522
 30
0.0
 11
11.389
 21
12.522
 31
0.0
  0
LINE
  5
A36
330
18
100
AcDbEntity
  8
Object
100
AcDbLine
 10
11.389
 20
12.522
 30
0.0
 11
11.386
 21
12.522
 31
0.0
  0
LINE
  5
A37
330
18
100
AcDbEntity
  8
Object
100
AcDbLine
 10
11.386
 20
12.522
 30
0.0
 11
11.379
 21
12.522
 31
0.0
  0
LINE
  5
A38
330
18
100
AcDbEntity
  8
Object
100
AcDbLine
 10
11.379
 20
12.522
 30
0.0
 11
11.362
 21
12.522
 31
0.0
  0
LINE
  5
A39
330
18
100
AcDbEntity
  8
Object
100
AcDbLine
 10
11.362
 20
12.522
 30
0.0
 11
11.336
 21
12.522
 31
0.0
  0
LINE
  5
A3A
330
18
100
AcDbEntity
  8
Object
100
AcDbLine
 10
11.336
 20
12.522
 30
0.0
 11
11.306
 21
12.522
 31
0.0
  0
LINE
  5
A3B
330
18
100
AcDbEntity
  8
Object
100
AcDbLine
 10
11.306
 20
12.522
 30
0.0
 11
11.142
 21
12.522
 31
0.0
  0
LINE
  5
A3C
330
18
100
AcDbEntity
  8
Object
100
AcDbLine
 10
11.142
 20
12.522
 30
0.0
 11
11.134
 21
12.522
 31
0.0
  0
LINE
  5
A3D
330
18
100
AcDbEntity
  8
Object
100
AcDbLine
 10
11.134
 20
12.522
 30
0.0
 11
11.114
 21
12.517
 31
0.0
  0
LINE
  5
A3E
330
18
100
AcDbEntity
  8
Object
100
AcDbLine
 10
11.114
 20
12.517
 30
0.0
 11
11.099
 21
12.502
 31
0.0
  0
LINE
  5
A3F
330
18
100
AcDbEntity
  8
Object
100
AcDbLine
 10
11.099
 20
12.502
 30
0.0
 11
11.094
 21
12.482
 31
0.0
  0
LINE
  5
A40
330
18
100
AcDbEntity
  8
Object
100
AcDbLine
 10
11.114
 20
12.125
 30
0.0
 11
11.134
 21
12.119
 31
0.0
  0
LINE
  5
A41
330
18
100
AcDbEntity
  8
Object
100
AcDbLine
 10
11.094
 20
12.159
 30
0.0
 11
11.099
 21
12.139
 31
0.0
  0
LINE
  5
A42
330
18
100
AcDbEntity
  8
Object
100
AcDbLine
 10
11.099
 20
12.139
 30
0.0
 11
11.114
 21
12.125
 31
0.0
  0
LINE
  5
A43
330
18
100
AcDbEntity
  8
Object
100
AcDbLine
 10
11.094
 20
12.482
 30
0.0
 11
11.094
 21
12.159
 31
0.0
  0
LINE
  5
A44
330
18
100
AcDbEntity
  8
Object
100
AcDbLine
 10
12.01
 20
12.471
 30
0.0
 11
12.027
 21
12.436
 31
0.0
  0
LINE
  5
A45
330
18
100
AcDbEntity
  8
Object
100
AcDbLine
 10
12.027
 20
12.436
 30
0.0
 11
12.033
 21
12.397
 31
0.0
  0
LINE
  5
A46
330
18
100
AcDbEntity
  8
Object
100
AcDbLine
 10
12.033
 20
11.397
 30
0.0
 11
12.027
 21
11.359
 31
0.0
  0
LINE
  5
A47
330
18
100
AcDbEntity
  8
Object
100
AcDbLine
 10
12.027
 20
11.359
 30
0.0
 11
12.01
 21
11.324
 31
0.0
  0
LINE
  5
A48
330
18
100
AcDbEntity
  8
Object
100
AcDbLine
 10
12.01
 20
12.471
 30
0.0
 11
11.982
 21
12.498
 31
0.0
  0
LINE
  5
A49
330
18
100
AcDbEntity
  8
Object
100
AcDbLine
 10
11.982
 20
11.296
 30
0.0
 11
12.01
 21
11.324
 31
0.0
  0
LINE
  5
A4A
330
18
100
AcDbEntity
  8
Object
100
AcDbLine
 10
11.982
 20
12.498
 30
0.0
 11
11.947
 21
12.516
 31
0.0
  0
LINE
  5
A4B
330
18
100
AcDbEntity
  8
Object
100
AcDbLine
 10
11.947
 20
11.278
 30
0.0
 11
11.982
 21
11.296
 31
0.0
  0
LINE
  5
A4C
330
18
100
AcDbEntity
  8
Object
100
AcDbLine
 10
11.947
 20
12.516
 30
0.0
 11
11.908
 21
12.522
 31
0.0
  0
LINE
  5
A4D
330
18
100
AcDbEntity
  8
Object
100
AcDbLine
 10
11.908
 20
11.272
 30
0.0
 11
11.947
 21
11.278
 31
0.0
  0
LINE
  5
A4E
330
18
100
AcDbEntity
  8
Object
100
AcDbLine
 10
12.033
 20
11.397
 30
0.0
 11
12.033
 21
12.397
 31
0.0
  0
LINE
  5
A4F
330
18
100
AcDbEntity
  8
Object
100
AcDbLine
 10
11.49
 20
12.052
 30
0.0
 11
11.496
 21
12.074
 31
0.0
  0
LINE
  5
A50
330
18
100
AcDbEntity
  8
Object
100
AcDbLine
 10
11.496
 20
12.074
 30
0.0
 11
11.49
 21
12.097
 31
0.0
  0
LINE
  5
A51
330
18
100
AcDbEntity
  8
Object
100
AcDbLine
 10
11.49
 20
11.743
 30
0.0
 11
11.496
 21
11.72
 31
0.0
  0
LINE
  5
A52
330
18
100
AcDbEntity
  8
Object
100
AcDbLine
 10
11.496
 20
11.72
 30
0.0
 11
11.49
 21
11.698
 31
0.0
  0
LINE
  5
A53
330
18
100
AcDbEntity
  8
Object
100
AcDbLine
 10
11.49
 20
12.052
 30
0.0
 11
11.474
 21
12.035
 31
0.0
  0
LINE
  5
A54
330
18
100
AcDbEntity
  8
Object
100
AcDbLine
 10
11.474
 20
12.113
 30
0.0
 11
11.49
 21
12.097
 31
0.0
  0
LINE
  5
A55
330
18
100
AcDbEntity
  8
Object
100
AcDbLine
 10
11.474
 20
11.759
 30
0.0
 11
11.49
 21
11.743
 31
0.0
  0
LINE
  5
A56
330
18
100
AcDbEntity
  8
Object
100
AcDbLine
 10
11.49
 20
11.698
 30
0.0
 11
11.474
 21
11.681
 31
0.0
  0
LINE
  5
A57
330
18
100
AcDbEntity
  8
Object
100
AcDbLine
 10
11.474
 20
12.035
 30
0.0
 11
11.451
 21
12.029
 31
0.0
  0
LINE
  5
A58
330
18
100
AcDbEntity
  8
Object
100
AcDbLine
 10
11.451
 20
11.765
 30
0.0
 11
11.474
 21
11.759
 31
0.0
  0
LINE
  5
A59
330
18
100
AcDbEntity
  8
Object
100
AcDbLine
 10
11.451
 20
12.029
 30
0.0
 11
11.431
 21
12.029
 31
0.0
  0
LINE
  5
A5A
330
18
100
AcDbEntity
  8
Object
100
AcDbLine
 10
11.431
 20
11.765
 30
0.0
 11
11.451
 21
11.765
 31
0.0
  0
LINE
  5
A5B
330
18
100
AcDbEntity
  8
Object
100
AcDbLine
 10
11.474
 20
12.113
 30
0.0
 11
11.451
 21
12.119
 31
0.0
  0
LINE
  5
A5C
330
18
100
AcDbEntity
  8
Object
100
AcDbLine
 10
11.451
 20
12.119
 30
0.0
 11
11.401
 21
12.119
 31
0.0
  0
LINE
  5
A5D
330
18
100
AcDbEntity
  8
Object
100
AcDbLine
 10
11.908
 20
12.522
 30
0.0
 11
11.401
 21
12.522
 31
0.0
  0
LINE
  5
A5E
330
18
100
AcDbEntity
  8
Object
100
AcDbLine
 10
11.401
 20
11.675
 30
0.0
 11
11.451
 21
11.675
 31
0.0
  0
LINE
  5
A5F
330
18
100
AcDbEntity
  8
Object
100
AcDbLine
 10
11.451
 20
11.675
 30
0.0
 11
11.474
 21
11.681
 31
0.0
  0
LINE
  5
A60
330
18
100
AcDbEntity
  8
Object
100
AcDbLine
 10
11.401
 20
11.272
 30
0.0
 11
11.908
 21
11.272
 31
0.0
  0
LINE
  5
A61
330
18
100
AcDbEntity
  8
Object
100
AcDbLine
 10
11.379
 20
12.119
 30
0.0
 11
11.386
 21
12.119
 31
0.0
  0
LINE
  5
A62
330
18
100
AcDbEntity
  8
Object
100
AcDbLine
 10
11.379
 20
12.522
 30
0.0
 11
11.386
 21
12.522
 31
0.0
  0
LINE
  5
A63
330
18
100
AcDbEntity
  8
Object
100
AcDbLine
 10
11.386
 20
12.522
 30
0.0
 11
11.386
 21
12.119
 31
0.0
  0
LINE
  5
A64
330
18
100
AcDbEntity
  8
Object
100
AcDbLine
 10
11.379
 20
12.522
 30
0.0
 11
11.362
 21
12.522
 31
0.0
  0
LINE
  5
A65
330
18
100
AcDbEntity
  8
Object
100
AcDbLine
 10
11.379
 20
12.119
 30
0.0
 11
11.362
 21
12.119
 31
0.0
  0
LINE
  5
A66
330
18
100
AcDbEntity
  8
Object
100
AcDbLine
 10
11.362
 20
12.119
 30
0.0
 11
11.336
 21
12.119
 31
0.0
  0
LINE
  5
A67
330
18
100
AcDbEntity
  8
Object
100
AcDbLine
 10
11.362
 20
12.522
 30
0.0
 11
11.336
 21
12.522
 31
0.0
  0
LINE
  5
A68
330
18
100
AcDbEntity
  8
Object
100
AcDbLine
 10
11.336
 20
12.522
 30
0.0
 11
11.306
 21
12.522
 31
0.0
  0
LINE
  5
A69
330
18
100
AcDbEntity
  8
Object
100
AcDbLine
 10
11.306
 20
12.119
 30
0.0
 11
11.336
 21
12.119
 31
0.0
  0
LINE
  5
A6A
330
18
100
AcDbEntity
  8
Object
100
AcDbLine
 10
11.134
 20
12.119
 30
0.0
 11
11.142
 21
12.119
 31
0.0
  0
LINE
  5
A6B
330
18
100
AcDbEntity
  8
Object
100
AcDbLine
 10
11.107
 20
12.139
 30
0.0
 11
11.102
 21
12.159
 31
0.0
  0
LINE
  5
A6C
330
18
100
AcDbEntity
  8
Object
100
AcDbLine
 10
11.102
 20
12.159
 30
0.0
 11
11.094
 21
12.159
 31
0.0
  0
LINE
  5
A6D
330
18
100
AcDbEntity
  8
Object
100
AcDbLine
 10
11.49
 20
12.052
 30
0.0
 11
11.496
 21
12.074
 31
0.0
  0
LINE
  5
A6E
330
18
100
AcDbEntity
  8
Object
100
AcDbLine
 10
11.496
 20
12.074
 30
0.0
 11
11.49
 21
12.097
 31
0.0
  0
LINE
  5
A6F
330
18
100
AcDbEntity
  8
Object
100
AcDbLine
 10
11.49
 20
12.097
 30
0.0
 11
11.474
 21
12.113
 31
0.0
  0
LINE
  5
A70
330
18
100
AcDbEntity
  8
Object
100
AcDbLine
 10
11.49
 20
12.052
 30
0.0
 11
11.474
 21
12.035
 31
0.0
  0
LINE
  5
A71
330
18
100
AcDbEntity
  8
Object
100
AcDbLine
 10
11.474
 20
12.035
 30
0.0
 11
11.451
 21
12.029
 31
0.0
  0
LINE
  5
A72
330
18
100
AcDbEntity
  8
Object
100
AcDbLine
 10
11.451
 20
12.119
 30
0.0
 11
11.474
 21
12.113
 31
0.0
  0
LINE
  5
A73
330
18
100
AcDbEntity
  8
Object
100
AcDbLine
 10
11.394
 20
12.522
 30
0.0
 11
11.401
 21
12.522
 31
0.0
  0
LINE
  5
A74
330
18
100
AcDbEntity
  8
Object
100
AcDbLine
 10
11.401
 20
12.522
 30
0.0
 11
11.401
 21
12.119
 31
0.0
  0
LINE
  5
A75
330
18
100
AcDbEntity
  8
Object
100
AcDbLine
 10
11.401
 20
12.119
 30
0.0
 11
11.394
 21
12.119
 31
0.0
  0
LINE
  5
A76
330
18
100
AcDbEntity
  8
Object
100
AcDbLine
 10
11.394
 20
12.119
 30
0.0
 11
11.389
 21
12.119
 31
0.0
  0
LINE
  5
A77
330
18
100
AcDbEntity
  8
Object
100
AcDbLine
 10
11.394
 20
12.522
 30
0.0
 11
11.389
 21
12.522
 31
0.0
  0
LINE
  5
A78
330
18
100
AcDbEntity
  8
Object
100
AcDbLine
 10
11.389
 20
12.522
 30
0.0
 11
11.386
 21
12.522
 31
0.0
  0
LINE
  5
A79
330
18
100
AcDbEntity
  8
Object
100
AcDbLine
 10
11.386
 20
12.119
 30
0.0
 11
11.389
 21
12.119
 31
0.0
  0
LINE
  5
A7A
330
18
100
AcDbEntity
  8
Object
100
AcDbLine
 10
11.107
 20
12.502
 30
0.0
 11
11.122
 21
12.517
 31
0.0
  0
LINE
  5
A7B
330
18
100
AcDbEntity
  8
Object
100
AcDbLine
 10
11.122
 20
12.517
 30
0.0
 11
11.142
 21
12.522
 31
0.0
  0
LINE
  5
A7C
330
18
100
AcDbEntity
  8
Object
100
AcDbLine
 10
11.142
 20
12.522
 30
0.0
 11
11.306
 21
12.522
 31
0.0
  0
LINE
  5
A7D
330
18
100
AcDbEntity
  8
Object
100
AcDbLine
 10
11.306
 20
12.522
 30
0.0
 11
11.306
 21
12.119
 31
0.0
  0
LINE
  5
A7E
330
18
100
AcDbEntity
  8
Object
100
AcDbLine
 10
11.306
 20
12.119
 30
0.0
 11
11.142
 21
12.119
 31
0.0
  0
LINE
  5
A7F
330
18
100
AcDbEntity
  8
Object
100
AcDbLine
 10
11.142
 20
12.119
 30
0.0
 11
11.122
 21
12.125
 31
0.0
  0
LINE
  5
A80
330
18
100
AcDbEntity
  8
Object
100
AcDbLine
 10
11.122
 20
12.125
 30
0.0
 11
11.107
 21
12.139
 31
0.0
  0
LINE
  5
A81
330
18
100
AcDbEntity
  8
Object
100
AcDbLine
 10
12.033
 20
12.397
 30
0.0
 11
12.027
 21
12.436
 31
0.0
  0
LINE
  5
A82
330
18
100
AcDbEntity
  8
Object
100
AcDbLine
 10
12.027
 20
12.436
 30
0.0
 11
12.01
 21
12.471
 31
0.0
  0
LINE
  5
A83
330
18
100
AcDbEntity
  8
Object
100
AcDbLine
 10
12.01
 20
12.471
 30
0.0
 11
11.982
 21
12.498
 31
0.0
  0
LINE
  5
A84
330
18
100
AcDbEntity
  8
Object
100
AcDbLine
 10
11.982
 20
12.498
 30
0.0
 11
11.947
 21
12.516
 31
0.0
  0
LINE
  5
A85
330
18
100
AcDbEntity
  8
Object
100
AcDbLine
 10
11.947
 20
12.516
 30
0.0
 11
11.908
 21
12.522
 31
0.0
  0
LINE
  5
A86
330
18
100
AcDbEntity
  8
Object
100
AcDbLine
 10
11.142
 20
12.522
 30
0.0
 11
11.134
 21
12.522
 31
0.0
  0
LINE
  5
A87
330
18
100
AcDbEntity
  8
Object
100
AcDbLine
 10
11.107
 20
12.502
 30
0.0
 11
11.102
 21
12.482
 31
0.0
  0
LINE
  5
A88
330
18
100
AcDbEntity
  8
Object
100
AcDbLine
 10
11.102
 20
12.482
 30
0.0
 11
11.094
 21
12.482
 31
0.0
  0
LINE
  5
A89
330
18
100
AcDbEntity
  8
Object
100
AcDbLine
 10
11.102
 20
12.159
 30
0.0
 11
11.102
 21
12.482
 31
0.0
  0
LINE
  5
A8A
330
18
100
AcDbEntity
  8
Object
100
AcDbLine
 10
12.033
 20
11.397
 30
0.0
 11
12.033
 21
12.397
 31
0.0
  0
LINE
  5
A8B
330
18
100
AcDbEntity
  8
Object
100
AcDbLine
 10
11.431
 20
11.765
 30
0.0
 11
11.451
 21
11.765
 31
0.0
  0
LINE
  5
A8C
330
18
100
AcDbEntity
  8
Object
100
AcDbLine
 10
12.033
 20
11.397
 30
0.0
 11
12.027
 21
11.359
 31
0.0
  0
LINE
  5
A8D
330
18
100
AcDbEntity
  8
Object
100
AcDbLine
 10
12.027
 20
11.359
 30
0.0
 11
12.01
 21
11.324
 31
0.0
  0
LINE
  5
A8E
330
18
100
AcDbEntity
  8
Object
100
AcDbLine
 10
12.01
 20
11.324
 30
0.0
 11
11.982
 21
11.296
 31
0.0
  0
LINE
  5
A8F
330
18
100
AcDbEntity
  8
Object
100
AcDbLine
 10
11.982
 20
11.296
 30
0.0
 11
11.947
 21
11.278
 31
0.0
  0
LINE
  5
A90
330
18
100
AcDbEntity
  8
Object
100
AcDbLine
 10
11.947
 20
11.278
 30
0.0
 11
11.908
 21
11.272
 31
0.0
  0
LINE
  5
A91
330
18
100
AcDbEntity
  8
Object
100
AcDbLine
 10
11.394
 20
11.675
 30
0.0
 11
11.401
 21
11.675
 31
0.0
  0
LINE
  5
A92
330
18
100
AcDbEntity
  8
Object
100
AcDbLine
 10
11.401
 20
11.675
 30
0.0
 11
11.401
 21
11.272
 31
0.0
  0
LINE
  5
A93
330
18
100
AcDbEntity
  8
Object
100
AcDbLine
 10
11.401
 20
11.272
 30
0.0
 11
11.394
 21
11.272
 31
0.0
  0
LINE
  5
A94
330
18
100
AcDbEntity
  8
Object
100
AcDbLine
 10
11.394
 20
11.675
 30
0.0
 11
11.389
 21
11.675
 31
0.0
  0
LINE
  5
A95
330
18
100
AcDbEntity
  8
Object
100
AcDbLine
 10
11.394
 20
11.272
 30
0.0
 11
11.389
 21
11.272
 31
0.0
  0
LINE
  5
A96
330
18
100
AcDbEntity
  8
Object
100
AcDbLine
 10
11.389
 20
11.272
 30
0.0
 11
11.386
 21
11.272
 31
0.0
  0
LINE
  5
A97
330
18
100
AcDbEntity
  8
Object
100
AcDbLine
 10
11.389
 20
11.675
 30
0.0
 11
11.386
 21
11.675
 31
0.0
  0
LINE
  5
A98
330
18
100
AcDbEntity
  8
Object
100
AcDbLine
 10
11.908
 20
11.272
 30
0.0
 11
11.401
 21
11.272
 31
0.0
  0
LINE
  5
A99
330
18
100
AcDbEntity
  8
Object
100
AcDbLine
 10
11.401
 20
11.272
 30
0.0
 11
11.394
 21
11.272
 31
0.0
  0
LINE
  5
A9A
330
18
100
AcDbEntity
  8
Object
100
AcDbLine
 10
11.394
 20
11.272
 30
0.0
 11
11.389
 21
11.272
 31
0.0
  0
LINE
  5
A9B
330
18
100
AcDbEntity
  8
Object
100
AcDbLine
 10
11.389
 20
11.272
 30
0.0
 11
11.386
 21
11.272
 31
0.0
  0
LINE
  5
A9C
330
18
100
AcDbEntity
  8
Object
100
AcDbLine
 10
11.386
 20
11.272
 30
0.0
 11
11.379
 21
11.272
 31
0.0
  0
LINE
  5
A9D
330
18
100
AcDbEntity
  8
Object
100
AcDbLine
 10
11.379
 20
11.272
 30
0.0
 11
11.362
 21
11.272
 31
0.0
  0
LINE
  5
A9E
330
18
100
AcDbEntity
  8
Object
100
AcDbLine
 10
11.362
 20
11.272
 30
0.0
 11
11.336
 21
11.272
 31
0.0
  0
LINE
  5
A9F
330
18
100
AcDbEntity
  8
Object
100
AcDbLine
 10
11.336
 20
11.272
 30
0.0
 11
11.306
 21
11.272
 31
0.0
  0
LINE
  5
AA0
330
18
100
AcDbEntity
  8
Object
100
AcDbLine
 10
11.306
 20
11.272
 30
0.0
 11
11.142
 21
11.272
 31
0.0
  0
LINE
  5
AA1
330
18
100
AcDbEntity
  8
Object
100
AcDbLine
 10
11.142
 20
11.272
 30
0.0
 11
11.134
 21
11.272
 31
0.0
  0
LINE
  5
AA2
330
18
100
AcDbEntity
  8
Object
100
AcDbLine
 10
11.451
 20
11.675
 30
0.0
 11
11.401
 21
11.675
 31
0.0
  0
LINE
  5
AA3
330
18
100
AcDbEntity
  8
Object
100
AcDbLine
 10
11.401
 20
11.675
 30
0.0
 11
11.394
 21
11.675
 31
0.0
  0
LINE
  5
AA4
330
18
100
AcDbEntity
  8
Object
100
AcDbLine
 10
11.394
 20
11.675
 30
0.0
 11
11.389
 21
11.675
 31
0.0
  0
LINE
  5
AA5
330
18
100
AcDbEntity
  8
Object
100
AcDbLine
 10
11.389
 20
11.675
 30
0.0
 11
11.386
 21
11.675
 31
0.0
  0
LINE
  5
AA6
330
18
100
AcDbEntity
  8
Object
100
AcDbLine
 10
11.386
 20
11.675
 30
0.0
 11
11.379
 21
11.675
 31
0.0
  0
LINE
  5
AA7
330
18
100
AcDbEntity
  8
Object
100
AcDbLine
 10
11.379
 20
11.675
 30
0.0
 11
11.362
 21
11.675
 31
0.0
  0
LINE
  5
AA8
330
18
100
AcDbEntity
  8
Object
100
AcDbLine
 10
11.362
 20
11.675
 30
0.0
 11
11.336
 21
11.675
 31
0.0
  0
LINE
  5
AA9
330
18
100
AcDbEntity
  8
Object
100
AcDbLine
 10
11.336
 20
11.675
 30
0.0
 11
11.306
 21
11.675
 31
0.0
  0
LINE
  5
AAA
330
18
100
AcDbEntity
  8
Object
100
AcDbLine
 10
11.306
 20
11.675
 30
0.0
 11
11.142
 21
11.675
 31
0.0
  0
LINE
  5
AAB
330
18
100
AcDbEntity
  8
Object
100
AcDbLine
 10
11.142
 20
11.675
 30
0.0
 11
11.134
 21
11.675
 31
0.0
  0
LINE
  5
AAC
330
18
100
AcDbEntity
  8
Object
100
AcDbLine
 10
11.49
 20
11.743
 30
0.0
 11
11.496
 21
11.72
 31
0.0
  0
LINE
  5
AAD
330
18
100
AcDbEntity
  8
Object
100
AcDbLine
 10
11.496
 20
11.72
 30
0.0
 11
11.49
 21
11.698
 31
0.0
  0
LINE
  5
AAE
330
18
100
AcDbEntity
  8
Object
100
AcDbLine
 10
11.474
 20
11.759
 30
0.0
 11
11.49
 21
11.743
 31
0.0
  0
LINE
  5
AAF
330
18
100
AcDbEntity
  8
Object
100
AcDbLine
 10
11.49
 20
11.698
 30
0.0
 11
11.474
 21
11.681
 31
0.0
  0
LINE
  5
AB0
330
18
100
AcDbEntity
  8
Object
100
AcDbLine
 10
11.474
 20
11.681
 30
0.0
 11
11.451
 21
11.675
 31
0.0
  0
LINE
  5
AB1
330
18
100
AcDbEntity
  8
Object
100
AcDbLine
 10
11.451
 20
11.765
 30
0.0
 11
11.474
 21
11.759
 31
0.0
  0
LINE
  5
AB2
330
18
100
AcDbEntity
  8
Object
100
AcDbLine
 10
11.451
 20
12.029
 30
0.0
 11
11.431
 21
12.029
 31
0.0
  0
LINE
  5
AB3
330
18
100
AcDbEntity
  8
Object
100
AcDbLine
 10
11.431
 20
12.029
 30
0.0
 11
11.408
 21
12.029
 31
0.0
  0
LINE
  5
AB4
330
18
100
AcDbEntity
  8
Object
100
AcDbLine
 10
11.431
 20
12.029
 30
0.0
 11
11.431
 21
11.765
 31
0.0
  0
LINE
  5
AB5
330
18
100
AcDbEntity
  8
Object
100
AcDbLine
 10
11.431
 20
11.765
 30
0.0
 11
11.408
 21
11.765
 31
0.0
  0
LINE
  5
AB6
330
18
100
AcDbEntity
  8
Object
100
AcDbLine
 10
11.408
 20
12.029
 30
0.0
 11
11.386
 21
12.029
 31
0.0
  0
LINE
  5
AB7
330
18
100
AcDbEntity
  8
Object
100
AcDbLine
 10
11.408
 20
11.765
 30
0.0
 11
11.386
 21
11.765
 31
0.0
  0
LINE
  5
AB8
330
18
100
AcDbEntity
  8
Object
100
AcDbLine
 10
11.386
 20
11.765
 30
0.0
 11
11.368
 21
11.765
 31
0.0
  0
LINE
  5
AB9
330
18
100
AcDbEntity
  8
Object
100
AcDbLine
 10
11.386
 20
12.029
 30
0.0
 11
11.368
 21
12.029
 31
0.0
  0
LINE
  5
ABA
330
18
100
AcDbEntity
  8
Object
100
AcDbLine
 10
11.431
 20
11.765
 30
0.0
 11
11.408
 21
11.765
 31
0.0
  0
LINE
  5
ABB
330
18
100
AcDbEntity
  8
Object
100
AcDbLine
 10
11.408
 20
11.765
 30
0.0
 11
11.386
 21
11.765
 31
0.0
  0
LINE
  5
ABC
330
18
100
AcDbEntity
  8
Object
100
AcDbLine
 10
11.386
 20
11.765
 30
0.0
 11
11.368
 21
11.765
 31
0.0
  0
LINE
  5
ABD
330
18
100
AcDbEntity
  8
Object
100
AcDbLine
 10
11.379
 20
11.272
 30
0.0
 11
11.386
 21
11.272
 31
0.0
  0
LINE
  5
ABE
330
18
100
AcDbEntity
  8
Object
100
AcDbLine
 10
11.379
 20
11.675
 30
0.0
 11
11.386
 21
11.675
 31
0.0
  0
LINE
  5
ABF
330
18
100
AcDbEntity
  8
Object
100
AcDbLine
 10
11.386
 20
11.675
 30
0.0
 11
11.386
 21
11.272
 31
0.0
  0
LINE
  5
AC0
330
18
100
AcDbEntity
  8
Object
100
AcDbLine
 10
11.379
 20
11.675
 30
0.0
 11
11.362
 21
11.675
 31
0.0
  0
LINE
  5
AC1
330
18
100
AcDbEntity
  8
Object
100
AcDbLine
 10
11.379
 20
11.272
 30
0.0
 11
11.362
 21
11.272
 31
0.0
  0
LINE
  5
AC2
330
18
100
AcDbEntity
  8
Object
100
AcDbLine
 10
11.362
 20
11.272
 30
0.0
 11
11.336
 21
11.272
 31
0.0
  0
LINE
  5
AC3
330
18
100
AcDbEntity
  8
Object
100
AcDbLine
 10
11.362
 20
11.675
 30
0.0
 11
11.336
 21
11.675
 31
0.0
  0
LINE
  5
AC4
330
18
100
AcDbEntity
  8
Object
100
AcDbLine
 10
11.336
 20
11.675
 30
0.0
 11
11.306
 21
11.675
 31
0.0
  0
LINE
  5
AC5
330
18
100
AcDbEntity
  8
Object
100
AcDbLine
 10
11.306
 20
11.272
 30
0.0
 11
11.336
 21
11.272
 31
0.0
  0
LINE
  5
AC6
330
18
100
AcDbEntity
  8
Object
100
AcDbLine
 10
11.107
 20
11.655
 30
0.0
 11
11.122
 21
11.67
 31
0.0
  0
LINE
  5
AC7
330
18
100
AcDbEntity
  8
Object
100
AcDbLine
 10
11.122
 20
11.67
 30
0.0
 11
11.142
 21
11.675
 31
0.0
  0
LINE
  5
AC8
330
18
100
AcDbEntity
  8
Object
100
AcDbLine
 10
11.142
 20
11.675
 30
0.0
 11
11.306
 21
11.675
 31
0.0
  0
LINE
  5
AC9
330
18
100
AcDbEntity
  8
Object
100
AcDbLine
 10
11.306
 20
11.675
 30
0.0
 11
11.306
 21
11.272
 31
0.0
  0
LINE
  5
ACA
330
18
100
AcDbEntity
  8
Object
100
AcDbLine
 10
11.306
 20
11.272
 30
0.0
 11
11.142
 21
11.272
 31
0.0
  0
LINE
  5
ACB
330
18
100
AcDbEntity
  8
Object
100
AcDbLine
 10
11.142
 20
11.272
 30
0.0
 11
11.122
 21
11.278
 31
0.0
  0
LINE
  5
ACC
330
18
100
AcDbEntity
  8
Object
100
AcDbLine
 10
11.122
 20
11.278
 30
0.0
 11
11.107
 21
11.292
 31
0.0
  0
LINE
  5
ACD
330
18
100
AcDbEntity
  8
Object
100
AcDbLine
 10
11.134
 20
11.272
 30
0.0
 11
11.142
 21
11.272
 31
0.0
  0
LINE
  5
ACE
330
18
100
AcDbEntity
  8
Object
100
AcDbLine
 10
11.107
 20
11.292
 30
0.0
 11
11.102
 21
11.312
 31
0.0
  0
LINE
  5
ACF
330
18
100
AcDbEntity
  8
Object
100
AcDbLine
 10
11.099
 20
11.292
 30
0.0
 11
11.094
 21
11.312
 31
0.0
  0
LINE
  5
AD0
330
18
100
AcDbEntity
  8
Object
100
AcDbLine
 10
11.094
 20
11.312
 30
0.0
 11
11.102
 21
11.312
 31
0.0
  0
LINE
  5
AD1
330
18
100
AcDbEntity
  8
Object
100
AcDbLine
 10
11.134
 20
11.675
 30
0.0
 11
11.114
 21
11.67
 31
0.0
  0
LINE
  5
AD2
330
18
100
AcDbEntity
  8
Object
100
AcDbLine
 10
11.114
 20
11.67
 30
0.0
 11
11.099
 21
11.655
 31
0.0
  0
LINE
  5
AD3
330
18
100
AcDbEntity
  8
Object
100
AcDbLine
 10
11.099
 20
11.655
 30
0.0
 11
11.094
 21
11.635
 31
0.0
  0
LINE
  5
AD4
330
18
100
AcDbEntity
  8
Object
100
AcDbLine
 10
11.094
 20
11.635
 30
0.0
 11
11.094
 21
11.312
 31
0.0
  0
LINE
  5
AD5
330
18
100
AcDbEntity
  8
Object
100
AcDbLine
 10
11.099
 20
11.292
 30
0.0
 11
11.114
 21
11.278
 31
0.0
  0
LINE
  5
AD6
330
18
100
AcDbEntity
  8
Object
100
AcDbLine
 10
11.114
 20
11.278
 30
0.0
 11
11.134
 21
11.272
 31
0.0
  0
LINE
  5
AD7
330
18
100
AcDbEntity
  8
Object
100
AcDbLine
 10
11.142
 20
11.675
 30
0.0
 11
11.134
 21
11.675
 31
0.0
  0
LINE
  5
AD8
330
18
100
AcDbEntity
  8
Object
100
AcDbLine
 10
11.102
 20
11.635
 30
0.0
 11
11.107
 21
11.655
 31
0.0
  0
LINE
  5
AD9
330
18
100
AcDbEntity
  8
Object
100
AcDbLine
 10
11.431
 20
12.029
 30
0.0
 11
11.408
 21
12.029
 31
0.0
  0
LINE
  5
ADA
330
18
100
AcDbEntity
  8
Object
100
AcDbLine
 10
11.408
 20
12.029
 30
0.0
 11
11.386
 21
12.029
 31
0.0
  0
LINE
  5
ADB
330
18
100
AcDbEntity
  8
Object
100
AcDbLine
 10
11.386
 20
12.029
 30
0.0
 11
11.368
 21
12.029
 31
0.0
  0
LINE
  5
ADC
330
18
100
AcDbEntity
  8
Object
100
AcDbLine
 10
11.368
 20
12.029
 30
0.0
 11
11.102
 21
12.029
 31
0.0
  0
LINE
  5
ADD
330
18
100
AcDbEntity
  8
Object
100
AcDbLine
 10
11.368
 20
12.029
 30
0.0
 11
11.368
 21
11.765
 31
0.0
  0
LINE
  5
ADE
330
18
100
AcDbEntity
  8
Object
100
AcDbLine
 10
11.368
 20
11.765
 30
0.0
 11
11.102
 21
11.765
 31
0.0
  0
LINE
  5
ADF
330
18
100
AcDbEntity
  8
Object
100
AcDbLine
 10
11.102
 20
11.765
 30
0.0
 11
11.091
 21
11.769
 31
0.0
  0
LINE
  5
AE0
330
18
100
AcDbEntity
  8
Object
100
AcDbLine
 10
11.091
 20
11.769
 30
0.0
 11
11.084
 21
11.78
 31
0.0
  0
LINE
  5
AE1
330
18
100
AcDbEntity
  8
Object
100
AcDbLine
 10
11.102
 20
12.029
 30
0.0
 11
11.091
 21
12.025
 31
0.0
  0
LINE
  5
AE2
330
18
100
AcDbEntity
  8
Object
100
AcDbLine
 10
11.081
 20
11.999
 30
0.0
 11
11.084
 21
12.014
 31
0.0
  0
LINE
  5
AE3
330
18
100
AcDbEntity
  8
Object
100
AcDbLine
 10
11.084
 20
12.014
 30
0.0
 11
11.091
 21
12.025
 31
0.0
  0
LINE
  5
AE4
330
18
100
AcDbEntity
  8
Object
100
AcDbLine
 10
11.084
 20
11.78
 30
0.0
 11
11.081
 21
11.795
 31
0.0
  0
LINE
  5
AE5
330
18
100
AcDbEntity
  8
Object
100
AcDbLine
 10
11.081
 20
11.795
 30
0.0
 11
11.081
 21
11.999
 31
0.0
  0
LINE
  5
AE6
330
18
100
AcDbEntity
  8
Object
100
AcDbLine
 10
11.102
 20
11.765
 30
0.0
 11
11.368
 21
11.765
 31
0.0
  0
LINE
  5
AE7
330
18
100
AcDbEntity
  8
Object
100
AcDbLine
 10
11.094
 20
11.635
 30
0.0
 11
11.102
 21
11.635
 31
0.0
  0
LINE
  5
AE8
330
18
100
AcDbEntity
  8
Object
100
AcDbLine
 10
11.102
 20
11.635
 30
0.0
 11
11.102
 21
11.312
 31
0.0
  0
LINE
  5
AE9
330
18
100
AcDbEntity
  8
Object
100
AcDbLine
 10
11.368
 20
12.029
 30
0.0
 11
11.102
 21
12.029
 31
0.0
  0
LINE
  5
AEA
330
18
100
AcDbEntity
  8
Object
100
AcDbLine
 10
11.68
 20
11.784
 30
0.0
 11
11.676
 21
11.786
 31
0.0
  0
LINE
  5
AEB
330
18
100
AcDbEntity
  8
Object
100
AcDbLine
 10
11.647
 20
11.807
 30
0.0
 11
11.64
 21
11.813
 31
0.0
  0
LINE
  5
AEC
330
18
100
AcDbEntity
  8
Object
100
AcDbLine
 10
11.62
 20
11.843
 30
0.0
 11
11.618
 21
11.847
 31
0.0
  0
LINE
  5
AED
330
18
100
AcDbEntity
  8
Object
100
AcDbLine
 10
11.942
 20
11.897
 30
0.0
 11
11.935
 21
11.843
 31
0.0
  0
LINE
  5
AEE
330
18
100
AcDbEntity
  8
Object
100
AcDbLine
 10
11.935
 20
11.843
 30
0.0
 11
11.914
 21
11.792
 31
0.0
  0
LINE
  5
AEF
330
18
100
AcDbEntity
  8
Object
100
AcDbLine
 10
11.942
 20
11.897
 30
0.0
 11
11.935
 21
11.952
 31
0.0
  0
LINE
  5
AF0
330
18
100
AcDbEntity
  8
Object
100
AcDbLine
 10
11.881
 20
11.749
 30
0.0
 11
11.914
 21
11.792
 31
0.0
  0
LINE
  5
AF1
330
18
100
AcDbEntity
  8
Object
100
AcDbLine
 10
11.881
 20
12.046
 30
0.0
 11
11.914
 21
12.002
 31
0.0
  0
LINE
  5
AF2
330
18
100
AcDbEntity
  8
Object
100
AcDbLine
 10
11.914
 20
12.002
 30
0.0
 11
11.935
 21
11.952
 31
0.0
  0
LINE
  5
AF3
330
18
100
AcDbEntity
  8
Object
100
AcDbLine
 10
11.881
 20
12.046
 30
0.0
 11
11.837
 21
12.079
 31
0.0
  0
LINE
  5
AF4
330
18
100
AcDbEntity
  8
Object
100
AcDbLine
 10
11.837
 20
11.715
 30
0.0
 11
11.881
 21
11.749
 31
0.0
  0
LINE
  5
AF5
330
18
100
AcDbEntity
  8
Object
100
AcDbLine
 10
11.837
 20
12.079
 30
0.0
 11
11.787
 21
12.1
 31
0.0
  0
LINE
  5
AF6
330
18
100
AcDbEntity
  8
Object
100
AcDbLine
 10
11.774
 20
11.787
 30
0.0
 11
11.768
 21
11.784
 31
0.0
  0
LINE
  5
AF7
330
18
100
AcDbEntity
  8
Object
100
AcDbLine
 10
11.787
 20
11.694
 30
0.0
 11
11.837
 21
11.715
 31
0.0
  0
LINE
  5
AF8
330
18
100
AcDbEntity
  8
Object
100
AcDbLine
 10
11.768
 20
11.784
 30
0.0
 11
11.744
 21
11.776
 31
0.0
  0
LINE
  5
AF9
330
18
100
AcDbEntity
  8
Object
100
AcDbLine
 10
11.787
 20
12.1
 30
0.0
 11
11.732
 21
12.107
 31
0.0
  0
LINE
  5
AFA
330
18
100
AcDbEntity
  8
Object
100
AcDbLine
 10
11.732
 20
11.687
 30
0.0
 11
11.787
 21
11.694
 31
0.0
  0
LINE
  5
AFB
330
18
100
AcDbEntity
  8
Object
100
AcDbLine
 10
11.744
 20
11.776
 30
0.0
 11
11.719
 21
11.773
 31
0.0
  0
LINE
  5
AFC
330
18
100
AcDbEntity
  8
Object
100
AcDbLine
 10
11.719
 20
11.773
 30
0.0
 11
11.678
 21
11.785
 31
0.0
  0
LINE
  5
AFD
330
18
100
AcDbEntity
  8
Object
100
AcDbLine
 10
11.678
 20
11.785
 30
0.0
 11
11.643
 21
11.81
 31
0.0
  0
LINE
  5
AFE
330
18
100
AcDbEntity
  8
Object
100
AcDbLine
 10
11.643
 20
11.81
 30
0.0
 11
11.619
 21
11.845
 31
0.0
  0
LINE
  5
AFF
330
18
100
AcDbEntity
  8
Object
100
AcDbLine
 10
11.551
 20
12.002
 30
0.0
 11
11.53
 21
11.952
 31
0.0
  0
LINE
  5
B00
330
18
100
AcDbEntity
  8
Object
100
AcDbLine
 10
11.618
 20
11.921
 30
0.0
 11
11.625
 21
11.936
 31
0.0
  0
LINE
  5
B01
330
18
100
AcDbEntity
  8
Object
100
AcDbLine
 10
11.619
 20
11.845
 30
0.0
 11
11.613
 21
11.87
 31
0.0
  0
LINE
  5
B02
330
18
100
AcDbEntity
  8
Object
100
AcDbLine
 10
11.618
 20
11.921
 30
0.0
 11
11.613
 21
11.896
 31
0.0
  0
LINE
  5
B03
330
18
100
AcDbEntity
  8
Object
100
AcDbLine
 10
11.613
 20
11.896
 30
0.0
 11
11.613
 21
11.87
 31
0.0
  0
LINE
  5
B04
330
18
100
AcDbEntity
  8
Object
100
AcDbLine
 10
11.676
 20
12.11
 30
0.0
 11
11.732
 21
12.117
 31
0.0
  0
LINE
  5
B05
330
18
100
AcDbEntity
  8
Object
100
AcDbLine
 10
11.732
 20
12.117
 30
0.0
 11
11.732
 21
12.107
 31
0.0
  0
LINE
  5
B06
330
18
100
AcDbEntity
  8
Object
100
AcDbLine
 10
11.732
 20
12.107
 30
0.0
 11
11.678
 21
12.1
 31
0.0
  0
LINE
  5
B07
330
18
100
AcDbEntity
  8
Object
100
AcDbLine
 10
11.678
 20
11.694
 30
0.0
 11
11.732
 21
11.687
 31
0.0
  0
LINE
  5
B08
330
18
100
AcDbEntity
  8
Object
100
AcDbLine
 10
11.732
 20
11.687
 30
0.0
 11
11.732
 21
11.677
 31
0.0
  0
LINE
  5
B09
330
18
100
AcDbEntity
  8
Object
100
AcDbLine
 10
11.732
 20
11.677
 30
0.0
 11
11.676
 21
11.685
 31
0.0
  0
LINE
  5
B0A
330
18
100
AcDbEntity
  8
Object
100
AcDbLine
 10
11.627
 20
12.079
 30
0.0
 11
11.678
 21
12.1
 31
0.0
  0
LINE
  5
B0B
330
18
100
AcDbEntity
  8
Object
100
AcDbLine
 10
11.676
 20
12.11
 30
0.0
 11
11.622
 21
12.088
 31
0.0
  0
LINE
  5
B0C
330
18
100
AcDbEntity
  8
Object
100
AcDbLine
 10
11.678
 20
11.694
 30
0.0
 11
11.627
 21
11.715
 31
0.0
  0
LINE
  5
B0D
330
18
100
AcDbEntity
  8
Object
100
AcDbLine
 10
11.622
 20
11.707
 30
0.0
 11
11.676
 21
11.685
 31
0.0
  0
LINE
  5
B0E
330
18
100
AcDbEntity
  8
Object
100
AcDbLine
 10
11.622
 20
12.088
 30
0.0
 11
11.577
 21
12.053
 31
0.0
  0
LINE
  5
B0F
330
18
100
AcDbEntity
  8
Object
100
AcDbLine
 10
11.584
 20
12.046
 30
0.0
 11
11.627
 21
12.079
 31
0.0
  0
LINE
  5
B10
330
18
100
AcDbEntity
  8
Object
100
AcDbLine
 10
11.577
 20
11.742
 30
0.0
 11
11.622
 21
11.707
 31
0.0
  0
LINE
  5
B11
330
18
100
AcDbEntity
  8
Object
100
AcDbLine
 10
11.627
 20
11.715
 30
0.0
 11
11.584
 21
11.749
 31
0.0
  0
LINE
  5
B12
330
18
100
AcDbEntity
  8
Object
100
AcDbLine
 10
11.551
 20
12.002
 30
0.0
 11
11.584
 21
12.046
 31
0.0
  0
LINE
  5
B13
330
18
100
AcDbEntity
  8
Object
100
AcDbLine
 10
11.577
 20
12.053
 30
0.0
 11
11.542
 21
12.007
 31
0.0
  0
LINE
  5
B14
330
18
100
AcDbEntity
  8
Object
100
AcDbLine
 10
11.584
 20
11.749
 30
0.0
 11
11.551
 21
11.792
 31
0.0
  0
LINE
  5
B15
330
18
100
AcDbEntity
  8
Object
100
AcDbLine
 10
11.542
 20
11.787
 30
0.0
 11
11.577
 21
11.742
 31
0.0
  0
LINE
  5
B16
330
18
100
AcDbEntity
  8
Object
100
AcDbLine
 10
11.542
 20
12.007
 30
0.0
 11
11.52
 21
11.954
 31
0.0
  0
LINE
  5
B17
330
18
100
AcDbEntity
  8
Object
100
AcDbLine
 10
11.52
 20
11.84
 30
0.0
 11
11.542
 21
11.787
 31
0.0
  0
LINE
  5
B18
330
18
100
AcDbEntity
  8
Object
100
AcDbLine
 10
11.53
 20
11.952
 30
0.0
 11
11.522
 21
11.897
 31
0.0
  0
LINE
  5
B19
330
18
100
AcDbEntity
  8
Object
100
AcDbLine
 10
11.522
 20
11.897
 30
0.0
 11
11.53
 21
11.843
 31
0.0
  0
LINE
  5
B1A
330
18
100
AcDbEntity
  8
Object
100
AcDbLine
 10
11.53
 20
11.843
 30
0.0
 11
11.551
 21
11.792
 31
0.0
  0
LINE
  5
B1B
330
18
100
AcDbEntity
  8
Object
100
AcDbLine
 10
11.52
 20
11.84
 30
0.0
 11
11.512
 21
11.897
 31
0.0
  0
LINE
  5
B1C
330
18
100
AcDbEntity
  8
Object
100
AcDbLine
 10
11.512
 20
11.897
 30
0.0
 11
11.52
 21
11.954
 31
0.0
  0
LINE
  5
B1D
330
18
100
AcDbEntity
  8
Object
100
AcDbLine
 10
11.945
 20
11.954
 30
0.0
 11
11.952
 21
11.897
 31
0.0
  0
LINE
  5
B1E
330
18
100
AcDbEntity
  8
Object
100
AcDbLine
 10
11.952
 20
11.897
 30
0.0
 11
11.945
 21
11.84
 31
0.0
  0
LINE
  5
B1F
330
18
100
AcDbEntity
  8
Object
100
AcDbLine
 10
11.945
 20
11.954
 30
0.0
 11
11.923
 21
12.007
 31
0.0
  0
LINE
  5
B20
330
18
100
AcDbEntity
  8
Object
100
AcDbLine
 10
11.923
 20
11.787
 30
0.0
 11
11.945
 21
11.84
 31
0.0
  0
LINE
  5
B21
330
18
100
AcDbEntity
  8
Object
100
AcDbLine
 10
11.923
 20
12.007
 30
0.0
 11
11.888
 21
12.053
 31
0.0
  0
LINE
  5
B22
330
18
100
AcDbEntity
  8
Object
100
AcDbLine
 10
11.888
 20
11.742
 30
0.0
 11
11.923
 21
11.787
 31
0.0
  0
LINE
  5
B23
330
18
100
AcDbEntity
  8
Object
100
AcDbLine
 10
11.888
 20
12.053
 30
0.0
 11
11.842
 21
12.088
 31
0.0
  0
LINE
  5
B24
330
18
100
AcDbEntity
  8
Object
100
AcDbLine
 10
11.842
 20
11.707
 30
0.0
 11
11.888
 21
11.742
 31
0.0
  0
LINE
  5
B25
330
18
100
AcDbEntity
  8
Object
100
AcDbLine
 10
11.842
 20
12.088
 30
0.0
 11
11.789
 21
12.11
 31
0.0
  0
LINE
  5
B26
330
18
100
AcDbEntity
  8
Object
100
AcDbLine
 10
11.789
 20
11.685
 30
0.0
 11
11.842
 21
11.707
 31
0.0
  0
LINE
  5
B27
330
18
100
AcDbEntity
  8
Object
100
AcDbLine
 10
11.789
 20
12.11
 30
0.0
 11
11.732
 21
12.117
 31
0.0
  0
LINE
  5
B28
330
18
100
AcDbEntity
  8
Object
100
AcDbLine
 10
11.789
 20
11.685
 30
0.0
 11
11.732
 21
11.677
 31
0.0
  0
LINE
  5
B29
330
18
100
AcDbEntity
  8
Object
100
AcDbLine
 10
11.732
 20
11.677
 30
0.0
 11
11.676
 21
11.685
 31
0.0
  0
LINE
  5
B2A
330
18
100
AcDbEntity
  8
Object
100
AcDbLine
 10
11.732
 20
12.117
 30
0.0
 11
11.676
 21
12.11
 31
0.0
  0
LINE
  5
B2B
330
18
100
AcDbEntity
  8
Object
100
AcDbLine
 10
11.622
 20
11.707
 30
0.0
 11
11.676
 21
11.685
 31
0.0
  0
LINE
  5
B2C
330
18
100
AcDbEntity
  8
Object
100
AcDbLine
 10
11.676
 20
12.11
 30
0.0
 11
11.622
 21
12.088
 31
0.0
  0
LINE
  5
B2D
330
18
100
AcDbEntity
  8
Object
100
AcDbLine
 10
11.622
 20
12.088
 30
0.0
 11
11.577
 21
12.053
 31
0.0
  0
LINE
  5
B2E
330
18
100
AcDbEntity
  8
Object
100
AcDbLine
 10
11.622
 20
11.707
 30
0.0
 11
11.577
 21
11.742
 31
0.0
  0
LINE
  5
B2F
330
18
100
AcDbEntity
  8
Object
100
AcDbLine
 10
11.577
 20
11.742
 30
0.0
 11
11.542
 21
11.787
 31
0.0
  0
LINE
  5
B30
330
18
100
AcDbEntity
  8
Object
100
AcDbLine
 10
11.577
 20
12.053
 30
0.0
 11
11.542
 21
12.007
 31
0.0
  0
LINE
  5
B31
330
18
100
AcDbEntity
  8
Object
100
AcDbLine
 10
11.542
 20
12.007
 30
0.0
 11
11.52
 21
11.954
 31
0.0
  0
LINE
  5
B32
330
18
100
AcDbEntity
  8
Object
100
AcDbLine
 10
11.52
 20
11.84
 30
0.0
 11
11.542
 21
11.787
 31
0.0
  0
LINE
  5
B33
330
18
100
AcDbEntity
  8
Object
100
AcDbLine
 10
11.52
 20
11.954
 30
0.0
 11
11.512
 21
11.897
 31
0.0
  0
LINE
  5
B34
330
18
100
AcDbEntity
  8
Object
100
AcDbLine
 10
11.512
 20
11.897
 30
0.0
 11
11.52
 21
11.84
 31
0.0
  0
LINE
  5
B35
330
18
100
AcDbEntity
  8
Object
100
AcDbLine
 10
11.945
 20
11.84
 30
0.0
 11
11.952
 21
11.897
 31
0.0
  0
LINE
  5
B36
330
18
100
AcDbEntity
  8
Object
100
AcDbLine
 10
11.952
 20
11.897
 30
0.0
 11
11.945
 21
11.954
 31
0.0
  0
LINE
  5
B37
330
18
100
AcDbEntity
  8
Object
100
AcDbLine
 10
11.945
 20
11.954
 30
0.0
 11
11.923
 21
12.007
 31
0.0
  0
LINE
  5
B38
330
18
100
AcDbEntity
  8
Object
100
AcDbLine
 10
11.945
 20
11.84
 30
0.0
 11
11.923
 21
11.787
 31
0.0
  0
LINE
  5
B39
330
18
100
AcDbEntity
  8
Object
100
AcDbLine
 10
11.923
 20
11.787
 30
0.0
 11
11.888
 21
11.742
 31
0.0
  0
LINE
  5
B3A
330
18
100
AcDbEntity
  8
Object
100
AcDbLine
 10
11.923
 20
12.007
 30
0.0
 11
11.888
 21
12.053
 31
0.0
  0
LINE
  5
B3B
330
18
100
AcDbEntity
  8
Object
100
AcDbLine
 10
11.888
 20
12.053
 30
0.0
 11
11.842
 21
12.088
 31
0.0
  0
LINE
  5
B3C
330
18
100
AcDbEntity
  8
Object
100
AcDbLine
 10
11.888
 20
11.742
 30
0.0
 11
11.842
 21
11.707
 31
0.0
  0
LINE
  5
B3D
330
18
100
AcDbEntity
  8
Object
100
AcDbLine
 10
11.842
 20
11.707
 30
0.0
 11
11.789
 21
11.685
 31
0.0
  0
LINE
  5
B3E
330
18
100
AcDbEntity
  8
Object
100
AcDbLine
 10
11.842
 20
12.088
 30
0.0
 11
11.789
 21
12.11
 31
0.0
  0
LINE
  5
B3F
330
18
100
AcDbEntity
  8
Object
100
AcDbLine
 10
11.789
 20
12.11
 30
0.0
 11
11.732
 21
12.117
 31
0.0
  0
LINE
  5
B40
330
18
100
AcDbEntity
  8
Object
100
AcDbLine
 10
11.732
 20
11.677
 30
0.0
 11
11.789
 21
11.685
 31
0.0
  0
LINE
  5
B41
330
18
100
AcDbEntity
  8
Object
100
AcDbLine
 10
11.853
 20
11.866
 30
0.0
 11
11.857
 21
11.907
 31
0.0
  0
LINE
  5
B42
330
18
100
AcDbEntity
  8
Object
100
AcDbLine
 10
11.857
 20
11.907
 30
0.0
 11
11.847
 21
11.946
 31
0.0
  0
LINE
  5
B43
330
18
100
AcDbEntity
  8
Object
100
AcDbLine
 10
11.843
 20
11.894
 30
0.0
 11
11.836
 21
11.87
 31
0.0
  0
LINE
  5
B44
330
18
100
AcDbEntity
  8
Object
100
AcDbLine
 10
11.837
 20
11.828
 30
0.0
 11
11.853
 21
11.866
 31
0.0
  0
LINE
  5
B45
330
18
100
AcDbEntity
  8
Object
100
AcDbLine
 10
11.847
 20
11.946
 30
0.0
 11
11.825
 21
11.981
 31
0.0
  0
LINE
  5
B46
330
18
100
AcDbEntity
  8
Object
100
AcDbLine
 10
11.836
 20
11.87
 30
0.0
 11
11.823
 21
11.847
 31
0.0
  0
LINE
  5
B47
330
18
100
AcDbEntity
  8
Object
100
AcDbLine
 10
11.823
 20
11.847
 30
0.0
 11
11.805
 21
11.828
 31
0.0
  0
LINE
  5
B48
330
18
100
AcDbEntity
  8
Object
100
AcDbLine
 10
11.826
 20
11.817
 30
0.0
 11
11.837
 21
11.828
 31
0.0
  0
LINE
  5
B49
330
18
100
AcDbEntity
  8
Object
100
AcDbLine
 10
11.825
 20
11.981
 30
0.0
 11
11.793
 21
12.006
 31
0.0
  0
LINE
  5
B4A
330
18
100
AcDbEntity
  8
Object
100
AcDbLine
 10
11.85
 20
11.936
 30
0.0
 11
11.848
 21
11.945
 31
0.0
  0
LINE
  5
B4B
330
18
100
AcDbEntity
  8
Object
100
AcDbLine
 10
11.848
 20
11.945
 30
0.0
 11
11.836
 21
11.967
 31
0.0
  0
LINE
  5
B4C
330
18
100
AcDbEntity
  8
Object
100
AcDbLine
 10
11.821
 20
11.986
 30
0.0
 11
11.802
 21
12.001
 31
0.0
  0
LINE
  5
B4D
330
18
100
AcDbEntity
  8
Object
100
AcDbLine
 10
11.622
 20
11.92
 30
0.0
 11
11.622
 21
11.894
 31
0.0
  0
LINE
  5
B4E
330
18
100
AcDbEntity
  8
Object
100
AcDbLine
 10
11.622
 20
11.894
 30
0.0
 11
11.629
 21
11.869
 31
0.0
  0
LINE
  5
B4F
330
18
100
AcDbEntity
  8
Object
100
AcDbLine
 10
11.732
 20
11.797
 30
0.0
 11
11.706
 21
11.801
 31
0.0
  0
LINE
  5
B50
330
18
100
AcDbEntity
  8
Object
100
AcDbLine
 10
11.706
 20
11.801
 30
0.0
 11
11.694
 21
11.805
 31
0.0
  0
LINE
  5
B51
330
18
100
AcDbEntity
  8
Object
100
AcDbLine
 10
11.706
 20
11.801
 30
0.0
 11
11.681
 21
11.812
 31
0.0
  0
LINE
  5
B52
330
18
100
AcDbEntity
  8
Object
100
AcDbLine
 10
11.681
 20
11.812
 30
0.0
 11
11.694
 21
11.805
 31
0.0
  0
LINE
  5
B53
330
18
100
AcDbEntity
  8
Object
100
AcDbLine
 10
11.66
 20
11.828
 30
0.0
 11
11.681
 21
11.812
 31
0.0
  0
LINE
  5
B54
330
18
100
AcDbEntity
  8
Object
100
AcDbLine
 10
11.681
 20
11.812
 30
0.0
 11
11.662
 21
11.827
 31
0.0
  0
LINE
  5
B55
330
18
100
AcDbEntity
  8
Object
100
AcDbLine
 10
11.662
 20
11.827
 30
0.0
 11
11.66
 21
11.828
 31
0.0
  0
LINE
  5
B56
330
18
100
AcDbEntity
  8
Object
100
AcDbLine
 10
11.857
 20
11.9
 30
0.0
 11
11.857
 21
11.907
 31
0.0
  0
LINE
  5
B57
330
18
100
AcDbEntity
  8
Object
100
AcDbLine
 10
11.853
 20
11.866
 30
0.0
 11
11.853
 21
11.869
 31
0.0
  0
LINE
  5
B58
330
18
100
AcDbEntity
  8
Object
100
AcDbLine
 10
11.857
 20
11.907
 30
0.0
 11
11.855
 21
11.92
 31
0.0
  0
LINE
  5
B59
330
18
100
AcDbEntity
  8
Object
100
AcDbLine
 10
11.851
 20
11.859
 30
0.0
 11
11.853
 21
11.866
 31
0.0
  0
LINE
  5
B5A
330
18
100
AcDbEntity
  8
Object
100
AcDbLine
 10
11.837
 20
11.828
 30
0.0
 11
11.838
 21
11.831
 31
0.0
  0
LINE
  5
B5B
330
18
100
AcDbEntity
  8
Object
100
AcDbLine
 10
11.836
 20
11.967
 30
0.0
 11
11.825
 21
11.981
 31
0.0
  0
LINE
  5
B5C
330
18
100
AcDbEntity
  8
Object
100
AcDbLine
 10
11.835
 20
11.826
 30
0.0
 11
11.837
 21
11.828
 31
0.0
  0
LINE
  5
B5D
330
18
100
AcDbEntity
  8
Object
100
AcDbLine
 10
11.825
 20
11.981
 30
0.0
 11
11.821
 21
11.986
 31
0.0
  0
LINE
  5
B5E
330
18
100
AcDbEntity
  8
Object
100
AcDbLine
 10
11.802
 20
12.001
 30
0.0
 11
11.793
 21
12.006
 31
0.0
  0
LINE
  5
B5F
330
18
100
AcDbEntity
  8
Object
100
AcDbLine
 10
11.793
 20
12.006
 30
0.0
 11
11.78
 21
12.013
 31
0.0
  0
LINE
  5
B60
330
18
100
AcDbEntity
  8
Object
100
AcDbLine
 10
11.78
 20
12.013
 30
0.0
 11
11.774
 21
12.015
 31
0.0
  0
LINE
  5
B61
330
18
100
AcDbEntity
  8
Object
100
AcDbLine
 10
11.774
 20
12.015
 30
0.0
 11
11.757
 21
12.02
 31
0.0
  0
LINE
  5
B62
330
18
100
AcDbEntity
  8
Object
100
AcDbLine
 10
11.757
 20
12.02
 30
0.0
 11
11.754
 21
12.021
 31
0.0
  0
LINE
  5
B63
330
18
100
AcDbEntity
  8
Object
100
AcDbLine
 10
11.754
 20
12.021
 30
0.0
 11
11.732
 21
12.022
 31
0.0
  0
LINE
  5
B64
330
18
100
AcDbEntity
  8
Object
100
AcDbLine
 10
11.805
 20
11.828
 30
0.0
 11
11.79
 21
11.815
 31
0.0
  0
LINE
  5
B65
330
18
100
AcDbEntity
  8
Object
100
AcDbLine
 10
11.79
 20
11.815
 30
0.0
 11
11.784
 21
11.812
 31
0.0
  0
LINE
  5
B66
330
18
100
AcDbEntity
  8
Object
100
AcDbLine
 10
11.784
 20
11.812
 30
0.0
 11
11.772
 21
11.805
 31
0.0
  0
LINE
  5
B67
330
18
100
AcDbEntity
  8
Object
100
AcDbLine
 10
11.772
 20
11.805
 30
0.0
 11
11.759
 21
11.801
 31
0.0
  0
LINE
  5
B68
330
18
100
AcDbEntity
  8
Object
100
AcDbLine
 10
11.759
 20
11.801
 30
0.0
 11
11.753
 21
11.799
 31
0.0
  0
LINE
  5
B69
330
18
100
AcDbEntity
  8
Object
100
AcDbLine
 10
11.753
 20
11.799
 30
0.0
 11
11.732
 21
11.797
 31
0.0
  0
LINE
  5
B6A
330
18
100
AcDbEntity
  8
Object
100
AcDbLine
 10
11.732
 20
11.797
 30
0.0
 11
11.759
 21
11.801
 31
0.0
  0
LINE
  5
B6B
330
18
100
AcDbEntity
  8
Object
100
AcDbLine
 10
11.732
 20
11.797
 30
0.0
 11
11.753
 21
11.799
 31
0.0
  0
LINE
  5
B6C
330
18
100
AcDbEntity
  8
Object
100
AcDbLine
 10
11.843
 20
11.894
 30
0.0
 11
11.843
 21
11.92
 31
0.0
  0
LINE
  5
B6D
330
18
100
AcDbEntity
  8
Object
100
AcDbLine
 10
11.813
 20
11.99
 30
0.0
 11
11.828
 21
11.969
 31
0.0
  0
LINE
  5
B6E
330
18
100
AcDbEntity
  8
Object
100
AcDbLine
 10
11.828
 20
11.969
 30
0.0
 11
11.838
 21
11.945
 31
0.0
  0
LINE
  5
B6F
330
18
100
AcDbEntity
  8
Object
100
AcDbLine
 10
11.838
 20
11.945
 30
0.0
 11
11.843
 21
11.92
 31
0.0
  0
LINE
  5
B70
330
18
100
AcDbEntity
  8
Object
100
AcDbLine
 10
11.813
 20
11.99
 30
0.0
 11
11.793
 21
12.006
 31
0.0
  0
LINE
  5
B71
330
18
100
AcDbEntity
  8
Object
100
AcDbLine
 10
11.793
 20
12.006
 30
0.0
 11
11.774
 21
12.015
 31
0.0
  0
LINE
  5
B72
330
18
100
AcDbEntity
  8
Object
100
AcDbLine
 10
11.774
 20
12.015
 30
0.0
 11
11.754
 21
12.021
 31
0.0
  0
LINE
  5
B73
330
18
100
AcDbEntity
  8
Object
100
AcDbLine
 10
11.805
 20
11.828
 30
0.0
 11
11.784
 21
11.812
 31
0.0
  0
LINE
  5
B74
330
18
100
AcDbEntity
  8
Object
100
AcDbLine
 10
11.784
 20
11.812
 30
0.0
 11
11.759
 21
11.801
 31
0.0
  0
LINE
  5
B75
330
18
100
AcDbEntity
  8
Object
100
AcDbLine
 10
11.706
 20
11.801
 30
0.0
 11
11.732
 21
11.797
 31
0.0
  0
LINE
  5
B76
330
18
100
AcDbEntity
  8
Object
100
AcDbLine
 10
11.711
 20
12.021
 30
0.0
 11
11.732
 21
12.022
 31
0.0
  0
LINE
  5
B77
330
18
100
AcDbEntity
  8
Object
100
AcDbLine
 10
11.732
 20
12.022
 30
0.0
 11
11.754
 21
12.021
 31
0.0
  0
LINE
  5
B78
330
18
100
AcDbEntity
  8
Object
100
AcDbLine
 10
11.711
 20
12.021
 30
0.0
 11
11.691
 21
12.015
 31
0.0
  0
LINE
  5
B79
330
18
100
AcDbEntity
  8
Object
100
AcDbLine
 10
11.691
 20
12.015
 30
0.0
 11
11.672
 21
12.006
 31
0.0
  0
LINE
  5
B7A
330
18
100
AcDbEntity
  8
Object
100
AcDbLine
 10
11.672
 20
12.006
 30
0.0
 11
11.652
 21
11.989
 31
0.0
  0
LINE
  5
B7B
330
18
100
AcDbEntity
  8
Object
100
AcDbLine
 10
11.652
 20
11.989
 30
0.0
 11
11.637
 21
11.969
 31
0.0
  0
LINE
  5
B7C
330
18
100
AcDbEntity
  8
Object
100
AcDbLine
 10
11.637
 20
11.969
 30
0.0
 11
11.627
 21
11.945
 31
0.0
  0
LINE
  5
B7D
330
18
100
AcDbEntity
  8
Object
100
AcDbLine
 10
11.627
 20
11.945
 30
0.0
 11
11.622
 21
11.92
 31
0.0
  0
LINE
  5
B7E
330
18
100
AcDbEntity
  8
Object
100
AcDbLine
 10
11.66
 20
11.828
 30
0.0
 11
11.642
 21
11.847
 31
0.0
  0
LINE
  5
B7F
330
18
100
AcDbEntity
  8
Object
100
AcDbLine
 10
11.642
 20
11.847
 30
0.0
 11
11.629
 21
11.869
 31
0.0
  0
LINE
  5
B80
330
18
100
AcDbEntity
  8
Object
100
AcDbLine
 10
11.732
 20
12.022
 30
0.0
 11
11.711
 21
12.021
 31
0.0
  0
LINE
  5
B81
330
18
100
AcDbEntity
  8
Object
100
AcDbLine
 10
11.711
 20
12.021
 30
0.0
 11
11.701
 21
12.018
 31
0.0
  0
LINE
  5
B82
330
18
100
AcDbEntity
  8
Object
100
AcDbLine
 10
11.701
 20
12.018
 30
0.0
 11
11.691
 21
12.015
 31
0.0
  0
DIMENSION
  5
B83
330
18
100
AcDbEntity
  8
Dimension
100
AcDbDimension
  2
*D0
 10
13.60364856345005
 20
10.897
 30
0.0
 11
13.60364856345005
 21
11.897
 31
0.0
 70
    32
 71
     5
 42
2.0
  3
STANDARD
100
AcDbAlignedDimension
 13
11.997
 23
12.897
 33
0.0
 14
11.997
 24
10.897
 34
0.0
 50
90.0
100
AcDbRotatedDimension
  0
DIMENSION
  5
B91
330
18
100
AcDbEntity
  8
Dimension
100
AcDbDimension
  2
*D1
 10
12.372
 20
6.345958373462615
 30
0.0
 11
7.371999999999999
 21
6.345958373462615
 31
0.0
 70
    32
 71
     5
 42
10.0
  3
STANDARD
100
AcDbAlignedDimension
 13
2.371999999999999
 23
4.971
 33
0.0
 14
12.372
 24
4.971
 34
0.0
100
AcDbRotatedDimension
  0
DIMENSION
  5
B9F
330
18
100
AcDbEntity
  8
Dimension
100
AcDbDimension
  2
*D2
 10
16.39402037397417
 20
4.567
 30
0.0
 11
16.39402037397417
 21
4.769000000000002
 31
0.0
 70
    32
 71
     5
 42
0.404
  3
STANDARD
100
AcDbAlignedDimension
 13
17.121
 23
4.971
 33
0.0
 14
17.902
 24
4.567
 34
0.0
 50
90.0
100
AcDbRotatedDimension
  0
MTEXT
  5
BAF
330
18
100
AcDbEntity
  8
Text
100
AcDbMText
 10
11.37324893148254
 20
0.8775685908585026
 30
0.0
 40
0.09
 41
0.25
 71
     5
 72
     5
  1
1
 73
     1
 44
1.0
1001
ACAD
1000
MTEXTBEGIN
1070
    73
1070
     1
1070
    44
1040
1.0
1070
    74
1070
     0
1000
MTEXTEND
  0
MTEXT
  5
BB0
330
18
100
AcDbEntity
  8
Text
100
AcDbMText
 10
11.74824893148254
 20
0.8775685908585026
 30
0.0
 40
0.07
 41
0.5
 71
     5
 72
     5
  1
6-15-07
 73
     1
 44
1.0
1001
ACAD
1000
MTEXTBEGIN
1070
    73
1070
     1
1070
    44
1040
1.0
1070
    74
1070
     0
1000
MTEXTEND
  0
MTEXT
  5
BB1
330
18
100
AcDbEntity
  8
Text
100
AcDbMText
 10
12.18574893148254
 20
0.8775685908585026
 30
0.0
 40
0.09
 41
0.375
 71
     5
 72
     5
  1
DTP
 73
     1
 44
1.0
1001
ACAD
1000
MTEXTBEGIN
1070
    73
1070
     1
1070
    44
1040
1.0
1070
    74
1070
     0
1000
MTEXTEND
  0
MTEXT
  5
BB2
330
18
100
AcDbEntity
  8
Text
100
AcDbMText
 10
12.77324893148254
 20
0.8775685908585021
 30
0.0
 40
0.07
 41
2.75
 71
     4
 72
     5
  1
B. REVISED PAPER SIZE; WAS B SIZE.\PA. REVISED DRAWING TITLE.
 73
     1
 44
1.0
1001
ACAD
1000
MTEXTBEGIN
1070
    73
1070
     1
1070
    44
1040
1.0
1070
    74
1070
     0
1000
MTEXTEND
  0
MTEXT
  5
BB3
330
18
100
AcDbEntity
  8
Text
100
AcDbMText
 10
12.5604002814227
 20
0.8762490740326649
 30
0.0
 40
0.07
 41
0.375
 71
     5
 72
     5
  1
DJWA
 73
     1
 44
1.0
1001
ACAD
1000
MTEXTBEGIN
1070
    73
1070
     1
1070
    44
1040
1.0
1070
    74
1070
     0
1000
MTEXTEND
  0
MTEXT
  5
BB4
330
18
100
AcDbEntity
  8
Text
100
AcDbMText
 10
11.37324893148254
 20
1.127568590858502
 30
0.0
 40
0.09
 41
0.25
 71
     5
 72
     5
  1
-
 73
     1
 44
1.0
1001
ACAD
1000
MTEXTBEGIN
1070
    73
1070
     1
1070
    44
1040
1.0
1070
    74
1070
     0
1000
MTEXTEND
  0
MTEXT
  5
BB5
330
18
100
AcDbEntity
  8
Text
100
AcDbMText
 10
11.74824893148254
 20
1.127568590858502
 30
0.0
 40
0.07
 41
0.5
 71
     5
 72
     5
  1
--------
 73
     1
 44
1.0
1001
ACAD
1000
MTEXTBEGIN
1070
    73
1070
     1
1070
    44
1040
1.0
1070
    74
1070
     0
1000
MTEXTEND
  0
MTEXT
  5
BB6
330
18
100
AcDbEntity
  8
Text
100
AcDbMText
 10
12.18574893148254
 20
1.127568590858502
 30
0.0
 40
0.09
 41
0.375
 71
     5
 72
     5
  1
---
 73
     1
 44
1.0
1001
ACAD
1000
MTEXTBEGIN
1070
    73
1070
     1
1070
    44
1040
1.0
1070
    74
1070
     0
1000
MTEXTEND
  0
MTEXT
  5
BB7
330
18
100
AcDbEntity
  8
Text
100
AcDbMText
 10
12.77324893148254
 20
1.127568590858502
 30
0.0
 40
0.07
 41
2.75
 71
     4
 72
     5
  1
D. ADDED RIGHT SIDE VIEW.\PC. REVISED PART GEOMETRY.
 73
     1
 44
1.0
1001
ACAD
1000
MTEXTBEGIN
1070
    73
1070
     1
1070
    44
1040
1.0
1070
    74
1070
     0
1000
MTEXTEND
  0
MTEXT
  5
BB8
330
18
100
AcDbEntity
  8
Text
100
AcDbMText
 10
12.5604002814227
 20
1.126249074032664
 30
0.0
 40
0.07
 41
0.375
 71
     5
 72
     5
  1
----
 73
     1
 44
1.0
1001
ACAD
1000
MTEXTBEGIN
1070
    73
1070
     1
1070
    44
1040
1.0
1070
    74
1070
     0
1000
MTEXTEND
  0
MTEXT
  5
BB9
330
18
100
AcDbEntity
  8
Text
100
AcDbMText
 10
11.37324893148254
 20
1.377568590858502
 30
0.0
 40
0.09
 41
0.25
 71
     5
 72
     5
  1
-
 73
     1
 44
1.0
1001
ACAD
1000
MTEXTBEGIN
1070
    73
1070
     1
1070
    44
1040
1.0
1070
    74
1070
     0
1000
MTEXTEND
  0
MTEXT
  5
BBA
330
18
100
AcDbEntity
  8
Text
100
AcDbMText
 10
11.74824893148254
 20
1.377568590858502
 30
0.0
 40
0.07
 41
0.5
 71
     5
 72
     5
  1
--------
 73
     1
 44
1.0
1001
ACAD
1000
MTEXTBEGIN
1070
    73
1070
     1
1070
    44
1040
1.0
1070
    74
1070
     0
1000
MTEXTEND
  0
MTEXT
  5
BBB
330
18
100
AcDbEntity
  8
Text
100
AcDbMText
 10
12.18574893148254
 20
1.377568590858502
 30
0.0
 40
0.09
 41
0.375
 71
     5
 72
     5
  1
---
 73
     1
 44
1.0
1001
ACAD
1000
MTEXTBEGIN
1070
    73
1070
     1
1070
    44
1040
1.0
1070
    74
1070
     0
1000
MTEXTEND
  0
MTEXT
  5
BBC
330
18
100
AcDbEntity
  8
Text
100
AcDbMText
 10
12.77324893148254
 20
1.377568590858502
 30
0.0
 40
0.07
 41
2.75
 71
     4
 72
     5
  1
F. ADDED GENERAL NOTES.\PE. REVISED DIMENSION.
 73
     1
 44
1.0
1001
ACAD
1000
MTEXTBEGIN
1070
    73
1070
     1
1070
    44
1040
1.0
1070
    74
1070
     0
1000
MTEXTEND
  0
MTEXT
  5
BBD
330
18
100
AcDbEntity
  8
Text
100
AcDbMText
 10
12.5604002814227
 20
1.376249074032664
 30
0.0
 40
0.07
 41
0.375
 71
     5
 72
     5
  1
----
 73
     1
 44
1.0
1001
ACAD
1000
MTEXTBEGIN
1070
    73
1070
     1
1070
    44
1040
1.0
1070
    74
1070
     0
1000
MTEXTEND
  0
LINE
  5
BBE
330
18
100
AcDbEntity
  8
Text
100
AcDbLine
 10
17.77435370883525
 20
1.519073898188189
 30
0.0
 11
17.92435370883525
 21
1.778881519323521
 31
0.0
  0
LINE
  5
BBF
330
18
100
AcDbEntity
  8
Text
100
AcDbLine
 10
17.92435370883525
 20
1.778881519323521
 30
0.0
 11
18.07435370883525
 21
1.519073898188191
 31
0.0
  0
LINE
  5
BC0
330
18
100
AcDbEntity
  8
Text
100
AcDbLine
 10
18.07435370883525
 20
1.519073898188191
 30
0.0
 11
17.77435370883525
 21
1.519073898188189
 31
0.0
  0
TEXT
  5
BC1
330
18
100
AcDbEntity
  8
Text
100
AcDbText
 10
17.88297988643543
 20
1.581789251066691
 30
0.0
 40
0.09
  1
A
100
AcDbText
  0
LINE
  5
BC6
330
18
100
AcDbEntity
  8
Text
100
AcDbLine
 10
21.35226689869751
 20
0.7612128100338751
 30
0.0
 11
21.50226689869751
 21
1.021020431169207
 31
0.0
  0
LINE
  5
BC7
330
18
100
AcDbEntity
  8
Text
100
AcDbLine
 10
21.50226689869751
 20
1.021020431169207
 30
0.0
 11
21.65226689869751
 21
0.7612128100338769
 31
0.0
  0
LINE
  5
BC8
330
18
100
AcDbEntity
  8
Text
100
AcDbLine
 10
21.65226689869751
 20
0.7612128100338769
 30
0.0
 11
21.35226689869751
 21
0.7612128100338751
 31
0.0
  0
TEXT
  5
BC9
330
18
100
AcDbEntity
  8
Text
100
AcDbText
 10
21.46431469539422
 20
0.8102472477412629
 30
0.0
 40
0.09
  1
B
100
AcDbText
  0
LINE
  5
BCA
330
18
100
AcDbEntity
  8
Text
100
AcDbLine
 10
17.05594608082619
 20
3.914944462708385
 30
0.0
 11
17.20594608082619
 21
4.174752083843717
 31
0.0
  0
LINE
  5
BCB
330
18
100
AcDbEntity
  8
Text
100
AcDbLine
 10
17.20594608082619
 20
4.174752083843717
 30
0.0
 11
17.35594608082619
 21
3.914944462708387
 31
0.0
  0
LINE
  5
BCC
330
18
100
AcDbEntity
  8
Text
100
AcDbLine
 10
17.35594608082619
 20
3.914944462708387
 30
0.0
 11
17.05594608082619
 21
3.914944462708385
 31
0.0
  0
TEXT
  5
BCD
330
18
100
AcDbEntity
  8
Text
100
AcDbText
 10
17.16457225842637
 20
3.967399088969143
 30
0.0
 40
0.09
  1
C
100
AcDbText
  0
LINE
  5
BCE
330
18
100
AcDbEntity
  8
Text
100
AcDbLine
 10
6.56591060251273
 20
3.995709256485639
 30
0.0
 11
6.715910602512728
 21
4.255516877620971
 31
0.0
  0
LINE
  5
BCF
330
18
100
AcDbEntity
  8
Text
100
AcDbLine
 10
6.715910602512728
 20
4.255516877620971
 30
0.0
 11
6.86591060251273
 21
3.995709256485641
 31
0.0
  0
LINE
  5
BD0
330
18
100
AcDbEntity
  8
Text
100
AcDbLine
 10
6.86591060251273
 20
3.995709256485641
 30
0.0
 11
6.56591060251273
 21
3.995709256485639
 31
0.0
  0
TEXT
  5
BD1
330
18
100
AcDbEntity
  8
Text
100
AcDbText
 10
6.674536780112909
 20
4.04556872273449
 30
0.0
 40
0.09
  1
C
100
AcDbText
  0
LINE
  5
BD2
330
18
100
AcDbEntity
  8
Text
100
AcDbLine
 10
6.97217284995979
 20
10.2926407204288
 30
0.0
 11
7.122172849959788
 21
10.55244834156414
 31
0.0
  0
LINE
  5
BD3
330
18
100
AcDbEntity
  8
Text
100
AcDbLine
 10
7.122172849959788
 20
10.55244834156414
 30
0.0
 11
7.27217284995979
 21
10.29264072042881
 31
0.0
  0
LINE
  5
BD4
330
18
100
AcDbEntity
  8
Text
100
AcDbLine
 10
7.27217284995979
 20
10.29264072042881
 30
0.0
 11
6.97217284995979
 21
10.2926407204288
 31
0.0
  0
TEXT
  5
BD5
330
18
100
AcDbEntity
  8
Text
100
AcDbText
 10
7.080799027559969
 20
10.35535607330731
 30
0.0
 40
0.09
  1
C
100
AcDbText
  0
LINE
  5
BD6
330
18
100
AcDbEntity
  8
Text
100
AcDbLine
 10
16.71488678077819
 20
3.914944462708383
 30
0.0
 11
16.86488678077819
 21
4.174752083843715
 31
0.0
  0
LINE
  5
BD7
330
18
100
AcDbEntity
  8
Text
100
AcDbLine
 10
16.86488678077819
 20
4.174752083843715
 30
0.0
 11
17.0148867807782
 21
3.914944462708385
 31
0.0
  0
LINE
  5
BD8
330
18
100
AcDbEntity
  8
Text
100
AcDbLine
 10
17.0148867807782
 20
3.914944462708385
 30
0.0
 11
16.71488678077819
 21
3.914944462708383
 31
0.0
  0
TEXT
  5
BD9
330
18
100
AcDbEntity
  8
Text
100
AcDbText
 10
16.83377775111278
 20
3.96397890041577
 30
0.0
 40
0.09
  1
D
100
AcDbText
  0
LINE
  5
BDA
330
18
100
AcDbEntity
  8
Text
100
AcDbLine
 10
15.68151617360149
 20
4.653960126416748
 30
0.0
 11
15.83151617360149
 21
4.91376774755208
 31
0.0
  0
LINE
  5
BDB
330
18
100
AcDbEntity
  8
Text
100
AcDbLine
 10
15.83151617360149
 20
4.91376774755208
 30
0.0
 11
15.98151617360149
 21
4.65396012641675
 31
0.0
  0
LINE
  5
BDC
330
18
100
AcDbEntity
  8
Text
100
AcDbLine
 10
15.98151617360149
 20
4.65396012641675
 30
0.0
 11
15.68151617360149
 21
4.653960126416748
 31
0.0
  0
TEXT
  5
BDD
330
18
100
AcDbEntity
  8
Text
100
AcDbText
 10
15.79187314058335
 20
4.701244512117281
 30
0.0
 40
0.09
  1
E
100
AcDbText
  0
LINE
  5
BDE
330
18
100
AcDbEntity
  8
Text
100
AcDbLine
 10
17.53269000172771
 20
15.6225696305934
 30
0.0
 11
17.68269000172771
 21
15.88237725172873
 31
0.0
  0
LINE
  5
BDF
330
18
100
AcDbEntity
  8
Text
100
AcDbLine
 10
17.68269000172771
 20
15.88237725172873
 30
0.0
 11
17.83269000172771
 21
15.6225696305934
 31
0.0
  0
LINE
  5
BE0
330
18
100
AcDbEntity
  8
Text
100
AcDbLine
 10
17.83269000172771
 20
15.6225696305934
 30
0.0
 11
17.53269000172771
 21
15.6225696305934
 31
0.0
  0
TEXT
  5
BE1
330
18
100
AcDbEntity
  8
Text
100
AcDbText
 10
17.64131617932789
 20
15.6852849834719
 30
0.0
 40
0.09
  1
F
100
AcDbText
  0
DIMENSION
  5
BE9
330
18
100
AcDbEntity
  8
Dimension
100
AcDbDimension
  2
*D3
 10
3.142950467086314
 20
11.66542891291924
 30
0.0
 11
5.877600909137056
 21
13.67444203153953
 31
0.0
 70
   163
  1
0.65 DIA [16.5mm]
 71
     5
 42
0.6500030864197548
  3
STANDARD
100
AcDbDiametricDimension
 15
3.601049532913685
 25
12.126568000661
 35
0.0
 40
0.0
1001
ACAD
1000
DSTYLE
1002
{
1070
   141
1040
0.0
1070
   288
1070
     1
1002
}
  0
ENDSEC
  0
SECTION
  2
OBJECTS
  0
DICTIONARY
  5
C
330
0
100
AcDbDictionary
281
     1
  3
ACAD_COLOR
350
10D
  3
ACAD_GROUP
350
D
  3
ACAD_LAYOUT
350
110
  3
ACAD_MATERIAL
350
10C
  3
ACAD_MLINESTYLE
350
1B
  3
ACAD_PLOTSETTINGS
350
111
  3
ACAD_PLOTSTYLENAME
350
10A
  3
ACAD_TABLESTYLE
350
10E
  3
ACDBHEADERROUNDTRIPXREC
350
C24
  3
AcDbVariableDictionary
350
13E
  3
ASE_INDEX_DICTIONARY
350
148
  0
DICTIONARY
  5
154
330
2
100
AcDbDictionary
280
     1
281
     1
  3
ACAD_LAYERFILTERS
360
158
  3
ACLYDICTIONARY
360
157
  0
DICTIONARY
  5
10D
102
{ACAD_REACTORS
330
C
102
}
330
C
100
AcDbDictionary
281
     1
  0
DICTIONARY
  5
D
102
{ACAD_REACTORS
330
C
102
}
330
C
100
AcDbDictionary
281
     1
  0
DICTIONARY
  5
110
102
{ACAD_REACTORS
330
C
102
}
330
C
100
AcDbDictionary
281
     1
  3
Layout1
350
113
  3
Model
350
112
  0
DICTIONARY
  5
10C
102
{ACAD_REACTORS
330
C
102
}
330
C
100
AcDbDictionary
281
     1
  0
DICTIONARY
  5
1B
102
{ACAD_REACTORS
330
C
102
}
330
C
100
AcDbDictionary
281
     1
  3
STANDARD
350
1C
  0
DICTIONARY
  5
111
102
{ACAD_REACTORS
330
C
102
}
330
C
100
AcDbDictionary
281
     1
  0
ACDBDICTIONARYWDFLT
  5
10A
102
{ACAD_REACTORS
330
C
102
}
330
C
100
AcDbDictionary
281
     1
  3
Normal
350
10B
100
AcDbDictionaryWithDefault
340
10B
  0
DICTIONARY
  5
10E
102
{ACAD_REACTORS
330
C
102
}
330
C
100
AcDbDictionary
281
     1
  3
Standard
350
10F
  0
DICTIONARY
  5
C24
102
{ACAD_REACTORS
330
C
102
}
330
C
100
AcDbDictionary
281
     1
  0
DICTIONARY
  5
13E
102
{ACAD_REACTORS
330
C
102
}
330
C
100
AcDbDictionary
281
     1
  3
CTABLESTYLE
350
13F
  3
DIMASSOC
350
C21
  3
PROJECTNAME
350
C22
  0
DICTIONARY
  5
148
102
{ACAD_REACTORS
330
C
102
}
330
C
100
AcDbDictionary
281
     1
  3
ASEBlockHierarchyIndexRecord
350
14A
1001
DCO15
1040
1529148047.148
  0
DICTIONARY
  5
158
102
{ACAD_REACTORS
330
154
102
}
330
154
100
AcDbDictionary
281
     1
  0
DICTIONARY
  5
157
102
{ACAD_REACTORS
330
154
102
}
330
154
100
AcDbDictionary
281
     1
1001
ACAD
1000
<All
  0
LAYOUT
  5
113
102
{ACAD_XDICTIONARY
360
C27
102
}
102
{ACAD_REACTORS
330
110
102
}
330
110
100
AcDbPlotSettings
  1

  2
\\RSENG\RSplotter4NT
  4

  6

 40
0.0
 41
0.0
 42
0.0
 43
0.0
 44
0.0
 45
0.0
 46
0.0
 47
0.0
 48
0.0
 49
0.0
140
0.0
141
0.0
142
1.0
143
1.0
 70
   688
 72
     0
 73
     0
 74
     5
  7
Symantec Fax Starter Edition
 75
    16
147
1.0
148
0.0
149
0.0
100
AcDbLayout
  1
Layout1
 70
     1
 71
     1
 10
0.0
 20
0.0
 11
12.0
 21
9.0
 12
0.0
 22
0.0
 32
0.0
 14
1.000000000000000E+20
 24
1.000000000000000E+20
 34
1.000000000000000E+20
 15
-1.000000000000000E+20
 25
-1.000000000000000E+20
 35
-1.000000000000000E+20
146
0.0
 13
0.0
 23
0.0
 33
0.0
 16
1.0
 26
0.0
 36
0.0
 17
0.0
 27
1.0
 37
0.0
 76
     0
330
15
  0
LAYOUT
  5
112
102
{ACAD_XDICTIONARY
360
C25
102
}
102
{ACAD_REACTORS
330
110
102
}
330
110
100
AcDbPlotSettings
  1

  2
\\RSENG\RSplotter4NT
  4

  6

 40
0.0
 41
0.0
 42
0.0
 43
0.0
 44
0.0
 45
0.0
 46
0.0
 47
0.0
 48
0.0
 49
0.0
140
0.0
141
0.0
142
1.0
143
1.0
 70
  1712
 72
     0
 73
     0
 74
     0
  7
Symantec Fax Starter Edition
 75
     0
147
1.0
148
0.0
149
0.0
100
AcDbLayout
  1
Model
 70
     1
 71
     0
 10
0.0
 20
0.0
 11
12.0
 21
9.0
 12
0.0
 22
0.0
 32
0.0
 14
0.0
 24
0.0
 34
0.0
 15
0.0
 25
0.0
 35
0.0
146
0.0
 13
0.0
 23
0.0
 33
0.0
 16
1.0
 26
0.0
 36
0.0
 17
0.0
 27
1.0
 37
0.0
 76
     0
330
18
  0
MLINESTYLE
  5
1C
102
{ACAD_REACTORS
330
1B
102
}
330
1B
100
AcDbMlineStyle
  2
STANDARD
 70
     0
  3

 62
   256
 51
90.0
 52
90.0
 71
     2
 49
0.5
 62
   256
  6
BYLAYER
 49
-0.5
 62
   256
  6
BYLAYER
  0
ACDBPLACEHOLDER
  5
10B
102
{ACAD_REACTORS
330
10A
102
}
330
10A
  0
TABLESTYLE
  5
10F
102
{ACAD_REACTORS
330
10E
102
}
330
10E
100
AcDbTableStyle
  3
Standard
 70
     0
 71
     0
 40
0.06
 41
0.06
280
     0
281
     0
  7
STANDARD
140
0.18
170
     2
 62
     0
 63
     7
283
     0
274
    -2
284
     1
 64
     0
275
    -2
285
     1
 65
     0
276
    -2
286
     1
 66
     0
277
    -2
287
     1
 67
     0
278
    -2
288
     1
 68
     0
279
    -2
289
     1
 69
     0
  7
STANDARD
140
0.25
170
     5
 62
     0
 63
     7
283
     0
274
    -2
284
     1
 64
     0
275
    -2
285
     1
 65
     0
276
    -2
286
     1
 66
     0
277
    -2
287
     1
 67
     0
278
    -2
288
     1
 68
     0
279
    -2
289
     1
 69
     0
  7
STANDARD
140
0.18
170
     5
 62
     0
 63
     7
283
     0
274
    -2
284
     1
 64
     0
275
    -2
285
     1
 65
     0
276
    -2
286
     1
 66
     0
277
    -2
287
     1
 67
     0
278
    -2
288
     1
 68
     0
279
    -2
289
     1
 69
     0
  0
DICTIONARYVAR
  5
13F
102
{ACAD_REACTORS
330
13E
102
}
330
13E
100
DictionaryVariables
280
     0
  1
STANDARD
  0
DICTIONARYVAR
  5
C21
102
{ACAD_REACTORS
330
13E
102
}
330
13E
100
DictionaryVariables
280
     0
  1
1
  0
DICTIONARYVAR
  5
C22
102
{ACAD_REACTORS
330
13E
102
}
330
13E
100
DictionaryVariables
280
     0
  1

  0
XRECORD
  5
14A
102
{ACAD_REACTORS
330
148
102
}
330
148
100
AcDbXrecord
280
     1
  0
DICTIONARY
  5
C27
330
113
100
AcDbDictionary
280
     1
281
     1
  3
ACAD_XREC_ROUNDTRIP
360
C28
  0
DICTIONARY
  5
C25
330
112
100
AcDbDictionary
280
     1
281
     1
  3
ACAD_XREC_ROUNDTRIP
360
C26
  0
XRECORD
  5
C28
102
{ACAD_REACTORS
330
C27
102
}
330
C27
100
AcDbXrecord
280
     1
102
SHADEPLOT
 70
     0
102
SHADEPLOTRESLEVEL
 70
     2
102
SHADEPLOTCUSTOMDPI
 70
   300
  0
XRECORD
  5
C26
102
{ACAD_REACTORS
330
C25
102
}
330
C25
100
AcDbXrecord
280
     1
102
SHADEPLOT
 70
     0
102
SHADEPLOTRESLEVEL
 70
     2
102
SHADEPLOTCUSTOMDPI
 70
   300
  0
ENDSEC
  0
EOF
