  0
SECTION
  2
HEADER
  9
$ACADVER
  1
AC1009
  9
$INSBASE
 10
402.590624
 20
-1.041018
 30
0.0
  9
$EXTMIN
 10
1183.836282
 20
1.228457
 30
0.0
  9
$EXTMAX
 10
1300.466443
 20
177.228457
 30
0.0
  9
$LIMMIN
 10
-407.970438
 20
-367.832444
  9
$LIMMAX
 10
429.804077
 20
234.370848
  9
$ORTHOMODE
 70
     0
  9
$REGENMODE
 70
     1
  9
$FILLMODE
 70
     1
  9
$QTEXTMODE
 70
     0
  9
$MIRRTEXT
 70
     1
  9
$DRAGMODE
 70
     2
  9
$LTSCALE
 40
10.0
  9
$OSMODE
 70
    33
  9
$ATTMODE
 70
     1
  9
$TEXTSIZE
 40
6.0
  9
$TRACEWID
 40
1.0
  9
$TEXTSTYLE
  7
ROMANS
  9
$CLAYER
  8
ALPHA
  9
$CELTYPE
  6
BYLAYER
  9
$CECOLOR
 62
   256
  9
$DIMSCALE
 40
1.0
  9
$DIMASZ
 40
5.0
  9
$DIMEXO
 40
2.0
  9
$DIMDLI
 40
0.38
  9
$DIMRND
 40
0.0
  9
$DIMDLE
 40
0.0
  9
$DIMEXE
 40
2.5
  9
$DIMTP
 40
0.0
  9
$DIMTM
 40
0.0
  9
$DIMTXT
 40
2.5
  9
$DIMCEN
 40
0.0
  9
$DIMTSZ
 40
0.0
  9
$DIMTOL
 70
     0
  9
$DIMLIM
 70
     0
  9
$DIMTIH
 70
     1
  9
$DIMTOH
 70
     1
  9
$DIMSE1
 70
     0
  9
$DIMSE2
 70
     0
  9
$DIMTAD
 70
     1
  9
$DIMZIN
 70
    12
  9
$DIMBLK
  1
OPEN30
  9
$DIMASO
 70
     1
  9
$DIMSHO
 70
     1
  9
$DIMPOST
  1

  9
$DIMAPOST
  1

  9
$DIMALT
 70
     0
  9
$DIMALTD
 70
     2
  9
$DIMALTF
 40
25.4
  9
$DIMLFAC
 40
1.0
  9
$DIMTOFL
 70
     0
  9
$DIMTVP
 40
0.0
  9
$DIMTIX
 70
     0
  9
$DIMSOXD
 70
     0
  9
$DIMSAH
 70
     0
  9
$DIMBLK1
  1

  9
$DIMBLK2
  1

  9
$DIMSTYLE
  2
SC_DEFAUT
  9
$DIMCLRD
 70
     0
  9
$DIMCLRE
 70
     0
  9
$DIMCLRT
 70
     0
  9
$DIMTFAC
 40
1.0
  9
$DIMGAP
 40
2.0
  9
$LUNITS
 70
     2
  9
$LUPREC
 70
     1
  9
$SKETCHINC
 40
0.1
  9
$FILLETRAD
 40
0.0
  9
$AUNITS
 70
     0
  9
$AUPREC
 70
     0
  9
$MENU
  1
acad
  9
$ELEVATION
 40
0.0
  9
$PELEVATION
 40
0.0
  9
$THICKNESS
 40
0.0
  9
$LIMCHECK
 70
     0
  9
$BLIPMODE
 70
     0
  9
$CHAMFERA
 40
0.0
  9
$CHAMFERB
 40
0.0
  9
$SKPOLY
 70
     0
  9
$TDCREATE
 40
2450373.687919
  9
$TDUPDATE
 40
2452822.661891
  9
$TDINDWG
 40
0.834299
  9
$TDUSRTIMER
 40
0.834299
  9
$USRTIMER
 70
     1
  9
$ANGBASE
 50
0.0
  9
$ANGDIR
 70
     0
  9
$PDMODE
 70
    32
  9
$PDSIZE
 40
0.0
  9
$PLINEWID
 40
0.0
  9
$COORDS
 70
     1
  9
$SPLFRAME
 70
     0
  9
$SPLINETYPE
 70
     6
  9
$SPLINESEGS
 70
     8
  9
$ATTDIA
 70
     0
  9
$ATTREQ
 70
     1
  9
$HANDLING
 70
     1
  9
$HANDSEED
  5
77FC
  9
$SURFTAB1
 70
     6
  9
$SURFTAB2
 70
     6
  9
$SURFTYPE
 70
     6
  9
$SURFU
 70
     6
  9
$SURFV
 70
     6
  9
$UCSNAME
  2

  9
$UCSORG
 10
0.0
 20
0.0
 30
0.0
  9
$UCSXDIR
 10
1.0
 20
0.0
 30
0.0
  9
$UCSYDIR
 10
0.0
 20
1.0
 30
0.0
  9
$PUCSNAME
  2

  9
$PUCSORG
 10
0.0
 20
0.0
 30
0.0
  9
$PUCSXDIR
 10
1.0
 20
0.0
 30
0.0
  9
$PUCSYDIR
 10
0.0
 20
1.0
 30
0.0
  9
$USERI1
 70
     0
  9
$USERI2
 70
     0
  9
$USERI3
 70
     0
  9
$USERI4
 70
     0
  9
$USERI5
 70
     0
  9
$USERR1
 40
0.0
  9
$USERR2
 40
0.0
  9
$USERR3
 40
0.0
  9
$USERR4
 40
0.0
  9
$USERR5
 40
0.0
  9
$WORLDVIEW
 70
     1
  9
$SHADEDGE
 70
     3
  9
$SHADEDIF
 70
    70
  9
$TILEMODE
 70
     1
  9
$MAXACTVP
 70
    16
  9
$PLIMCHECK
 70
     0
  9
$PEXTMIN
 10
-1.452248
 20
-0.437698
 30
0.0
  9
$PEXTMAX
 10
12.749749
 20
8.310198
 30
0.0
  9
$PLIMMIN
 10
0.0
 20
0.0
  9
$PLIMMAX
 10
12.0
 20
9.0
  9
$UNITMODE
 70
     0
  9
$VISRETAIN
 70
     0
  9
$PLINEGEN
 70
     0
  9
$PSLTSCALE
 70
     0
  0
ENDSEC
  0
SECTION
  2
TABLES
  0
TABLE
  2
VPORT
 70
     2
  0
VPORT
  2
*ACTIVE
 70
     0
 10
0.0
 20
0.0
 11
1.0
 21
1.0
 12
1242.166248
 22
89.22769
 13
0.0
 23
0.0
 14
1.0
 24
1.0
 15
10.0
 25
10.0
 16
0.0
 26
0.0
 36
1.0
 17
0.0
 27
0.0
 37
0.0
 40
177.519778
 41
1.56
 42
50.0
 43
0.0
 44
0.0
 50
0.0
 51
0.0
 71
     0
 72
   100
 73
     1
 74
     0
 75
     0
 76
     0
 77
     0
 78
     0
  0
ENDTAB
  0
TABLE
  2
LTYPE
 70
     3
  0
LTYPE
  2
CONTINUOUS
 70
     0
  3
Solid line
 72
    65
 73
     0
 40
0.0
  0
LTYPE
  2
AXES2
 70
     0
  3
___ _ ___ _ ___ _ ___ _ ___ _ ___ _ ___ _ ___ _
 72
    65
 73
     4
 40
1.125
 49
0.75
 49
-0.125
 49
0.125
 49
-0.125
  0
LTYPE
  2
CACHE2
 70
     0
  3
Caché (x.5) _ _ _ _ _ _ _ _ _ _ _ _ _ _ _ _ _
 72
    65
 73
     2
 40
0.1875
 49
0.125
 49
-0.0625
  0
ENDTAB
  0
TABLE
  2
LAYER
 70
     7
  0
LAYER
  2
0
 70
     0
 62
   255
  6
CONTINUOUS
  0
LAYER
  2
COTATION1
 70
     0
 62
     2
  6
CONTINUOUS
  0
LAYER
  2
AXE
 70
     0
 62
    80
  6
AXES2
  0
LAYER
  2
DEFPOINTS
 70
     0
 62
     7
  6
CONTINUOUS
  0
LAYER
  2
ALPHA
 70
     0
 62
   254
  6
CONTINUOUS
  0
LAYER
  2
POINTILLE_COURT
 70
     0
 62
    41
  6
CACHE2
  0
LAYER
  2
ALPHA_FIN
 70
     0
 62
   255
  6
CONTINUOUS
  0
ENDTAB
  0
TABLE
  2
STYLE
 70
     2
  0
STYLE
  2
ROMANS
 70
     0
 40
0.0
 41
1.0
 50
0.0
 71
     0
 42
6.0
  3
romans
  4

  0
STYLE
  2
STANDARD
 70
     0
 40
0.2
 41
1.0
 50
0.0
 71
     0
 42
0.2
  3
txt
  4

  0
ENDTAB
  0
TABLE
  2
VIEW
 70
     0
  0
ENDTAB
  0
TABLE
  2
UCS
 70
     0
  0
ENDTAB
  0
TABLE
  2
APPID
 70
     1
  0
APPID
  2
ACAD
 70
     0
  0
ENDTAB
  0
TABLE
  2
DIMSTYLE
 70
     1
  0
DIMSTYLE
  2
SC_DEFAUT
 70
     0
  3

  4

  5
OPEN30
  6

  7

 40
1.0
 41
5.0
 42
2.0
 43
0.38
 44
2.5
 45
0.0
 46
0.0
 47
0.0
 48
0.0
140
2.5
141
0.0
142
0.0
143
25.4
144
1.0
145
0.0
146
1.0
147
2.0
 71
     0
 72
     0
 73
     1
 74
     1
 75
     0
 76
     0
 77
     1
 78
    12
170
     0
171
     2
172
     0
173
     0
174
     0
175
     0
176
     0
177
     0
178
     0
  0
ENDTAB
  0
ENDSEC
  0
SECTION
  2
BLOCKS
  0
BLOCK
  8
0
  2
$MODEL_SPACE
 70
     0
 10
0.0
 20
0.0
 30
0.0
  3
$MODEL_SPACE
  1

  0
ENDBLK
  5
779B
  8
0
  0
BLOCK
 67
     1
  8
0
  2
$PAPER_SPACE
 70
     0
 10
0.0
 20
0.0
 30
0.0
  3
$PAPER_SPACE
  1

  0
ENDBLK
  5
7799
 67
     1
  8
0
  0
BLOCK
  8
0
  2
COTE
 70
     0
 10
0.0
 20
0.0
 30
0.0
  3
COTE
  1

  0
ENDBLK
  5
F
  8
0
  0
BLOCK
  8
0
  2
FOND
 70
     0
 10
0.0
 20
0.0
 30
0.0
  3
FOND
  1

  0
ENDBLK
  5
75
  8
0
  0
BLOCK
  8
0
  2
_OPEN30
 70
     0
 10
0.0
 20
0.0
 30
0.0
  3
_OPEN30
  1

  0
LINE
  5
4B05
  8
COTATION1
 62
     0
 10
-1.0
 20
0.267949
 30
0.0
 11
0.0
 21
0.0
 31
0.0
1001
ACAD
1000
RTLwPs
1070
   158
  0
LINE
  5
4B06
  8
COTATION1
 62
     0
 10
0.0
 20
0.0
 30
0.0
 11
-1.0
 21
-0.267949
 31
0.0
1001
ACAD
1000
RTLwPs
1070
   158
  0
LINE
  5
4B07
  8
COTATION1
 62
     0
 10
0.0
 20
0.0
 30
0.0
 11
-1.0
 21
0.0
 31
0.0
1001
ACAD
1000
RTLwPs
1070
   158
  0
ENDBLK
  5
4B09
  8
0
  0
BLOCK
  8
0
  2
*D3
 70
     1
 10
0.0
 20
0.0
 30
0.0
  3
*D3
  1

  0
LINE
  5
759C
  8
COTATION1
 62
     0
 10
1225.930729
 20
116.878457
 30
0.0
 11
1225.930729
 21
175.228457
 31
0.0
1001
ACAD
1000
RTLwPs
1070
   158
  0
LINE
  5
759D
  8
COTATION1
 62
     0
 10
1247.930729
 20
116.878457
 30
0.0
 11
1247.930729
 21
175.228457
 31
0.0
1001
ACAD
1000
RTLwPs
1070
   158
  0
LINE
  5
759E
  8
COTATION1
 62
     0
 10
1230.930729
 20
172.728457
 30
0.0
 11
1242.930729
 21
172.728457
 31
0.0
1001
ACAD
1000
RTLwPs
1070
   158
  0
INSERT
  5
759F
  8
COTATION1
 62
     0
  2
_OPEN30
 10
1225.930729
 20
172.728457
 30
0.0
 41
5.0
 42
5.0
 43
5.0
 50
180.0
1001
ACAD
1000
RTLwPs
1070
   158
  0
INSERT
  5
75A0
  8
COTATION1
 62
     0
  2
_OPEN30
 10
1247.930729
 20
172.728457
 30
0.0
 41
5.0
 42
5.0
 43
5.0
1001
ACAD
1000
RTLwPs
1070
   158
  0
TEXT
  5
75A1
  8
COTATION1
 62
     0
 10
1234.549776
 20
174.728457
 30
0.0
 40
2.5
  1
22
1001
ACAD
1000
MTEXTBEGIN
1070
    73
1070
     1
1070
    44
1040
1.0
1070
    74
1070
     0
1000
MTEXTEND
1000
MTEXTBEGIN
1070
    73
1070
     1
1070
    44
1040
1.0
1070
    74
1070
     0
1000
MTEXTEND
  0
POINT
  5
75A2
  8
DEFPOINTS
 62
     0
 10
1225.930729
 20
114.878457
 30
0.0
  0
POINT
  5
75A3
  8
DEFPOINTS
 62
     0
 10
1247.930729
 20
114.878457
 30
0.0
  0
POINT
  5
75A4
  8
DEFPOINTS
 62
     0
 10
1247.930729
 20
172.728457
 30
0.0
  0
ENDBLK
  5
7248
  8
0
  0
BLOCK
  8
0
  2
*D4
 70
     1
 10
0.0
 20
0.0
 30
0.0
  3
*D4
  1

  0
LINE
  5
75A5
  8
COTATION1
 62
     0
 10
1226.930729
 20
114.878457
 30
0.0
 11
1226.930729
 21
165.228457
 31
0.0
1001
ACAD
1000
RTLwPs
1070
   158
  0
LINE
  5
75A6
  8
COTATION1
 62
     0
 10
1246.930729
 20
114.878457
 30
0.0
 11
1246.930729
 21
165.228457
 31
0.0
1001
ACAD
1000
RTLwPs
1070
   158
  0
LINE
  5
75A7
  8
COTATION1
 62
     0
 10
1231.930729
 20
162.728457
 30
0.0
 11
1241.930729
 21
162.728457
 31
0.0
1001
ACAD
1000
RTLwPs
1070
   158
  0
INSERT
  5
75A8
  8
COTATION1
 62
     0
  2
_OPEN30
 10
1226.930729
 20
162.728457
 30
0.0
 41
5.0
 42
5.0
 43
5.0
 50
180.0
1001
ACAD
1000
RTLwPs
1070
   158
  0
INSERT
  5
75A9
  8
COTATION1
 62
     0
  2
_OPEN30
 10
1246.930729
 20
162.728457
 30
0.0
 41
5.0
 42
5.0
 43
5.0
1001
ACAD
1000
RTLwPs
1070
   158
  0
TEXT
  5
75AA
  8
COTATION1
 62
     0
 10
1234.549776
 20
164.728457
 30
0.0
 40
2.5
  1
20
1001
ACAD
1000
MTEXTBEGIN
1070
    73
1070
     1
1070
    44
1040
1.0
1070
    74
1070
     0
1000
MTEXTEND
1000
MTEXTBEGIN
1070
    73
1070
     1
1070
    44
1040
1.0
1070
    74
1070
     0
1000
MTEXTEND
  0
POINT
  5
75AB
  8
DEFPOINTS
 62
     0
 10
1226.930729
 20
112.878457
 30
0.0
  0
POINT
  5
75AC
  8
DEFPOINTS
 62
     0
 10
1246.930729
 20
112.878457
 30
0.0
  0
POINT
  5
75AD
  8
DEFPOINTS
 62
     0
 10
1246.930729
 20
162.728457
 30
0.0
  0
ENDBLK
  5
7254
  8
0
  0
BLOCK
  8
0
  2
*D5
 70
     1
 10
0.0
 20
0.0
 30
0.0
  3
*D5
  1

  0
LINE
  5
764A
  8
COTATION1
 62
     0
 10
1251.918564
 20
116.663074
 30
0.0
 11
1261.252795
 21
130.55409
 31
0.0
1001
ACAD
1000
RTLwPs
1070
   158
  0
LINE
  5
764B
  8
COTATION1
 62
     0
 10
1261.252795
 20
130.55409
 30
0.0
 11
1283.133747
 21
130.55409
 31
0.0
1001
ACAD
1000
RTLwPs
1070
   158
  0
INSERT
  5
764C
  8
COTATION1
 62
     0
  2
_OPEN30
 10
1249.129868
 20
112.512992
 30
0.0
 41
5.0
 42
5.0
 43
5.0
 50
236.10041
1001
ACAD
1000
RTLwPs
1070
   158
  0
TEXT
  5
764D
  8
COTATION1
 62
     0
 10
1262.895652
 20
132.55409
 30
0.0
 40
2.5
  1
2x%%c4.3x6.3
1001
ACAD
1000
MTEXTBEGIN
1070
    73
1070
     1
1070
    44
1040
1.0
1070
    74
1070
     0
1000
MTEXTEND
1000
MTEXTBEGIN
1070
    73
1070
     1
1070
    44
1040
1.0
1070
    74
1070
     0
1000
MTEXTEND
  0
POINT
  5
764E
  8
DEFPOINTS
 62
     0
 10
1249.129868
 20
112.512992
 30
0.0
  0
POINT
  5
764F
  8
DEFPOINTS
 62
     0
 10
1246.731589
 20
108.943922
 30
0.0
  0
ENDBLK
  5
744E
  8
0
  0
BLOCK
  8
0
  2
*D6
 70
     1
 10
0.0
 20
0.0
 30
0.0
  3
*D6
  1

  0
LINE
  5
76EE
  8
COTATION1
 62
     0
 10
1238.930729
 20
118.728457
 30
0.0
 11
1289.930729
 21
118.728457
 31
0.0
  0
LINE
  5
76EF
  8
COTATION1
 62
     0
 10
1253.080729
 20
108.728457
 30
0.0
 11
1289.930729
 21
108.728457
 31
0.0
  0
LINE
  5
76F0
  8
COTATION1
 62
     0
 10
1287.430729
 20
123.728457
 30
0.0
 11
1287.430729
 21
128.728457
 31
0.0
  0
LINE
  5
76F1
  8
COTATION1
 62
     0
 10
1287.430729
 20
103.728457
 30
0.0
 11
1287.430729
 21
98.728457
 31
0.0
  0
TEXT
  5
76F2
  8
COTATION1
 62
     0
 10
1284.871205
 20
112.478457
 30
0.0
 40
2.5
  1
10
  0
INSERT
  5
76F3
  8
COTATION1
 62
     0
  2
_OPEN30
 10
1287.430729
 20
118.728457
 30
0.0
 41
5.0
 42
5.0
 43
5.0
 50
270.0
  0
INSERT
  5
76F4
  8
COTATION1
 62
     0
  2
_OPEN30
 10
1287.430729
 20
108.728457
 30
0.0
 41
5.0
 42
5.0
 43
5.0
 50
90.0
  0
POINT
  5
76F5
  8
DEFPOINTS
 62
     0
 10
1236.930729
 20
118.728457
 30
0.0
  0
POINT
  5
76F6
  8
DEFPOINTS
 62
     0
 10
1251.080729
 20
108.728457
 30
0.0
  0
POINT
  5
76F7
  8
DEFPOINTS
 62
     0
 10
1287.430729
 20
108.728457
 30
0.0
  0
ENDBLK
  5
745B
  8
0
  0
BLOCK
  8
0
  2
*D7
 70
     1
 10
0.0
 20
0.0
 30
0.0
  3
*D7
  1

  0
LINE
  5
7650
  8
COTATION1
 62
     0
 10
1242.430729
 20
147.728457
 30
0.0
 11
1299.930729
 21
147.728457
 31
0.0
1001
ACAD
1000
RTLwPs
1070
   158
  0
LINE
  5
7651
  8
COTATION1
 62
     0
 10
1243.198678
 20
41.728457
 30
0.0
 11
1299.930729
 21
41.728457
 31
0.0
1001
ACAD
1000
RTLwPs
1070
   158
  0
LINE
  5
7652
  8
COTATION1
 62
     0
 10
1297.430729
 20
142.728457
 30
0.0
 11
1297.430729
 21
97.978457
 31
0.0
1001
ACAD
1000
RTLwPs
1070
   158
  0
LINE
  5
7653
  8
COTATION1
 62
     0
 10
1297.430729
 20
46.728457
 30
0.0
 11
1297.430729
 21
91.478457
 31
0.0
1001
ACAD
1000
RTLwPs
1070
   158
  0
INSERT
  5
7654
  8
COTATION1
 62
     0
  2
_OPEN30
 10
1297.430729
 20
147.728457
 30
0.0
 41
5.0
 42
5.0
 43
5.0
 50
90.0
1001
ACAD
1000
RTLwPs
1070
   158
  0
INSERT
  5
7655
  8
COTATION1
 62
     0
  2
_OPEN30
 10
1297.430729
 20
41.728457
 30
0.0
 41
5.0
 42
5.0
 43
5.0
 50
270.0
1001
ACAD
1000
RTLwPs
1070
   158
  0
TEXT
  5
7656
  8
COTATION1
 62
     0
 10
1293.680729
 20
93.478457
 30
0.0
 40
2.5
  1
106
1001
ACAD
1000
MTEXTBEGIN
1070
    73
1070
     1
1070
    44
1040
1.0
1070
    74
1070
     0
1000
MTEXTEND
1000
MTEXTBEGIN
1070
    73
1070
     1
1070
    44
1040
1.0
1070
    74
1070
     0
1000
MTEXTEND
  0
POINT
  5
7657
  8
DEFPOINTS
 62
     0
 10
1240.430729
 20
147.728457
 30
0.0
  0
POINT
  5
7658
  8
DEFPOINTS
 62
     0
 10
1241.198678
 20
41.728457
 30
0.0
  0
POINT
  5
7659
  8
DEFPOINTS
 62
     0
 10
1297.430729
 20
41.728457
 30
0.0
  0
ENDBLK
  5
7468
  8
0
  0
BLOCK
  8
0
  2
*D8
 70
     1
 10
0.0
 20
0.0
 30
0.0
  3
*D8
  1

  0
LINE
  5
763B
  8
COTATION1
 62
     0
 10
1221.430729
 20
51.728457
 30
0.0
 11
1221.430729
 21
1.228457
 31
0.0
1001
ACAD
1000
RTLwPs
1070
   158
  0
LINE
  5
763C
  8
COTATION1
 62
     0
 10
1252.430729
 20
51.728457
 30
0.0
 11
1252.430729
 21
1.228457
 31
0.0
1001
ACAD
1000
RTLwPs
1070
   158
  0
LINE
  5
763D
  8
COTATION1
 62
     0
 10
1226.430729
 20
3.728457
 30
0.0
 11
1247.430729
 21
3.728457
 31
0.0
1001
ACAD
1000
RTLwPs
1070
   158
  0
INSERT
  5
763E
  8
COTATION1
 62
     0
  2
_OPEN30
 10
1221.430729
 20
3.728457
 30
0.0
 41
5.0
 42
5.0
 43
5.0
 50
180.0
1001
ACAD
1000
RTLwPs
1070
   158
  0
INSERT
  5
763F
  8
COTATION1
 62
     0
  2
_OPEN30
 10
1252.430729
 20
3.728457
 30
0.0
 41
5.0
 42
5.0
 43
5.0
1001
ACAD
1000
RTLwPs
1070
   158
  0
TEXT
  5
7640
  8
COTATION1
 62
     0
 10
1234.906919
 20
5.728457
 30
0.0
 40
2.5
  1
31
1001
ACAD
1000
MTEXTBEGIN
1070
    73
1070
     1
1070
    44
1040
1.0
1070
    74
1070
     0
1000
MTEXTEND
1000
MTEXTBEGIN
1070
    73
1070
     1
1070
    44
1040
1.0
1070
    74
1070
     0
1000
MTEXTEND
  0
POINT
  5
7641
  8
DEFPOINTS
 62
     0
 10
1221.430729
 20
53.728457
 30
0.0
  0
POINT
  5
7642
  8
DEFPOINTS
 62
     0
 10
1252.430729
 20
53.728457
 30
0.0
  0
POINT
  5
7643
  8
DEFPOINTS
 62
     0
 10
1252.430729
 20
3.728457
 30
0.0
  0
ENDBLK
  5
7474
  8
0
  0
BLOCK
  8
0
  2
*D9
 70
     1
 10
0.0
 20
0.0
 30
0.0
  3
*D9
  1

  0
LINE
  5
7632
  8
COTATION1
 62
     0
 10
1227.430729
 20
51.228457
 30
0.0
 11
1227.430729
 21
11.228457
 31
0.0
1001
ACAD
1000
RTLwPs
1070
   158
  0
LINE
  5
7633
  8
COTATION1
 62
     0
 10
1246.430729
 20
51.228457
 30
0.0
 11
1246.430729
 21
11.228457
 31
0.0
1001
ACAD
1000
RTLwPs
1070
   158
  0
LINE
  5
7634
  8
COTATION1
 62
     0
 10
1232.430729
 20
13.728457
 30
0.0
 11
1241.430729
 21
13.728457
 31
0.0
1001
ACAD
1000
RTLwPs
1070
   158
  0
INSERT
  5
7635
  8
COTATION1
 62
     0
  2
_OPEN30
 10
1227.430729
 20
13.728457
 30
0.0
 41
5.0
 42
5.0
 43
5.0
 50
180.0
1001
ACAD
1000
RTLwPs
1070
   158
  0
INSERT
  5
7636
  8
COTATION1
 62
     0
  2
_OPEN30
 10
1246.430729
 20
13.728457
 30
0.0
 41
5.0
 42
5.0
 43
5.0
1001
ACAD
1000
RTLwPs
1070
   158
  0
TEXT
  5
7637
  8
COTATION1
 62
     0
 10
1234.430729
 20
15.728457
 30
0.0
 40
2.5
  1
19
1001
ACAD
1000
MTEXTBEGIN
1070
    73
1070
     1
1070
    44
1040
1.0
1070
    74
1070
     0
1000
MTEXTEND
1000
MTEXTBEGIN
1070
    73
1070
     1
1070
    44
1040
1.0
1070
    74
1070
     0
1000
MTEXTEND
  0
POINT
  5
7638
  8
DEFPOINTS
 62
     0
 10
1227.430729
 20
53.228457
 30
0.0
  0
POINT
  5
7639
  8
DEFPOINTS
 62
     0
 10
1246.430729
 20
53.228457
 30
0.0
  0
POINT
  5
763A
  8
DEFPOINTS
 62
     0
 10
1246.430729
 20
13.728457
 30
0.0
  0
ENDBLK
  5
7480
  8
0
  0
BLOCK
  8
0
  2
*D10
 70
     1
 10
0.0
 20
0.0
 30
0.0
  3
*D10
  1

  0
LINE
  5
7614
  8
COTATION1
 62
     0
 10
1253.080729
 20
108.728457
 30
0.0
 11
1289.930729
 21
108.728457
 31
0.0
1001
ACAD
1000
RTLwPs
1070
   158
  0
LINE
  5
7615
  8
COTATION1
 62
     0
 10
1252.930729
 20
57.728457
 30
0.0
 11
1289.930729
 21
57.728457
 31
0.0
1001
ACAD
1000
RTLwPs
1070
   158
  0
LINE
  5
7616
  8
COTATION1
 62
     0
 10
1287.430729
 20
103.728457
 30
0.0
 11
1287.430729
 21
86.478457
 31
0.0
1001
ACAD
1000
RTLwPs
1070
   158
  0
LINE
  5
7617
  8
COTATION1
 62
     0
 10
1287.430729
 20
62.728457
 30
0.0
 11
1287.430729
 21
79.978457
 31
0.0
1001
ACAD
1000
RTLwPs
1070
   158
  0
INSERT
  5
7618
  8
COTATION1
 62
     0
  2
_OPEN30
 10
1287.430729
 20
108.728457
 30
0.0
 41
5.0
 42
5.0
 43
5.0
 50
90.0
1001
ACAD
1000
RTLwPs
1070
   158
  0
INSERT
  5
7619
  8
COTATION1
 62
     0
  2
_OPEN30
 10
1287.430729
 20
57.728457
 30
0.0
 41
5.0
 42
5.0
 43
5.0
 50
270.0
1001
ACAD
1000
RTLwPs
1070
   158
  0
TEXT
  5
761A
  8
COTATION1
 62
     0
 10
1285.406919
 20
81.978457
 30
0.0
 40
2.5
  1
51
1001
ACAD
1000
MTEXTBEGIN
1070
    73
1070
     1
1070
    44
1040
1.0
1070
    74
1070
     0
1000
MTEXTEND
1000
MTEXTBEGIN
1070
    73
1070
     1
1070
    44
1040
1.0
1070
    74
1070
     0
1000
MTEXTEND
  0
POINT
  5
761B
  8
DEFPOINTS
 62
     0
 10
1251.080729
 20
108.728457
 30
0.0
  0
POINT
  5
761C
  8
DEFPOINTS
 62
     0
 10
1250.930729
 20
57.728457
 30
0.0
  0
POINT
  5
761D
  8
DEFPOINTS
 62
     0
 10
1287.430729
 20
57.728457
 30
0.0
  0
ENDBLK
  5
748D
  8
0
  0
BLOCK
  8
0
  2
*D11
 70
     1
 10
0.0
 20
0.0
 30
0.0
  3
*D11
  1

  0
LINE
  5
76F8
  8
COTATION1
 62
     0
 10
1254.080729
 20
110.728457
 30
0.0
 11
1279.930729
 21
110.728457
 31
0.0
  0
LINE
  5
76F9
  8
COTATION1
 62
     0
 10
1253.080729
 20
108.728457
 30
0.0
 11
1279.930729
 21
108.728457
 31
0.0
  0
LINE
  5
76FA
  8
COTATION1
 62
     0
 10
1277.430729
 20
115.728457
 30
0.0
 11
1277.430729
 21
120.728457
 31
0.0
  0
LINE
  5
76FB
  8
COTATION1
 62
     0
 10
1277.430729
 20
103.728457
 30
0.0
 11
1277.430729
 21
98.728457
 31
0.0
  0
TEXT
  5
76FC
  8
COTATION1
 62
     0
 10
1273.406919
 20
99.080197
 30
0.0
 40
2.5
  1
2
  0
INSERT
  5
76FD
  8
COTATION1
 62
     0
  2
_OPEN30
 10
1277.430729
 20
110.728457
 30
0.0
 41
5.0
 42
5.0
 43
5.0
 50
270.0
  0
INSERT
  5
76FE
  8
COTATION1
 62
     0
  2
_OPEN30
 10
1277.430729
 20
108.728457
 30
0.0
 41
5.0
 42
5.0
 43
5.0
 50
90.0
  0
POINT
  5
76FF
  8
DEFPOINTS
 62
     0
 10
1252.080729
 20
110.728457
 30
0.0
  0
POINT
  5
7700
  8
DEFPOINTS
 62
     0
 10
1251.080729
 20
108.728457
 30
0.0
  0
POINT
  5
7701
  8
DEFPOINTS
 62
     0
 10
1277.430729
 20
108.728457
 30
0.0
  0
ENDBLK
  5
749A
  8
0
  0
BLOCK
  8
0
  2
*D12
 70
     1
 10
0.0
 20
0.0
 30
0.0
  3
*D12
  1

  0
LINE
  5
76A8
  8
COTATION1
 62
     0
 10
1222.028943
 20
61.343801
 30
0.0
 11
1201.695481
 21
74.952719
 31
0.0
1001
ACAD
1000
RTLwPs
1070
   158
  0
LINE
  5
76A9
  8
COTATION1
 62
     0
 10
1201.695481
 20
74.952719
 30
0.0
 11
1191.362148
 21
74.952719
 31
0.0
1001
ACAD
1000
RTLwPs
1070
   158
  0
INSERT
  5
76AA
  8
COTATION1
 62
     0
  2
_OPEN30
 10
1226.184163
 20
58.562767
 30
0.0
 41
5.0
 42
5.0
 43
5.0
 50
326.206126
1001
ACAD
1000
RTLwPs
1070
   158
  0
TEXT
  5
76AB
  8
COTATION1
 62
     0
 10
1191.005005
 20
76.952719
 30
0.0
 40
2.5
  1
2x%%c3
1001
ACAD
1000
MTEXTBEGIN
1070
    73
1070
     1
1070
    44
1040
1.0
1070
    74
1070
     0
1000
MTEXTEND
  0
POINT
  5
76AC
  8
DEFPOINTS
 62
     0
 10
1226.184163
 20
58.562767
 30
0.0
  0
POINT
  5
76AD
  8
DEFPOINTS
 62
     0
 10
1228.677294
 20
56.894147
 30
0.0
  0
ENDBLK
  5
74A4
  8
0
  0
BLOCK
  8
0
  2
*D13
 70
     1
 10
0.0
 20
0.0
 30
0.0
  3
*D13
  1

  0
LINE
  5
7604
  8
COTATION1
 62
     0
 10
1220.614149
 20
105.378334
 30
0.0
 11
1197.741044
 21
93.24713
 31
0.0
1001
ACAD
1000
RTLwPs
1070
   158
  0
LINE
  5
7605
  8
COTATION1
 62
     0
 10
1197.741044
 20
93.24713
 30
0.0
 11
1183.836282
 21
93.24713
 31
0.0
1001
ACAD
1000
RTLwPs
1070
   158
  0
INSERT
  5
7606
  8
COTATION1
 62
     0
  2
_OPEN30
 10
1225.031337
 20
107.721078
 30
0.0
 41
5.0
 42
5.0
 43
5.0
 50
27.940128
1001
ACAD
1000
RTLwPs
1070
   158
  0
TEXT
  5
7607
  8
COTATION1
 62
     0
 10
1183.479139
 20
95.24713
 30
0.0
 40
2.5
  1
2x%%c4.3
1001
ACAD
1000
MTEXTBEGIN
1070
    73
1070
     1
1070
    44
1040
1.0
1070
    74
1070
     0
1000
MTEXTEND
1000
MTEXTBEGIN
1070
    73
1070
     1
1070
    44
1040
1.0
1070
    74
1070
     0
1000
MTEXTEND
  0
POINT
  5
7608
  8
DEFPOINTS
 62
     0
 10
1225.031337
 20
107.721078
 30
0.0
  0
POINT
  5
7609
  8
DEFPOINTS
 62
     0
 10
1228.83012
 20
109.735837
 30
0.0
  0
ENDBLK
  5
74AE
  8
0
  0
BLOCK
  8
0
  2
*D14
 70
     1
 10
0.0
 20
0.0
 30
0.0
  3
*D14
  1

  0
LINE
  5
7587
  8
COTATION1
 62
     0
 10
1246.918083
 20
150.823715
 30
0.0
 11
1249.886211
 21
155.442551
 31
0.0
1001
ACAD
1000
RTLwPs
1070
   158
  0
LINE
  5
7588
  8
COTATION1
 62
     0
 10
1249.886211
 20
155.442551
 30
0.0
 11
1258.314783
 21
155.442551
 31
0.0
1001
ACAD
1000
RTLwPs
1070
   158
  0
INSERT
  5
7589
  8
COTATION1
 62
     0
  2
_OPEN30
 10
1244.215019
 20
146.617358
 30
0.0
 41
5.0
 42
5.0
 43
5.0
 50
237.274631
1001
ACAD
1000
RTLwPs
1070
   158
  0
TEXT
  5
758A
  8
COTATION1
 62
     0
 10
1251.648116
 20
157.442551
 30
0.0
 40
2.5
  1
%%c14
1001
ACAD
1000
MTEXTBEGIN
1070
    73
1070
     1
1070
    44
1040
1.0
1070
    74
1070
     0
1000
MTEXTEND
1000
MTEXTBEGIN
1070
    73
1070
     1
1070
    44
1040
1.0
1070
    74
1070
     0
1000
MTEXTEND
  0
POINT
  5
758B
  8
DEFPOINTS
 62
     0
 10
1244.215019
 20
146.617358
 30
0.0
  0
POINT
  5
758C
  8
DEFPOINTS
 62
     0
 10
1236.646439
 20
134.839557
 30
0.0
  0
ENDBLK
  5
758E
  8
0
  0
BLOCK
  8
0
  2
*D15
 70
     1
 10
0.0
 20
0.0
 30
0.0
  3
*D15
  1

  0
LINE
  5
76AE
  8
COTATION1
 62
     0
 10
1238.430729
 20
147.728457
 30
0.0
 11
1198.930729
 21
147.728457
 31
0.0
1001
ACAD
1000
RTLwPs
1070
   158
  0
LINE
  5
76AF
  8
COTATION1
 62
     0
 10
1220.780729
 20
108.728457
 30
0.0
 11
1198.930729
 21
108.728457
 31
0.0
1001
ACAD
1000
RTLwPs
1070
   158
  0
LINE
  5
76B0
  8
COTATION1
 62
     0
 10
1201.430729
 20
142.728457
 30
0.0
 11
1201.430729
 21
131.478457
 31
0.0
1001
ACAD
1000
RTLwPs
1070
   158
  0
LINE
  5
76B1
  8
COTATION1
 62
     0
 10
1201.430729
 20
113.728457
 30
0.0
 11
1201.430729
 21
124.978457
 31
0.0
1001
ACAD
1000
RTLwPs
1070
   158
  0
INSERT
  5
76B2
  8
COTATION1
 62
     0
  2
_OPEN30
 10
1201.430729
 20
147.728457
 30
0.0
 41
5.0
 42
5.0
 43
5.0
 50
90.0
1001
ACAD
1000
RTLwPs
1070
   158
  0
INSERT
  5
76B3
  8
COTATION1
 62
     0
  2
_OPEN30
 10
1201.430729
 20
108.728457
 30
0.0
 41
5.0
 42
5.0
 43
5.0
 50
270.0
1001
ACAD
1000
RTLwPs
1070
   158
  0
TEXT
  5
76B4
  8
COTATION1
 62
     0
 10
1199.1093
 20
126.978457
 30
0.0
 40
2.5
  1
39
1001
ACAD
1000
MTEXTBEGIN
1070
    73
1070
     1
1070
    44
1040
1.0
1070
    74
1070
     0
1000
MTEXTEND
  0
POINT
  5
76B5
  8
DEFPOINTS
 62
     0
 10
1240.430729
 20
147.728457
 30
0.0
  0
POINT
  5
76B6
  8
DEFPOINTS
 62
     0
 10
1222.780729
 20
108.728457
 30
0.0
  0
POINT
  5
76B7
  8
DEFPOINTS
 62
     0
 10
1201.430729
 20
108.728457
 30
0.0
  0
ENDBLK
  5
759B
  8
0
  0
ENDSEC
  0
SECTION
  2
ENTITIES
  0
INSERT
  5
A
  8
0
  2
COTE
 10
0.0
 20
0.0
 30
0.0
  0
INSERT
  5
17
  8
0
  2
COTE
 10
284.010391
 20
6.373258
 30
0.0
  0
INSERT
  5
72
  8
0
  2
FOND
 10
0.0
 20
0.0
 30
0.0
  0
POLYLINE
  5
6F8B
  8
ALPHA
 66
     1
 10
0.0
 20
0.0
 30
0.0
 70
   128
  0
VERTEX
  5
77A1
  8
ALPHA
 10
1238.765012
 20
130.675106
 30
0.0
  0
VERTEX
  5
77A2
  8
ALPHA
 10
1238.668204
 20
130.817351
 30
0.0
  0
VERTEX
  5
77A3
  8
ALPHA
 10
1238.426645
 20
131.172285
 30
0.0
  0
VERTEX
  5
77A4
  8
ALPHA
 10
1237.802479
 20
132.089403
 30
0.0
  0
SEQEND
  5
77A5
  8
ALPHA
  0
POLYLINE
  5
6F8C
  8
ALPHA
 66
     1
 10
0.0
 20
0.0
 30
0.0
 70
   128
  0
VERTEX
  5
77A6
  8
ALPHA
 10
1237.308788
 20
128.733011
 30
0.0
  0
VERTEX
  5
77A7
  8
ALPHA
 10
1238.157793
 20
129.865288
 30
0.0
  0
VERTEX
  5
77A8
  8
ALPHA
 10
1238.582812
 20
130.432115
 30
0.0
  0
VERTEX
  5
77A9
  8
ALPHA
 10
1238.765012
 20
130.675106
 30
0.0
  0
SEQEND
  5
77AA
  8
ALPHA
  0
POLYLINE
  5
6F8D
  8
ALPHA
 66
     1
 10
0.0
 20
0.0
 30
0.0
 70
   128
210
0.0
220
0.0
230
-1.0
  0
VERTEX
  5
77AB
  8
ALPHA
 10
-1227.211768
 20
118.13805
 30
0.0
  0
VERTEX
  5
77AC
  8
ALPHA
 10
-1224.710411
 20
118.491749
 30
0.0
  0
VERTEX
  5
77AD
  8
ALPHA
 10
-1222.480729
 20
119.486237
 30
0.0
  0
SEQEND
  5
77AE
  8
ALPHA
  0
LINE
  5
6F96
  8
AXE
 10
1236.930729
 20
152.728457
 30
0.0
 11
1236.930729
 21
23.728457
 31
0.0
  0
LINE
  5
6F98
  8
ALPHA
 10
1243.436131
 20
137.723055
 30
0.0
 11
1234.126885
 21
128.413809
 31
0.0
  0
LINE
  5
6F99
  8
ALPHA
 10
1237.425326
 20
143.733859
 30
0.0
 11
1225.724929
 21
132.033462
 31
0.0
  0
ARC
  5
6F9A
  8
ALPHA
 10
1238.727293
 20
141.733262
 30
0.0
 40
10.172074
 50
211.727883
 51
262.308051
  0
ARC
  5
6F9B
  8
ALPHA
 10
1236.930729
 20
116.482939
 30
0.0
 40
12.255904
 50
73.40668
 51
106.59332
  0
LINE
  5
6F9C
  8
AXE
 10
1235.430729
 20
140.728457
 30
0.0
 11
1245.430729
 21
140.728457
 31
0.0
  0
ARC
  5
6F9D
  8
ALPHA
 10
1240.430729
 20
140.728457
 30
0.0
 40
7.0
 50
262.386089
 51
187.613911
  0
LINE
  5
6F9E
  8
ALPHA
 10
1232.980729
 20
122.728457
 30
0.0
 11
1244.930729
 21
122.728457
 31
0.0
  0
LINE
  5
6FB3
  8
AXE
 10
1221.230729
 20
127.528457
 30
0.0
 11
1233.230729
 21
127.528457
 31
0.0
  0
LINE
  5
6FB4
  8
ALPHA
 10
1233.430729
 20
127.717653
 30
0.0
 11
1231.980729
 21
126.267653
 31
0.0
  0
ARC
  5
6FB5
  8
ALPHA
 10
1227.230729
 20
127.528457
 30
0.0
 40
4.75
 50
0.0
 51
180.0
  0
LINE
  5
6FB6
  8
ALPHA
 10
1227.211768
 20
118.13805
 30
0.0
 11
1228.930729
 21
118.13805
 31
0.0
  0
ARC
  5
6FB7
  8
ALPHA
 10
1232.980729
 20
123.728457
 30
0.0
 40
1.0
 50
180.0
 51
270.0
  0
LINE
  5
6FBB
  8
ALPHA
 10
1231.980729
 20
127.528457
 30
0.0
 11
1231.980729
 21
123.728457
 31
0.0
  0
LINE
  5
6FBC
  8
ALPHA
 10
1222.480729
 20
127.528457
 30
0.0
 11
1222.480729
 21
119.486237
 31
0.0
  0
LINE
  5
6FBD
  8
AXE
 10
1227.230729
 20
133.528457
 30
0.0
 11
1227.230729
 21
121.528457
 31
0.0
  0
LINE
  5
6FBE
  8
ALPHA
 10
1233.430729
 20
128.228457
 30
0.0
 11
1233.430729
 21
122.728457
 31
0.0
  0
CIRCLE
  5
6FBF
  8
ALPHA
 10
1227.230729
 20
127.528457
 30
0.0
 40
3.0
  0
LINE
  5
6FC0
  8
AXE
 10
1240.430729
 20
145.728457
 30
0.0
 11
1240.430729
 21
135.728457
 31
0.0
  0
LINE
  5
6FD4
  8
ALPHA
 10
1244.930729
 20
122.728457
 30
0.0
 11
1244.930729
 21
118.13805
 31
0.0
  0
LINE
  5
6FD8
  8
ALPHA
 10
1240.430729
 20
128.228457
 30
0.0
 11
1240.430729
 21
122.728457
 31
0.0
  0
CIRCLE
  5
6FD9
  8
ALPHA
 10
1240.430729
 20
140.728457
 30
0.0
 40
2.0
  0
ARC
  5
6FDA
  8
ALPHA
 10
1240.430729
 20
140.728457
 30
0.0
 40
4.250281
 50
315.0
 51
135.0
  0
DIMENSION
  5
7031
  8
COTATION1
  2
*D14
 10
1236.646439
 20
134.839557
 30
0.0
 11
1255.100497
 21
155.442551
 31
0.0
 70
   131
 15
1244.215019
 25
146.617358
 35
0.0
 40
0.0
  0
DIMENSION
  5
7041
  8
COTATION1
  2
*D15
 10
1201.430729
 20
108.728457
 30
0.0
 11
1201.430729
 21
128.228457
 31
0.0
 70
   128
 13
1240.430729
 23
147.728457
 33
0.0
 14
1222.780729
 24
108.728457
 34
0.0
 50
90.0
  0
DIMENSION
  5
723A
  8
COTATION1
  2
*D3
 10
1247.930729
 20
172.728457
 30
0.0
 11
1236.930729
 21
175.978457
 31
0.0
 13
1225.930729
 23
114.878457
 33
0.0
 14
1247.930729
 24
114.878457
 34
0.0
  0
DIMENSION
  5
723B
  8
COTATION1
  2
*D4
 10
1246.930729
 20
162.728457
 30
0.0
 11
1236.930729
 21
165.978457
 31
0.0
 13
1226.930729
 23
112.878457
 33
0.0
 14
1246.930729
 24
112.878457
 34
0.0
  0
DIMENSION
  5
73CF
  8
COTATION1
  2
*D5
 10
1246.731589
 20
108.943922
 30
0.0
 11
1273.193271
 21
130.55409
 31
0.0
 70
   131
  1
2x<>x6.3
 15
1249.129868
 25
112.512992
 35
0.0
 40
0.0
1001
ACAD
1000
DSTYLE
1002
{
1070
   288
1070
     1
1002
}
  0
DIMENSION
  5
73D0
  8
COTATION1
  2
*D6
 10
1287.430729
 20
108.728457
 30
0.0
 11
1287.430729
 21
113.728457
 31
0.0
 70
   128
 13
1236.930729
 23
118.728457
 33
0.0
 14
1251.080729
 24
108.728457
 34
0.0
 50
90.0
1001
ACAD
1000
DSTYLE
1002
{
1070
   287
1070
     5
1070
   279
1070
     2
1070
   289
1070
     3
1002
}
  0
DIMENSION
  5
73D1
  8
COTATION1
  2
*D7
 10
1297.430729
 20
41.728457
 30
0.0
 11
1297.430729
 21
94.728457
 31
0.0
 13
1240.430729
 23
147.728457
 33
0.0
 14
1241.198678
 24
41.728457
 34
0.0
 50
90.0
  0
TEXT
  5
73D2
  8
AXE
 10
1229.454538
 20
23.728457
 30
0.0
 40
8.0
  1
Y
 72
     2
 11
1235.930729
 21
23.728457
 31
0.0
  0
DIMENSION
  5
73D3
  8
COTATION1
  2
*D8
 10
1252.430729
 20
3.728457
 30
0.0
 11
1236.930729
 21
6.978457
 31
0.0
 13
1221.430729
 23
53.728457
 33
0.0
 14
1252.430729
 24
53.728457
 34
0.0
  0
DIMENSION
  5
73D4
  8
COTATION1
  2
*D9
 10
1246.430729
 20
13.728457
 30
0.0
 11
1236.930729
 21
16.978457
 31
0.0
 13
1227.430729
 23
53.228457
 33
0.0
 14
1246.430729
 24
53.228457
 34
0.0
  0
DIMENSION
  5
73D5
  8
COTATION1
  2
*D10
 10
1287.430729
 20
57.728457
 30
0.0
 11
1287.430729
 21
83.228457
 31
0.0
 13
1251.080729
 23
108.728457
 33
0.0
 14
1250.930729
 24
57.728457
 34
0.0
 50
90.0
  0
DIMENSION
  5
73D6
  8
COTATION1
  2
*D11
 10
1277.430729
 20
108.728457
 30
0.0
 11
1274.597395
 21
100.330197
 31
0.0
 70
   128
 13
1252.080729
 23
110.728457
 33
0.0
 14
1251.080729
 24
108.728457
 34
0.0
 50
90.0
1001
ACAD
1000
DSTYLE
1002
{
1070
   287
1070
     5
1070
   279
1070
     2
1070
   289
1070
     3
1002
}
  0
LINE
  5
73D7
  8
ALPHA
 10
1221.430729
 20
116.028457
 30
0.0
 11
1221.430729
 21
53.728457
 31
0.0
  0
LINE
  5
73D8
  8
ALPHA
 10
1252.430729
 20
116.028457
 30
0.0
 11
1252.430729
 21
53.728457
 31
0.0
  0
DIMENSION
  5
73D9
  8
COTATION1
  2
*D12
 10
1228.677294
 20
56.894147
 30
0.0
 11
1195.528815
 21
74.952719
 31
0.0
 70
   131
  1
2x<>
 15
1226.184163
 25
58.562767
 35
0.0
 40
0.0
  0
LINE
  5
73DA
  8
ALPHA_FIN
 10
1241.857219
 20
53.728457
 30
0.0
 11
1241.857219
 21
42.108666
 31
0.0
  0
LINE
  5
73DB
  8
ALPHA
 10
1242.930729
 20
42.728457
 30
0.0
 11
1242.930729
 21
53.728457
 31
0.0
  0
LINE
  5
73DC
  8
ALPHA_FIN
 10
1232.004238
 20
53.728457
 30
0.0
 11
1232.004238
 21
42.108666
 31
0.0
  0
LINE
  5
73DD
  8
ALPHA
 10
1230.930729
 20
42.728457
 30
0.0
 11
1230.930729
 21
53.728457
 31
0.0
  0
LINE
  5
73DE
  8
ALPHA
 10
1236.930729
 20
42.728457
 30
0.0
 11
1230.930729
 21
42.728457
 31
0.0
  0
LINE
  5
73DF
  8
ALPHA
 10
1236.930729
 20
41.728457
 30
0.0
 11
1232.662779
 21
41.728457
 31
0.0
  0
LINE
  5
73E0
  8
ALPHA
 10
1230.930729
 20
42.728457
 30
0.0
 11
1232.662779
 21
41.728457
 31
0.0
  0
LINE
  5
73E1
  8
ALPHA
 10
1242.930729
 20
42.728457
 30
0.0
 11
1241.198678
 21
41.728457
 31
0.0
  0
LINE
  5
73E2
  8
ALPHA
 10
1236.930729
 20
42.728457
 30
0.0
 11
1242.930729
 21
42.728457
 31
0.0
  0
LINE
  5
73E3
  8
ALPHA
 10
1236.930729
 20
41.728457
 30
0.0
 11
1241.198678
 21
41.728457
 31
0.0
  0
LINE
  5
73E4
  8
ALPHA
 10
1221.430729
 20
53.728457
 30
0.0
 11
1252.430729
 21
53.728457
 31
0.0
  0
LINE
  5
73E5
  8
ALPHA
 10
1224.430729
 20
58.780776
 30
0.0
 11
1236.930729
 21
58.780776
 31
0.0
  0
LINE
  5
73E6
  8
ALPHA
 10
1225.930729
 20
54.728457
 30
0.0
 11
1247.930729
 21
54.728457
 31
0.0
  0
LINE
  5
73E7
  8
ALPHA
 10
1221.430729
 20
54.728457
 30
0.0
 11
1224.430729
 21
54.728457
 31
0.0
  0
LINE
  5
73E8
  8
ALPHA
 10
1225.930729
 20
58.780776
 30
0.0
 11
1226.943529
 21
54.728457
 31
0.0
  0
LINE
  5
73E9
  8
ALPHA
 10
1224.430729
 20
54.728457
 30
0.0
 11
1224.430729
 21
58.780776
 31
0.0
  0
LINE
  5
73EA
  8
ALPHA
 10
1225.930729
 20
54.728457
 30
0.0
 11
1225.930729
 21
58.780776
 31
0.0
  0
LINE
  5
73EB
  8
AXE
 10
1227.430729
 20
53.228457
 30
0.0
 11
1227.430729
 21
62.228457
 31
0.0
  0
LINE
  5
73EC
  8
AXE
 10
1231.930729
 20
57.728457
 30
0.0
 11
1222.930729
 21
57.728457
 31
0.0
  0
CIRCLE
  5
73ED
  8
POINTILLE_COURT
 10
1227.430729
 20
57.728457
 30
0.0
 40
1.5
  0
LINE
  5
73EE
  8
ALPHA
 10
1249.430729
 20
54.728457
 30
0.0
 11
1252.430729
 21
54.728457
 31
0.0
  0
LINE
  5
73EF
  8
ALPHA
 10
1247.930729
 20
58.780776
 30
0.0
 11
1246.917928
 21
54.728457
 31
0.0
  0
LINE
  5
73F0
  8
ALPHA
 10
1247.930729
 20
54.728457
 30
0.0
 11
1247.930729
 21
58.780776
 31
0.0
  0
LINE
  5
73F1
  8
ALPHA
 10
1249.430729
 20
54.728457
 30
0.0
 11
1249.430729
 21
58.780776
 31
0.0
  0
LINE
  5
73F2
  8
ALPHA
 10
1249.430729
 20
58.780776
 30
0.0
 11
1236.930729
 21
58.780776
 31
0.0
  0
LINE
  5
73F3
  8
AXE
 10
1246.430729
 20
53.228457
 30
0.0
 11
1246.430729
 21
62.228457
 31
0.0
  0
LINE
  5
73F4
  8
AXE
 10
1241.930729
 20
57.728457
 30
0.0
 11
1250.930729
 21
57.728457
 31
0.0
  0
CIRCLE
  5
73F5
  8
POINTILLE_COURT
 10
1246.430729
 20
57.728457
 30
0.0
 40
1.5
  0
DIMENSION
  5
73F6
  8
COTATION1
  2
*D13
 10
1228.83012
 20
109.735837
 30
0.0
 11
1189.788663
 21
93.24713
 31
0.0
 70
   131
  1
2x<>
 15
1225.031337
 25
107.721078
 35
0.0
 40
0.0
1001
ACAD
1000
DSTYLE
1002
{
1070
   288
1070
     1
1002
}
  0
LINE
  5
73F7
  8
AXE
 10
1217.430729
 20
86.228457
 30
0.0
 11
1267.430729
 21
86.228457
 31
0.0
  0
TEXT
  5
73F8
  8
AXE
 10
1260.954538
 20
87.228457
 30
0.0
 40
8.0
  1
X
 72
     2
 11
1267.430729
 21
87.228457
 31
0.0
  0
POLYLINE
  5
73F9
  8
ALPHA
 66
     1
 10
0.0
 20
0.0
 30
0.0
 70
   128
  0
VERTEX
  5
77AF
  8
ALPHA
 10
1228.476134
 20
116.646215
 30
0.0
  0
VERTEX
  5
77B0
  8
ALPHA
 10
1228.666193
 20
116.646215
 30
0.0
  0
VERTEX
  5
77B1
  8
ALPHA
 10
1229.203315
 20
116.646215
 30
0.0
  0
VERTEX
  5
77B2
  8
ALPHA
 10
1230.037921
 20
116.646215
 30
0.0
  0
VERTEX
  5
77B3
  8
ALPHA
 10
1231.120428
 20
116.646215
 30
0.0
  0
VERTEX
  5
77B4
  8
ALPHA
 10
1233.83083
 20
116.646215
 30
0.0
  0
VERTEX
  5
77B5
  8
ALPHA
 10
1236.937875
 20
116.646215
 30
0.0
  0
VERTEX
  5
77B6
  8
ALPHA
 10
1240.044921
 20
116.646215
 30
0.0
  0
VERTEX
  5
77B7
  8
ALPHA
 10
1242.755322
 20
116.646215
 30
0.0
  0
VERTEX
  5
77B8
  8
ALPHA
 10
1243.83783
 20
116.646215
 30
0.0
  0
VERTEX
  5
77B9
  8
ALPHA
 10
1244.672435
 20
116.646215
 30
0.0
  0
VERTEX
  5
77BA
  8
ALPHA
 10
1245.209558
 20
116.646215
 30
0.0
  0
VERTEX
  5
77BB
  8
ALPHA
 10
1245.399616
 20
116.646215
 30
0.0
  0
SEQEND
  5
77BC
  8
ALPHA
  0
ARC
  5
73FA
  8
ALPHA
 10
1236.930729
 20
64.233363
 30
0.0
 40
54.495095
 50
73.978407
 51
106.021593
  0
POLYLINE
  5
73FB
  8
ALPHA
 66
     1
 10
0.0
 20
0.0
 30
0.0
 70
   128
  0
VERTEX
  5
77BD
  8
ALPHA
 10
1252.430729
 20
102.014089
 30
0.0
  0
VERTEX
  5
77BE
  8
ALPHA
 10
1252.210575
 20
102.515048
 30
0.0
  0
VERTEX
  5
77BF
  8
ALPHA
 10
1251.811342
 20
102.840362
 30
0.0
  0
VERTEX
  5
77C0
  8
ALPHA
 10
1250.6828
 20
103.231063
 30
0.0
  0
VERTEX
  5
77C1
  8
ALPHA
 10
1249.289187
 20
103.606102
 30
0.0
  0
VERTEX
  5
77C2
  8
ALPHA
 10
1245.818869
 20
104.264281
 30
0.0
  0
VERTEX
  5
77C3
  8
ALPHA
 10
1241.624634
 20
104.725066
 30
0.0
  0
VERTEX
  5
77C4
  8
ALPHA
 10
1236.930729
 20
104.898623
 30
0.0
  0
VERTEX
  5
77C5
  8
ALPHA
 10
1232.236815
 20
104.725066
 30
0.0
  0
VERTEX
  5
77C6
  8
ALPHA
 10
1228.04252
 20
104.264281
 30
0.0
  0
VERTEX
  5
77C7
  8
ALPHA
 10
1224.572038
 20
103.606102
 30
0.0
  0
VERTEX
  5
77C8
  8
ALPHA
 10
1223.178289
 20
103.231063
 30
0.0
  0
VERTEX
  5
77C9
  8
ALPHA
 10
1222.049565
 20
102.840362
 30
0.0
  0
VERTEX
  5
77CA
  8
ALPHA
 10
1221.650195
 20
102.515048
 30
0.0
  0
VERTEX
  5
77CB
  8
ALPHA
 10
1221.430729
 20
102.014089
 30
0.0
  0
SEQEND
  5
77CC
  8
ALPHA
  0
LINE
  5
73FC
  8
ALPHA
 10
1236.086315
 20
107.729281
 30
0.0
 11
1234.62453
 21
106.266401
 31
0.0
  0
LINE
  5
73FD
  8
ALPHA
 10
1235.512925
 20
108.302121
 30
0.0
 11
1236.086315
 21
107.729281
 31
0.0
  0
LINE
  5
73FE
  8
ALPHA
 10
1236.357339
 20
109.145437
 30
0.0
 11
1235.512925
 21
108.302121
 31
0.0
  0
LINE
  5
73FF
  8
ALPHA
 10
1236.940625
 20
106.874421
 30
0.0
 11
1235.478291
 21
105.41209
 31
0.0
  0
POLYLINE
  5
7400
  8
ALPHA
 66
     1
 10
0.0
 20
0.0
 30
0.0
 70
   128
210
0.0
220
0.0
230
-1.0
  0
VERTEX
  5
77CD
  8
ALPHA
 10
-1245.373778
 20
104.326884
 30
0.0
  0
VERTEX
  5
77CE
  8
ALPHA
 10
-1244.357085
 20
104.700782
 30
0.0
  0
VERTEX
  5
77CF
  8
ALPHA
 10
-1243.487588
 20
105.576464
 30
0.0
  0
VERTEX
  5
77D0
  8
ALPHA
 10
-1240.497158
 20
111.920158
 30
0.0
  0
VERTEX
  5
77D1
  8
ALPHA
 10
-1239.666589
 20
113.270098
 30
0.0
  0
VERTEX
  5
77D2
  8
ALPHA
 10
-1238.797205
 20
114.345721
 30
0.0
  0
VERTEX
  5
77D3
  8
ALPHA
 10
-1237.88619
 20
115.057066
 30
0.0
  0
VERTEX
  5
77D4
  8
ALPHA
 10
-1236.930729
 20
115.314173
 30
0.0
  0
VERTEX
  5
77D5
  8
ALPHA
 10
-1235.975107
 20
115.057066
 30
0.0
  0
VERTEX
  5
77D6
  8
ALPHA
 10
-1235.063995
 20
114.345721
 30
0.0
  0
VERTEX
  5
77D7
  8
ALPHA
 10
-1234.194539
 20
113.270098
 30
0.0
  0
VERTEX
  5
77D8
  8
ALPHA
 10
-1233.363887
 20
111.920158
 30
0.0
  0
VERTEX
  5
77D9
  8
ALPHA
 10
-1230.37222
 20
105.576464
 30
0.0
  0
VERTEX
  5
77DA
  8
ALPHA
 10
-1229.503341
 20
104.700782
 30
0.0
  0
VERTEX
  5
77DB
  8
ALPHA
 10
-1228.487679
 20
104.326884
 30
0.0
  0
SEQEND
  5
77DC
  8
ALPHA
  0
CIRCLE
  5
7401
  8
ALPHA
 10
1236.930729
 20
107.728457
 30
0.0
 40
2.735279
  0
LINE
  5
7402
  8
AXE
 10
1225.930729
 20
106.578457
 30
0.0
 11
1225.930729
 21
114.878457
 31
0.0
  0
LINE
  5
7403
  8
AXE
 10
1226.930729
 20
104.578457
 30
0.0
 11
1226.930729
 21
112.878457
 31
0.0
  0
ARC
  5
7404
  8
ALPHA
 10
1226.930729
 20
108.728457
 30
0.0
 40
2.15
 50
270.0
 51
57.663974
  0
LINE
  5
7405
  8
ALPHA
 10
1223.780729
 20
110.728457
 30
0.0
 11
1223.780729
 21
108.728457
 31
0.0
  0
LINE
  5
7406
  8
AXE
 10
1222.780729
 20
108.728457
 30
0.0
 11
1231.080729
 21
108.728457
 31
0.0
  0
ARC
  5
7407
  8
ALPHA
 10
1225.930729
 20
108.728457
 30
0.0
 40
2.15
 50
180.0
 51
270.0
  0
LINE
  5
7408
  8
ALPHA
 10
1225.930729
 20
106.578457
 30
0.0
 11
1226.930729
 21
106.578457
 31
0.0
  0
POLYLINE
  5
7409
  8
ALPHA
 66
     1
 10
0.0
 20
0.0
 30
0.0
 70
   128
210
0.0
220
0.0
230
-1.0
  0
VERTEX
  5
77DD
  8
ALPHA
 10
-1232.951643
 20
112.66713
 30
0.0
  0
VERTEX
  5
77DE
  8
ALPHA
 10
-1231.815011
 20
112.850918
 30
0.0
  0
VERTEX
  5
77DF
  8
ALPHA
 10
-1230.538038
 20
113.323118
 30
0.0
  0
VERTEX
  5
77E0
  8
ALPHA
 10
-1229.34899
 20
113.964985
 30
0.0
  0
VERTEX
  5
77E1
  8
ALPHA
 10
-1228.476134
 20
114.657772
 30
0.0
  0
SEQEND
  5
77E2
  8
ALPHA
  0
POLYLINE
  5
740A
  8
ALPHA
 66
     1
 10
0.0
 20
0.0
 30
0.0
 70
   128
  0
VERTEX
  5
77E3
  8
ALPHA
 10
1233.801221
 20
112.66713
 30
0.0
  0
VERTEX
  5
77E4
  8
ALPHA
 10
1233.196624
 20
112.66713
 30
0.0
  0
VERTEX
  5
77E5
  8
ALPHA
 10
1232.951643
 20
112.66713
 30
0.0
  0
SEQEND
  5
77E6
  8
ALPHA
  0
POLYLINE
  5
740B
  8
ALPHA
 66
     1
 10
0.0
 20
0.0
 30
0.0
 70
   128
  0
VERTEX
  5
77E7
  8
ALPHA
 10
1228.476134
 20
114.657772
 30
0.0
  0
VERTEX
  5
77E8
  8
ALPHA
 10
1228.476134
 20
114.968467
 30
0.0
  0
VERTEX
  5
77E9
  8
ALPHA
 10
1228.476134
 20
115.651994
 30
0.0
  0
VERTEX
  5
77EA
  8
ALPHA
 10
1228.476134
 20
116.335521
 30
0.0
  0
VERTEX
  5
77EB
  8
ALPHA
 10
1228.476134
 20
116.646215
 30
0.0
  0
SEQEND
  5
77EC
  8
ALPHA
  0
ARC
  5
740C
  8
ALPHA
 10
1222.030729
 20
116.028457
 30
0.0
 40
0.6
 50
103.554708
 51
180.0
  0
LINE
  5
740D
  8
ALPHA
 10
1226.487141
 20
116.646216
 30
0.0
 11
1228.46184
 21
116.646216
 31
0.0
  0
LINE
  5
740E
  8
ALPHA
 10
1228.442599
 20
116.059633
 30
0.0
 11
1226.51298
 21
116.059633
 31
0.0
  0
ARC
  5
740F
  8
ALPHA
 10
1225.930729
 20
110.728457
 30
0.0
 40
2.15
 50
0.0
 51
180.0
  0
LINE
  5
7410
  8
AXE
 10
1221.780729
 20
110.728457
 30
0.0
 11
1230.080729
 21
110.728457
 31
0.0
  0
LINE
  5
7411
  8
ALPHA
 10
1228.080729
 20
110.728457
 30
0.0
 11
1228.080729
 21
110.545047
 31
0.0
  0
LINE
  5
7412
  8
ALPHA
 10
1228.46184
 20
114.656673
 30
0.0
 11
1226.487141
 21
114.656673
 31
0.0
  0
LINE
  5
7413
  8
ALPHA
 10
1226.487141
 20
114.656673
 30
0.0
 11
1226.487141
 21
116.646216
 31
0.0
  0
LINE
  5
7414
  8
ALPHA
 10
1228.46184
 20
116.646216
 30
0.0
 11
1228.46184
 21
114.656673
 31
0.0
  0
LINE
  5
7415
  8
ALPHA
 10
1250.080729
 20
110.728457
 30
0.0
 11
1250.080729
 21
108.728457
 31
0.0
  0
LINE
  5
7416
  8
AXE
 10
1247.930729
 20
106.578457
 30
0.0
 11
1247.930729
 21
114.878457
 31
0.0
  0
LINE
  5
7417
  8
AXE
 10
1246.930729
 20
104.578457
 30
0.0
 11
1246.930729
 21
112.878457
 31
0.0
  0
LINE
  5
7418
  8
ALPHA
 10
1238.387564
 20
110.030533
 30
0.0
 11
1236.930729
 21
108.573698
 31
0.0
  0
ARC
  5
7419
  8
ALPHA
 10
1246.930729
 20
108.728457
 30
0.0
 40
2.15
 50
122.336026
 51
270.0
  0
LINE
  5
741A
  8
ALPHA
 10
1247.930729
 20
106.578457
 30
0.0
 11
1246.930729
 21
106.578457
 31
0.0
  0
ARC
  5
741B
  8
ALPHA
 10
1247.930729
 20
108.728457
 30
0.0
 40
2.15
 50
270.0
 51
0.0
  0
LINE
  5
741C
  8
ALPHA
 10
1237.514012
 20
106.301584
 30
0.0
 11
1236.940625
 21
106.874421
 31
0.0
  0
LINE
  5
741D
  8
ALPHA
 10
1236.930729
 20
108.573698
 30
0.0
 11
1236.357339
 21
109.145437
 31
0.0
  0
LINE
  5
741E
  8
ALPHA
 10
1238.358429
 20
107.145998
 30
0.0
 11
1237.514012
 21
106.301584
 31
0.0
  0
LINE
  5
741F
  8
ALPHA
 10
1237.785039
 20
107.717737
 30
0.0
 11
1238.358429
 21
107.145998
 31
0.0
  0
LINE
  5
7420
  8
ALPHA
 10
1239.241874
 20
109.175673
 30
0.0
 11
1237.785039
 21
107.717737
 31
0.0
  0
LINE
  5
7421
  8
AXE
 10
1251.080729
 20
108.728457
 30
0.0
 11
1242.780729
 21
108.728457
 31
0.0
  0
ARC
  5
7422
  8
ALPHA
 10
1251.830729
 20
116.028457
 30
0.0
 40
0.6
 50
0.0
 51
76.445292
  0
POLYLINE
  5
7423
  8
ALPHA
 66
     1
 10
0.0
 20
0.0
 30
0.0
 70
   128
  0
VERTEX
  5
77ED
  8
ALPHA
 10
1245.399616
 20
116.646215
 30
0.0
  0
VERTEX
  5
77EE
  8
ALPHA
 10
1245.399616
 20
116.335521
 30
0.0
  0
VERTEX
  5
77EF
  8
ALPHA
 10
1245.399616
 20
115.651994
 30
0.0
  0
VERTEX
  5
77F0
  8
ALPHA
 10
1245.399616
 20
114.968467
 30
0.0
  0
VERTEX
  5
77F1
  8
ALPHA
 10
1245.399616
 20
114.657772
 30
0.0
  0
VERTEX
  5
77F2
  8
ALPHA
 10
1244.527147
 20
113.964985
 30
0.0
  0
VERTEX
  5
77F3
  8
ALPHA
 10
1243.338331
 20
113.323118
 30
0.0
  0
VERTEX
  5
77F4
  8
ALPHA
 10
1242.061281
 20
112.850918
 30
0.0
  0
VERTEX
  5
77F5
  8
ALPHA
 10
1240.924107
 20
112.66713
 30
0.0
  0
SEQEND
  5
77F6
  8
ALPHA
  0
POLYLINE
  5
7424
  8
ALPHA
 66
     1
 10
0.0
 20
0.0
 30
0.0
 70
   128
  0
VERTEX
  5
77F7
  8
ALPHA
 10
1240.924107
 20
112.66713
 30
0.0
  0
VERTEX
  5
77F8
  8
ALPHA
 10
1240.674597
 20
112.66713
 30
0.0
  0
VERTEX
  5
77F9
  8
ALPHA
 10
1240.059873
 20
112.66713
 30
0.0
  0
SEQEND
  5
77FA
  8
ALPHA
  0
LINE
  5
7425
  8
AXE
 10
1252.080729
 20
110.728457
 30
0.0
 11
1243.780729
 21
110.728457
 31
0.0
  0
LINE
  5
7426
  8
ALPHA
 10
1247.374316
 20
114.657771
 30
0.0
 11
1247.374316
 21
116.647314
 31
0.0
  0
LINE
  5
7427
  8
ALPHA
 10
1245.780729
 20
110.728457
 30
0.0
 11
1245.780729
 21
110.545047
 31
0.0
  0
LINE
  5
7428
  8
ALPHA
 10
1245.399617
 20
116.647314
 30
0.0
 11
1245.399617
 21
114.657771
 31
0.0
  0
LINE
  5
7429
  8
ALPHA
 10
1247.374316
 20
116.647314
 30
0.0
 11
1245.399617
 21
116.647314
 31
0.0
  0
LINE
  5
742A
  8
ALPHA
 10
1245.417757
 20
116.059633
 30
0.0
 11
1247.348477
 21
116.059633
 31
0.0
  0
LINE
  5
742B
  8
ALPHA
 10
1245.399617
 20
114.657771
 30
0.0
 11
1247.374316
 21
114.657771
 31
0.0
  0
ARC
  5
742C
  8
ALPHA
 10
1247.930729
 20
110.728457
 30
0.0
 40
2.15
 50
0.0
 51
180.0
  0
VIEWPORT
  5
494D
 67
     1
  8
0
 10
4.995325
 20
6.556512
 30
0.0
 40
22.70986
 41
13.988421
 68
    -1
 69
     1
1001
ACAD
1000
MVIEW
1002
{
1070
    16
1010
0.0
1020
0.0
1030
0.0
1010
0.0
1020
0.0
1030
1.0
1040
0.0
1040
13.988421
1040
4.995325
1040
6.556512
1040
50.0
1040
0.0
1040
0.0
1070
     0
1070
   100
1070
     1
1070
     1
1070
     0
1070
     0
1070
     0
1070
     0
1040
0.0
1040
0.0
1040
0.0
1040
10.0
1040
10.0
1040
10.0
1040
10.0
1070
     0
1002
{
1002
}
1002
}
  0
ENDSEC
  0
EOF
