  0
SECTION
  2
HEADER
  9
$ACADVER
  1
AC1015
  9
$ACADMAINTVER
 70
    20
  9
$DWGCODEPAGE
  3
ANSI_1252
  9
$INSBASE
 10
0.0
 20
0.0
 30
0.0
  9
$EXTMIN
 10
4.823930689766932
 20
4.822961682736597
 30
-0.0015258207003612
  9
$EXTMAX
 10
134.8760699607619
 20
103.1270388199448
 30
0.0000000349246008
  9
$LIMMIN
 10
0.0
 20
0.0
  9
$LIMMAX
 10
139.7
 20
107.95
  9
$ORTHOMODE
 70
     0
  9
$REGENMODE
 70
     1
  9
$FILLMODE
 70
     1
  9
$QTEXTMODE
 70
     0
  9
$MIRRTEXT
 70
     0
  9
$LTSCALE
 40
0.5
  9
$ATTMODE
 70
     1
  9
$TEXTSIZE
 40
0.2
  9
$TRACEWID
 40
0.05
  9
$TEXTSTYLE
  7
Standard
  9
$CLAYER
  8
0
  9
$CELTYPE
  6
ByLayer
  9
$CECOLOR
 62
   256
  9
$CELTSCALE
 40
1.0
  9
$DISPSILH
 70
     0
  9
$DIMSCALE
 40
1.0
  9
$DIMASZ
 40
1.799999999999998
  9
$DIMEXO
 40
0.0625
  9
$DIMDLI
 40
0.38
  9
$DIMRND
 40
0.0
  9
$DIMDLE
 40
0.0
  9
$DIMEXE
 40
0.18
  9
$DIMTP
 40
0.0
  9
$DIMTM
 40
0.0
  9
$DIMTXT
 40
0.3048000037670135
  9
$DIMCEN
 40
0.09
  9
$DIMTSZ
 40
0.0
  9
$DIMTOL
 70
     0
  9
$DIMLIM
 70
     0
  9
$DIMTIH
 70
     1
  9
$DIMTOH
 70
     1
  9
$DIMSE1
 70
     0
  9
$DIMSE2
 70
     0
  9
$DIMTAD
 70
     0
  9
$DIMZIN
 70
     0
  9
$DIMBLK
  1

  9
$DIMASO
 70
     1
  9
$DIMSHO
 70
     1
  9
$DIMPOST
  1

  9
$DIMAPOST
  1

  9
$DIMALT
 70
     0
  9
$DIMALTD
 70
     2
  9
$DIMALTF
 40
25.4
  9
$DIMLFAC
 40
1.0
  9
$DIMTOFL
 70
     0
  9
$DIMTVP
 40
0.0
  9
$DIMTIX
 70
     0
  9
$DIMSOXD
 70
     0
  9
$DIMSAH
 70
     0
  9
$DIMBLK1
  1

  9
$DIMBLK2
  1

  9
$DIMSTYLE
  2
Standard
  9
$DIMCLRD
 70
     0
  9
$DIMCLRE
 70
     0
  9
$DIMCLRT
 70
     0
  9
$DIMTFAC
 40
1.0
  9
$DIMGAP
 40
0.09
  9
$DIMJUST
 70
     0
  9
$DIMSD1
 70
     0
  9
$DIMSD2
 70
     0
  9
$DIMTOLJ
 70
     1
  9
$DIMTZIN
 70
     0
  9
$DIMALTZ
 70
     0
  9
$DIMALTTZ
 70
     0
  9
$DIMUPT
 70
     0
  9
$DIMDEC
 70
     4
  9
$DIMTDEC
 70
     4
  9
$DIMALTU
 70
     2
  9
$DIMALTTD
 70
     2
  9
$DIMTXSTY
  7
Standard
  9
$DIMAUNIT
 70
     0
  9
$DIMADEC
 70
     0
  9
$DIMALTRND
 40
0.0
  9
$DIMAZIN
 70
     0
  9
$DIMDSEP
 70
    46
  9
$DIMATFIT
 70
     3
  9
$DIMFRAC
 70
     0
  9
$DIMLDRBLK
  1

  9
$DIMLUNIT
 70
     2
  9
$DIMLWD
 70
    -2
  9
$DIMLWE
 70
    -2
  9
$DIMTMOVE
 70
     0
  9
$LUNITS
 70
     2
  9
$LUPREC
 70
     4
  9
$SKETCHINC
 40
0.1
  9
$FILLETRAD
 40
0.0
  9
$AUNITS
 70
     0
  9
$AUPREC
 70
     0
  9
$MENU
  1
.
  9
$ELEVATION
 40
0.0
  9
$PELEVATION
 40
0.0
  9
$THICKNESS
 40
0.0
  9
$LIMCHECK
 70
     0
  9
$CHAMFERA
 40
0.0
  9
$CHAMFERB
 40
0.0
  9
$CHAMFERC
 40
0.0
  9
$CHAMFERD
 40
0.0
  9
$SKPOLY
 70
     0
  9
$TDCREATE
 40
2454484.587273160
  9
$TDUCREATE
 40
2454484.837273160
  9
$TDUPDATE
 40
2454484.587701065
  9
$TDUUPDATE
 40
2454484.837701065
  9
$TDINDWG
 40
0.0003844907
  9
$TDUSRTIMER
 40
0.0003843171
  9
$USRTIMER
 70
     1
  9
$ANGBASE
 50
0.0
  9
$ANGDIR
 70
     0
  9
$PDMODE
 70
     0
  9
$PDSIZE
 40
0.0
  9
$PLINEWID
 40
0.0
  9
$SPLFRAME
 70
     0
  9
$SPLINETYPE
 70
     6
  9
$SPLINESEGS
 70
     8
  9
$HANDSEED
  5
940
  9
$SURFTAB1
 70
     6
  9
$SURFTAB2
 70
     6
  9
$SURFTYPE
 70
     6
  9
$SURFU
 70
     6
  9
$SURFV
 70
     6
  9
$UCSBASE
  2

  9
$UCSNAME
  2

  9
$UCSORG
 10
0.0
 20
0.0
 30
0.0
  9
$UCSXDIR
 10
1.0
 20
0.0
 30
0.0
  9
$UCSYDIR
 10
0.0
 20
1.0
 30
0.0
  9
$UCSORTHOREF
  2

  9
$UCSORTHOVIEW
 70
     0
  9
$UCSORGTOP
 10
0.0
 20
0.0
 30
0.0
  9
$UCSORGBOTTOM
 10
0.0
 20
0.0
 30
0.0
  9
$UCSORGLEFT
 10
0.0
 20
0.0
 30
0.0
  9
$UCSORGRIGHT
 10
0.0
 20
0.0
 30
0.0
  9
$UCSORGFRONT
 10
0.0
 20
0.0
 30
0.0
  9
$UCSORGBACK
 10
0.0
 20
0.0
 30
0.0
  9
$PUCSBASE
  2

  9
$PUCSNAME
  2

  9
$PUCSORG
 10
0.0
 20
0.0
 30
0.0
  9
$PUCSXDIR
 10
1.0
 20
0.0
 30
0.0
  9
$PUCSYDIR
 10
0.0
 20
1.0
 30
0.0
  9
$PUCSORTHOREF
  2

  9
$PUCSORTHOVIEW
 70
     0
  9
$PUCSORGTOP
 10
0.0
 20
0.0
 30
0.0
  9
$PUCSORGBOTTOM
 10
0.0
 20
0.0
 30
0.0
  9
$PUCSORGLEFT
 10
0.0
 20
0.0
 30
0.0
  9
$PUCSORGRIGHT
 10
0.0
 20
0.0
 30
0.0
  9
$PUCSORGFRONT
 10
0.0
 20
0.0
 30
0.0
  9
$PUCSORGBACK
 10
0.0
 20
0.0
 30
0.0
  9
$USERI1
 70
     0
  9
$USERI2
 70
     0
  9
$USERI3
 70
     0
  9
$USERI4
 70
     0
  9
$USERI5
 70
     0
  9
$USERR1
 40
0.0
  9
$USERR2
 40
0.0
  9
$USERR3
 40
0.0
  9
$USERR4
 40
0.0
  9
$USERR5
 40
0.0
  9
$WORLDVIEW
 70
     1
  9
$SHADEDGE
 70
     3
  9
$SHADEDIF
 70
    70
  9
$TILEMODE
 70
     1
  9
$MAXACTVP
 70
    64
  9
$PINSBASE
 10
0.0
 20
0.0
 30
0.0
  9
$PLIMCHECK
 70
     0
  9
$PEXTMIN
 10
0.0
 20
0.0
 30
0.0
  9
$PEXTMAX
 10
139.7
 20
107.95
 30
0.0
  9
$PLIMMIN
 10
0.0
 20
0.0
  9
$PLIMMAX
 10
139.7
 20
107.95
  9
$UNITMODE
 70
     0
  9
$VISRETAIN
 70
     1
  9
$PLINEGEN
 70
     0
  9
$PSLTSCALE
 70
     1
  9
$TREEDEPTH
 70
  3020
  9
$CMLSTYLE
  2
Standard
  9
$CMLJUST
 70
     0
  9
$CMLSCALE
 40
1.0
  9
$PROXYGRAPHICS
 70
     1
  9
$MEASUREMENT
 70
     0
  9
$CELWEIGHT
370
    -1
  9
$ENDCAPS
280
     0
  9
$JOINSTYLE
280
     0
  9
$LWDISPLAY
290
     0
  9
$INSUNITS
 70
     0
  9
$HYPERLINKBASE
  1

  9
$STYLESHEET
  1

  9
$XEDIT
290
     1
  9
$CEPSNTYPE
380
     0
  9
$PSTYLEMODE
290
     1
  9
$FINGERPRINTGUID
  2
{83BBF279-22B3-44F2-85CB-C59A075AEF1E}
  9
$VERSIONGUID
  2
{2B4CAD29-DF3F-4928-A73D-9182EA6D41DC}
  9
$EXTNAMES
290
     1
  9
$PSVPSCALE
 40
0.0
  9
$OLESTARTUP
290
     0
  0
ENDSEC
  0
SECTION
  2
CLASSES
  0
CLASS
  1
ACDBDICTIONARYWDFLT
  2
AcDbDictionaryWithDefault
  3
ObjectDBX Classes
 90
        0
280
     0
281
     0
  0
CLASS
  1
MATERIAL
  2
AcDbMaterial
  3
ObjectDBX Classes
 90
     1024
280
     0
281
     0
  0
CLASS
  1
VISUALSTYLE
  2
AcDbVisualStyle
  3
ObjectDBX Classes
 90
     4095
280
     0
281
     0
  0
CLASS
  1
TABLESTYLE
  2
AcDbTableStyle
  3
ObjectDBX Classes
 90
     4095
280
     0
281
     0
  0
CLASS
  1
DICTIONARYVAR
  2
AcDbDictionaryVar
  3
ObjectDBX Classes
 90
        0
280
     0
281
     0
  0
CLASS
  1
ACDBPLACEHOLDER
  2
AcDbPlaceHolder
  3
ObjectDBX Classes
 90
        0
280
     0
281
     0
  0
CLASS
  1
LAYOUT
  2
AcDbLayout
  3
ObjectDBX Classes
 90
        0
280
     0
281
     0
  0
ENDSEC
  0
SECTION
  2
TABLES
  0
TABLE
  2
VPORT
  5
8
330
0
100
AcDbSymbolTable
 70
     1
  0
VPORT
  5
28
330
8
100
AcDbSymbolTableRecord
100
AcDbViewportTableRecord
  2
*Active
 70
     0
 10
0.0
 20
0.0
 11
1.0
 21
1.0
 12
69.8500003252644
 22
53.97500025134069
 13
0.0
 23
0.0
 14
1.0
 24
1.0
 15
0.0
 25
0.0
 16
0.0
 26
0.0
 36
1.0
 17
0.0
 27
0.0
 37
0.0
 40
119.3786170711887
 41
1.096695226438188
 42
50.0
 43
0.0
 44
0.0
 50
0.0
 51
0.0
 71
     0
 72
   100
 73
     1
 74
     1
 75
     0
 76
     0
 77
     0
 78
     0
281
     0
 65
     1
110
0.0
120
0.0
130
0.0
111
1.0
121
0.0
131
0.0
112
0.0
122
1.0
132
0.0
 79
     0
146
0.0
  0
ENDTAB
  0
TABLE
  2
LTYPE
  5
5
330
0
100
AcDbSymbolTable
 70
    59
  0
LTYPE
  5
29
330
5
100
AcDbSymbolTableRecord
100
AcDbLinetypeTableRecord
  2
ByBlock
 70
     0
  3

 72
    65
 73
     0
 40
0.0
  0
LTYPE
  5
2A
330
5
100
AcDbSymbolTableRecord
100
AcDbLinetypeTableRecord
  2
ByLayer
 70
     0
  3

 72
    65
 73
     0
 40
0.0
  0
LTYPE
  5
2B
330
5
100
AcDbSymbolTableRecord
100
AcDbLinetypeTableRecord
  2
Continuous
 70
     0
  3
Solid line
 72
    65
 73
     0
 40
0.0
  0
LTYPE
  5
40
330
5
100
AcDbSymbolTableRecord
100
AcDbLinetypeTableRecord
  2
BY_STANDARD
 70
     0
  3
By Standard ____________    ____    ____   _
 72
    65
 73
     6
 40
1.240299999999999
 49
0.6614
 74
     0
 49
-0.0827
 74
     0
 49
0.1654
 74
     0
 49
-0.0827
 74
     0
 49
0.1654
 74
     0
 49
-0.0827
 74
     0
  0
LTYPE
  5
41
330
5
100
AcDbSymbolTableRecord
100
AcDbLinetypeTableRecord
  2
CHAIN
 70
     0
  3
Chain ____ _ ____ _ ____ _ ____ _ ____ _ ____
 72
    65
 73
     4
 40
0.7087
 49
0.4724000000000001
 74
     0
 49
-0.0591
 74
     0
 49
0.1181
 74
     0
 49
-0.0591
 74
     0
  0
LTYPE
  5
42
330
5
100
AcDbSymbolTableRecord
100
AcDbLinetypeTableRecord
  2
DASH_DOT
 70
     0
  3
Dash dot __ . __ . __ . __ . __ . __ . __ . __
 72
    65
 73
     4
 40
0.37
 49
0.24
 74
     0
 49
-0.06
 74
     0
 49
0.01
 74
     0
 49
-0.06
 74
     0
  0
LTYPE
  5
43
330
5
100
AcDbSymbolTableRecord
100
AcDbLinetypeTableRecord
  2
DOUBLE_DASH_DOT
 70
     0
  3
Double-Dash Dot __ __ . __ __ . __ __ . __ _
 72
    65
 73
     6
 40
0.4398000000000001
 49
0.24
 74
     0
 49
-0.06
 74
     0
 49
0.0098
 74
     0
 49
-0.06
 74
     0
 49
0.01
 74
     0
 49
-0.06
 74
     0
  0
LTYPE
  5
44
330
5
100
AcDbSymbolTableRecord
100
AcDbLinetypeTableRecord
  2
DASH_TRIPLE_DOT
 70
     0
  3
Dash Triple-Dot _ . . . _ . . . _ . . . _
 72
    65
 73
     8
 40
0.51
 49
0.24
 74
     0
 49
-0.06
 74
     0
 49
0.01
 74
     0
 49
-0.06
 74
     0
 49
0.01
 74
     0
 49
-0.06
 74
     0
 49
0.01
 74
     0
 49
-0.06
 74
     0
  0
LTYPE
  5
45
330
5
100
AcDbSymbolTableRecord
100
AcDbLinetypeTableRecord
  2
DASHED
 70
     0
  3
Dashed __ __ __ __ __ __ __ __ __ __ __ __ __ _
 72
    65
 73
     2
 40
0.2067
 49
0.1654
 74
     0
 49
-0.0413
 74
     0
  0
LTYPE
  5
46
330
5
100
AcDbSymbolTableRecord
100
AcDbLinetypeTableRecord
  2
DASH_DOUBLE_DOT
 70
     0
  3
Dash Double-Dot __ . . __ . . __ . . __ . .
 72
    65
 73
     6
 40
0.4398000000000001
 49
0.24
 74
     0
 49
-0.06
 74
     0
 49
0.0098
 74
     0
 49
-0.06
 74
     0
 49
0.01
 74
     0
 49
-0.06
 74
     0
  0
LTYPE
  5
47
330
5
100
AcDbSymbolTableRecord
100
AcDbLinetypeTableRecord
  2
DASHED_SPACE
 70
     0
  3
Dashed Space __ __ __ __ __ __ __ __ __ __ __ _
 72
    65
 73
     2
 40
0.2067
 49
0.1654
 74
     0
 49
-0.0413
 74
     0
  0
LTYPE
  5
48
330
5
100
AcDbSymbolTableRecord
100
AcDbLinetypeTableRecord
  2
DOTTED
 70
     0
  3
Dotted . . . . . . . . . . . . . . . . . . . . 
 72
    65
 73
     2
 40
0.0482
 49
0.0069
 74
     0
 49
-0.0413
 74
     0
  0
LTYPE
  5
49
330
5
100
AcDbSymbolTableRecord
100
AcDbLinetypeTableRecord
  2
DOUBLE_DASH_CHAIN
 70
     0
  3
Double-Dash Chain ______  __  __  ______  __  _
 72
    65
 73
     6
 40
1.240299999999999
 49
0.6614
 74
     0
 49
-0.0827
 74
     0
 49
0.1654
 74
     0
 49
-0.0827
 74
     0
 49
0.1654
 74
     0
 49
-0.0827
 74
     0
  0
LTYPE
  5
4B
330
5
100
AcDbSymbolTableRecord
100
AcDbLinetypeTableRecord
  2
DOUBLE_DASH_DOUBLE_DOT
 70
     0
  3
Double-Dash Double-dot _ _ . . _ _ . . _
 72
    65
 73
     8
 40
0.7400000000000002
 49
0.24
 74
     0
 49
-0.06
 74
     0
 49
0.24
 74
     0
 49
-0.06
 74
     0
 49
0.01
 74
     0
 49
-0.06
 74
     0
 49
0.01
 74
     0
 49
-0.06
 74
     0
  0
LTYPE
  5
4C
330
5
100
AcDbSymbolTableRecord
100
AcDbLinetypeTableRecord
  2
DOUBLE_DASH_TRIPLE_DOT
 70
     0
  3
Double Dash Triple Dot __ __ . . . __ __ . .
 72
    65
 73
    10
 40
0.8100000000000001
 49
0.24
 74
     0
 49
-0.06
 74
     0
 49
0.24
 74
     0
 49
-0.06
 74
     0
 49
0.01
 74
     0
 49
-0.06
 74
     0
 49
0.01
 74
     0
 49
-0.06
 74
     0
 49
0.01
 74
     0
 49
-0.06
 74
     0
  0
LTYPE
  5
4D
330
5
100
AcDbSymbolTableRecord
100
AcDbLinetypeTableRecord
  2
LONG_DASH_DOTTED
 70
     0
  3
Long Dash Dotted ____ . ____ . ____ . ____ . _
 72
    65
 73
     4
 40
0.3543
 49
0.2362
 74
     0
 49
-0.0295
 74
     0
 49
0.0591
 74
     0
 49
-0.0295
 74
     0
  0
LTYPE
  5
4E
330
5
100
AcDbSymbolTableRecord
100
AcDbLinetypeTableRecord
  2
LONG_DASH_DOUBLE_DOT
 70
     0
  3
Long Dash Double Dot ________  .  .  ________  
 72
    65
 73
     6
 40
0.6799999999999999
 49
0.48
 74
     0
 49
-0.06
 74
     0
 49
0.01
 74
     0
 49
-0.06
 74
     0
 49
0.01
 74
     0
 49
-0.06
 74
     0
  0
LTYPE
  5
4F
330
5
100
AcDbSymbolTableRecord
100
AcDbLinetypeTableRecord
  2
LONG_DASH_TRIPLE_DOT
 70
     0
  3
Long Dash Triple Dot ____ ... ____ ... ____
 72
    65
 73
     8
 40
0.3689
 49
0.2362
 74
     0
 49
-0.0295
 74
     0
 49
0.0049
 74
     0
 49
-0.0295
 74
     0
 49
0.0049
 74
     0
 49
-0.0295
 74
     0
 49
0.0049
 74
     0
 49
-0.0295
 74
     0
  0
LTYPE
  5
50
330
5
100
AcDbSymbolTableRecord
100
AcDbLinetypeTableRecord
  2
BORDER
 70
     0
  3
Border __ __ . __ __ . __ __ . __ __ . __ __ .
 72
    65
 73
     6
 40
1.75
 49
0.5
 74
     0
 49
-0.25
 74
     0
 49
0.5
 74
     0
 49
-0.25
 74
     0
 49
0.0
 74
     0
 49
-0.25
 74
     0
  0
LTYPE
  5
51
330
5
100
AcDbSymbolTableRecord
100
AcDbLinetypeTableRecord
  2
BORDER2
 70
     0
  3
Border (.5x) __.__.__.__.__.__.__.__.__.__.__.
 72
    65
 73
     6
 40
0.875
 49
0.25
 74
     0
 49
-0.125
 74
     0
 49
0.25
 74
     0
 49
-0.125
 74
     0
 49
0.0
 74
     0
 49
-0.125
 74
     0
  0
LTYPE
  5
52
330
5
100
AcDbSymbolTableRecord
100
AcDbLinetypeTableRecord
  2
BORDERX2
 70
     0
  3
Border (2x) ____  ____  .  ____  ____  .  ___
 72
    65
 73
     6
 40
3.5
 49
1.0
 74
     0
 49
-0.5
 74
     0
 49
1.0
 74
     0
 49
-0.5
 74
     0
 49
0.0
 74
     0
 49
-0.5
 74
     0
  0
LTYPE
  5
53
330
5
100
AcDbSymbolTableRecord
100
AcDbLinetypeTableRecord
  2
CENTER
 70
     0
  3
Center ____ _ ____ _ ____ _ ____ _ ____ _ ____
 72
    65
 73
     4
 40
2.0
 49
1.25
 74
     0
 49
-0.25
 74
     0
 49
0.25
 74
     0
 49
-0.25
 74
     0
  0
LTYPE
  5
54
330
5
100
AcDbSymbolTableRecord
100
AcDbLinetypeTableRecord
  2
CENTER2
 70
     0
  3
Center (.5x) ___ _ ___ _ ___ _ ___ _ ___ _ ___
 72
    65
 73
     4
 40
1.125
 49
0.75
 74
     0
 49
-0.125
 74
     0
 49
0.125
 74
     0
 49
-0.125
 74
     0
  0
LTYPE
  5
55
330
5
100
AcDbSymbolTableRecord
100
AcDbLinetypeTableRecord
  2
CENTERX2
 70
     0
  3
Center (2x) ________  __  ________  __  _____
 72
    65
 73
     4
 40
4.0
 49
2.5
 74
     0
 49
-0.5
 74
     0
 49
0.5
 74
     0
 49
-0.5
 74
     0
  0
LTYPE
  5
56
330
5
100
AcDbSymbolTableRecord
100
AcDbLinetypeTableRecord
  2
DASHDOT2
 70
     0
  3
Dash dot (.5x) _._._._._._._._._._._._._._._.
 72
    65
 73
     4
 40
0.5
 49
0.25
 74
     0
 49
-0.125
 74
     0
 49
0.0
 74
     0
 49
-0.125
 74
     0
  0
LTYPE
  5
57
330
5
100
AcDbSymbolTableRecord
100
AcDbLinetypeTableRecord
  2
DASHDOTX2
 70
     0
  3
Dash dot (2x) ____  .  ____  .  ____  .  ___
 72
    65
 73
     4
 40
2.0
 49
1.0
 74
     0
 49
-0.5
 74
     0
 49
0.0
 74
     0
 49
-0.5
 74
     0
  0
LTYPE
  5
59
330
5
100
AcDbSymbolTableRecord
100
AcDbLinetypeTableRecord
  2
DASHED2
 70
     0
  3
Dashed (.5x) _ _ _ _ _ _ _ _ _ _ _ _ _ _ _ _ _
 72
    65
 73
     2
 40
0.375
 49
0.25
 74
     0
 49
-0.125
 74
     0
  0
LTYPE
  5
5A
330
5
100
AcDbSymbolTableRecord
100
AcDbLinetypeTableRecord
  2
DASHEDX2
 70
     0
  3
Dashed (2x) ____  ____  ____  ____  ____  ___
 72
    65
 73
     2
 40
1.5
 49
1.0
 74
     0
 49
-0.5
 74
     0
  0
LTYPE
  5
5B
330
5
100
AcDbSymbolTableRecord
100
AcDbLinetypeTableRecord
  2
DIVIDE
 70
     0
  3
Divide ____ . . ____ . . ____ . . ____ . . ____
 72
    65
 73
     6
 40
1.25
 49
0.5
 74
     0
 49
-0.25
 74
     0
 49
0.0
 74
     0
 49
-0.25
 74
     0
 49
0.0
 74
     0
 49
-0.25
 74
     0
  0
LTYPE
  5
5C
330
5
100
AcDbSymbolTableRecord
100
AcDbLinetypeTableRecord
  2
DIVIDE2
 70
     0
  3
Divide (.5x) __..__..__..__..__..__..__..__.._
 72
    65
 73
     6
 40
0.625
 49
0.25
 74
     0
 49
-0.125
 74
     0
 49
0.0
 74
     0
 49
-0.125
 74
     0
 49
0.0
 74
     0
 49
-0.125
 74
     0
  0
LTYPE
  5
5D
330
5
100
AcDbSymbolTableRecord
100
AcDbLinetypeTableRecord
  2
DIVIDEX2
 70
     0
  3
Divide (2x) ________  .  .  ________  .  .  _
 72
    65
 73
     6
 40
2.5
 49
1.0
 74
     0
 49
-0.5
 74
     0
 49
0.0
 74
     0
 49
-0.5
 74
     0
 49
0.0
 74
     0
 49
-0.5
 74
     0
  0
LTYPE
  5
5E
330
5
100
AcDbSymbolTableRecord
100
AcDbLinetypeTableRecord
  2
DOT
 70
     0
  3
Dot . . . . . . . . . . . . . . . . . . . . . .
 72
    65
 73
     2
 40
0.25
 49
0.0
 74
     0
 49
-0.25
 74
     0
  0
LTYPE
  5
5F
330
5
100
AcDbSymbolTableRecord
100
AcDbLinetypeTableRecord
  2
DOT2
 70
     0
  3
Dot (.5x) .....................................
 72
    65
 73
     2
 40
0.125
 49
0.0
 74
     0
 49
-0.125
 74
     0
  0
LTYPE
  5
60
330
5
100
AcDbSymbolTableRecord
100
AcDbLinetypeTableRecord
  2
DOTX2
 70
     0
  3
Dot (2x) .  .  .  .  .  .  .  .  .  .  .  .  . 
 72
    65
 73
     2
 40
0.5
 49
0.0
 74
     0
 49
-0.5
 74
     0
  0
LTYPE
  5
61
330
5
100
AcDbSymbolTableRecord
100
AcDbLinetypeTableRecord
  2
HIDDEN
 70
     0
  3
Hidden __ __ __ __ __ __ __ __ __ __ __ __ __ _
 72
    65
 73
     2
 40
0.375
 49
0.25
 74
     0
 49
-0.125
 74
     0
  0
LTYPE
  5
62
330
5
100
AcDbSymbolTableRecord
100
AcDbLinetypeTableRecord
  2
HIDDEN2
 70
     0
  3
Hidden (.5x) _ _ _ _ _ _ _ _ _ _ _ _ _ _ _ _ _
 72
    65
 73
     2
 40
0.1875
 49
0.125
 74
     0
 49
-0.0625
 74
     0
  0
LTYPE
  5
63
330
5
100
AcDbSymbolTableRecord
100
AcDbLinetypeTableRecord
  2
HIDDENX2
 70
     0
  3
Hidden (2x) ____ ____ ____ ____ ____ ____ ____
 72
    65
 73
     2
 40
0.75
 49
0.5
 74
     0
 49
-0.25
 74
     0
  0
LTYPE
  5
64
330
5
100
AcDbSymbolTableRecord
100
AcDbLinetypeTableRecord
  2
PHANTOM
 70
     0
  3
Phantom ______  __  __  ______  __  __  ______
 72
    65
 73
     6
 40
2.5
 49
1.25
 74
     0
 49
-0.25
 74
     0
 49
0.25
 74
     0
 49
-0.25
 74
     0
 49
0.25
 74
     0
 49
-0.25
 74
     0
  0
LTYPE
  5
65
330
5
100
AcDbSymbolTableRecord
100
AcDbLinetypeTableRecord
  2
PHANTOM2
 70
     0
  3
Phantom (.5x) ___ _ _ ___ _ _ ___ _ _ ___ _ _
 72
    65
 73
     6
 40
1.25
 49
0.625
 74
     0
 49
-0.125
 74
     0
 49
0.125
 74
     0
 49
-0.125
 74
     0
 49
0.125
 74
     0
 49
-0.125
 74
     0
  0
LTYPE
  5
66
330
5
100
AcDbSymbolTableRecord
100
AcDbLinetypeTableRecord
  2
PHANTOMX2
 70
     0
  3
Phantom (2x) ____________    ____    ____   _
 72
    65
 73
     6
 40
5.0
 49
2.5
 74
     0
 49
-0.5
 74
     0
 49
0.5
 74
     0
 49
-0.5
 74
     0
 49
0.5
 74
     0
 49
-0.5
 74
     0
  0
LTYPE
  5
67
330
5
100
AcDbSymbolTableRecord
100
AcDbLinetypeTableRecord
  2
ACAD_ISO02W100
 70
     0
  3
ISO dash __ __ __ __ __ __ __ __ __ __ __ __ __
 72
    65
 73
     2
 40
0.59
 49
0.47
 74
     0
 49
-0.12
 74
     0
  0
LTYPE
  5
68
330
5
100
AcDbSymbolTableRecord
100
AcDbLinetypeTableRecord
  2
ACAD_ISO03W100
 70
     0
  3
ISO dash space __    __    __    __    __    __
 72
    65
 73
     2
 40
1.179999999999999
 49
0.47
 74
     0
 49
-0.71
 74
     0
  0
LTYPE
  5
69
330
5
100
AcDbSymbolTableRecord
100
AcDbLinetypeTableRecord
  2
ACAD_ISO04W100
 70
     0
  3
ISO long-dash dot ____ . ____ . ____ . ____ . _
 72
    65
 73
     4
 40
1.179999999999999
 49
0.9399999999999998
 74
     0
 49
-0.12
 74
     0
 49
0.0
 74
     0
 49
-0.12
 74
     0
  0
LTYPE
  5
6A
330
5
100
AcDbSymbolTableRecord
100
AcDbLinetypeTableRecord
  2
ACAD_ISO05W100
 70
     0
  3
ISO long-dash double-dot ____ .. ____ .. ____ .
 72
    65
 73
     6
 40
1.299999999999998
 49
0.9399999999999998
 74
     0
 49
-0.12
 74
     0
 49
0.0
 74
     0
 49
-0.12
 74
     0
 49
0.0
 74
     0
 49
-0.12
 74
     0
  0
LTYPE
  5
6B
330
5
100
AcDbSymbolTableRecord
100
AcDbLinetypeTableRecord
  2
ACAD_ISO06W100
 70
     0
  3
ISO long-dash triple-dot ____ ... ____ ... ____
 72
    65
 73
     8
 40
1.419999999999999
 49
0.9399999999999998
 74
     0
 49
-0.12
 74
     0
 49
0.0
 74
     0
 49
-0.12
 74
     0
 49
0.0
 74
     0
 49
-0.12
 74
     0
 49
0.0
 74
     0
 49
-0.12
 74
     0
  0
LTYPE
  5
6C
330
5
100
AcDbSymbolTableRecord
100
AcDbLinetypeTableRecord
  2
ACAD_ISO07W100
 70
     0
  3
ISO dot . . . . . . . . . . . . . . . . . . . .
 72
    65
 73
     2
 40
0.12
 49
0.0
 74
     0
 49
-0.12
 74
     0
  0
LTYPE
  5
6D
330
5
100
AcDbSymbolTableRecord
100
AcDbLinetypeTableRecord
  2
ACAD_ISO08W100
 70
     0
  3
ISO long-dash short-dash ____ __ ____ __ ____ _
 72
    65
 73
     4
 40
0.95
 49
0.47
 74
     0
 49
-0.12
 74
     0
 49
0.24
 74
     0
 49
-0.12
 74
     0
  0
LTYPE
  5
6E
330
5
100
AcDbSymbolTableRecord
100
AcDbLinetypeTableRecord
  2
ACAD_ISO09W100
 70
     0
  3
ISO long-dash double-short-dash ____ __ __ ____
 72
    65
 73
     6
 40
1.31
 49
0.47
 74
     0
 49
-0.12
 74
     0
 49
0.24
 74
     0
 49
-0.12
 74
     0
 49
0.24
 74
     0
 49
-0.12
 74
     0
  0
LTYPE
  5
6F
330
5
100
AcDbSymbolTableRecord
100
AcDbLinetypeTableRecord
  2
ACAD_ISO10W100
 70
     0
  3
ISO dash dot __ . __ . __ . __ . __ . __ . __ .
 72
    65
 73
     4
 40
0.71
 49
0.47
 74
     0
 49
-0.12
 74
     0
 49
0.0
 74
     0
 49
-0.12
 74
     0
  0
LTYPE
  5
70
330
5
100
AcDbSymbolTableRecord
100
AcDbLinetypeTableRecord
  2
ACAD_ISO11W100
 70
     0
  3
ISO double-dash dot __ __ . __ __ . __ __ . __ 
 72
    65
 73
     6
 40
1.299999999999998
 49
0.47
 74
     0
 49
-0.12
 74
     0
 49
0.47
 74
     0
 49
-0.12
 74
     0
 49
0.0
 74
     0
 49
-0.12
 74
     0
  0
LTYPE
  5
71
330
5
100
AcDbSymbolTableRecord
100
AcDbLinetypeTableRecord
  2
ACAD_ISO12W100
 70
     0
  3
ISO dash double-dot __ . . __ . . __ . . __ . .
 72
    65
 73
     6
 40
0.8299999999999998
 49
0.47
 74
     0
 49
-0.12
 74
     0
 49
0.0
 74
     0
 49
-0.12
 74
     0
 49
0.0
 74
     0
 49
-0.12
 74
     0
  0
LTYPE
  5
72
330
5
100
AcDbSymbolTableRecord
100
AcDbLinetypeTableRecord
  2
ACAD_ISO13W100
 70
     0
  3
ISO double-dash double-dot __ __ . . __ __ . . 
 72
    65
 73
     8
 40
1.419999999999999
 49
0.47
 74
     0
 49
-0.12
 74
     0
 49
0.47
 74
     0
 49
-0.12
 74
     0
 49
0.0
 74
     0
 49
-0.12
 74
     0
 49
0.0
 74
     0
 49
-0.12
 74
     0
  0
LTYPE
  5
73
330
5
100
AcDbSymbolTableRecord
100
AcDbLinetypeTableRecord
  2
ACAD_ISO14W100
 70
     0
  3
ISO dash triple-dot __ . . . __ . . . __ . . . 
 72
    65
 73
     8
 40
0.95
 49
0.47
 74
     0
 49
-0.12
 74
     0
 49
0.0
 74
     0
 49
-0.12
 74
     0
 49
0.0
 74
     0
 49
-0.12
 74
     0
 49
0.0
 74
     0
 49
-0.12
 74
     0
  0
LTYPE
  5
74
330
5
100
AcDbSymbolTableRecord
100
AcDbLinetypeTableRecord
  2
ACAD_ISO15W100
 70
     0
  3
ISO double-dash triple-dot __ __ . . . __ __ . 
 72
    65
 73
    10
 40
1.539999999999998
 49
0.47
 74
     0
 49
-0.12
 74
     0
 49
0.47
 74
     0
 49
-0.12
 74
     0
 49
0.0
 74
     0
 49
-0.12
 74
     0
 49
0.0
 74
     0
 49
-0.12
 74
     0
 49
0.0
 74
     0
 49
-0.12
 74
     0
  0
LTYPE
  5
77
330
5
100
AcDbSymbolTableRecord
100
AcDbLinetypeTableRecord
  2
FENCELINE1
 70
     0
  3
Fenceline circle ----0-----0----0-----0----0---
 72
    65
 73
     4
 40
1.449999999999999
 49
0.25
 74
     0
 49
-0.1
 74
     4
 75
   133
340
76
 46
0.1
 50
0.0
 44
-0.1
 45
0.0
 49
-0.1
 74
     0
 49
1.0
 74
     0
  0
LTYPE
  5
78
330
5
100
AcDbSymbolTableRecord
100
AcDbLinetypeTableRecord
  2
FENCELINE2
 70
     0
  3
Fenceline square ----[]-----[]----[]-----[]----
 72
    65
 73
     4
 40
1.449999999999999
 49
0.25
 74
     0
 49
-0.1
 74
     4
 75
   132
340
76
 46
0.1
 50
0.0
 44
-0.1
 45
0.0
 49
-0.1
 74
     0
 49
1.0
 74
     0
  0
LTYPE
  5
79
330
5
100
AcDbSymbolTableRecord
100
AcDbLinetypeTableRecord
  2
TRACKS
 70
     0
  3
Tracks -|-|-|-|-|-|-|-|-|-|-|-|-|-|-|-|-|-|-|-|
 72
    65
 73
     2
 40
0.3
 49
0.15
 74
     4
 75
   130
340
76
 46
0.25
 50
0.0
 44
0.0
 45
0.0
 49
0.15
 74
     0
  0
LTYPE
  5
7A
330
5
100
AcDbSymbolTableRecord
100
AcDbLinetypeTableRecord
  2
BATTING
 70
     0
  3
Batting SSSSSSSSSSSSSSSSSSSSSSSSSSSSSSSSSSSSSSS
 72
    65
 73
     4
 40
0.4001000000000002
 49
0.0001
 74
     0
 49
-0.1
 74
     4
 75
   134
340
76
 46
0.1
 50
0.0
 44
-0.1
 45
0.0
 49
-0.2
 74
     4
 75
   134
340
76
 46
0.1
 50
180.0
 44
0.1
 45
0.0
 49
-0.1
 74
     0
  0
LTYPE
  5
7B
330
5
100
AcDbSymbolTableRecord
100
AcDbLinetypeTableRecord
  2
HOT_WATER_SUPPLY
 70
     0
  3
Hot water supply ---- HW ---- HW ---- HW ----
 72
    65
 73
     3
 40
0.9
 49
0.5
 74
     0
 49
-0.2
 74
     2
 75
     0
340
26
 46
0.1
 50
0.0
 44
-0.1
 45
-0.05
  9
HW
 49
-0.2
 74
     0
  0
LTYPE
  5
7C
330
5
100
AcDbSymbolTableRecord
100
AcDbLinetypeTableRecord
  2
GAS_LINE
 70
     0
  3
Gas line ----GAS----GAS----GAS----GAS----GAS---
 72
    65
 73
     3
 40
0.95
 49
0.5
 74
     0
 49
-0.2
 74
     2
 75
     0
340
26
 46
0.1
 50
0.0
 44
-0.1
 45
-0.05
  9
GAS
 49
-0.25
 74
     0
  0
LTYPE
  5
7D
330
5
100
AcDbSymbolTableRecord
100
AcDbLinetypeTableRecord
  2
ZIGZAG
 70
     0
  3
Zig zag /\/\/\/\/\/\/\/\/\/\/\/\/\/\/\/\/\/\/\/
 72
    65
 73
     4
 40
0.8001000000000001
 49
0.0001
 74
     0
 49
-0.2
 74
     4
 75
   131
340
76
 46
0.2
 50
0.0
 44
-0.2
 45
0.0
 49
-0.4
 74
     4
 75
   131
340
76
 46
0.2
 50
180.0
 44
0.2
 45
0.0
 49
-0.2
 74
     0
  0
ENDTAB
  0
TABLE
  2
LAYER
  5
2
330
0
100
AcDbSymbolTable
 70
     7
  0
LAYER
  5
25
330
2
100
AcDbSymbolTableRecord
100
AcDbLayerTableRecord
  2
0
 70
     0
 62
     7
  6
Continuous
370
    18
390
F
  0
LAYER
  5
81
330
2
100
AcDbSymbolTableRecord
100
AcDbLayerTableRecord
  2
Border (ANSI)
 70
     0
 62
     7
  6
Continuous
370
    70
390
F
  0
LAYER
  5
86
330
2
100
AcDbSymbolTableRecord
100
AcDbLayerTableRecord
  2
Dimension (ANSI)
 70
     0
 62
     7
  6
Continuous
370
    25
390
F
  0
LAYER
  5
8E
330
2
100
AcDbSymbolTableRecord
100
AcDbLayerTableRecord
  2
Sketch Geometry (ANSI)
 70
     0
 62
     7
  6
Continuous
370
    25
390
F
  0
LAYER
  5
8F
330
2
100
AcDbSymbolTableRecord
100
AcDbLayerTableRecord
  2
Symbol (ANSI)
 70
     0
 62
     7
  6
Continuous
370
    25
390
F
  0
LAYER
  5
92
330
2
100
AcDbSymbolTableRecord
100
AcDbLayerTableRecord
  2
Visible (ANSI)
 70
     0
 62
     7
  6
Continuous
370
    50
390
F
  0
LAYER
  5
1A0
330
2
100
AcDbSymbolTableRecord
100
AcDbLayerTableRecord
  2
Defpoints
 70
     0
 62
     7
  6
Continuous
290
     0
370
    -3
390
F
  0
ENDTAB
  0
TABLE
  2
STYLE
  5
3
330
0
100
AcDbSymbolTable
 70
    22
  0
STYLE
  5
26
330
3
100
AcDbSymbolTableRecord
100
AcDbTextStyleTableRecord
  2
Standard
 70
     0
 40
0.0
 41
1.0
 50
0.0
 71
     0
 42
0.2
  3
monotxt.shx
  4

  0
STYLE
  5
76
330
3
100
AcDbSymbolTableRecord
100
AcDbTextStyleTableRecord
  2

 70
     1
 40
0.0
 41
1.0
 50
0.0
 71
     0
 42
0.2
  3
ltypeshp.shx
  4

  0
STYLE
  5
97
330
3
100
AcDbSymbolTableRecord
100
AcDbTextStyleTableRecord
  2
Label Text (ANSI)
 70
     0
 40
0.0
 41
1.0
 50
0.0
 71
     0
 42
0.2
  3
TAHOMA.TTF
  4

1001
ACAD
1000
Tahoma
1071
      256
  0
STYLE
  5
98
330
3
100
AcDbSymbolTableRecord
100
AcDbTextStyleTableRecord
  2
Label Text (DIN)
 70
     0
 40
0.0
 41
1.0
 50
0.0
 71
     0
 42
0.2
  3
isocpeur.ttf
  4

1001
ACAD
1000
ISOCPEUR
1071
      256
  0
STYLE
  5
99
330
3
100
AcDbSymbolTableRecord
100
AcDbTextStyleTableRecord
  2
Label Text (ISO)
 70
     0
 40
0.0
 41
1.0
 50
0.0
 71
     0
 42
0.2
  3
TAHOMA.TTF
  4

1001
ACAD
1000
Tahoma
1071
      256
  0
STYLE
  5
9A
330
3
100
AcDbSymbolTableRecord
100
AcDbTextStyleTableRecord
  2
Label Text (JIS)
 70
     0
 40
0.0
 41
1.0
 50
0.0
 71
     0
 42
0.2
  3
TAHOMA.TTF
  4

1001
ACAD
1000
Tahoma
1071
      256
  0
STYLE
  5
9B
330
3
100
AcDbSymbolTableRecord
100
AcDbTextStyleTableRecord
  2
Note Text (ANSI)
 70
     0
 40
0.0
 41
1.0
 50
0.0
 71
     0
 42
0.2
  3
TAHOMA.TTF
  4

1001
ACAD
1000
Tahoma
1071
      256
  0
STYLE
  5
9C
330
3
100
AcDbSymbolTableRecord
100
AcDbTextStyleTableRecord
  2
Note Text (DIN)
 70
     0
 40
0.0
 41
1.0
 50
0.0
 71
     0
 42
0.2
  3
isocpeur.ttf
  4

1001
ACAD
1000
ISOCPEUR
1071
      256
  0
STYLE
  5
9D
330
3
100
AcDbSymbolTableRecord
100
AcDbTextStyleTableRecord
  2
Note Text (ISO)
 70
     0
 40
0.0
 41
1.0
 50
0.0
 71
     0
 42
0.2
  3
TAHOMA.TTF
  4

1001
ACAD
1000
Tahoma
1071
      256
  0
STYLE
  5
9E
330
3
100
AcDbSymbolTableRecord
100
AcDbTextStyleTableRecord
  2
Note Text (JIS)
 70
     0
 40
0.0
 41
1.0
 50
0.0
 71
     0
 42
0.2
  3
TAHOMA.TTF
  4

1001
ACAD
1000
Tahoma
1071
      256
  0
STYLE
  5
9F
330
3
100
AcDbSymbolTableRecord
100
AcDbTextStyleTableRecord
  2
revision
 70
     0
 40
0.0
 41
1.0
 50
0.0
 71
     0
 42
0.2
  3
TAHOMA.TTF
  4

1001
ACAD
1000
Tahoma
1071
      256
  0
STYLE
  5
A0
330
3
100
AcDbSymbolTableRecord
100
AcDbTextStyleTableRecord
  2
STANDARD-1
 70
     0
 40
0.0
 41
1.0
 50
0.0
 71
     0
 42
0.2
  3
monotxt.shx
  4

  0
STYLE
  5
A1
330
3
100
AcDbSymbolTableRecord
100
AcDbTextStyleTableRecord
  2
STANDARD-2
 70
     0
 40
0.0
 41
1.0
 50
0.0
 71
     0
 42
0.2
  3
monotxt.shx
  4

  0
STYLE
  5
A2
330
3
100
AcDbSymbolTableRecord
100
AcDbTextStyleTableRecord
  2
STANDARD-3
 70
     0
 40
0.0
 41
1.0
 50
0.0
 71
     0
 42
0.2
  3
monotxt.shx
  4

  0
STYLE
  5
A3
330
3
100
AcDbSymbolTableRecord
100
AcDbTextStyleTableRecord
  2
STANDARDAM_ANSI
 70
     0
 40
0.0
 41
1.0
 50
0.0
 71
     0
 42
0.2
  3
monotxt.shx
  4

  0
STYLE
  5
A4
330
3
100
AcDbSymbolTableRecord
100
AcDbTextStyleTableRecord
  2
STANDARDAM_ANSI$3
 70
     0
 40
0.0
 41
1.0
 50
0.0
 71
     0
 42
0.2
  3
monotxt.shx
  4

  0
STYLE
  5
A5
330
3
100
AcDbSymbolTableRecord
100
AcDbTextStyleTableRecord
  2
STANDARDAM_ANSI$4
 70
     0
 40
0.0
 41
1.0
 50
0.0
 71
     0
 42
0.2
  3
monotxt.shx
  4

  0
STYLE
  5
A6
330
3
100
AcDbSymbolTableRecord
100
AcDbTextStyleTableRecord
  2
STANDARDAM_ANSI$7
 70
     0
 40
0.0
 41
1.0
 50
0.0
 71
     0
 42
0.2
  3
monotxt.shx
  4

  0
STYLE
  5
A7
330
3
100
AcDbSymbolTableRecord
100
AcDbTextStyleTableRecord
  2
STANDARDAM_ANSI$SF
 70
     0
 40
0.0
 41
1.0
 50
0.0
 71
     0
 42
0.2
  3
monotxt.shx
  4

  0
STYLE
  5
A8
330
3
100
AcDbSymbolTableRecord
100
AcDbTextStyleTableRecord
  2
STANDARDAM_ANSI$SH
 70
     0
 40
0.0
 41
1.0
 50
0.0
 71
     0
 42
0.2
  3
monotxt.shx
  4

  0
STYLE
  5
A9
330
3
100
AcDbSymbolTableRecord
100
AcDbTextStyleTableRecord
  2
STANDARDStandard
 70
     0
 40
0.0
 41
1.0
 50
0.0
 71
     0
 42
0.2
  3
monotxt.shx
  4

  0
STYLE
  5
AA
330
3
100
AcDbSymbolTableRecord
100
AcDbTextStyleTableRecord
  2
Text BOM
 70
     0
 40
0.0
 41
1.0
 50
0.0
 71
     0
 42
0.2
  3
TAHOMA.TTF
  4

1001
ACAD
1000
Tahoma
1071
      256
  0
ENDTAB
  0
TABLE
  2
VIEW
  5
6
330
0
100
AcDbSymbolTable
 70
     0
  0
ENDTAB
  0
TABLE
  2
UCS
  5
7
330
0
100
AcDbSymbolTable
 70
     0
  0
ENDTAB
  0
TABLE
  2
APPID
  5
9
330
0
100
AcDbSymbolTable
 70
     1
  0
APPID
  5
27
330
9
100
AcDbSymbolTableRecord
100
AcDbRegAppTableRecord
  2
ACAD
 70
     0
  0
ENDTAB
  0
TABLE
  2
DIMSTYLE
  5
A
330
0
100
AcDbSymbolTable
 70
    13
100
AcDbDimStyleTable
 71
     2
340
AF
340
3F
  0
DIMSTYLE
105
3F
330
A
100
AcDbSymbolTableRecord
100
AcDbDimStyleTableRecord
  2
Standard
 70
     0
340
26
  0
DIMSTYLE
105
AB
330
A
100
AcDbSymbolTableRecord
100
AcDbDimStyleTableRecord
  2
Default - Fraction (ANSI)
 70
     0
 40
0.5
 41
2.5
 42
1.587499999999999
 43
6.0
 44
3.174999999999998
 45
0.00000001
 46
10.0
 78
    12
 79
     3
140
3.048000097274779
144
0.0393700787401575
147
0.8
171
     1
176
   256
177
   256
178
   256
272
     2
274
     1
276
     2
277
     5
284
    12
286
    12
340
9B
371
    -1
372
    -1
  0
DIMSTYLE
105
AC
330
A
100
AcDbSymbolTableRecord
100
AcDbDimStyleTableRecord
  2
Default - Fraction (ANSI)$7
 70
     0
 40
0.5
 41
2.5
 42
1.587499999999999
 43
6.0
 44
3.174999999999998
 45
0.00000001
 46
10.0
 78
    12
 79
     3
140
3.048000097274779
144
0.0393700787401575
147
0.8
171
     1
176
   256
177
   256
178
   256
272
     2
274
     1
276
     2
277
     5
284
    12
286
    12
340
9B
371
    -1
372
    -1
  0
DIMSTYLE
105
AD
330
A
100
AcDbSymbolTableRecord
100
AcDbDimStyleTableRecord
  2
Default - mm (ANSI)
 70
     0
 40
0.5
 41
2.5
 42
1.6002
 43
6.0
 44
3.174999999999998
 45
0.00000001
 46
10.0
 73
     0
140
3.048000097274779
144
0.0393700787401575
147
0.8
171
     1
176
   256
177
   256
178
   256
179
     1
271
     3
272
     2
274
     1
340
9B
371
    -1
372
    -1
  0
DIMSTYLE
105
AE
330
A
100
AcDbSymbolTableRecord
100
AcDbDimStyleTableRecord
  2
Default - mm (ANSI)$7
 70
     0
 40
0.5
 41
2.5
 42
1.6002
 43
6.0
 44
3.174999999999998
 45
0.00000001
 46
10.0
 73
     0
140
3.048000097274779
144
0.0393700787401575
147
0.8
171
     1
176
   256
177
   256
178
   256
179
     1
271
     3
272
     2
274
     1
340
9B
371
    -1
372
    -1
  0
DIMSTYLE
105
AF
102
{ACAD_REACTORS
330
19F
330
276
330
360
330
454
330
54F
330
625
330
6FB
330
7D1
102
}
330
A
100
AcDbSymbolTableRecord
100
AcDbDimStyleTableRecord
  2
Default - mm [in] (ANSI)
 70
     0
  4
 in
 40
0.5
 41
2.5
 42
1.6002
 43
6.349999999999998
 44
3.174999999999998
 45
0.00000001
 46
10.0
 73
     0
 78
     4
 79
     1
140
3.048000097274779
143
0.03937
147
0.8
170
     1
171
     3
176
   256
177
   256
178
   256
179
     1
271
     2
272
     2
274
     3
284
     4
286
     4
340
9B
371
    -1
372
    -1
  0
DIMSTYLE
105
B0
330
A
100
AcDbSymbolTableRecord
100
AcDbDimStyleTableRecord
  2
Default - mm [in] (ANSI)$7
 70
     0
  4
 in
 40
0.5
 41
2.5
 42
1.6002
 43
6.349999999999998
 44
3.174999999999998
 45
0.00000001
 46
10.0
 73
     0
 78
     4
 79
     1
140
3.048000097274779
143
0.03937
147
0.8
170
     1
171
     3
176
   256
177
   256
178
   256
179
     1
271
     2
272
     2
274
     3
284
     4
286
     4
340
9B
371
    -1
372
    -1
  0
DIMSTYLE
105
B1
330
A
100
AcDbSymbolTableRecord
100
AcDbDimStyleTableRecord
  2
Default (ANSI)
 70
     0
 40
0.5
 41
2.5
 42
1.587499999999999
 43
6.0
 44
3.174999999999998
 45
0.00000001
 46
10.0
140
3.048000097274779
144
0.0393700787401575
147
0.8
171
     1
176
   256
177
   256
178
   256
271
     2
272
     2
274
     1
340
9B
371
    -1
372
    -1
  0
DIMSTYLE
105
B2
330
A
100
AcDbSymbolTableRecord
100
AcDbDimStyleTableRecord
  2
Default (ANSI)$7
 70
     0
 40
0.5
 41
2.5
 42
1.587499999999999
 43
6.0
 44
3.174999999999998
 45
0.00000001
 46
10.0
140
3.048000097274779
144
0.0393700787401575
147
0.8
171
     1
176
   256
177
   256
178
   256
271
     2
272
     2
274
     1
340
9B
371
    -1
372
    -1
  0
DIMSTYLE
105
C1
330
A
100
AcDbSymbolTableRecord
100
AcDbDimStyleTableRecord
  2
Miscellaneous Object (ANSI)
 70
     0
 40
0.5
 41
5.0
 42
1.587499999999999
 43
6.0
 44
3.174999999999998
 45
0.00000001
 46
10.0
140
4.572000026702879
144
0.0393700787401575
146
0.666666684049182
147
0.8
171
     1
176
   256
177
   256
178
   256
271
     2
272
     2
274
     1
340
97
341
B3
371
    -1
372
    -1
  0
DIMSTYLE
105
C2
330
A
100
AcDbSymbolTableRecord
100
AcDbDimStyleTableRecord
  2
Miscellaneous Object (ANSI)$7
 70
     0
 40
0.5
 41
4.978400230407713
 42
1.587499999999999
 43
6.0
 44
3.174999999999998
 45
0.00000001
 46
10.0
140
4.572000026702879
144
0.0393700787401575
146
0.666666684049182
147
0.8
171
     1
176
   256
177
   256
178
   256
271
     2
272
     2
274
     1
340
97
341
B3
371
    -1
372
    -1
  0
DIMSTYLE
105
C3
330
A
100
AcDbSymbolTableRecord
100
AcDbDimStyleTableRecord
  2
Alternate (ANSI)
 70
     0
 40
0.5
 41
2.489200115203856
340
26
342
C4
  0
DIMSTYLE
105
D5
330
A
100
AcDbSymbolTableRecord
100
AcDbDimStyleTableRecord
  2
Datum (ANSI)
 70
     0
 40
0.5
 41
2.489200115203856
340
26
342
C4
  0
ENDTAB
  0
TABLE
  2
BLOCK_RECORD
  5
1
330
0
100
AcDbSymbolTable
 70
    17
  0
BLOCK_RECORD
  5
37
330
1
100
AcDbSymbolTableRecord
100
AcDbBlockTableRecord
  2
*Model_Space
340
3A
  0
BLOCK_RECORD
  5
33
330
1
100
AcDbSymbolTableRecord
100
AcDbBlockTableRecord
  2
*Paper_Space
340
36
  0
BLOCK_RECORD
  5
3B
330
1
100
AcDbSymbolTableRecord
100
AcDbBlockTableRecord
  2
*Paper_Space0
340
3E
  0
BLOCK_RECORD
  5
B3
330
1
100
AcDbSymbolTableRecord
100
AcDbBlockTableRecord
  2
Filled-1
340
0
  0
BLOCK_RECORD
  5
C4
330
1
100
AcDbSymbolTableRecord
100
AcDbBlockTableRecord
  2
_Closed
340
0
  0
BLOCK_RECORD
  5
CB
330
1
100
AcDbSymbolTableRecord
100
AcDbBlockTableRecord
  2
DatumFilled45
340
0
  0
BLOCK_RECORD
  5
D6
330
1
100
AcDbSymbolTableRecord
100
AcDbBlockTableRecord
  2
Plastic Part Notes
340
0
  0
BLOCK_RECORD
  5
E6
330
1
100
AcDbSymbolTableRecord
100
AcDbBlockTableRecord
  2
PCB Part Notes
340
0
  0
BLOCK_RECORD
  5
EA
330
1
100
AcDbSymbolTableRecord
100
AcDbBlockTableRecord
  2
Dimension Label
340
0
  0
BLOCK_RECORD
  5
F3
330
1
100
AcDbSymbolTableRecord
100
AcDbBlockTableRecord
  2
Metal Stamping Notes
340
0
  0
BLOCK_RECORD
  5
102
330
1
100
AcDbSymbolTableRecord
100
AcDbBlockTableRecord
  2
Borders Default Border
340
0
102
{BLKREFS
331
10C
102
}
  0
BLOCK_RECORD
  5
1A1
330
1
100
AcDbSymbolTableRecord
100
AcDbBlockTableRecord
  2
*D9
340
0
  0
BLOCK_RECORD
  5
277
330
1
100
AcDbSymbolTableRecord
100
AcDbBlockTableRecord
  2
*D10
340
0
  0
BLOCK_RECORD
  5
361
330
1
100
AcDbSymbolTableRecord
100
AcDbBlockTableRecord
  2
*D11
340
0
  0
BLOCK_RECORD
  5
455
330
1
100
AcDbSymbolTableRecord
100
AcDbBlockTableRecord
  2
*D12
340
0
  0
BLOCK_RECORD
  5
550
330
1
100
AcDbSymbolTableRecord
100
AcDbBlockTableRecord
  2
*D13
340
0
  0
BLOCK_RECORD
  5
626
330
1
100
AcDbSymbolTableRecord
100
AcDbBlockTableRecord
  2
*D14
340
0
  0
BLOCK_RECORD
  5
6FC
330
1
100
AcDbSymbolTableRecord
100
AcDbBlockTableRecord
  2
*D15
340
0
  0
BLOCK_RECORD
  5
7D2
330
1
100
AcDbSymbolTableRecord
100
AcDbBlockTableRecord
  2
*D16
340
0
  0
ENDTAB
  0
ENDSEC
  0
SECTION
  2
BLOCKS
  0
BLOCK
  5
38
330
37
100
AcDbEntity
  8
0
100
AcDbBlockBegin
  2
*Model_Space
 70
     0
 10
0.0
 20
0.0
 30
0.0
  3
*Model_Space
  1

  0
ENDBLK
  5
39
330
37
100
AcDbEntity
  8
0
100
AcDbBlockEnd
  0
BLOCK
  5
34
330
33
100
AcDbEntity
 67
     1
  8
0
100
AcDbBlockBegin
  2
*Paper_Space
 70
     0
 10
0.0
 20
0.0
 30
0.0
  3
*Paper_Space
  1

  0
ENDBLK
  5
35
330
33
100
AcDbEntity
 67
     1
  8
0
100
AcDbBlockEnd
  0
BLOCK
  5
3C
330
3B
100
AcDbEntity
 67
     1
  8
0
100
AcDbBlockBegin
  2
*Paper_Space0
 70
     0
 10
0.0
 20
0.0
 30
0.0
  3
*Paper_Space0
  1

  0
ENDBLK
  5
3D
330
3B
100
AcDbEntity
 67
     1
  8
0
100
AcDbBlockEnd
  0
BLOCK
  5
B4
330
B3
100
AcDbEntity
  8
0
100
AcDbBlockBegin
  2
Filled-1
 70
     0
 10
0.0
 20
0.0
 30
0.0
  3
Filled-1
  1

  0
LINE
  5
B6
330
B3
100
AcDbEntity
  8
0
 62
     0
100
AcDbLine
 10
-1.0
 20
0.0
 30
0.0
 11
0.0
 21
0.0
 31
0.0
  0
POLYLINE
  5
B7
330
B3
100
AcDbEntity
  8
0
 62
     0
100
AcDb2dPolyline
 66
     1
 10
0.0
 20
0.0
 30
0.0
 70
   128
  0
VERTEX
  5
B8
330
B7
100
AcDbEntity
  8
0
 62
     0
100
AcDbVertex
100
AcDb2dVertex
 10
-1.0
 20
-0.0994897959183674
 30
0.0
  0
VERTEX
  5
B9
330
B7
100
AcDbEntity
  8
0
 62
     0
100
AcDbVertex
100
AcDb2dVertex
 10
0.0
 20
0.0
 30
0.0
  0
VERTEX
  5
BB
330
B7
100
AcDbEntity
  8
0
 62
     0
100
AcDbVertex
100
AcDb2dVertex
 10
-1.0
 20
0.0994897959183674
 30
0.0
  0
VERTEX
  5
BC
330
B7
100
AcDbEntity
  8
0
 62
     0
100
AcDbVertex
100
AcDb2dVertex
 10
-1.0
 20
-0.0994897959183674
 30
0.0
  0
SEQEND
  5
BA
330
B7
100
AcDbEntity
  8
0
 62
     0
  0
SOLID
  5
BD
330
B3
100
AcDbEntity
  8
0
 62
     0
100
AcDbTrace
 10
-1.0
 20
-0.0994897959183674
 30
0.0
 11
0.0
 21
0.0
 31
0.0
 12
-1.0
 22
0.0994897959183674
 32
0.0
 13
-1.0
 23
-0.0994897959183674
 33
0.0
  0
LINE
  5
BE
330
B3
100
AcDbEntity
  8
0
 62
     0
100
AcDbLine
 10
-1.0
 20
-0.0994897959183674
 30
0.0
 11
0.0
 21
0.0
 31
0.0
  0
LINE
  5
BF
330
B3
100
AcDbEntity
  8
0
 62
     0
100
AcDbLine
 10
0.0
 20
0.0
 30
0.0
 11
-1.0
 21
0.0994897959183674
 31
0.0
  0
LINE
  5
C0
330
B3
100
AcDbEntity
  8
0
 62
     0
100
AcDbLine
 10
-1.0
 20
0.0994897959183674
 30
0.0
 11
-1.0
 21
-0.0994897959183674
 31
0.0
  0
ENDBLK
  5
B5
330
B3
100
AcDbEntity
  8
0
100
AcDbBlockEnd
  0
BLOCK
  5
C9
330
C4
100
AcDbEntity
  8
0
100
AcDbBlockBegin
  2
_Closed
 70
     0
 10
0.0
 20
0.0
 30
0.0
  3
_Closed
  1

  0
LINE
  5
C5
330
C4
100
AcDbEntity
  8
0
  6
ByBlock
 62
     0
370
    -2
100
AcDbLine
 10
-1.0
 20
0.1666666666666666
 30
0.0
 11
0.0
 21
0.0
 31
0.0
  0
LINE
  5
C6
330
C4
100
AcDbEntity
  8
0
  6
ByBlock
 62
     0
370
    -2
100
AcDbLine
 10
0.0
 20
0.0
 30
0.0
 11
-1.0
 21
-0.1666666666666666
 31
0.0
  0
LINE
  5
C7
330
C4
100
AcDbEntity
  8
0
  6
ByBlock
 62
     0
370
    -2
100
AcDbLine
 10
-1.0
 20
0.1666666666666666
 30
0.0
 11
-1.0
 21
-0.1666666666666666
 31
0.0
  0
LINE
  5
C8
330
C4
100
AcDbEntity
  8
0
  6
ByBlock
 62
     0
370
    -2
100
AcDbLine
 10
0.0
 20
0.0
 30
0.0
 11
-1.0
 21
0.0
 31
0.0
  0
ENDBLK
  5
CA
330
C4
100
AcDbEntity
  8
0
100
AcDbBlockEnd
  0
BLOCK
  5
CC
330
CB
100
AcDbEntity
  8
0
100
AcDbBlockBegin
  2
DatumFilled45
 70
     0
 10
0.0
 20
0.0
 30
0.0
  3
DatumFilled45
  1

  0
POLYLINE
  5
CE
330
CB
100
AcDbEntity
  8
0
 62
     0
100
AcDb2dPolyline
 66
     1
 10
0.0
 20
0.0
 30
0.0
 70
   128
  0
VERTEX
  5
CF
330
CE
100
AcDbEntity
  8
0
 62
     0
100
AcDbVertex
100
AcDb2dVertex
 10
0.0
 20
1.0
 30
0.0
  0
VERTEX
  5
D0
330
CE
100
AcDbEntity
  8
0
 62
     0
100
AcDbVertex
100
AcDb2dVertex
 10
0.0
 20
-1.0
 30
0.0
  0
VERTEX
  5
D2
330
CE
100
AcDbEntity
  8
0
 62
     0
100
AcDbVertex
100
AcDb2dVertex
 10
-1.0
 20
0.0
 30
0.0
  0
VERTEX
  5
D3
330
CE
100
AcDbEntity
  8
0
 62
     0
100
AcDbVertex
100
AcDb2dVertex
 10
0.0
 20
1.0
 30
0.0
  0
SEQEND
  5
D1
330
CE
100
AcDbEntity
  8
0
 62
     0
  0
SOLID
  5
D4
330
CB
100
AcDbEntity
  8
0
 62
     0
100
AcDbTrace
 10
0.0
 20
1.0
 30
0.0
 11
0.0
 21
-1.0
 31
0.0
 12
-1.0
 22
0.0
 32
0.0
 13
0.0
 23
1.0
 33
0.0
  0
ENDBLK
  5
CD
330
CB
100
AcDbEntity
  8
0
100
AcDbBlockEnd
  0
BLOCK
  5
D7
330
D6
100
AcDbEntity
  8
0
100
AcDbBlockBegin
  2
Plastic Part Notes
 70
     0
 10
0.0
 20
0.0
 30
0.0
  3
Plastic Part Notes
  1

  0
LINE
  5
D9
330
D6
100
AcDbEntity
  8
Sketch Geometry (ANSI)
100
AcDbLine
 10
19.89437579636785
 20
36.00168828806474
 30
0.0
 11
-0.8060267550984121
 21
36.00168828806474
 31
0.0
  0
LINE
  5
DA
330
D6
100
AcDbEntity
  8
Sketch Geometry (ANSI)
100
AcDbLine
 10
-0.8060267550984121
 20
36.00168828806474
 30
0.0
 11
-0.8060267550984121
 21
31.7632149444815
 31
0.0
  0
LINE
  5
DB
330
D6
100
AcDbEntity
  8
Sketch Geometry (ANSI)
100
AcDbLine
 10
-0.8060267550984121
 20
31.7632149444815
 30
0.0
 11
19.89437579636785
 21
31.7632149444815
 31
0.0
  0
LINE
  5
DC
330
D6
100
AcDbEntity
  8
Sketch Geometry (ANSI)
100
AcDbLine
 10
19.89437579636785
 20
31.7632149444815
 30
0.0
 11
19.89437579636785
 21
36.00168828806474
 31
0.0
  0
LINE
  5
DD
330
D6
100
AcDbEntity
  8
Sketch Geometry (ANSI)
100
AcDbLine
 10
17.28317328073501
 20
36.00168828806474
 30
0.0
 11
17.28317328073501
 21
31.7632149444815
 31
0.0
  0
LINE
  5
DE
330
D6
100
AcDbEntity
  8
Sketch Geometry (ANSI)
100
AcDbLine
 10
14.48275319150557
 20
36.00168828806474
 30
0.0
 11
14.48275319150557
 21
31.7632149444815
 31
0.0
  0
LINE
  5
DF
330
D6
100
AcDbEntity
  8
Sketch Geometry (ANSI)
100
AcDbLine
 10
11.56880255811817
 20
36.00168828806474
 30
0.0
 11
11.56880255811817
 21
31.7632149444815
 31
0.0
  0
LINE
  5
E0
330
D6
100
AcDbEntity
  8
Sketch Geometry (ANSI)
100
AcDbLine
 10
4.567752335044548
 20
36.00168828806474
 30
0.0
 11
4.567752335044548
 21
31.7632149444815
 31
0.0
  0
LINE
  5
E1
330
D6
100
AcDbEntity
  8
Sketch Geometry (ANSI)
100
AcDbLine
 10
-17.48945628923362
 20
-31.83624551359475
 30
0.0
 11
-15.08453678209937
 21
-36.00168828806467
 31
0.0
  0
LINE
  5
E2
330
D6
100
AcDbEntity
  8
Sketch Geometry (ANSI)
100
AcDbLine
 10
-15.08453678209937
 20
-36.00168828806467
 30
0.0
 11
-19.89437579636785
 21
-36.00168828806474
 31
0.0
  0
LINE
  5
E3
330
D6
100
AcDbEntity
  8
Sketch Geometry (ANSI)
100
AcDbLine
 10
-19.89437579636785
 20
-36.00168828806474
 30
0.0
 11
-17.48945628923362
 21
-31.83624551359475
 31
0.0
  0
MTEXT
  5
E4
330
D6
100
AcDbEntity
  8
Symbol (ANSI)
100
AcDbMText
 10
-31.1982706251767
 20
43.90034621717492
 30
0.0
 40
2.249999940395354
 41
95.75627326965332
 71
     1
 72
     1
  3
\fTahoma|b0|i0;\H2.2500;Notes\P1. Tooling to be built per math data provided by Littelfuse. Geometry per math to be within \fAIGDT|b0|i0;\H2.2500;d\fTahoma|b0|i0;\H2.2500; 0.25 A B C unless otherwise specified. Dimensions shown are for inspection pur
  3
poses only.\P2. Draft angles to be per Littelfuse math data, unless other specified.\P3. Parting lines, knockout pins and gate location to be approved by Littelfuse Engineering prior to tool construction.\P4. Parting lines, knock out pines, and lifte
  3
r flash shall be 0.13 max, unless otherwise specified\P5. Corners shown sharp by have a 0.25 radius max, unless otherwise specified by Littelfuse Engineering.\P6. All cavities shall be identified. Check with Littelfuse Engineering for preferred locat
  3
ion.\P7. Parts to be clean and free of cracks, foreign matter, chips, weld or flow lines, sink, discoloration, pin holes, voids, roughness, or warpage unless accepted by Littelfuse Engineering.\P8. Dimensions to be measured at location of maximum dra
  3
ft, unless otherwise specified by Littelfuse Engineering\P9. Packaging carton contain this part to be marked with part number and current revision level.\P10. The      symbol indicates the dimension number for inspection purposes.\P11. Maximum Regrin
  1
d Allowed: 25%\P \P\fTahoma|b1|i0;\H2.2500;\LMold Finish Specification\P\l\fTahoma|b0|i0;\H2.2500;Apperance:\PGrain:\PGloss:\PColor:\P \P\fTahoma|b1|i0;\H2.2500;\LPart Performance Specification: \P\l\fTahoma|b0|i0;\H2.2500; \P
  7
Note Text (ANSI)
 73
     2
 44
1.008052706718443
1001
ACAD
1000
MTEXTBEGIN
1070
    73
1070
     2
1070
    44
1040
1.008052706718443
1070
    74
1070
     0
1000
MTEXTEND
  0
ENDBLK
  5
D8
330
D6
100
AcDbEntity
  8
0
100
AcDbBlockEnd
  0
BLOCK
  5
E7
330
E6
100
AcDbEntity
  8
0
100
AcDbBlockBegin
  2
PCB Part Notes
 70
     0
 10
0.0
 20
0.0
 30
0.0
  3
PCB Part Notes
  1

  0
MTEXT
  5
E9
330
E6
100
AcDbEntity
  8
Symbol (ANSI)
100
AcDbMText
 10
-36.80077075958252
 20
4.454363615971912
 30
0.0
 40
3.048000037670135
 41
0.0
 71
     1
 72
     1
  1
Notes\P1. This note is for standard plastic parts
  7
Note Text (ANSI)
 73
     2
 44
0.9878842234611513
1001
ACAD
1000
MTEXTBEGIN
1070
    73
1070
     2
1070
    44
1040
0.9878842234611513
1070
    74
1070
     0
1000
MTEXTEND
  0
ENDBLK
  5
E8
330
E6
100
AcDbEntity
  8
0
100
AcDbBlockEnd
  0
BLOCK
  5
EB
330
EA
100
AcDbEntity
  8
0
100
AcDbBlockBegin
  2
Dimension Label
 70
     2
 10
0.0
 20
0.0
 30
0.0
  3
Dimension Label
  1

  0
LINE
  5
ED
330
EA
100
AcDbEntity
  8
Sketch Geometry (ANSI)
100
AcDbLine
 10
0.0
 20
3.031088913245517
 30
0.0
 11
3.500000000000014
 21
-3.031088913245517
 31
0.0
  0
LINE
  5
EE
330
EA
100
AcDbEntity
  8
Sketch Geometry (ANSI)
100
AcDbLine
 10
3.500000000000014
 20
-3.031088913245517
 30
0.0
 11
-3.499999999999996
 21
-3.031088913245553
 31
0.0
  0
LINE
  5
EF
330
EA
100
AcDbEntity
  8
Sketch Geometry (ANSI)
100
AcDbLine
 10
-3.499999999999996
 20
-3.031088913245553
 30
0.0
 11
0.0
 21
3.031088913245517
 31
0.0
  0
ATTDEF
  5
F0
330
EA
100
AcDbEntity
  8
Symbol (ANSI)
100
AcDbText
 10
-0.7638457726005986
 20
-1.371910782394403
 30
0.0
 40
3.048000037670135
  1
 
  7
Note Text (ANSI)
 72
     1
 11
-0.1088021110462378
 21
-2.237796622511574
 31
0.0
100
AcDbAttributeDefinition
  3
<Enter Prompt for Field>
  2
<Enter_Prompt_for_Field>
 70
     0
 74
     1
  0
ENDBLK
  5
EC
330
EA
100
AcDbEntity
  8
0
100
AcDbBlockEnd
  0
BLOCK
  5
F4
330
F3
100
AcDbEntity
  8
0
100
AcDbBlockBegin
  2
Metal Stamping Notes
 70
     0
 10
0.0
 20
0.0
 30
0.0
  3
Metal Stamping Notes
  1

  0
LINE
  5
F6
330
F3
100
AcDbEntity
  8
Sketch Geometry (ANSI)
100
AcDbLine
 10
20.91262599250785
 20
15.58577339502939
 30
0.0
 11
0.212223441041588
 21
15.58577339502939
 31
0.0
  0
LINE
  5
F7
330
F3
100
AcDbEntity
  8
Sketch Geometry (ANSI)
100
AcDbLine
 10
0.212223441041588
 20
15.58577339502939
 30
0.0
 11
0.212223441041588
 21
11.34730005144614
 31
0.0
  0
LINE
  5
F8
330
F3
100
AcDbEntity
  8
Sketch Geometry (ANSI)
100
AcDbLine
 10
0.212223441041588
 20
11.34730005144614
 30
0.0
 11
20.91262599250785
 21
11.34730005144614
 31
0.0
  0
LINE
  5
F9
330
F3
100
AcDbEntity
  8
Sketch Geometry (ANSI)
100
AcDbLine
 10
20.91262599250785
 20
11.34730005144614
 30
0.0
 11
20.91262599250785
 21
15.58577339502939
 31
0.0
  0
LINE
  5
FA
330
F3
100
AcDbEntity
  8
Sketch Geometry (ANSI)
100
AcDbLine
 10
18.30142347687501
 20
15.58577339502939
 30
0.0
 11
18.30142347687501
 21
11.34730005144614
 31
0.0
  0
LINE
  5
FB
330
F3
100
AcDbEntity
  8
Sketch Geometry (ANSI)
100
AcDbLine
 10
15.50100338764557
 20
15.58577339502939
 30
0.0
 11
15.50100338764557
 21
11.34730005144614
 31
0.0
  0
LINE
  5
FC
330
F3
100
AcDbEntity
  8
Sketch Geometry (ANSI)
100
AcDbLine
 10
12.58705275425817
 20
15.58577339502939
 30
0.0
 11
12.58705275425817
 21
11.34730005144614
 31
0.0
  0
LINE
  5
FD
330
F3
100
AcDbEntity
  8
Sketch Geometry (ANSI)
100
AcDbLine
 10
5.586002531184547
 20
15.58577339502939
 30
0.0
 11
5.586002531184547
 21
11.34730005144614
 31
0.0
  0
LINE
  5
FE
330
F3
100
AcDbEntity
  8
Sketch Geometry (ANSI)
100
AcDbLine
 10
-18.5077064853736
 20
-11.4203306205594
 30
0.0
 11
-16.10278697823949
 21
-15.58577339502939
 31
0.0
  0
LINE
  5
FF
330
F3
100
AcDbEntity
  8
Sketch Geometry (ANSI)
100
AcDbLine
 10
-16.10278697823949
 20
-15.58577339502939
 30
0.0
 11
-20.91262599250785
 21
-15.58577339502925
 31
0.0
  0
LINE
  5
100
330
F3
100
AcDbEntity
  8
Sketch Geometry (ANSI)
100
AcDbLine
 10
-20.91262599250785
 20
-15.58577339502925
 30
0.0
 11
-18.5077064853736
 21
-11.4203306205594
 31
0.0
  0
MTEXT
  5
101
330
F3
100
AcDbEntity
  8
Symbol (ANSI)
100
AcDbMText
 10
-30.1800204290367
 20
23.48443132413958
 30
0.0
 40
2.249999940395354
 41
95.26397705078123
 71
     1
 72
     1
  3
\fTahoma|b0|i0;\H2.2500;Notes\P1. Tooling to be built per math data provided by Littelfuse. Geometry per math to be within \fAIGDT|b0|i0;\H2.2500;d\fTahoma|b0|i0;\H2.2500; 0.25 A B C unless otherwise specified. Dimensions shown are for inspection pur
  3
poses only.\P2. Surface to be free of scratches\P3. Maximum burr permissible 0.13\P4. Parts to be supplied clean and free of grease and oil\P5. Packaging carton containing this part to be marked with part number and current revision\P6. The      symb
  1
ol indicates the dimension number for inspection purposes.
  7
Note Text (ANSI)
 73
     2
 44
1.052422642707824
1001
ACAD
1000
MTEXTBEGIN
1070
    73
1070
     2
1070
    44
1040
1.052422642707824
1070
    74
1070
     0
1000
MTEXTEND
  0
ENDBLK
  5
F5
330
F3
100
AcDbEntity
  8
0
100
AcDbBlockEnd
  0
BLOCK
  5
103
330
102
100
AcDbEntity
  8
0
100
AcDbBlockBegin
  2
Borders Default Border
 70
     0
 10
0.0
 20
0.0
 30
0.0
  3
Borders Default Border
  1

  0
POLYLINE
  5
105
330
102
100
AcDbEntity
  8
Border (ANSI)
100
AcDb2dPolyline
 66
     1
 10
0.0
 20
0.0
 30
0.0
 70
   128
  0
VERTEX
  5
106
330
105
100
AcDbEntity
  8
Border (ANSI)
100
AcDbVertex
100
AcDb2dVertex
 10
9.652000069618223
 20
9.652000069618223
 30
0.0
  0
VERTEX
  5
107
330
105
100
AcDbEntity
  8
Border (ANSI)
100
AcDbVertex
100
AcDb2dVertex
 10
9.652000069618223
 20
206.2479972839355
 30
0.0
  0
VERTEX
  5
109
330
105
100
AcDbEntity
  8
Border (ANSI)
100
AcDbVertex
100
AcDb2dVertex
 10
269.7480010986328
 20
206.2479972839355
 30
0.0
  0
VERTEX
  5
10A
330
105
100
AcDbEntity
  8
Border (ANSI)
100
AcDbVertex
100
AcDb2dVertex
 10
269.7480010986328
 20
9.652000069618223
 30
0.0
  0
VERTEX
  5
10B
330
105
100
AcDbEntity
  8
Border (ANSI)
100
AcDbVertex
100
AcDb2dVertex
 10
9.652000069618223
 20
9.652000069618223
 30
0.0
  0
SEQEND
  5
108
330
105
100
AcDbEntity
  8
Border (ANSI)
  0
ENDBLK
  5
104
330
102
100
AcDbEntity
  8
0
100
AcDbBlockEnd
  0
BLOCK
  5
1AC
330
1A1
100
AcDbEntity
  8
0
100
AcDbBlockBegin
  2
*D9
 70
     1
 10
0.0
 20
0.0
 30
0.0
  3
*D9
  1

  0
LINE
  5
8E5
330
1A1
100
AcDbEntity
  8
Dimension (ANSI)
100
AcDbLine
 10
43.20184306131642
 20
77.53241724768713
 30
0.0
 11
43.20184306131642
 21
83.31981724768713
 31
0.0
  0
LINE
  5
8E6
330
1A1
100
AcDbEntity
  8
Dimension (ANSI)
100
AcDbLine
 10
30.50184306131644
 20
77.53241724768713
 30
0.0
 11
30.50184306131644
 21
83.31981724768713
 31
0.0
  0
LINE
  5
8E7
330
1A1
100
AcDbEntity
  8
Dimension (ANSI)
100
AcDbLine
 10
41.95184306131642
 20
81.73231724768712
 30
0.0
 11
31.75184306131644
 21
81.73231724768712
 31
0.0
  0
LINE
  5
8E8
330
1A1
100
AcDbEntity
  8
Dimension (ANSI)
100
AcDbLine
 10
30.50184306131644
 20
81.73231724768712
 30
0.0
 11
25.75883490030099
 21
81.73231724768712
 31
0.0
  0
SOLID
  5
8E9
330
1A1
100
AcDbEntity
  8
Dimension (ANSI)
100
AcDbTrace
 10
41.95184306131642
 20
81.94065058102045
 30
0.0
 11
41.95184306131642
 21
81.52398391435379
 31
0.0
 12
43.20184306131642
 22
81.73231724768712
 32
0.0
 13
43.20184306131642
 23
81.73231724768712
 33
0.0
  0
SOLID
  5
8EA
330
1A1
100
AcDbEntity
  8
Dimension (ANSI)
100
AcDbTrace
 10
31.75184306131644
 20
81.94065058102045
 30
0.0
 11
31.75184306131644
 21
81.52398391435379
 31
0.0
 12
30.50184306131644
 22
81.73231724768712
 32
0.0
 13
30.50184306131644
 23
81.73231724768712
 33
0.0
  0
MTEXT
  5
8EB
330
1A1
100
AcDbEntity
  8
Dimension (ANSI)
100
AcDbMText
 10
18.06635649429602
 20
81.73231724768712
 30
0.0
 40
1.524000048637389
 41
0.0
 71
     5
 72
     1
  1
\A1;12.70 [0.500 in]
  7
Note Text (ANSI)
 73
     1
 44
1.0
1001
ACAD
1000
MTEXTBEGIN
1070
    73
1070
     1
1070
    44
1040
1.0
1070
    74
1070
     0
1000
MTEXTEND
  0
POINT
  5
8EC
330
1A1
100
AcDbEntity
  8
Defpoints
 62
     0
100
AcDbPoint
 10
43.20184306131642
 20
76.73231724768713
 30
0.0
  0
POINT
  5
8ED
330
1A1
100
AcDbEntity
  8
Defpoints
 62
     0
100
AcDbPoint
 10
30.50184306131644
 20
76.73231724768713
 30
0.0
  0
POINT
  5
8EE
330
1A1
100
AcDbEntity
  8
Defpoints
 62
     0
100
AcDbPoint
 10
30.50184306131644
 20
81.73231724768712
 30
0.0
  0
ENDBLK
  5
1AD
330
1A1
100
AcDbEntity
  8
0
100
AcDbBlockEnd
  0
BLOCK
  5
282
330
277
100
AcDbEntity
  8
0
100
AcDbBlockBegin
  2
*D10
 70
     1
 10
0.0
 20
0.0
 30
0.0
  3
*D10
  1

  0
LINE
  5
8F9
330
277
100
AcDbEntity
  8
Dimension (ANSI)
100
AcDbLine
 10
103.028209775321
 20
75.57366112153217
 30
0.0
 11
103.028209775321
 21
58.39622812483097
 31
0.0
  0
LINE
  5
8FA
330
277
100
AcDbEntity
  8
Dimension (ANSI)
100
AcDbLine
 10
90.32820977532104
 20
67.35862812483097
 30
0.0
 11
90.32820977532104
 21
58.39622812483097
 31
0.0
  0
LINE
  5
8FB
330
277
100
AcDbEntity
  8
Dimension (ANSI)
100
AcDbLine
 10
101.778209775321
 20
59.98372812483097
 30
0.0
 11
91.57820977532104
 21
59.98372812483097
 31
0.0
  0
LINE
  5
8FC
330
277
100
AcDbEntity
  8
Dimension (ANSI)
100
AcDbLine
 10
90.32820977532104
 20
59.98372812483097
 30
0.0
 11
86.08456316919429
 21
59.98372812483097
 31
0.0
  0
SOLID
  5
8FD
330
277
100
AcDbEntity
  8
Dimension (ANSI)
100
AcDbTrace
 10
101.778209775321
 20
60.1920614581643
 30
0.0
 11
101.778209775321
 21
59.77539479149763
 31
0.0
 12
103.028209775321
 22
59.98372812483097
 32
0.0
 13
103.028209775321
 23
59.98372812483097
 33
0.0
  0
SOLID
  5
8FE
330
277
100
AcDbEntity
  8
Dimension (ANSI)
100
AcDbTrace
 10
91.57820977532104
 20
60.1920614581643
 30
0.0
 11
91.57820977532104
 21
59.77539479149763
 31
0.0
 12
90.32820977532104
 22
59.98372812483097
 32
0.0
 13
90.32820977532104
 23
59.98372812483097
 33
0.0
  0
MTEXT
  5
8FF
330
277
100
AcDbEntity
  8
Dimension (ANSI)
100
AcDbMText
 10
78.39208476318933
 20
59.98372812483097
 30
0.0
 40
1.524000048637389
 41
0.0
 71
     5
 72
     1
  1
\A1;12.70 [0.500 in]
  7
Note Text (ANSI)
 73
     1
 44
1.0
1001
ACAD
1000
MTEXTBEGIN
1070
    73
1070
     1
1070
    44
1040
1.0
1070
    74
1070
     0
1000
MTEXTEND
  0
POINT
  5
900
330
277
100
AcDbEntity
  8
Defpoints
 62
     0
100
AcDbPoint
 10
103.028209775321
 20
76.37376112153217
 30
0.0
  0
POINT
  5
901
330
277
100
AcDbEntity
  8
Defpoints
 62
     0
100
AcDbPoint
 10
90.32820977532104
 20
68.15872812483097
 30
0.0
  0
POINT
  5
902
330
277
100
AcDbEntity
  8
Defpoints
 62
     0
100
AcDbPoint
 10
90.32820977532104
 20
59.98372812483097
 30
0.0
  0
ENDBLK
  5
283
330
277
100
AcDbEntity
  8
0
100
AcDbBlockEnd
  0
BLOCK
  5
36C
330
361
100
AcDbEntity
  8
0
100
AcDbBlockBegin
  2
*D11
 70
     1
 10
0.0
 20
0.0
 30
0.0
  3
*D11
  1

  0
LINE
  5
8EF
330
361
100
AcDbEntity
  8
Dimension (ANSI)
100
AcDbLine
 10
111.918209775321
 20
85.38889411823335
 30
0.0
 11
111.918209775321
 21
98.08117401685507
 31
0.0
  0
LINE
  5
8F0
330
361
100
AcDbEntity
  8
Dimension (ANSI)
100
AcDbLine
 10
54.76820977532105
 20
77.17386112153217
 30
0.0
 11
54.76820977532105
 21
98.08117401685507
 31
0.0
  0
LINE
  5
8F1
330
361
100
AcDbEntity
  8
Dimension (ANSI)
100
AcDbLine
 10
110.668209775321
 20
96.49367401685509
 30
0.0
 11
91.48838697412688
 21
96.49367401685509
 31
0.0
  0
LINE
  5
8F2
330
361
100
AcDbEntity
  8
Dimension (ANSI)
100
AcDbLine
 10
56.01820977532105
 20
96.49367401685509
 30
0.0
 11
75.99903257651519
 21
96.49367401685509
 31
0.0
  0
SOLID
  5
8F3
330
361
100
AcDbEntity
  8
Dimension (ANSI)
100
AcDbTrace
 10
110.668209775321
 20
96.70200735018841
 30
0.0
 11
110.668209775321
 21
96.28534068352175
 31
0.0
 12
111.918209775321
 22
96.49367401685509
 32
0.0
 13
111.918209775321
 23
96.49367401685509
 33
0.0
  0
SOLID
  5
8F4
330
361
100
AcDbEntity
  8
Dimension (ANSI)
100
AcDbTrace
 10
56.01820977532105
 20
96.70200735018841
 30
0.0
 11
56.01820977532105
 21
96.28534068352175
 31
0.0
 12
54.76820977532105
 22
96.49367401685509
 32
0.0
 13
54.76820977532105
 23
96.49367401685509
 33
0.0
  0
MTEXT
  5
8F5
330
361
100
AcDbEntity
  8
Dimension (ANSI)
100
AcDbMText
 10
83.74370977532104
 20
96.49367401685509
 30
0.0
 40
1.524000048637389
 41
0.0
 71
     5
 72
     1
  1
\A1;57.15 [2.250 in]
  7
Note Text (ANSI)
 73
     1
 44
1.0
1001
ACAD
1000
MTEXTBEGIN
1070
    73
1070
     1
1070
    44
1040
1.0
1070
    74
1070
     0
1000
MTEXTEND
  0
POINT
  5
8F6
330
361
100
AcDbEntity
  8
Defpoints
 62
     0
100
AcDbPoint
 10
111.918209775321
 20
84.58879411823335
 30
0.0
  0
POINT
  5
8F7
330
361
100
AcDbEntity
  8
Defpoints
 62
     0
100
AcDbPoint
 10
54.76820977532105
 20
76.37376112153217
 30
0.0
  0
POINT
  5
8F8
330
361
100
AcDbEntity
  8
Defpoints
 62
     0
100
AcDbPoint
 10
54.76820977532105
 20
96.49367401685509
 30
0.0
  0
ENDBLK
  5
36D
330
361
100
AcDbEntity
  8
0
100
AcDbBlockEnd
  0
BLOCK
  5
460
330
455
100
AcDbEntity
  8
0
100
AcDbBlockBegin
  2
*D12
 70
     1
 10
0.0
 20
0.0
 30
0.0
  3
*D12
  1

  0
LINE
  5
92B
330
455
100
AcDbEntity
  8
Dimension (ANSI)
100
AcDbLine
 10
34.96553338934975
 20
18.45443389503485
 30
0.0
 11
20.17813338934976
 21
18.45443389503485
 31
0.0
  0
LINE
  5
92C
330
455
100
AcDbEntity
  8
Dimension (ANSI)
100
AcDbLine
 10
34.96553338934978
 20
37.50443389503485
 30
0.0
 11
20.17813338934976
 21
37.50443389503485
 31
0.0
  0
LINE
  5
92D
330
455
100
AcDbEntity
  8
Dimension (ANSI)
100
AcDbLine
 10
21.76563338934976
 20
19.70443389503485
 30
0.0
 11
21.76563338934976
 21
36.25443389503485
 31
0.0
  0
LINE
  5
92E
330
455
100
AcDbEntity
  8
Dimension (ANSI)
100
AcDbLine
 10
21.76563338934976
 20
37.50443389503485
 30
0.0
 11
21.76563338934976
 21
41.84694205605028
 31
0.0
  0
SOLID
  5
92F
330
455
100
AcDbEntity
  8
Dimension (ANSI)
100
AcDbTrace
 10
21.55730005601643
 20
19.70443389503485
 30
0.0
 11
21.97396672268309
 21
19.70443389503485
 31
0.0
 12
21.76563338934976
 22
18.45443389503485
 32
0.0
 13
21.76563338934976
 23
18.45443389503485
 33
0.0
  0
SOLID
  5
930
330
455
100
AcDbEntity
  8
Dimension (ANSI)
100
AcDbTrace
 10
21.55730005601643
 20
36.25443389503485
 30
0.0
 11
21.97396672268309
 21
36.25443389503485
 31
0.0
 12
21.76563338934976
 22
37.50443389503485
 32
0.0
 13
21.76563338934976
 23
37.50443389503485
 33
0.0
  0
MTEXT
  5
931
330
455
100
AcDbEntity
  8
Dimension (ANSI)
100
AcDbMText
 10
21.76563338934976
 20
49.53942046205526
 30
0.0
 40
1.524000048637389
 41
0.0
 71
     5
 72
     1
  1
\A1;19.05 [0.750 in]
  7
Note Text (ANSI)
 11
0.0000000000000001
 21
1.0
 31
0.0
 73
     1
 44
1.0
1001
ACAD
1000
MTEXTBEGIN
1070
    73
1070
     1
1070
    44
1040
1.0
1070
    74
1070
     0
1000
MTEXTEND
  0
POINT
  5
932
330
455
100
AcDbEntity
  8
Defpoints
 62
     0
100
AcDbPoint
 10
35.76563338934974
 20
18.45443389503485
 30
0.0
  0
POINT
  5
933
330
455
100
AcDbEntity
  8
Defpoints
 62
     0
100
AcDbPoint
 10
35.76563338934978
 20
37.50443389503485
 30
0.0
  0
POINT
  5
934
330
455
100
AcDbEntity
  8
Defpoints
 62
     0
100
AcDbPoint
 10
21.76563338934976
 20
37.50443389503485
 30
0.0
  0
ENDBLK
  5
461
330
455
100
AcDbEntity
  8
0
100
AcDbBlockEnd
  0
BLOCK
  5
55B
330
550
100
AcDbEntity
  8
0
100
AcDbBlockBegin
  2
*D13
 70
     1
 10
0.0
 20
0.0
 30
0.0
  3
*D13
  1

  0
LINE
  5
921
330
550
100
AcDbEntity
  8
Dimension (ANSI)
100
AcDbLine
 10
30.37694603914883
 20
28.77953389503486
 30
0.0
 11
30.37694603914883
 21
46.56693389503483
 31
0.0
  0
LINE
  5
922
330
550
100
AcDbEntity
  8
Dimension (ANSI)
100
AcDbLine
 10
52.60194603914882
 20
28.77953389503485
 30
0.0
 11
52.60194603914882
 21
46.56693389503483
 31
0.0
  0
LINE
  5
923
330
550
100
AcDbEntity
  8
Dimension (ANSI)
100
AcDbLine
 10
31.62694603914883
 20
44.97943389503483
 30
0.0
 11
33.33659254728403
 21
44.97943389503483
 31
0.0
  0
LINE
  5
924
330
550
100
AcDbEntity
  8
Dimension (ANSI)
100
AcDbLine
 10
51.35194603914882
 20
44.97943389503483
 30
0.0
 11
48.84129953101363
 21
44.97943389503483
 31
0.0
  0
SOLID
  5
925
330
550
100
AcDbEntity
  8
Dimension (ANSI)
100
AcDbTrace
 10
31.62694603914883
 20
45.18776722836817
 30
0.0
 11
31.62694603914883
 21
44.7711005617015
 31
0.0
 12
30.37694603914883
 22
44.97943389503483
 32
0.0
 13
30.37694603914883
 23
44.97943389503483
 33
0.0
  0
SOLID
  5
926
330
550
100
AcDbEntity
  8
Dimension (ANSI)
100
AcDbTrace
 10
51.35194603914882
 20
45.18776722836817
 30
0.0
 11
51.35194603914882
 21
44.7711005617015
 31
0.0
 12
52.60194603914882
 22
44.97943389503483
 32
0.0
 13
52.60194603914882
 23
44.97943389503483
 33
0.0
  0
MTEXT
  5
927
330
550
100
AcDbEntity
  8
Dimension (ANSI)
100
AcDbMText
 10
41.08894603914882
 20
44.97943389503483
 30
0.0
 40
1.524000048637389
 41
0.0
 71
     5
 72
     1
  1
\A1;22.23 [0.875 in]
  7
Note Text (ANSI)
 73
     1
 44
1.0
1001
ACAD
1000
MTEXTBEGIN
1070
    73
1070
     1
1070
    44
1040
1.0
1070
    74
1070
     0
1000
MTEXTEND
  0
POINT
  5
928
330
550
100
AcDbEntity
  8
Defpoints
 62
     0
100
AcDbPoint
 10
30.37694603914883
 20
27.97943389503486
 30
0.0
  0
POINT
  5
929
330
550
100
AcDbEntity
  8
Defpoints
 62
     0
100
AcDbPoint
 10
52.60194603914882
 20
27.97943389503485
 30
0.0
  0
POINT
  5
92A
330
550
100
AcDbEntity
  8
Defpoints
 62
     0
100
AcDbPoint
 10
52.60194603914882
 20
44.97943389503483
 30
0.0
  0
ENDBLK
  5
55C
330
550
100
AcDbEntity
  8
0
100
AcDbBlockEnd
  0
BLOCK
  5
631
330
626
100
AcDbEntity
  8
0
100
AcDbBlockBegin
  2
*D14
 70
     1
 10
0.0
 20
0.0
 30
0.0
  3
*D14
  1

  0
LINE
  5
90D
330
626
100
AcDbEntity
  8
Dimension (ANSI)
100
AcDbLine
 10
96.62310714861035
 20
37.90007222090852
 30
0.0
 11
96.62310714861035
 21
43.68747222090851
 31
0.0
  0
LINE
  5
90E
330
626
100
AcDbEntity
  8
Dimension (ANSI)
100
AcDbLine
 10
103.3031071486103
 20
37.90007222090852
 30
0.0
 11
103.3031071486103
 21
43.68747222090851
 31
0.0
  0
LINE
  5
90F
330
626
100
AcDbEntity
  8
Dimension (ANSI)
100
AcDbLine
 10
102.0531071486103
 20
42.09997222090851
 30
0.0
 11
97.87310714861035
 21
42.09997222090851
 31
0.0
  0
LINE
  5
910
330
626
100
AcDbEntity
  8
Dimension (ANSI)
100
AcDbLine
 10
96.62310714861035
 20
42.09997222090851
 30
0.0
 11
92.61061934551984
 21
42.09997222090851
 31
0.0
  0
SOLID
  5
911
330
626
100
AcDbEntity
  8
Dimension (ANSI)
100
AcDbTrace
 10
102.0531071486103
 20
42.30830555424184
 30
0.0
 11
102.0531071486103
 21
41.89163888757517
 31
0.0
 12
103.3031071486103
 22
42.09997222090851
 32
0.0
 13
103.3031071486103
 23
42.09997222090851
 33
0.0
  0
SOLID
  5
912
330
626
100
AcDbEntity
  8
Dimension (ANSI)
100
AcDbTrace
 10
97.87310714861035
 20
42.30830555424184
 30
0.0
 11
97.87310714861035
 21
41.89163888757517
 31
0.0
 12
96.62310714861035
 22
42.09997222090851
 32
0.0
 13
96.62310714861035
 23
42.09997222090851
 33
0.0
  0
MTEXT
  5
913
330
626
100
AcDbEntity
  8
Dimension (ANSI)
100
AcDbMText
 10
85.41812349408798
 20
42.09997222090851
 30
0.0
 40
1.524000048637389
 41
0.0
 71
     5
 72
     1
  1
\A1;6.68 [0.263 in]
  7
Note Text (ANSI)
 73
     1
 44
1.0
1001
ACAD
1000
MTEXTBEGIN
1070
    73
1070
     1
1070
    44
1040
1.0
1070
    74
1070
     0
1000
MTEXTEND
  0
POINT
  5
914
330
626
100
AcDbEntity
  8
Defpoints
 62
     0
100
AcDbPoint
 10
96.62310714861035
 20
37.09997222090851
 30
0.0
  0
POINT
  5
915
330
626
100
AcDbEntity
  8
Defpoints
 62
     0
100
AcDbPoint
 10
103.3031071486103
 20
37.09997222090851
 30
0.0
  0
POINT
  5
916
330
626
100
AcDbEntity
  8
Defpoints
 62
     0
100
AcDbPoint
 10
103.3031071486103
 20
42.09997222090851
 30
0.0
  0
ENDBLK
  5
632
330
626
100
AcDbEntity
  8
0
100
AcDbBlockEnd
  0
BLOCK
  5
707
330
6FC
100
AcDbEntity
  8
0
100
AcDbBlockBegin
  2
*D15
 70
     1
 10
0.0
 20
0.0
 30
0.0
  3
*D15
  1

  0
LINE
  5
917
330
6FC
100
AcDbEntity
  8
Dimension (ANSI)
100
AcDbLine
 10
94.59310714861031
 20
25.66987222090851
 30
0.0
 11
94.59310714861031
 21
16.22858191216371
 31
0.0
  0
LINE
  5
918
330
6FC
100
AcDbEntity
  8
Dimension (ANSI)
100
AcDbLine
 10
105.3331071486103
 20
25.66987222090851
 30
0.0
 11
105.3331071486103
 21
16.22858191216371
 31
0.0
  0
LINE
  5
919
330
6FC
100
AcDbEntity
  8
Dimension (ANSI)
100
AcDbLine
 10
104.0831071486103
 20
17.81608191216371
 30
0.0
 11
95.84310714861031
 21
17.81608191216371
 31
0.0
  0
LINE
  5
91A
330
6FC
100
AcDbEntity
  8
Dimension (ANSI)
100
AcDbLine
 10
94.59310714861031
 20
17.81608191216371
 30
0.0
 11
93.34310714861031
 21
17.81608191216371
 31
0.0
  0
SOLID
  5
91B
330
6FC
100
AcDbEntity
  8
Dimension (ANSI)
100
AcDbTrace
 10
104.0831071486103
 20
18.02441524549704
 30
0.0
 11
104.0831071486103
 21
17.60774857883038
 31
0.0
 12
105.3331071486103
 22
17.81608191216371
 32
0.0
 13
105.3331071486103
 23
17.81608191216371
 33
0.0
  0
SOLID
  5
91C
330
6FC
100
AcDbEntity
  8
Dimension (ANSI)
100
AcDbTrace
 10
95.84310714861031
 20
18.02441524549704
 30
0.0
 11
95.84310714861031
 21
17.60774857883038
 31
0.0
 12
94.59310714861031
 22
17.81608191216371
 32
0.0
 13
94.59310714861031
 23
17.81608191216371
 33
0.0
  0
MTEXT
  5
91D
330
6FC
100
AcDbEntity
  8
Dimension (ANSI)
100
AcDbMText
 10
85.65062874260535
 20
17.81608191216371
 30
0.0
 40
1.524000048637389
 41
0.0
 71
     5
 72
     1
  1
\A1;10.74 [0.423 in]
  7
Note Text (ANSI)
 73
     1
 44
1.0
1001
ACAD
1000
MTEXTBEGIN
1070
    73
1070
     1
1070
    44
1040
1.0
1070
    74
1070
     0
1000
MTEXTEND
  0
POINT
  5
91E
330
6FC
100
AcDbEntity
  8
Defpoints
 62
     0
100
AcDbPoint
 10
94.59310714861031
 20
26.46997222090851
 30
0.0
  0
POINT
  5
91F
330
6FC
100
AcDbEntity
  8
Defpoints
 62
     0
100
AcDbPoint
 10
105.3331071486103
 20
26.46997222090851
 30
0.0
  0
POINT
  5
920
330
6FC
100
AcDbEntity
  8
Defpoints
 62
     0
100
AcDbPoint
 10
105.3331071486103
 20
17.81608191216371
 30
0.0
  0
ENDBLK
  5
708
330
6FC
100
AcDbEntity
  8
0
100
AcDbBlockEnd
  0
BLOCK
  5
7DD
330
7D2
100
AcDbEntity
  8
0
100
AcDbBlockBegin
  2
*D16
 70
     1
 10
0.0
 20
0.0
 30
0.0
  3
*D16
  1

  0
LINE
  5
903
330
7D2
100
AcDbEntity
  8
Dimension (ANSI)
100
AcDbLine
 10
104.1032071486102
 20
37.09997222090851
 30
0.0
 11
112.8906071486103
 21
37.09997222090851
 31
0.0
  0
LINE
  5
904
330
7D2
100
AcDbEntity
  8
Dimension (ANSI)
100
AcDbLine
 10
100.7632071486103
 20
21.0999722209085
 30
0.0
 11
112.8906071486103
 21
21.0999722209085
 31
0.0
  0
LINE
  5
905
330
7D2
100
AcDbEntity
  8
Dimension (ANSI)
100
AcDbLine
 10
111.3031071486103
 20
22.3499722209085
 30
0.0
 11
111.3031071486103
 21
35.84997222090851
 31
0.0
  0
LINE
  5
906
330
7D2
100
AcDbEntity
  8
Dimension (ANSI)
100
AcDbLine
 10
111.3031071486103
 20
37.09997222090851
 30
0.0
 11
111.3031071486103
 21
41.44248038192391
 31
0.0
  0
SOLID
  5
907
330
7D2
100
AcDbEntity
  8
Dimension (ANSI)
100
AcDbTrace
 10
111.0947738152769
 20
22.3499722209085
 30
0.0
 11
111.5114404819436
 21
22.3499722209085
 31
0.0
 12
111.3031071486103
 22
21.0999722209085
 32
0.0
 13
111.3031071486103
 23
21.0999722209085
 33
0.0
  0
SOLID
  5
908
330
7D2
100
AcDbEntity
  8
Dimension (ANSI)
100
AcDbTrace
 10
111.0947738152769
 20
35.84997222090851
 30
0.0
 11
111.5114404819436
 21
35.84997222090851
 31
0.0
 12
111.3031071486103
 22
37.09997222090851
 32
0.0
 13
111.3031071486103
 23
37.09997222090851
 33
0.0
  0
MTEXT
  5
909
330
7D2
100
AcDbEntity
  8
Dimension (ANSI)
100
AcDbMText
 10
111.3031071486103
 20
49.1349587879289
 30
0.0
 40
1.524000048637389
 41
0.0
 71
     5
 72
     1
  1
\A1;16.00 [0.630 in]
  7
Note Text (ANSI)
 11
0.0000000000000001
 21
1.0
 31
0.0
 73
     1
 44
1.0
1001
ACAD
1000
MTEXTBEGIN
1070
    73
1070
     1
1070
    44
1040
1.0
1070
    74
1070
     0
1000
MTEXTEND
  0
POINT
  5
90A
330
7D2
100
AcDbEntity
  8
Defpoints
 62
     0
100
AcDbPoint
 10
103.3031071486103
 20
37.09997222090851
 30
0.0
  0
POINT
  5
90B
330
7D2
100
AcDbEntity
  8
Defpoints
 62
     0
100
AcDbPoint
 10
99.96310714861031
 20
21.0999722209085
 30
0.0
  0
POINT
  5
90C
330
7D2
100
AcDbEntity
  8
Defpoints
 62
     0
100
AcDbPoint
 10
111.3031071486103
 20
21.0999722209085
 30
0.0
  0
ENDBLK
  5
7DE
330
7D2
100
AcDbEntity
  8
0
100
AcDbBlockEnd
  0
ENDSEC
  0
SECTION
  2
ENTITIES
  0
INSERT
  5
10C
330
37
100
AcDbEntity
  8
0
100
AcDbBlockReference
  2
Borders Default Border
 10
0.0
 20
0.0
 30
0.0
 41
0.5
 42
0.5
 43
0.5
  0
POLYLINE
  5
10D
330
37
100
AcDbEntity
  8
Visible (ANSI)
100
AcDb2dPolyline
 66
     1
 10
0.0
 20
0.0
 30
0.0
 70
   128
  0
VERTEX
  5
10E
330
10D
100
AcDbEntity
  8
Visible (ANSI)
100
AcDbVertex
100
AcDb2dVertex
 10
107.3462100347204
 20
70.7386950891225
 30
0.0
  0
VERTEX
  5
10F
330
10D
100
AcDbEntity
  8
Visible (ANSI)
100
AcDbVertex
100
AcDb2dVertex
 10
107.2985811551733
 20
70.73425692727252
 30
0.0
  0
VERTEX
  5
111
330
10D
100
AcDbEntity
  8
Visible (ANSI)
100
AcDbVertex
100
AcDb2dVertex
 10
107.2533412297888
 20
70.72222155739948
 30
0.0
  0
VERTEX
  5
112
330
10D
100
AcDbEntity
  8
Visible (ANSI)
100
AcDbVertex
100
AcDb2dVertex
 10
107.2089357694311
 20
70.70248705556079
 30
0.0
  0
VERTEX
  5
113
330
10D
100
AcDbEntity
  8
Visible (ANSI)
100
AcDbVertex
100
AcDb2dVertex
 10
107.1699471791907
 20
70.67832810094043
 30
0.0
  0
VERTEX
  5
114
330
10D
100
AcDbEntity
  8
Visible (ANSI)
100
AcDbVertex
100
AcDb2dVertex
 10
107.1330280622168
 20
70.64877313782855
 30
0.0
  0
VERTEX
  5
115
330
10D
100
AcDbEntity
  8
Visible (ANSI)
100
AcDbVertex
100
AcDb2dVertex
 10
107.0981927236242
 20
70.61501366307422
 30
0.0
  0
VERTEX
  5
116
330
10D
100
AcDbEntity
  8
Visible (ANSI)
100
AcDbVertex
100
AcDb2dVertex
 10
107.0661897977514
 20
70.57863754441425
 30
0.0
  0
VERTEX
  5
117
330
10D
100
AcDbEntity
  8
Visible (ANSI)
100
AcDbVertex
100
AcDb2dVertex
 10
107.0377703031225
 20
70.54123086144611
 30
0.0
  0
VERTEX
  5
118
330
10D
100
AcDbEntity
  8
Visible (ANSI)
100
AcDbVertex
100
AcDb2dVertex
 10
107.0128436406775
 20
70.50322276761218
 30
0.0
  0
VERTEX
  5
119
330
10D
100
AcDbEntity
  8
Visible (ANSI)
100
AcDbVertex
100
AcDb2dVertex
 10
106.9894070943518
 20
70.46241265942737
 30
0.0
  0
VERTEX
  5
11A
330
10D
100
AcDbEntity
  8
Visible (ANSI)
100
AcDbVertex
100
AcDb2dVertex
 10
106.9674797376318
 20
70.4193626086919
 30
0.0
  0
VERTEX
  5
11B
330
10D
100
AcDbEntity
  8
Visible (ANSI)
100
AcDbVertex
100
AcDb2dVertex
 10
106.9472332318945
 20
70.37484270741626
 30
0.0
  0
VERTEX
  5
11C
330
10D
100
AcDbEntity
  8
Visible (ANSI)
100
AcDbVertex
100
AcDb2dVertex
 10
106.928836854331
 20
70.32962245156451
 30
0.0
  0
VERTEX
  5
11D
330
10D
100
AcDbEntity
  8
Visible (ANSI)
100
AcDbVertex
100
AcDb2dVertex
 10
106.9124598821325
 20
70.28447133710071
 30
0.0
  0
VERTEX
  5
11E
330
10D
100
AcDbEntity
  8
Visible (ANSI)
100
AcDbVertex
100
AcDb2dVertex
 10
106.8982715924902
 20
70.24015885998889
 30
0.0
  0
VERTEX
  5
11F
330
10D
100
AcDbEntity
  8
Visible (ANSI)
100
AcDbVertex
100
AcDb2dVertex
 10
106.8861551603003
 20
70.19647103955432
 30
0.0
  0
VERTEX
  5
120
330
10D
100
AcDbEntity
  8
Visible (ANSI)
100
AcDbVertex
100
AcDb2dVertex
 10
106.8753309568091
 20
70.15098375489398
 30
0.0
  0
VERTEX
  5
121
330
10D
100
AcDbEntity
  8
Visible (ANSI)
100
AcDbVertex
100
AcDb2dVertex
 10
106.8657846769018
 20
70.10397833993121
 30
0.0
  0
VERTEX
  5
122
330
10D
100
AcDbEntity
  8
Visible (ANSI)
100
AcDbVertex
100
AcDb2dVertex
 10
106.857568772666
 20
70.05595189740344
 30
0.0
  0
VERTEX
  5
123
330
10D
100
AcDbEntity
  8
Visible (ANSI)
100
AcDbVertex
100
AcDb2dVertex
 10
106.8507356961889
 20
70.00739974190875
 30
0.0
  0
VERTEX
  5
124
330
10D
100
AcDbEntity
  8
Visible (ANSI)
100
AcDbVertex
100
AcDb2dVertex
 10
106.8453307470007
 20
69.95881897618457
 30
0.0
  0
VERTEX
  5
125
330
10D
100
AcDbEntity
  8
Visible (ANSI)
100
AcDbVertex
100
AcDb2dVertex
 10
106.8414087613745
 20
69.91070610692188
 30
0.0
  0
VERTEX
  5
126
330
10D
100
AcDbEntity
  8
Visible (ANSI)
100
AcDbVertex
100
AcDb2dVertex
 10
106.8390174230261
 20
69.86355644871875
 30
0.0
  0
VERTEX
  5
127
330
10D
100
AcDbEntity
  8
Visible (ANSI)
100
AcDbVertex
100
AcDb2dVertex
 10
106.8382091840429
 20
69.81786650826617
 30
0.0
  0
SEQEND
  5
110
330
10D
100
AcDbEntity
  8
Visible (ANSI)
  0
LINE
  5
128
330
37
100
AcDbEntity
  8
Visible (ANSI)
100
AcDbLine
 10
111.918209775321
 20
70.73869512812978
 30
0.0
 11
107.346209775321
 21
70.73869512812978
 31
0.0
  0
POLYLINE
  5
129
330
37
100
AcDbEntity
  8
Visible (ANSI)
100
AcDb2dPolyline
 66
     1
 10
0.0
 20
0.0
 30
0.0
 70
   128
  0
VERTEX
  5
12A
330
129
100
AcDbEntity
  8
Visible (ANSI)
100
AcDbVertex
100
AcDb2dVertex
 10
106.8382091840429
 20
82.92965573479817
 30
0.0
  0
VERTEX
  5
12B
330
129
100
AcDbEntity
  8
Visible (ANSI)
100
AcDbVertex
100
AcDb2dVertex
 10
106.8390174230261
 20
82.88396579434559
 30
0.0
  0
VERTEX
  5
12D
330
129
100
AcDbEntity
  8
Visible (ANSI)
100
AcDbVertex
100
AcDb2dVertex
 10
106.8414087613745
 20
82.83681613614247
 30
0.0
  0
VERTEX
  5
12E
330
129
100
AcDbEntity
  8
Visible (ANSI)
100
AcDbVertex
100
AcDb2dVertex
 10
106.8453307470007
 20
82.78870326687977
 30
0.0
  0
VERTEX
  5
12F
330
129
100
AcDbEntity
  8
Visible (ANSI)
100
AcDbVertex
100
AcDb2dVertex
 10
106.8507356961889
 20
82.74012250115559
 30
0.0
  0
VERTEX
  5
130
330
129
100
AcDbEntity
  8
Visible (ANSI)
100
AcDbVertex
100
AcDb2dVertex
 10
106.857568772666
 20
82.6915703456609
 30
0.0
  0
VERTEX
  5
131
330
129
100
AcDbEntity
  8
Visible (ANSI)
100
AcDbVertex
100
AcDb2dVertex
 10
106.8657846769018
 20
82.64354390313313
 30
0.0
  0
VERTEX
  5
132
330
129
100
AcDbEntity
  8
Visible (ANSI)
100
AcDbVertex
100
AcDb2dVertex
 10
106.8753309568091
 20
82.59653848817036
 30
0.0
  0
VERTEX
  5
133
330
129
100
AcDbEntity
  8
Visible (ANSI)
100
AcDbVertex
100
AcDb2dVertex
 10
106.8861551603003
 20
82.55105120351002
 30
0.0
  0
VERTEX
  5
134
330
129
100
AcDbEntity
  8
Visible (ANSI)
100
AcDbVertex
100
AcDb2dVertex
 10
106.8982715924902
 20
82.50736338307545
 30
0.0
  0
VERTEX
  5
135
330
129
100
AcDbEntity
  8
Visible (ANSI)
100
AcDbVertex
100
AcDb2dVertex
 10
106.9124598821325
 20
82.46305090596363
 30
0.0
  0
VERTEX
  5
136
330
129
100
AcDbEntity
  8
Visible (ANSI)
100
AcDbVertex
100
AcDb2dVertex
 10
106.928836854331
 20
82.41789979149983
 30
0.0
  0
VERTEX
  5
137
330
129
100
AcDbEntity
  8
Visible (ANSI)
100
AcDbVertex
100
AcDb2dVertex
 10
106.9472332318945
 20
82.37267953564808
 30
0.0
  0
VERTEX
  5
138
330
129
100
AcDbEntity
  8
Visible (ANSI)
100
AcDbVertex
100
AcDb2dVertex
 10
106.9674797376318
 20
82.32815963437245
 30
0.0
  0
VERTEX
  5
139
330
129
100
AcDbEntity
  8
Visible (ANSI)
100
AcDbVertex
100
AcDb2dVertex
 10
106.9894070943518
 20
82.28510958363697
 30
0.0
  0
VERTEX
  5
13A
330
129
100
AcDbEntity
  8
Visible (ANSI)
100
AcDbVertex
100
AcDb2dVertex
 10
107.0128436406775
 20
82.24429947545216
 30
0.0
  0
VERTEX
  5
13B
330
129
100
AcDbEntity
  8
Visible (ANSI)
100
AcDbVertex
100
AcDb2dVertex
 10
107.0377703031225
 20
82.20629138161823
 30
0.0
  0
VERTEX
  5
13C
330
129
100
AcDbEntity
  8
Visible (ANSI)
100
AcDbVertex
100
AcDb2dVertex
 10
107.0661897977514
 20
82.16888469865009
 30
0.0
  0
VERTEX
  5
13D
330
129
100
AcDbEntity
  8
Visible (ANSI)
100
AcDbVertex
100
AcDb2dVertex
 10
107.0981927236242
 20
82.13250857999012
 30
0.0
  0
VERTEX
  5
13E
330
129
100
AcDbEntity
  8
Visible (ANSI)
100
AcDbVertex
100
AcDb2dVertex
 10
107.1330280622168
 20
82.09874910523579
 30
0.0
  0
VERTEX
  5
13F
330
129
100
AcDbEntity
  8
Visible (ANSI)
100
AcDbVertex
100
AcDb2dVertex
 10
107.1699471791907
 20
82.06919414212391
 30
0.0
  0
VERTEX
  5
140
330
129
100
AcDbEntity
  8
Visible (ANSI)
100
AcDbVertex
100
AcDb2dVertex
 10
107.2089357694311
 20
82.04503518750355
 30
0.0
  0
VERTEX
  5
141
330
129
100
AcDbEntity
  8
Visible (ANSI)
100
AcDbVertex
100
AcDb2dVertex
 10
107.2533412297888
 20
82.02530068566487
 30
0.0
  0
VERTEX
  5
142
330
129
100
AcDbEntity
  8
Visible (ANSI)
100
AcDbVertex
100
AcDb2dVertex
 10
107.2985811551733
 20
82.01326531579182
 30
0.0
  0
VERTEX
  5
143
330
129
100
AcDbEntity
  8
Visible (ANSI)
100
AcDbVertex
100
AcDb2dVertex
 10
107.3462100347204
 20
82.00882715394184
 30
0.0
  0
SEQEND
  5
12C
330
129
100
AcDbEntity
  8
Visible (ANSI)
  0
LINE
  5
144
330
37
100
AcDbEntity
  8
Visible (ANSI)
100
AcDbLine
 10
107.346209775321
 20
82.00882711493454
 30
0.0
 11
111.918209775321
 21
82.00882711493454
 31
0.0
  0
LINE
  5
145
330
37
100
AcDbEntity
  8
Visible (ANSI)
100
AcDbLine
 10
111.918209775321
 20
82.00882711493454
 30
0.0
 11
111.918209775321
 21
70.73869512812978
 31
0.0
  0
LINE
  5
146
330
37
100
AcDbEntity
  8
Visible (ANSI)
100
AcDbLine
 10
111.918209775321
 20
65.57876112153215
 30
0.0
 11
111.918209775321
 21
70.73869512812978
 31
0.0
  0
LINE
  5
147
330
37
100
AcDbEntity
  8
Visible (ANSI)
100
AcDbLine
 10
111.918209775321
 20
82.00882711493454
 30
0.0
 11
111.918209775321
 21
87.16876112153215
 31
0.0
  0
LINE
  5
148
330
37
100
AcDbEntity
  8
Visible (ANSI)
100
AcDbLine
 10
106.838209775321
 20
88.75626112153216
 30
0.0
 11
106.838209775321
 21
63.99126112153216
 31
0.0
  0
LINE
  5
149
330
37
100
AcDbEntity
  8
Visible (ANSI)
100
AcDbLine
 10
111.918209775321
 20
65.57876112153215
 30
0.0
 11
107.346209775321
 21
65.57876112153215
 31
0.0
  0
LINE
  5
14A
330
37
100
AcDbEntity
  8
Visible (ANSI)
100
AcDbLine
 10
111.918209775321
 20
87.16876112153215
 30
0.0
 11
107.346209775321
 21
87.16876112153215
 31
0.0
  0
POLYLINE
  5
14B
330
37
100
AcDbEntity
  8
Visible (ANSI)
100
AcDb2dPolyline
 66
     1
 10
0.0
 20
0.0
 30
0.0
 70
   128
  0
VERTEX
  5
14C
330
14B
100
AcDbEntity
  8
Visible (ANSI)
100
AcDbVertex
100
AcDb2dVertex
 10
102.5202102979345
 20
82.00882715394184
 30
0.0
  0
VERTEX
  5
14D
330
14B
100
AcDbEntity
  8
Visible (ANSI)
100
AcDbVertex
100
AcDb2dVertex
 10
102.554065736167
 20
82.00914544274494
 30
0.0
  0
VERTEX
  5
14F
330
14B
100
AcDbEntity
  8
Visible (ANSI)
100
AcDbVertex
100
AcDb2dVertex
 10
102.5876720269842
 20
82.01009494473622
 30
0.0
  0
VERTEX
  5
150
330
14B
100
AcDbEntity
  8
Visible (ANSI)
100
AcDbVertex
100
AcDb2dVertex
 10
102.6209218820257
 20
82.01166731526539
 30
0.0
  0
VERTEX
  5
151
330
14B
100
AcDbEntity
  8
Visible (ANSI)
100
AcDbVertex
100
AcDb2dVertex
 10
102.6537056287451
 20
82.01385480572865
 30
0.0
  0
VERTEX
  5
152
330
14B
100
AcDbEntity
  8
Visible (ANSI)
100
AcDbVertex
100
AcDb2dVertex
 10
102.6859147866888
 20
82.01664966752217
 30
0.0
  0
VERTEX
  5
153
330
14B
100
AcDbEntity
  8
Visible (ANSI)
100
AcDbVertex
100
AcDb2dVertex
 10
102.7174277623816
 20
82.02004117180988
 30
0.0
  0
VERTEX
  5
154
330
14B
100
AcDbEntity
  8
Visible (ANSI)
100
AcDbVertex
100
AcDb2dVertex
 10
102.7479667981787
 20
82.02399593999073
 30
0.0
  0
VERTEX
  5
155
330
14B
100
AcDbEntity
  8
Visible (ANSI)
100
AcDbVertex
100
AcDb2dVertex
 10
102.7773983796759
 20
82.0284889381139
 30
0.0
  0
VERTEX
  5
156
330
14B
100
AcDbEntity
  8
Visible (ANSI)
100
AcDbVertex
100
AcDb2dVertex
 10
102.8056378682776
 20
82.03349930455372
 30
0.0
  0
VERTEX
  5
157
330
14B
100
AcDbEntity
  8
Visible (ANSI)
100
AcDbVertex
100
AcDb2dVertex
 10
102.8326030095739
 20
82.03900498559162
 30
0.0
  0
VERTEX
  5
158
330
14B
100
AcDbEntity
  8
Visible (ANSI)
100
AcDbVertex
100
AcDb2dVertex
 10
102.8582079728766
 20
82.04498571564839
 30
0.0
  0
VERTEX
  5
159
330
14B
100
AcDbEntity
  8
Visible (ANSI)
100
AcDbVertex
100
AcDb2dVertex
 10
102.882343085639
 20
82.05141288449452
 30
0.0
  0
VERTEX
  5
15A
330
14B
100
AcDbEntity
  8
Visible (ANSI)
100
AcDbVertex
100
AcDb2dVertex
 10
102.904829533927
 20
82.05823165585682
 30
0.0
  0
VERTEX
  5
15B
330
14B
100
AcDbEntity
  8
Visible (ANSI)
100
AcDbVertex
100
AcDb2dVertex
 10
102.9256029447241
 20
82.06541103532002
 30
0.0
  0
VERTEX
  5
15C
330
14B
100
AcDbEntity
  8
Visible (ANSI)
100
AcDbVertex
100
AcDb2dVertex
 10
102.9446156343146
 20
82.07292420079395
 30
0.0
  0
VERTEX
  5
15D
330
14B
100
AcDbEntity
  8
Visible (ANSI)
100
AcDbVertex
100
AcDb2dVertex
 10
102.9618175347967
 20
82.08074373414204
 30
0.0
  0
VERTEX
  5
15E
330
14B
100
AcDbEntity
  8
Visible (ANSI)
100
AcDbVertex
100
AcDb2dVertex
 10
102.9771573861761
 20
82.08884340932057
 30
0.0
  0
VERTEX
  5
15F
330
14B
100
AcDbEntity
  8
Visible (ANSI)
100
AcDbVertex
100
AcDb2dVertex
 10
102.9905755838079
 20
82.09718925168202
 30
0.0
  0
VERTEX
  5
160
330
14B
100
AcDbEntity
  8
Visible (ANSI)
100
AcDbVertex
100
AcDb2dVertex
 10
103.0019958337469
 20
82.10572821309254
 30
0.0
  0
VERTEX
  5
161
330
14B
100
AcDbEntity
  8
Visible (ANSI)
100
AcDbVertex
100
AcDb2dVertex
 10
103.0113907178564
 20
82.1144298951833
 30
0.0
  0
VERTEX
  5
162
330
14B
100
AcDbEntity
  8
Visible (ANSI)
100
AcDbVertex
100
AcDb2dVertex
 10
103.0187328179998
 20
82.12326389958546
 30
0.0
  0
VERTEX
  5
163
330
14B
100
AcDbEntity
  8
Visible (ANSI)
100
AcDbVertex
100
AcDb2dVertex
 10
103.0239923318548
 20
82.13218611886189
 30
0.0
  0
VERTEX
  5
164
330
14B
100
AcDbEntity
  8
Visible (ANSI)
100
AcDbVertex
100
AcDb2dVertex
 10
103.0271537622137
 20
82.14116317441151
 30
0.0
  0
VERTEX
  5
165
330
14B
100
AcDbEntity
  8
Visible (ANSI)
100
AcDbVertex
100
AcDb2dVertex
 10
103.0282099565191
 20
82.15016705205128
 30
0.0
  0
SEQEND
  5
14E
330
14B
100
AcDbEntity
  8
Visible (ANSI)
  0
POLYLINE
  5
166
330
37
100
AcDbEntity
  8
Visible (ANSI)
100
AcDb2dPolyline
 66
     1
 10
0.0
 20
0.0
 30
0.0
 70
   128
  0
VERTEX
  5
167
330
166
100
AcDbEntity
  8
Visible (ANSI)
100
AcDbVertex
100
AcDb2dVertex
 10
103.0282099565191
 20
70.59735519101306
 30
0.0
  0
VERTEX
  5
168
330
166
100
AcDbEntity
  8
Visible (ANSI)
100
AcDbVertex
100
AcDb2dVertex
 10
103.0271537622137
 20
70.60635906865283
 30
0.0
  0
VERTEX
  5
16A
330
166
100
AcDbEntity
  8
Visible (ANSI)
100
AcDbVertex
100
AcDb2dVertex
 10
103.0239923318548
 20
70.61533612420245
 30
0.0
  0
VERTEX
  5
16B
330
166
100
AcDbEntity
  8
Visible (ANSI)
100
AcDbVertex
100
AcDb2dVertex
 10
103.0187328179998
 20
70.62425834347888
 30
0.0
  0
VERTEX
  5
16C
330
166
100
AcDbEntity
  8
Visible (ANSI)
100
AcDbVertex
100
AcDb2dVertex
 10
103.0113907178564
 20
70.63309234788104
 30
0.0
  0
VERTEX
  5
16D
330
166
100
AcDbEntity
  8
Visible (ANSI)
100
AcDbVertex
100
AcDb2dVertex
 10
103.0019958337469
 20
70.6417940299718
 30
0.0
  0
VERTEX
  5
16E
330
166
100
AcDbEntity
  8
Visible (ANSI)
100
AcDbVertex
100
AcDb2dVertex
 10
102.9905755838079
 20
70.65033299138232
 30
0.0
  0
VERTEX
  5
16F
330
166
100
AcDbEntity
  8
Visible (ANSI)
100
AcDbVertex
100
AcDb2dVertex
 10
102.9771573861761
 20
70.65867883374377
 30
0.0
  0
VERTEX
  5
170
330
166
100
AcDbEntity
  8
Visible (ANSI)
100
AcDbVertex
100
AcDb2dVertex
 10
102.9618175347967
 20
70.6667785089223
 30
0.0
  0
VERTEX
  5
171
330
166
100
AcDbEntity
  8
Visible (ANSI)
100
AcDbVertex
100
AcDb2dVertex
 10
102.9446156343146
 20
70.67459804227039
 30
0.0
  0
VERTEX
  5
172
330
166
100
AcDbEntity
  8
Visible (ANSI)
100
AcDbVertex
100
AcDb2dVertex
 10
102.9256029447241
 20
70.68211120774432
 30
0.0
  0
VERTEX
  5
173
330
166
100
AcDbEntity
  8
Visible (ANSI)
100
AcDbVertex
100
AcDb2dVertex
 10
102.904829533927
 20
70.68929058720752
 30
0.0
  0
VERTEX
  5
174
330
166
100
AcDbEntity
  8
Visible (ANSI)
100
AcDbVertex
100
AcDb2dVertex
 10
102.882343085639
 20
70.69610935856982
 30
0.0
  0
VERTEX
  5
175
330
166
100
AcDbEntity
  8
Visible (ANSI)
100
AcDbVertex
100
AcDb2dVertex
 10
102.8582079728766
 20
70.70253652741596
 30
0.0
  0
VERTEX
  5
176
330
166
100
AcDbEntity
  8
Visible (ANSI)
100
AcDbVertex
100
AcDb2dVertex
 10
102.8326030095739
 20
70.70851725747272
 30
0.0
  0
VERTEX
  5
177
330
166
100
AcDbEntity
  8
Visible (ANSI)
100
AcDbVertex
100
AcDb2dVertex
 10
102.8056378682776
 20
70.71402293851062
 30
0.0
  0
VERTEX
  5
178
330
166
100
AcDbEntity
  8
Visible (ANSI)
100
AcDbVertex
100
AcDb2dVertex
 10
102.7773983796759
 20
70.71903330495044
 30
0.0
  0
VERTEX
  5
179
330
166
100
AcDbEntity
  8
Visible (ANSI)
100
AcDbVertex
100
AcDb2dVertex
 10
102.7479667981787
 20
70.72352630307361
 30
0.0
  0
VERTEX
  5
17A
330
166
100
AcDbEntity
  8
Visible (ANSI)
100
AcDbVertex
100
AcDb2dVertex
 10
102.7174277623816
 20
70.72748107125446
 30
0.0
  0
VERTEX
  5
17B
330
166
100
AcDbEntity
  8
Visible (ANSI)
100
AcDbVertex
100
AcDb2dVertex
 10
102.6859147866888
 20
70.73087257554218
 30
0.0
  0
VERTEX
  5
17C
330
166
100
AcDbEntity
  8
Visible (ANSI)
100
AcDbVertex
100
AcDb2dVertex
 10
102.6537056287451
 20
70.73366743733569
 30
0.0
  0
VERTEX
  5
17D
330
166
100
AcDbEntity
  8
Visible (ANSI)
100
AcDbVertex
100
AcDb2dVertex
 10
102.6209218820257
 20
70.73585492779895
 30
0.0
  0
VERTEX
  5
17E
330
166
100
AcDbEntity
  8
Visible (ANSI)
100
AcDbVertex
100
AcDb2dVertex
 10
102.5876720269842
 20
70.73742729832813
 30
0.0
  0
VERTEX
  5
17F
330
166
100
AcDbEntity
  8
Visible (ANSI)
100
AcDbVertex
100
AcDb2dVertex
 10
102.554065736167
 20
70.7383768003194
 30
0.0
  0
VERTEX
  5
180
330
166
100
AcDbEntity
  8
Visible (ANSI)
100
AcDbVertex
100
AcDb2dVertex
 10
102.5202102979345
 20
70.7386950891225
 30
0.0
  0
SEQEND
  5
169
330
166
100
AcDbEntity
  8
Visible (ANSI)
  0
ARC
  5
181
330
37
100
AcDbEntity
  8
Visible (ANSI)
100
AcDbCircle
 10
107.346209775321
 20
65.07076112153216
 30
0.0
 40
0.508
100
AcDbArc
 50
90.0
 51
180.0
  0
ARC
  5
182
330
37
100
AcDbEntity
  8
Visible (ANSI)
100
AcDbCircle
 10
107.346209775321
 20
87.67676112153216
 30
0.0
 40
0.508
100
AcDbArc
 50
180.0
 51
270.0
  0
ARC
  5
183
330
37
100
AcDbEntity
  8
Visible (ANSI)
100
AcDbCircle
 10
102.520209775321
 20
87.67676112153216
 30
0.0
 40
0.508
100
AcDbArc
 50
270.0
 51
0.0
  0
ARC
  5
184
330
37
100
AcDbEntity
  8
Visible (ANSI)
100
AcDbCircle
 10
102.520209775321
 20
65.07076112153216
 30
0.0
 40
0.508
100
AcDbArc
 50
0.0
 51
90.0
  0
LINE
  5
185
330
37
100
AcDbEntity
  8
Visible (ANSI)
100
AcDbLine
 10
102.520209775321
 20
70.73869512812978
 30
0.0
 11
90.32820977532104
 21
70.73869512812978
 31
0.0
  0
LINE
  5
186
330
37
100
AcDbEntity
  8
Visible (ANSI)
100
AcDbLine
 10
90.32820977532104
 20
70.73869512812978
 30
0.0
 11
90.32820977532104
 21
82.00882711493454
 31
0.0
  0
LINE
  5
187
330
37
100
AcDbEntity
  8
Visible (ANSI)
100
AcDbLine
 10
90.32820977532104
 20
82.00882711493454
 30
0.0
 11
102.520209775321
 21
82.00882711493454
 31
0.0
  0
LINE
  5
188
330
37
100
AcDbEntity
  8
Visible (ANSI)
100
AcDbLine
 10
90.32820977532104
 20
70.73869512812978
 30
0.0
 11
90.32820977532104
 21
65.57876112153215
 31
0.0
  0
LINE
  5
189
330
37
100
AcDbEntity
  8
Visible (ANSI)
100
AcDbLine
 10
103.028209775321
 20
63.99126112153216
 30
0.0
 11
103.028209775321
 21
88.75626112153216
 31
0.0
  0
LINE
  5
18A
330
37
100
AcDbEntity
  8
Visible (ANSI)
100
AcDbLine
 10
90.32820977532104
 20
86.71061715951585
 30
0.0
 11
90.32820977532104
 21
82.00882711493454
 31
0.0
  0
LINE
  5
18B
330
37
100
AcDbEntity
  8
Visible (ANSI)
100
AcDbLine
 10
57.94320977532105
 20
81.32676112153218
 30
0.0
 11
57.94320977532105
 21
71.42076112153216
 31
0.0
  0
LINE
  5
18C
330
37
100
AcDbEntity
  8
Visible (ANSI)
100
AcDbLine
 10
54.76820977532105
 20
79.4936740168551
 30
0.0
 11
54.76820977532105
 21
73.25384822620922
 31
0.0
  0
LINE
  5
18D
330
37
100
AcDbEntity
  8
Visible (ANSI)
100
AcDbLine
 10
102.520209775321
 20
65.57876112153215
 30
0.0
 11
90.32820977532104
 21
65.57876112153215
 31
0.0
  0
LINE
  5
18E
330
37
100
AcDbEntity
  8
Visible (ANSI)
100
AcDbLine
 10
90.32820977532104
 20
71.42076112153216
 30
0.0
 11
57.94320977532105
 21
71.42076112153216
 31
0.0
  0
LINE
  5
18F
330
37
100
AcDbEntity
  8
Visible (ANSI)
100
AcDbLine
 10
85.88320977532104
 20
81.32676112153218
 30
0.0
 11
57.94320977532105
 21
81.32676112153218
 31
0.0
  0
LINE
  5
190
330
37
100
AcDbEntity
  8
Visible (ANSI)
100
AcDbLine
 10
102.520209775321
 20
87.16876112153215
 30
0.0
 11
85.88320977532104
 21
87.16876112153215
 31
0.0
  0
LINE
  5
191
330
37
100
AcDbEntity
  8
Visible (ANSI)
100
AcDbLine
 10
54.76820977532105
 20
79.4936740168551
 30
0.0
 11
57.94320977532105
 21
81.32676112153218
 31
0.0
  0
LINE
  5
192
330
37
100
AcDbEntity
  8
Visible (ANSI)
100
AcDbLine
 10
54.76820977532105
 20
73.25384822620922
 30
0.0
 11
57.94320977532105
 21
71.42076112153216
 31
0.0
  0
LINE
  5
193
330
37
100
AcDbEntity
  8
Visible (ANSI)
100
AcDbLine
 10
85.88320977532104
 20
86.71061715951585
 30
0.0
 11
85.88320977532104
 21
80.22743167698962
 31
0.0
  0
LINE
  5
194
330
37
100
AcDbEntity
  8
Visible (ANSI)
100
AcDbLine
 10
85.88320977532104
 20
86.71061715951585
 30
0.0
 11
85.88320977532104
 21
87.16876112153215
 31
0.0
  0
LINE
  5
195
330
37
100
AcDbEntity
  8
Visible (ANSI)
100
AcDbLine
 10
90.32820977532104
 20
80.22743167698962
 30
0.0
 11
85.88320977532104
 21
80.22743167698962
 31
0.0
  0
LINE
  5
196
330
37
100
AcDbEntity
  8
Visible (ANSI)
100
AcDbLine
 10
90.32820977532104
 20
86.71061715951585
 30
0.0
 11
85.88320977532104
 21
86.71061715951585
 31
0.0
  0
LINE
  5
197
330
37
100
AcDbEntity
  8
Visible (ANSI)
100
AcDbLine
 10
103.028209775321
 20
88.75626112153216
 30
0.0
 11
106.838209775321
 21
88.75626112153216
 31
0.0
  0
LINE
  5
198
330
37
100
AcDbEntity
  8
Visible (ANSI)
100
AcDbLine
 10
103.028209775321
 20
63.99126112153216
 30
0.0
 11
106.838209775321
 21
63.99126112153216
 31
0.0
  0
LINE
  5
199
330
37
100
AcDbEntity
  8
Sketch Geometry (ANSI)
100
AcDbLine
 10
54.76820977532105
 20
77.6048102037436
 30
0.0
 11
43.20184306131642
 21
77.6048102037436
 31
0.0
  0
LINE
  5
19A
330
37
100
AcDbEntity
  8
Sketch Geometry (ANSI)
100
AcDbLine
 10
43.20184306131642
 20
77.6048102037436
 30
0.0
 11
43.20184306131642
 21
74.90905534767664
 31
0.0
  0
LINE
  5
19B
330
37
100
AcDbEntity
  8
Sketch Geometry (ANSI)
100
AcDbLine
 10
43.20184306131642
 20
74.90905534767664
 30
0.0
 11
54.76820977532105
 21
74.90905534767661
 31
0.0
  0
LINE
  5
19C
330
37
100
AcDbEntity
  8
Sketch Geometry (ANSI)
100
AcDbLine
 10
43.20184306131642
 20
76.73231724768713
 30
0.0
 11
30.50184306131644
 21
76.73231724768713
 31
0.0
  0
LINE
  5
19D
330
37
100
AcDbEntity
  8
Sketch Geometry (ANSI)
100
AcDbLine
 10
30.50184306131644
 20
76.73231724768713
 30
0.0
 11
30.50184306131644
 21
75.53312826204198
 31
0.0
  0
LINE
  5
19E
330
37
100
AcDbEntity
  8
Sketch Geometry (ANSI)
100
AcDbLine
 10
30.50184306131644
 20
75.53312826204198
 30
0.0
 11
43.20184306131642
 21
75.533128262042
 31
0.0
  0
DIMENSION
  5
19F
330
37
100
AcDbEntity
  8
Dimension (ANSI)
100
AcDbDimension
  2
*D9
 10
30.50184306131644
 20
81.73231724768712
 30
0.0
 11
18.06635649429602
 21
81.73231724768712
 31
0.0
 70
   160
  1
<>
 71
     5
 42
12.69999999999999
  3
Default - mm [in] (ANSI)
100
AcDbAlignedDimension
 13
43.20184306131642
 23
76.73231724768713
 33
0.0
 14
30.50184306131644
 24
76.73231724768713
 34
0.0
 50
180.0
100
AcDbRotatedDimension
1001
ACAD
1000
DSTYLE
1002
{
1070
   271
1070
     2
1070
   274
1070
     1
1070
   272
1070
     2
1070
    48
1040
0.0
1070
    47
1040
0.0
1002
}
  0
DIMENSION
  5
276
330
37
100
AcDbEntity
  8
Dimension (ANSI)
100
AcDbDimension
  2
*D10
 10
90.32820977532104
 20
59.98372812483097
 30
0.0
 11
78.39208476318933
 21
59.98372812483097
 31
0.0
 70
   160
  1
<>
 71
     5
 42
12.69999999999996
  3
Default - mm [in] (ANSI)
100
AcDbAlignedDimension
 13
103.028209775321
 23
76.37376112153217
 33
0.0
 14
90.32820977532104
 24
68.15872812483097
 34
0.0
 50
180.0
100
AcDbRotatedDimension
1001
ACAD
1000
DSTYLE
1002
{
1070
    74
1070
     0
1070
   271
1070
     2
1070
   274
1070
     1
1070
   272
1070
     2
1070
    48
1040
0.0
1070
    47
1040
0.0
1002
}
  0
DIMENSION
  5
360
330
37
100
AcDbEntity
  8
Dimension (ANSI)
100
AcDbDimension
  2
*D11
 10
54.76820977532105
 20
96.49367401685509
 30
0.0
 11
83.74370977532104
 21
96.49367401685509
 31
0.0
 70
   160
  1
<>
 71
     5
 42
57.14999999999996
  3
Default - mm [in] (ANSI)
100
AcDbAlignedDimension
 13
111.918209775321
 23
84.58879411823335
 33
0.0
 14
54.76820977532105
 24
76.37376112153217
 34
0.0
 50
180.0
100
AcDbRotatedDimension
1001
ACAD
1000
DSTYLE
1002
{
1070
    74
1070
     0
1070
   271
1070
     2
1070
   274
1070
     1
1070
   272
1070
     2
1070
    48
1040
0.0
1070
    47
1040
0.0
1002
}
  0
LINE
  5
44A
330
37
100
AcDbEntity
  8
Sketch Geometry (ANSI)
100
AcDbLine
 10
35.76563338934978
 20
37.50443389503485
 30
0.0
 11
47.21325868894791
 21
37.50443389503485
 31
0.0
  0
LINE
  5
44B
330
37
100
AcDbEntity
  8
Sketch Geometry (ANSI)
100
AcDbLine
 10
47.21325868894791
 20
18.45443389503485
 30
0.0
 11
35.76563338934975
 21
18.45443389503485
 31
0.0
  0
ARC
  5
44C
330
37
100
AcDbEntity
  8
Sketch Geometry (ANSI)
100
AcDbCircle
 10
41.48944603914883
 20
27.97943389503485
 30
0.0
 40
11.1125
100
AcDbArc
 50
301.0027191338739
 51
58.99728086612604
  0
ARC
  5
44D
330
37
100
AcDbEntity
  8
Sketch Geometry (ANSI)
100
AcDbCircle
 10
41.48944603914883
 20
27.97943389503485
 30
0.0
 40
11.1125
100
AcDbArc
 50
121.0027191338739
 51
238.997280866126
  0
ARC
  5
44E
330
37
100
AcDbEntity
  8
Sketch Geometry (ANSI)
100
AcDbCircle
 10
99.96310714861031
 20
26.46997222090851
 30
0.0
 40
5.37
100
AcDbArc
 50
128.4604249636418
 51
51.5395750363582
  0
LINE
  5
44F
330
37
100
AcDbEntity
  8
Sketch Geometry (ANSI)
100
AcDbLine
 10
96.62310714861035
 20
30.67488601312828
 30
0.0
 11
96.62310714861035
 21
37.09997222090851
 31
0.0
  0
LINE
  5
450
330
37
100
AcDbEntity
  8
Sketch Geometry (ANSI)
100
AcDbLine
 10
96.62310714861035
 20
37.09997222090851
 30
0.0
 11
103.3031071486103
 21
37.09997222090851
 31
0.0
  0
LINE
  5
451
330
37
100
AcDbEntity
  8
Sketch Geometry (ANSI)
100
AcDbLine
 10
103.3031071486103
 20
37.09997222090851
 30
0.0
 11
103.3031071486103
 21
30.67488601312828
 31
0.0
  0
MTEXT
  5
452
330
37
100
AcDbEntity
  8
Symbol (ANSI)
100
AcDbMText
 10
35.36324620964438
 20
16.33222486524617
 30
0.0
 40
1.524000018835067
 41
26.99463442451769
 71
     1
 72
     1
  1
{Knock-out Hole}
  7
Note Text (ANSI)
 73
     1
 44
1.0
1001
ACAD
1000
MTEXTBEGIN
1070
    73
1070
     1
1070
    44
1040
1.0
1070
    74
1070
     0
1000
MTEXTEND
  0
MTEXT
  5
453
330
37
100
AcDbEntity
  8
Symbol (ANSI)
100
AcDbMText
 10
93.25013607184541
 20
15.03301778819556
 30
0.0
 40
1.524000018835067
 41
26.99463442451769
 71
     1
 72
     1
  1
{Keyhole Punch}
  7
Note Text (ANSI)
 73
     1
 44
1.0
1001
ACAD
1000
MTEXTBEGIN
1070
    73
1070
     1
1070
    44
1040
1.0
1070
    74
1070
     0
1000
MTEXTEND
  0
DIMENSION
  5
454
330
37
100
AcDbEntity
  8
Dimension (ANSI)
100
AcDbDimension
  2
*D12
 10
21.76563338934976
 20
37.50443389503485
 30
0.0
 11
21.76563338934976
 21
49.53942046205526
 31
0.0
 70
   160
  1
<>
 71
     5
 42
19.05
  3
Default - mm [in] (ANSI)
100
AcDbAlignedDimension
 13
35.76563338934975
 23
18.45443389503485
 33
0.0
 14
35.76563338934978
 24
37.50443389503485
 34
0.0
 50
90.0
100
AcDbRotatedDimension
1001
ACAD
1000
DSTYLE
1002
{
1070
    74
1070
     0
1070
   271
1070
     2
1070
   274
1070
     1
1070
   272
1070
     2
1070
    48
1040
0.0
1070
    47
1040
0.0
1002
}
  0
DIMENSION
  5
54F
330
37
100
AcDbEntity
  8
Dimension (ANSI)
100
AcDbDimension
  2
*D13
 10
52.60194603914882
 20
44.97943389503483
 30
0.0
 11
41.08894603914882
 21
44.97943389503483
 31
0.0
 70
   160
  1
<>
 71
     5
 42
22.225
  3
Default - mm [in] (ANSI)
100
AcDbAlignedDimension
 13
30.37694603914883
 23
27.97943389503486
 33
0.0
 14
52.60194603914882
 24
27.97943389503485
 34
0.0
 50
180.0
100
AcDbRotatedDimension
1001
ACAD
1000
DSTYLE
1002
{
1070
   271
1070
     2
1070
   274
1070
     1
1070
   272
1070
     2
1070
    48
1040
0.0
1070
    47
1040
0.0
1002
}
  0
DIMENSION
  5
625
330
37
100
AcDbEntity
  8
Dimension (ANSI)
100
AcDbDimension
  2
*D14
 10
103.3031071486103
 20
42.09997222090851
 30
0.0
 11
85.41812349408798
 21
42.09997222090851
 31
0.0
 70
   160
  1
<>
 71
     5
 42
6.679999999999949
  3
Default - mm [in] (ANSI)
100
AcDbAlignedDimension
 13
96.62310714861035
 23
37.09997222090851
 33
0.0
 14
103.3031071486103
 24
37.09997222090851
 34
0.0
 50
180.0
100
AcDbRotatedDimension
1001
ACAD
1000
DSTYLE
1002
{
1070
   271
1070
     2
1070
   274
1070
     1
1070
   272
1070
     2
1070
    48
1040
0.0
1070
    47
1040
0.0
1002
}
  0
DIMENSION
  5
6FB
330
37
100
AcDbEntity
  8
Dimension (ANSI)
100
AcDbDimension
  2
*D15
 10
105.3331071486103
 20
17.81608191216371
 30
0.0
 11
85.65062874260535
 21
17.81608191216371
 31
0.0
 70
   160
  1
<>
 71
     5
 42
10.73999999999998
  3
Default - mm [in] (ANSI)
100
AcDbAlignedDimension
 13
94.59310714861031
 23
26.46997222090851
 33
0.0
 14
105.3331071486103
 24
26.46997222090851
 34
0.0
 50
180.0
100
AcDbRotatedDimension
1001
ACAD
1000
DSTYLE
1002
{
1070
   271
1070
     2
1070
   274
1070
     1
1070
   272
1070
     2
1070
    48
1040
0.0
1070
    47
1040
0.0
1002
}
  0
DIMENSION
  5
7D1
330
37
100
AcDbEntity
  8
Dimension (ANSI)
100
AcDbDimension
  2
*D16
 10
111.3031071486103
 20
21.0999722209085
 30
0.0
 11
111.3031071486103
 21
49.1349587879289
 31
0.0
 70
   160
  1
<>
 71
     5
 42
16.0
  3
Default - mm [in] (ANSI)
100
AcDbAlignedDimension
 13
103.3031071486103
 23
37.09997222090851
 33
0.0
 14
99.96310714861031
 24
21.09997222090851
 34
0.0
 50
270.0
100
AcDbRotatedDimension
1001
ACAD
1000
DSTYLE
1002
{
1070
    74
1070
     0
1070
   271
1070
     2
1070
   274
1070
     1
1070
   272
1070
     2
1070
    48
1040
0.0
1070
    47
1040
0.0
1002
}
  0
ENDSEC
  0
SECTION
  2
OBJECTS
  0
DICTIONARY
  5
C
330
0
100
AcDbDictionary
281
     1
  3
ACAD_COLOR
350
30
  3
ACAD_GROUP
350
D
  3
ACAD_LAYOUT
350
2F
  3
ACAD_MATERIAL
350
10
  3
ACAD_MLINESTYLE
350
2C
  3
ACAD_PLOTSETTINGS
350
2E
  3
ACAD_PLOTSTYLENAME
350
E
  3
ACAD_TABLESTYLE
350
31
  3
ACAD_VISUALSTYLE
350
14
  3
AcDbVariableDictionary
350
8C6
  3
DWGPROPS
350
935
  0
DICTIONARY
  5
30
102
{ACAD_REACTORS
330
C
102
}
330
C
100
AcDbDictionary
281
     1
  0
DICTIONARY
  5
D
102
{ACAD_REACTORS
330
C
102
}
330
C
100
AcDbDictionary
281
     1
  0
DICTIONARY
  5
2F
102
{ACAD_REACTORS
330
C
102
}
330
C
100
AcDbDictionary
281
     1
  3
Layout1
350
36
  3
Layout2
350
3E
  3
Model
350
3A
  0
DICTIONARY
  5
10
102
{ACAD_REACTORS
330
C
102
}
330
C
100
AcDbDictionary
281
     1
  3
ByBlock
350
12
  3
ByLayer
350
11
  3
Global
350
13
  0
DICTIONARY
  5
2C
102
{ACAD_REACTORS
330
C
102
}
330
C
100
AcDbDictionary
281
     1
  3
Standard
350
2D
  0
DICTIONARY
  5
2E
102
{ACAD_REACTORS
330
C
102
}
330
C
100
AcDbDictionary
281
     1
  0
ACDBDICTIONARYWDFLT
  5
E
102
{ACAD_REACTORS
330
C
102
}
330
C
100
AcDbDictionary
281
     1
  3
Normal
350
F
100
AcDbDictionaryWithDefault
340
F
  0
DICTIONARY
  5
31
102
{ACAD_REACTORS
330
C
102
}
330
C
100
AcDbDictionary
281
     1
  3
Standard
350
32
  0
DICTIONARY
  5
14
102
{ACAD_REACTORS
330
C
102
}
330
C
100
AcDbDictionary
281
     1
  3
2dWireframe
350
1A
  3
3D Hidden
350
1C
  3
3dWireframe
350
1B
  3
Basic
350
19
  3
Brighten
350
20
  3
ColorChange
350
24
  3
Conceptual
350
1D
  3
Dim
350
1F
  3
Facepattern
350
23
  3
Flat
350
15
  3
FlatWithEdges
350
16
  3
Gouraud
350
17
  3
GouraudWithEdges
350
18
  3
Linepattern
350
22
  3
Realistic
350
1E
  3
Thicken
350
21
  0
DICTIONARY
  5
8C6
102
{ACAD_REACTORS
330
C
102
}
330
C
100
AcDbDictionary
281
     1
  3
CTABLESTYLE
350
8C7
  3
DIMASSOC
350
8CB
  3
HIDETEXT
350
8CA
  3
INDEXCTL
350
8C9
  3
SORTENTS
350
8C8
  0
XRECORD
  5
935
102
{ACAD_REACTORS
330
C
102
}
330
C
100
AcDbXrecord
280
     1
  1
DWGPROPS COOKIE
  2

  3

  4
CPT
  6

  7

  8
bjanowia
  9

300
Manager=
301
Company=
302
Category=
303
Part Number=LHR
304
Description=
305
Project=
306
Designer=CPT
307
Engineer=
308
Authority=
309
Cost Center=
 40
0.0003834027777778
 41
2454484.58727316
 42
2454484.587701065
  1

 90
       22
300
Vendor=
300
User Status=
300
Design Status=WorkInProgress
300
Checked by=
300
Engr Approved by=
300
Mfg Approved by=
300
qty x 1000=1000
300
units=EA
300
FINISH=
300
MATL SPEC=
300
WT=
300
SCALE=NTS
  0
LAYOUT
  5
36
102
{ACAD_XDICTIONARY
360
938
102
}
102
{ACAD_REACTORS
330
2F
102
}
330
2F
100
AcDbPlotSettings
  1

  2

  4

  6

 40
0.0
 41
0.0
 42
0.0
 43
0.0
 44
0.0
 45
0.0
 46
0.0
 47
0.0
 48
0.0
 49
0.0
140
0.0
141
0.0
142
1.0
143
1.0
 70
   688
 72
     0
 73
     0
 74
     5
  7

 75
    16
147
1.0
148
0.0
149
0.0
100
AcDbLayout
  1
Layout1
 70
     1
 71
     1
 10
0.0
 20
0.0
 11
139.7
 21
107.95
 12
0.0
 22
0.0
 32
0.0
 14
0.0
 24
0.0
 34
0.0
 15
139.7
 25
107.95
 35
0.0
146
0.0
 13
0.0
 23
0.0
 33
0.0
 16
1.0
 26
0.0
 36
0.0
 17
0.0
 27
1.0
 37
0.0
 76
     0
330
33
  0
LAYOUT
  5
3E
102
{ACAD_XDICTIONARY
360
93C
102
}
102
{ACAD_REACTORS
330
2F
102
}
330
2F
100
AcDbPlotSettings
  1

  2

  4

  6

 40
0.0
 41
0.0
 42
0.0
 43
0.0
 44
0.0
 45
0.0
 46
0.0
 47
0.0
 48
0.0
 49
0.0
140
0.0
141
0.0
142
1.0
143
1.0
 70
   688
 72
     0
 73
     0
 74
     5
  7

 75
    16
147
1.0
148
0.0
149
0.0
100
AcDbLayout
  1
Layout2
 70
     1
 71
     2
 10
0.0
 20
0.0
 11
12.0
 21
9.0
 12
0.0
 22
0.0
 32
0.0
 14
0.0
 24
0.0
 34
0.0
 15
0.0
 25
0.0
 35
0.0
146
0.0
 13
0.0
 23
0.0
 33
0.0
 16
1.0
 26
0.0
 36
0.0
 17
0.0
 27
1.0
 37
0.0
 76
     0
330
3B
  0
LAYOUT
  5
3A
102
{ACAD_XDICTIONARY
360
93A
102
}
102
{ACAD_REACTORS
330
2F
102
}
330
2F
100
AcDbPlotSettings
  1

  2

  4

  6

 40
0.0
 41
0.0
 42
0.0
 43
0.0
 44
0.0
 45
0.0
 46
0.0
 47
0.0
 48
0.0
 49
0.0
140
0.0
141
0.0
142
1.0
143
1.0
 70
  1712
 72
     0
 73
     0
 74
     0
  7

 75
     0
147
1.0
148
0.0
149
0.0
100
AcDbLayout
  1
Model
 70
     1
 71
     0
 10
0.0
 20
0.0
 11
12.0
 21
9.0
 12
0.0
 22
0.0
 32
0.0
 14
0.0
 24
0.0
 34
0.0
 15
0.0
 25
0.0
 35
0.0
146
0.0
 13
0.0
 23
0.0
 33
0.0
 16
1.0
 26
0.0
 36
0.0
 17
0.0
 27
1.0
 37
0.0
 76
     0
330
37
331
28
  0
MATERIAL
  5
12
102
{ACAD_XDICTIONARY
360
8CF
102
}
102
{ACAD_REACTORS
330
10
102
}
330
10
100
AcDbMaterial
  1
ByBlock
  0
MATERIAL
  5
11
102
{ACAD_XDICTIONARY
360
8CD
102
}
102
{ACAD_REACTORS
330
10
102
}
330
10
100
AcDbMaterial
  1
ByLayer
  0
MATERIAL
  5
13
102
{ACAD_XDICTIONARY
360
8D1
102
}
102
{ACAD_REACTORS
330
10
102
}
330
10
100
AcDbMaterial
  1
Global
  0
MLINESTYLE
  5
2D
102
{ACAD_REACTORS
330
2C
102
}
330
2C
100
AcDbMlineStyle
  2
STANDARD
 70
     0
  3

 62
   256
 51
90.0
 52
90.0
 71
     2
 49
0.5
 62
   256
  6
BYLAYER
 49
-0.5
 62
   256
  6
BYLAYER
  0
ACDBPLACEHOLDER
  5
F
102
{ACAD_REACTORS
330
E
102
}
330
E
  0
TABLESTYLE
  5
32
102
{ACAD_XDICTIONARY
360
936
102
}
102
{ACAD_REACTORS
330
31
102
}
330
31
100
AcDbTableStyle
  3
Standard
 70
     0
 71
     0
 40
0.06
 41
0.06
280
     0
281
     0
  7
Standard
140
0.18
170
     2
 62
     0
 63
     7
283
     0
274
    -2
284
     1
 64
     0
275
    -2
285
     1
 65
     0
276
    -2
286
     1
 66
     0
277
    -2
287
     1
 67
     0
278
    -2
288
     1
 68
     0
279
    -2
289
     1
 69
     0
  7
Standard
140
0.25
170
     5
 62
     0
 63
     7
283
     0
274
    -2
284
     1
 64
     0
275
    -2
285
     1
 65
     0
276
    -2
286
     1
 66
     0
277
    -2
287
     1
 67
     0
278
    -2
288
     1
 68
     0
279
    -2
289
     1
 69
     0
  7
Standard
140
0.18
170
     5
 62
     0
 63
     7
283
     0
274
    -2
284
     1
 64
     0
275
    -2
285
     1
 65
     0
276
    -2
286
     1
 66
     0
277
    -2
287
     1
 67
     0
278
    -2
288
     1
 68
     0
279
    -2
289
     1
 69
     0
  0
VISUALSTYLE
  5
1A
102
{ACAD_REACTORS
330
14
102
}
330
14
100
AcDbVisualStyle
  2
2dWireframe
 70
     4
 71
     0
 72
     2
 73
     0
 90
        0
 40
-0.6
 41
-30.0
 62
     5
 63
     7
 74
     1
 91
        4
 64
     7
 65
   257
 75
     1
175
     1
 42
1.0
 92
        0
 66
   257
 43
1.0
 76
     1
 77
     6
 78
     2
 67
     7
 79
     5
170
     0
171
     0
290
     0
174
     0
 93
        1
 44
0.0
173
     0
291
     0
 45
0.0
1001
ACAD
1000
AcDbSavedByObjectVersion
1070
     0
1000
AcDbSavedByObjectVersion
1070
     0
  0
VISUALSTYLE
  5
1C
102
{ACAD_REACTORS
330
14
102
}
330
14
100
AcDbVisualStyle
  2
3D Hidden
 70
     6
 71
     1
 72
     2
 73
     2
 90
        0
 40
-0.6
 41
-30.0
 62
     5
 63
     7
 74
     2
 91
        2
 64
     7
 65
   257
 75
     2
175
     1
 42
40.0
 92
        0
 66
   257
 43
1.0
 76
     1
 77
     6
 78
     2
 67
     7
 79
     3
170
     0
171
     0
290
     0
174
     0
 93
        1
 44
0.0
173
     0
291
     0
 45
0.0
1001
ACAD
1000
AcDbSavedByObjectVersion
1070
     0
1000
AcDbSavedByObjectVersion
1070
     0
  0
VISUALSTYLE
  5
1B
102
{ACAD_REACTORS
330
14
102
}
330
14
100
AcDbVisualStyle
  2
3dWireframe
 70
     5
 71
     0
 72
     2
 73
     0
 90
        0
 40
-0.6
 41
-30.0
 62
     5
 63
     7
 74
     1
 91
        4
 64
     7
 65
   257
 75
     1
175
     1
 42
1.0
 92
        0
 66
   257
 43
1.0
 76
     1
 77
     6
 78
     2
 67
     7
 79
     5
170
     0
171
     0
290
     0
174
     0
 93
        1
 44
0.0
173
     0
291
     0
 45
0.0
1001
ACAD
1000
AcDbSavedByObjectVersion
1070
     0
1000
AcDbSavedByObjectVersion
1070
     0
  0
VISUALSTYLE
  5
19
102
{ACAD_REACTORS
330
14
102
}
330
14
100
AcDbVisualStyle
  2
Basic
 70
     7
 71
     1
 72
     0
 73
     1
 90
        0
 40
-0.6
 41
-30.0
 62
     5
 63
     7
 74
     0
 91
        4
 64
     7
 65
   257
 75
     1
175
     1
 42
1.0
 92
        8
 66
     7
 43
1.0
 76
     1
 77
     6
 78
     2
 67
     7
 79
     5
170
     0
171
     0
290
     0
174
     0
 93
        1
 44
0.0
173
     0
291
     1
 45
0.0
1001
ACAD
1000
AcDbSavedByObjectVersion
1070
     0
1000
AcDbSavedByObjectVersion
1070
     0
  0
VISUALSTYLE
  5
20
102
{ACAD_REACTORS
330
14
102
}
330
14
100
AcDbVisualStyle
  2
Brighten
 70
    12
 71
     2
 72
     2
 73
     0
 90
        0
 40
-0.6
 41
-30.0
 62
     5
 63
     7
 74
     1
 91
        4
 64
     7
 65
   257
 75
     1
175
     1
 42
1.0
 92
        8
 66
     7
 43
1.0
 76
     1
 77
     6
 78
     2
 67
     7
 79
     5
170
     0
171
     0
290
     0
174
     0
 93
        1
 44
50.0
173
     0
291
     1
 45
0.0
1001
ACAD
1000
AcDbSavedByObjectVersion
1070
     0
1000
AcDbSavedByObjectVersion
1070
     0
  0
VISUALSTYLE
  5
24
102
{ACAD_REACTORS
330
14
102
}
330
14
100
AcDbVisualStyle
  2
ColorChange
 70
    16
 71
     2
 72
     2
 73
     3
 90
        0
 40
-0.6
 41
-30.0
 62
     5
 63
     8
 74
     1
 91
        4
 64
     7
 65
   257
 75
     1
175
     1
 42
1.0
 92
        8
 66
     8
 43
1.0
 76
     1
 77
     6
 78
     2
 67
     7
 79
     5
170
     0
171
     0
290
     0
174
     0
 93
        1
 44
0.0
173
     0
291
     1
 45
0.0
1001
ACAD
1000
AcDbSavedByObjectVersion
1070
     0
1000
AcDbSavedByObjectVersion
1070
     0
  0
VISUALSTYLE
  5
1D
102
{ACAD_REACTORS
330
14
102
}
330
14
100
AcDbVisualStyle
  2
Conceptual
 70
     9
 71
     3
 72
     2
 73
     0
 90
        0
 40
-0.6
 41
-30.0
 62
     5
 63
     7
 74
     2
 91
        2
 64
     7
 65
   257
 75
     1
175
     1
 42
40.0
 92
        8
 66
     7
 43
1.0
 76
     1
 77
     6
 78
     2
 67
     7
 79
     3
170
     0
171
     0
290
     0
174
     0
 93
        1
 44
0.0
173
     0
291
     0
 45
0.0
1001
ACAD
1000
AcDbSavedByObjectVersion
1070
     0
1000
AcDbSavedByObjectVersion
1070
     0
  0
VISUALSTYLE
  5
1F
102
{ACAD_REACTORS
330
14
102
}
330
14
100
AcDbVisualStyle
  2
Dim
 70
    11
 71
     2
 72
     2
 73
     0
 90
        0
 40
-0.6
 41
-30.0
 62
     5
 63
     7
 74
     1
 91
        4
 64
     7
 65
   257
 75
     1
175
     1
 42
1.0
 92
        8
 66
     7
 43
1.0
 76
     1
 77
     6
 78
     2
 67
     7
 79
     5
170
     0
171
     0
290
     0
174
     0
 93
        1
 44
-50.0
173
     0
291
     1
 45
0.0
1001
ACAD
1000
AcDbSavedByObjectVersion
1070
     0
1000
AcDbSavedByObjectVersion
1070
     0
  0
VISUALSTYLE
  5
23
102
{ACAD_REACTORS
330
14
102
}
330
14
100
AcDbVisualStyle
  2
Facepattern
 70
    15
 71
     2
 72
     2
 73
     0
 90
        0
 40
-0.6
 41
-30.0
 62
     5
 63
     7
 74
     1
 91
        4
 64
     7
 65
   257
 75
     1
175
     1
 42
1.0
 92
        8
 66
     7
 43
1.0
 76
     1
 77
     6
 78
     2
 67
     7
 79
     5
170
     0
171
     0
290
     0
174
     0
 93
        1
 44
0.0
173
     0
291
     1
 45
0.0
1001
ACAD
1000
AcDbSavedByObjectVersion
1070
     0
1000
AcDbSavedByObjectVersion
1070
     0
  0
VISUALSTYLE
  5
15
102
{ACAD_REACTORS
330
14
102
}
330
14
100
AcDbVisualStyle
  2
Flat
 70
     0
 71
     2
 72
     1
 73
     1
 90
        2
 40
-0.6
 41
30.0
 62
     5
 63
     7
 74
     0
 91
        4
 64
     7
 65
   257
 75
     1
175
     1
 42
1.0
 92
        8
 66
     7
 43
1.0
 76
     1
 77
     6
 78
     2
 67
     7
 79
     5
170
     0
171
     0
290
     0
174
     0
 93
       13
 44
0.0
173
     0
291
     1
 45
0.0
1001
ACAD
1000
AcDbSavedByObjectVersion
1070
     0
1000
AcDbSavedByObjectVersion
1070
     0
  0
VISUALSTYLE
  5
16
102
{ACAD_REACTORS
330
14
102
}
330
14
100
AcDbVisualStyle
  2
FlatWithEdges
 70
     1
 71
     2
 72
     1
 73
     1
 90
        2
 40
-0.6
 41
30.0
 62
     5
 63
     7
 74
     1
 91
        4
 64
     7
 65
   257
 75
     1
175
     1
 42
1.0
 92
        0
 66
   257
 43
1.0
 76
     1
 77
     6
 78
     2
 67
     7
 79
     5
170
     0
171
     0
290
     0
174
     0
 93
       13
 44
0.0
173
     0
291
     1
 45
0.0
1001
ACAD
1000
AcDbSavedByObjectVersion
1070
     0
1000
AcDbSavedByObjectVersion
1070
     0
  0
VISUALSTYLE
  5
17
102
{ACAD_REACTORS
330
14
102
}
330
14
100
AcDbVisualStyle
  2
Gouraud
 70
     2
 71
     2
 72
     2
 73
     1
 90
        2
 40
-0.6
 41
30.0
 62
     5
 63
     7
 74
     0
 91
        4
 64
     7
 65
   257
 75
     1
175
     1
 42
1.0
 92
        0
 66
     7
 43
1.0
 76
     1
 77
     6
 78
     2
 67
     7
 79
     5
170
     0
171
     0
290
     0
174
     0
 93
       13
 44
0.0
173
     0
291
     1
 45
0.0
1001
ACAD
1000
AcDbSavedByObjectVersion
1070
     0
1000
AcDbSavedByObjectVersion
1070
     0
  0
VISUALSTYLE
  5
18
102
{ACAD_REACTORS
330
14
102
}
330
14
100
AcDbVisualStyle
  2
GouraudWithEdges
 70
     3
 71
     2
 72
     2
 73
     1
 90
        2
 40
-0.6
 41
30.0
 62
     5
 63
     7
 74
     1
 91
        4
 64
     7
 65
   257
 75
     1
175
     1
 42
1.0
 92
        0
 66
   257
 43
1.0
 76
     1
 77
     6
 78
     2
 67
     7
 79
     5
170
     0
171
     0
290
     0
174
     0
 93
       13
 44
0.0
173
     0
291
     1
 45
0.0
1001
ACAD
1000
AcDbSavedByObjectVersion
1070
     0
1000
AcDbSavedByObjectVersion
1070
     0
  0
VISUALSTYLE
  5
22
102
{ACAD_REACTORS
330
14
102
}
330
14
100
AcDbVisualStyle
  2
Linepattern
 70
    14
 71
     2
 72
     2
 73
     0
 90
        0
 40
-0.6
 41
-30.0
 62
     5
 63
     7
 74
     1
 91
        4
 64
     7
 65
   257
 75
     7
175
     7
 42
1.0
 92
        8
 66
     7
 43
1.0
 76
     1
 77
     6
 78
     2
 67
     7
 79
     5
170
     0
171
     0
290
     0
174
     0
 93
        1
 44
0.0
173
     0
291
     1
 45
0.0
1001
ACAD
1000
AcDbSavedByObjectVersion
1070
     0
1000
AcDbSavedByObjectVersion
1070
     0
  0
VISUALSTYLE
  5
1E
102
{ACAD_REACTORS
330
14
102
}
330
14
100
AcDbVisualStyle
  2
Realistic
 70
     8
 71
     2
 72
     2
 73
     0
 90
        0
 40
-0.6
 41
-30.0
 62
     5
 63
     7
 74
     1
 91
        0
 64
     7
 65
   257
 75
     1
175
     1
 42
1.0
 92
        8
 66
     8
 43
1.0
 76
     1
 77
     6
 78
     2
 67
     7
 79
     5
170
     0
171
     0
290
     0
174
     0
 93
       13
 44
0.0
173
     0
291
     0
 45
0.0
1001
ACAD
1000
AcDbSavedByObjectVersion
1070
     0
1000
AcDbSavedByObjectVersion
1070
     0
  0
VISUALSTYLE
  5
21
102
{ACAD_REACTORS
330
14
102
}
330
14
100
AcDbVisualStyle
  2
Thicken
 70
    13
 71
     2
 72
     2
 73
     0
 90
        0
 40
-0.6
 41
-30.0
 62
     5
 63
     7
 74
     1
 91
        4
 64
     7
 65
   257
 75
     1
175
     1
 42
1.0
 92
       12
 66
     7
 43
1.0
 76
     1
 77
     6
 78
     2
 67
     7
 79
     5
170
     0
171
     0
290
     0
174
     0
 93
        1
 44
0.0
173
     0
291
     1
 45
0.0
1001
ACAD
1000
AcDbSavedByObjectVersion
1070
     0
1000
AcDbSavedByObjectVersion
1070
     0
  0
DICTIONARYVAR
  5
8C7
102
{ACAD_REACTORS
330
8C6
102
}
330
8C6
100
DictionaryVariables
280
     0
  1
STANDARD
  0
DICTIONARYVAR
  5
8CB
102
{ACAD_REACTORS
330
8C6
102
}
330
8C6
100
DictionaryVariables
280
     0
  1
1
  0
DICTIONARYVAR
  5
8CA
102
{ACAD_REACTORS
330
8C6
102
}
330
8C6
100
DictionaryVariables
280
     0
  1
1
  0
DICTIONARYVAR
  5
8C9
102
{ACAD_REACTORS
330
8C6
102
}
330
8C6
100
DictionaryVariables
280
     0
  1
0
  0
DICTIONARYVAR
  5
8C8
102
{ACAD_REACTORS
330
8C6
102
}
330
8C6
100
DictionaryVariables
280
     0
  1
127
  0
DICTIONARY
  5
938
330
36
100
AcDbDictionary
280
     1
281
     1
  3
ACAD_XREC_ROUNDTRIP
360
939
  0
DICTIONARY
  5
93C
330
3E
100
AcDbDictionary
280
     1
281
     1
  3
ACAD_XREC_ROUNDTRIP
360
93D
  0
DICTIONARY
  5
93A
330
3A
100
AcDbDictionary
280
     1
281
     1
  3
ACAD_XREC_ROUNDTRIP
360
93B
  0
DICTIONARY
  5
8CF
330
12
100
AcDbDictionary
280
     1
281
     1
  3
ACAD_XREC_ROUNDTRIP
360
8D0
  0
DICTIONARY
  5
8CD
330
11
100
AcDbDictionary
280
     1
281
     1
  3
ACAD_XREC_ROUNDTRIP
360
8CE
  0
DICTIONARY
  5
8D1
330
13
100
AcDbDictionary
280
     1
281
     1
  3
ACAD_XREC_ROUNDTRIP
360
8D2
  0
DICTIONARY
  5
936
330
32
100
AcDbDictionary
280
     1
281
     1
  3
ACAD_XREC_ROUNDTRIP
360
937
  0
XRECORD
  5
939
102
{ACAD_REACTORS
330
938
102
}
330
938
100
AcDbXrecord
280
     1
102
SHADEPLOT
 70
     0
102
SHADEPLOTRESLEVEL
 70
     2
102
SHADEPLOTCUSTOMDPI
 70
   300
  0
XRECORD
  5
93D
102
{ACAD_REACTORS
330
93C
102
}
330
93C
100
AcDbXrecord
280
     1
102
SHADEPLOT
 70
     0
102
SHADEPLOTRESLEVEL
 70
     2
102
SHADEPLOTCUSTOMDPI
 70
   300
  0
XRECORD
  5
93B
102
{ACAD_REACTORS
330
93A
102
}
330
93A
100
AcDbXrecord
280
     1
102
SHADEPLOT
 70
     0
102
SHADEPLOTRESLEVEL
 70
     2
102
SHADEPLOTCUSTOMDPI
 70
   300
  0
XRECORD
  5
8D0
102
{ACAD_REACTORS
330
8CF
102
}
330
8CF
100
AcDbXrecord
280
     1
102
MATERIAL
148
0.0
149
0.0
149
0.0
 93
        0
 94
       63
282
     0
 72
     1
 77
     1
171
     1
175
     1
179
     1
273
     0
  0
XRECORD
  5
8CE
102
{ACAD_REACTORS
330
8CD
102
}
330
8CD
100
AcDbXrecord
280
     1
102
MATERIAL
148
0.0
149
0.0
149
0.0
 93
        0
 94
       63
282
     0
 72
     1
 77
     1
171
     1
175
     1
179
     1
273
     0
  0
XRECORD
  5
8D2
102
{ACAD_REACTORS
330
8D1
102
}
330
8D1
100
AcDbXrecord
280
     1
102
MATERIAL
148
0.0
149
0.0
149
0.0
 93
        0
 94
       63
282
     0
 72
     1
 77
     1
171
     1
175
     1
179
     1
273
     0
  0
XRECORD
  5
937
102
{ACAD_REACTORS
330
936
102
}
330
936
100
AcDbXrecord
280
     1
102
ACAD_ROUNDTRIP_PRE2007_TABLESTYLE
 90
      512
 91
        0
  1

 92
      512
 93
        0
  2

 94
      512
 95
        0
  3

  0
ENDSEC
  0
EOF
