  0
SECTION
  2
HEADER
  9
$ACADVER
  1
AC1009
  9
$INSBASE
 10
402.590624
 20
-1.041018
 30
0.0
  9
$EXTMIN
 10
12.215015
 20
0.840414
 30
0.0
  9
$EXTMAX
 10
88.013321
 20
44.926568
 30
0.0
  9
$LIMMIN
 10
-407.970438
 20
-367.832444
  9
$LIMMAX
 10
429.804077
 20
234.370848
  9
$ORTHOMODE
 70
     1
  9
$REGENMODE
 70
     1
  9
$FILLMODE
 70
     1
  9
$QTEXTMODE
 70
     0
  9
$MIRRTEXT
 70
     1
  9
$DRAGMODE
 70
     2
  9
$LTSCALE
 40
10.0
  9
$OSMODE
 70
    35
  9
$ATTMODE
 70
     1
  9
$TEXTSIZE
 40
6.0
  9
$TRACEWID
 40
1.0
  9
$TEXTSTYLE
  7
ROMANS
  9
$CLAYER
  8
ALPHA
  9
$CELTYPE
  6
BYLAYER
  9
$CECOLOR
 62
   256
  9
$DIMSCALE
 40
1.0
  9
$DIMASZ
 40
5.0
  9
$DIMEXO
 40
2.0
  9
$DIMDLI
 40
0.38
  9
$DIMRND
 40
0.0
  9
$DIMDLE
 40
0.0
  9
$DIMEXE
 40
2.5
  9
$DIMTP
 40
0.0
  9
$DIMTM
 40
0.0
  9
$DIMTXT
 40
2.5
  9
$DIMCEN
 40
0.0
  9
$DIMTSZ
 40
0.0
  9
$DIMTOL
 70
     0
  9
$DIMLIM
 70
     0
  9
$DIMTIH
 70
     1
  9
$DIMTOH
 70
     1
  9
$DIMSE1
 70
     0
  9
$DIMSE2
 70
     0
  9
$DIMTAD
 70
     1
  9
$DIMZIN
 70
    12
  9
$DIMBLK
  1
OPEN30
  9
$DIMASO
 70
     1
  9
$DIMSHO
 70
     1
  9
$DIMPOST
  1

  9
$DIMAPOST
  1

  9
$DIMALT
 70
     0
  9
$DIMALTD
 70
     2
  9
$DIMALTF
 40
25.4
  9
$DIMLFAC
 40
1.0
  9
$DIMTOFL
 70
     0
  9
$DIMTVP
 40
0.0
  9
$DIMTIX
 70
     0
  9
$DIMSOXD
 70
     0
  9
$DIMSAH
 70
     0
  9
$DIMBLK1
  1

  9
$DIMBLK2
  1

  9
$DIMSTYLE
  2
SC_DEFAUT
  9
$DIMCLRD
 70
     0
  9
$DIMCLRE
 70
     0
  9
$DIMCLRT
 70
     0
  9
$DIMTFAC
 40
1.0
  9
$DIMGAP
 40
2.0
  9
$LUNITS
 70
     2
  9
$LUPREC
 70
     1
  9
$SKETCHINC
 40
0.1
  9
$FILLETRAD
 40
0.0
  9
$AUNITS
 70
     0
  9
$AUPREC
 70
     0
  9
$MENU
  1
acad
  9
$ELEVATION
 40
0.0
  9
$PELEVATION
 40
0.0
  9
$THICKNESS
 40
0.0
  9
$LIMCHECK
 70
     0
  9
$BLIPMODE
 70
     0
  9
$CHAMFERA
 40
0.0
  9
$CHAMFERB
 40
0.0
  9
$SKPOLY
 70
     0
  9
$TDCREATE
 40
2450373.687919
  9
$TDUPDATE
 40
2453038.43513
  9
$TDINDWG
 40
1.15149
  9
$TDUSRTIMER
 40
1.15149
  9
$USRTIMER
 70
     1
  9
$ANGBASE
 50
0.0
  9
$ANGDIR
 70
     0
  9
$PDMODE
 70
    32
  9
$PDSIZE
 40
0.0
  9
$PLINEWID
 40
0.0
  9
$COORDS
 70
     1
  9
$SPLFRAME
 70
     0
  9
$SPLINETYPE
 70
     6
  9
$SPLINESEGS
 70
     8
  9
$ATTDIA
 70
     0
  9
$ATTREQ
 70
     1
  9
$HANDLING
 70
     1
  9
$HANDSEED
  5
DC75
  9
$SURFTAB1
 70
     6
  9
$SURFTAB2
 70
     6
  9
$SURFTYPE
 70
     6
  9
$SURFU
 70
     6
  9
$SURFV
 70
     6
  9
$UCSNAME
  2

  9
$UCSORG
 10
0.0
 20
0.0
 30
0.0
  9
$UCSXDIR
 10
1.0
 20
0.0
 30
0.0
  9
$UCSYDIR
 10
0.0
 20
1.0
 30
0.0
  9
$PUCSNAME
  2

  9
$PUCSORG
 10
0.0
 20
0.0
 30
0.0
  9
$PUCSXDIR
 10
1.0
 20
0.0
 30
0.0
  9
$PUCSYDIR
 10
0.0
 20
1.0
 30
0.0
  9
$USERI1
 70
     0
  9
$USERI2
 70
     0
  9
$USERI3
 70
     0
  9
$USERI4
 70
     0
  9
$USERI5
 70
     0
  9
$USERR1
 40
0.0
  9
$USERR2
 40
0.0
  9
$USERR3
 40
0.0
  9
$USERR4
 40
0.0
  9
$USERR5
 40
0.0
  9
$WORLDVIEW
 70
     1
  9
$SHADEDGE
 70
     3
  9
$SHADEDIF
 70
    70
  9
$TILEMODE
 70
     1
  9
$MAXACTVP
 70
    16
  9
$PLIMCHECK
 70
     0
  9
$PEXTMIN
 10
-1.452248
 20
-0.437698
 30
0.0
  9
$PEXTMAX
 10
12.749749
 20
8.310198
 30
0.0
  9
$PLIMMIN
 10
0.0
 20
0.0
  9
$PLIMMAX
 10
12.0
 20
9.0
  9
$UNITMODE
 70
     0
  9
$VISRETAIN
 70
     0
  9
$PLINEGEN
 70
     0
  9
$PSLTSCALE
 70
     0
  0
ENDSEC
  0
SECTION
  2
TABLES
  0
TABLE
  2
VPORT
 70
     2
  0
VPORT
  2
*ACTIVE
 70
     0
 10
0.0
 20
0.0
 11
1.0
 21
1.0
 12
50.129976
 22
22.883883
 13
0.0
 23
0.0
 14
1.0
 24
1.0
 15
10.0
 25
10.0
 16
0.0
 26
0.0
 36
1.0
 17
0.0
 27
0.0
 37
0.0
 40
51.994753
 41
1.466346
 42
50.0
 43
0.0
 44
0.0
 50
0.0
 51
0.0
 71
     0
 72
   100
 73
     1
 74
     0
 75
     0
 76
     0
 77
     0
 78
     0
  0
ENDTAB
  0
TABLE
  2
LTYPE
 70
     2
  0
LTYPE
  2
CONTINUOUS
 70
     0
  3
Solid line
 72
    65
 73
     0
 40
0.0
  0
LTYPE
  2
AXES2
 70
     0
  3
___ _ ___ _ ___ _ ___ _ ___ _ ___ _ ___ _ ___ _
 72
    65
 73
     4
 40
1.125
 49
0.75
 49
-0.125
 49
0.125
 49
-0.125
  0
ENDTAB
  0
TABLE
  2
LAYER
 70
     5
  0
LAYER
  2
0
 70
     0
 62
   255
  6
CONTINUOUS
  0
LAYER
  2
COTATION1
 70
     0
 62
     2
  6
CONTINUOUS
  0
LAYER
  2
AXE
 70
     0
 62
    80
  6
AXES2
  0
LAYER
  2
DEFPOINTS
 70
     0
 62
     7
  6
CONTINUOUS
  0
LAYER
  2
ALPHA
 70
     0
 62
   254
  6
CONTINUOUS
  0
ENDTAB
  0
TABLE
  2
STYLE
 70
     2
  0
STYLE
  2
ROMANS
 70
     0
 40
0.0
 41
1.0
 50
0.0
 71
     0
 42
6.0
  3
romans
  4

  0
STYLE
  2
STANDARD
 70
     0
 40
0.0
 41
1.0
 50
0.0
 71
     0
 42
0.2
  3
txt
  4

  0
ENDTAB
  0
TABLE
  2
VIEW
 70
     0
  0
ENDTAB
  0
TABLE
  2
UCS
 70
     0
  0
ENDTAB
  0
TABLE
  2
APPID
 70
     1
  0
APPID
  2
ACAD
 70
     0
  0
ENDTAB
  0
TABLE
  2
DIMSTYLE
 70
     2
  0
DIMSTYLE
  2
SC_DEFAUT
 70
     0
  3

  4

  5
OPEN30
  6

  7

 40
1.0
 41
5.0
 42
2.0
 43
0.38
 44
2.5
 45
0.0
 46
0.0
 47
0.0
 48
0.0
140
2.5
141
0.0
142
0.0
143
25.4
144
1.0
145
0.0
146
1.0
147
2.0
 71
     0
 72
     0
 73
     1
 74
     1
 75
     0
 76
     0
 77
     1
 78
    12
170
     0
171
     2
172
     0
173
     0
174
     0
175
     0
176
     0
177
     0
178
     0
  0
DIMSTYLE
  2
STANDARD
 70
     0
  3

  4

  5

  6

  7

 40
1.0
 41
0.18
 42
0.0625
 43
0.38
 44
0.18
 45
0.0
 46
0.0
 47
0.0
 48
0.0
140
0.18
141
0.09
142
0.0
143
25.4
144
1.0
145
0.0
146
1.0
147
0.09
 71
     0
 72
     0
 73
     1
 74
     1
 75
     0
 76
     0
 77
     0
 78
     0
170
     0
171
     2
172
     0
173
     0
174
     0
175
     0
176
     0
177
     0
178
     0
  0
ENDTAB
  0
ENDSEC
  0
SECTION
  2
BLOCKS
  0
BLOCK
  8
0
  2
$MODEL_SPACE
 70
     0
 10
0.0
 20
0.0
 30
0.0
  3
$MODEL_SPACE
  1

  0
ENDBLK
  5
DC44
  8
0
  0
BLOCK
 67
     1
  8
0
  2
$PAPER_SPACE
 70
     0
 10
0.0
 20
0.0
 30
0.0
  3
$PAPER_SPACE
  1

  0
ENDBLK
  5
DC42
 67
     1
  8
0
  0
BLOCK
  8
0
  2
COTE
 70
     0
 10
0.0
 20
0.0
 30
0.0
  3
COTE
  1

  0
ENDBLK
  5
F
  8
0
  0
BLOCK
  8
0
  2
FOND
 70
     0
 10
0.0
 20
0.0
 30
0.0
  3
FOND
  1

  0
ENDBLK
  5
75
  8
0
  0
BLOCK
  8
0
  2
_OPEN30
 70
     0
 10
0.0
 20
0.0
 30
0.0
  3
_OPEN30
  1

  0
LINE
  5
4B05
  8
COTATION1
 62
     0
 10
-1.0
 20
0.267949
 30
0.0
 11
0.0
 21
0.0
 31
0.0
1001
ACAD
1000
RTLwPs
1070
   158
  0
LINE
  5
4B06
  8
COTATION1
 62
     0
 10
0.0
 20
0.0
 30
0.0
 11
-1.0
 21
-0.267949
 31
0.0
1001
ACAD
1000
RTLwPs
1070
   158
  0
LINE
  5
4B07
  8
COTATION1
 62
     0
 10
0.0
 20
0.0
 30
0.0
 11
-1.0
 21
0.0
 31
0.0
1001
ACAD
1000
RTLwPs
1070
   158
  0
ENDBLK
  5
4B09
  8
0
  0
BLOCK
  8
0
  2
*D3
 70
     1
 10
0.0
 20
0.0
 30
0.0
  3
*D3
  1

  0
LINE
  5
D982
  8
COTATION1
 62
     0
 10
22.215015
 20
27.426568
 30
0.0
 11
22.215015
 21
42.926568
 31
0.0
1001
ACAD
1000
RTLwPs
1070
   158
  0
LINE
  5
D983
  8
COTATION1
 62
     0
 10
47.115015
 20
27.426568
 30
0.0
 11
47.115015
 21
42.926568
 31
0.0
1001
ACAD
1000
RTLwPs
1070
   158
  0
LINE
  5
D984
  8
COTATION1
 62
     0
 10
27.215015
 20
40.426568
 30
0.0
 11
42.115015
 21
40.426568
 31
0.0
1001
ACAD
1000
RTLwPs
1070
   158
  0
INSERT
  5
D985
  8
COTATION1
 62
     0
  2
_OPEN30
 10
22.215015
 20
40.426568
 30
0.0
 41
5.0
 42
5.0
 43
5.0
 50
180.0
1001
ACAD
1000
RTLwPs
1070
   158
  0
INSERT
  5
D986
  8
COTATION1
 62
     0
  2
_OPEN30
 10
47.115015
 20
40.426568
 30
0.0
 41
5.0
 42
5.0
 43
5.0
1001
ACAD
1000
RTLwPs
1070
   158
  0
TEXT
  5
D987
  8
COTATION1
 62
     0
 10
30.557872
 20
42.426568
 30
0.0
 40
2.5
  1
24.9
1001
ACAD
1000
MTEXTBEGIN
1070
    73
1070
     1
1070
    44
1040
1.0
1070
    74
1070
     0
1000
MTEXTEND
  0
POINT
  5
D988
  8
DEFPOINTS
 62
     0
 10
22.215015
 20
25.426568
 30
0.0
  0
POINT
  5
D989
  8
DEFPOINTS
 62
     0
 10
47.115015
 20
25.426568
 30
0.0
  0
POINT
  5
D98A
  8
DEFPOINTS
 62
     0
 10
47.115015
 20
40.426568
 30
0.0
  0
ENDBLK
  5
D507
  8
0
  0
BLOCK
  8
0
  2
*D4
 70
     1
 10
0.0
 20
0.0
 30
0.0
  3
*D4
  1

  0
LINE
  5
D98B
  8
COTATION1
 62
     0
 10
49.115015
 20
25.426568
 30
0.0
 11
69.615015
 21
25.426568
 31
0.0
1001
ACAD
1000
RTLwPs
1070
   158
  0
LINE
  5
D98C
  8
COTATION1
 62
     0
 10
47.514988
 20
11.626568
 30
0.0
 11
69.615015
 21
11.626568
 31
0.0
1001
ACAD
1000
RTLwPs
1070
   158
  0
LINE
  5
D98D
  8
COTATION1
 62
     0
 10
67.115015
 20
30.426568
 30
0.0
 11
67.115015
 21
35.426568
 31
0.0
1001
ACAD
1000
RTLwPs
1070
   158
  0
LINE
  5
D98E
  8
COTATION1
 62
     0
 10
67.115015
 20
6.626568
 30
0.0
 11
67.115015
 21
1.626568
 31
0.0
1001
ACAD
1000
RTLwPs
1070
   158
  0
INSERT
  5
D98F
  8
COTATION1
 62
     0
  2
_OPEN30
 10
67.115015
 20
25.426568
 30
0.0
 41
5.0
 42
5.0
 43
5.0
 50
270.0
1001
ACAD
1000
RTLwPs
1070
   158
  0
INSERT
  5
D990
  8
COTATION1
 62
     0
  2
_OPEN30
 10
67.115015
 20
11.626568
 30
0.0
 41
5.0
 42
5.0
 43
5.0
 50
90.0
1001
ACAD
1000
RTLwPs
1070
   158
  0
TEXT
  5
D991
  8
COTATION1
 62
     0
 10
62.769776
 20
17.276568
 30
0.0
 40
2.5
  1
13.8
1001
ACAD
1000
MTEXTBEGIN
1070
    73
1070
     1
1070
    44
1040
1.0
1070
    74
1070
     0
1000
MTEXTEND
  0
POINT
  5
D992
  8
DEFPOINTS
 62
     0
 10
47.115015
 20
25.426568
 30
0.0
  0
POINT
  5
D993
  8
DEFPOINTS
 62
     0
 10
45.514988
 20
11.626568
 30
0.0
  0
POINT
  5
D994
  8
DEFPOINTS
 62
     0
 10
67.115015
 20
11.626568
 30
0.0
  0
ENDBLK
  5
D54C
  8
0
  0
ENDSEC
  0
SECTION
  2
ENTITIES
  0
INSERT
  5
A
  8
0
  2
COTE
 10
0.0
 20
0.0
 30
0.0
  0
INSERT
  5
17
  8
0
  2
COTE
 10
284.010391
 20
6.373258
 30
0.0
  0
INSERT
  5
72
  8
0
  2
FOND
 10
0.0
 20
0.0
 30
0.0
  0
LINE
  5
D4E5
  8
AXE
 10
34.665015
 20
0.840414
 30
0.0
 11
34.665015
 21
30.426568
 31
0.0
  0
TEXT
  5
D4E6
  8
AXE
 10
29.617396
 20
0.840414
 30
0.0
 40
5.0
  1
Y
 72
     2
 11
33.665015
 21
0.840414
 31
0.0
  0
DIMENSION
  5
D4FB
  8
COTATION1
  2
*D3
 10
47.115015
 20
40.426568
 30
0.0
 11
34.665015
 21
43.676568
 31
0.0
 13
22.215015
 23
25.426568
 33
0.0
 14
47.115015
 24
25.426568
 34
0.0
  0
DIMENSION
  5
D53F
  8
COTATION1
  2
*D4
 10
67.115015
 20
11.626568
 30
0.0
 11
67.115015
 21
18.526568
 31
0.0
 13
47.115015
 23
25.426568
 33
0.0
 14
45.514988
 24
11.626568
 34
0.0
 50
90.0
  0
LINE
  5
D563
  8
AXE
 10
52.115015
 20
18.526568
 30
0.0
 11
12.215015
 21
18.526568
 31
0.0
  0
TEXT
  5
D564
  8
AXE
 10
16.262634
 20
19.526568
 30
0.0
 40
5.0
  1
X
 71
     2
 72
     2
 11
12.215015
 21
19.526568
 31
0.0
  0
LINE
  5
D871
  8
ALPHA
 10
22.215015
 20
25.426568
 30
0.0
 11
47.115015
 21
25.426568
 31
0.0
  0
LINE
  5
D928
  8
0
  6
CONTINUOUS
 62
     2
 10
83.013321
 20
20.426568
 30
0.0
 11
83.013321
 21
15.426568
 31
0.0
  0
TEXT
  5
D929
  8
0
  6
CONTINUOUS
 62
     2
 10
79.263321
 20
11.676568
 30
0.0
 40
2.5
  1
ENTRY
 41
0.642857
  7
STANDARD
 72
     5
 11
86.763321
 21
11.676568
 31
0.0
  0
LINE
  5
D92A
  8
0
  6
CONTINUOUS
 62
     2
 10
88.013321
 20
10.426568
 30
0.0
 11
78.013321
 21
10.426568
 31
0.0
  0
LINE
  5
D92B
  8
0
  6
CONTINUOUS
 62
     2
 10
78.013321
 20
15.426568
 30
0.0
 11
88.013321
 21
15.426568
 31
0.0
  0
LINE
  5
D92C
  8
0
  6
CONTINUOUS
 62
     2
 10
78.013321
 20
10.426568
 30
0.0
 11
78.013321
 21
15.426568
 31
0.0
  0
LINE
  5
D92D
  8
0
  6
CONTINUOUS
 62
     2
 10
88.013321
 20
15.426568
 30
0.0
 11
88.013321
 21
10.426568
 31
0.0
  0
LINE
  5
D92E
  8
0
  6
CONTINUOUS
 62
     2
 10
47.115015
 20
22.926568
 30
0.0
 11
87.256299
 21
22.926568
 31
0.0
  0
SOLID
  5
D92F
  8
0
  6
CONTINUOUS
 62
     2
 10
81.569945
 20
22.926568
 30
0.0
 11
84.456696
 21
22.926568
 31
0.0
 12
83.013321
 22
20.426568
 32
0.0
 13
83.013321
 23
20.426568
 33
0.0
  0
LINE
  5
DA86
  8
ALPHA
 10
22.215015
 20
25.426568
 30
0.0
 11
47.115015
 21
25.426568
 31
0.0
  0
LINE
  5
DA87
  8
ALPHA
 10
47.115015
 20
22.926568
 30
0.0
 11
22.215015
 21
22.926568
 31
0.0
  0
LINE
  5
DA88
  8
ALPHA
 10
23.365015
 20
22.097848
 30
0.0
 11
45.965015
 21
22.097848
 31
0.0
  0
LINE
  5
DA89
  8
ALPHA
 10
22.565015
 20
21.426568
 30
0.0
 11
46.765015
 21
21.426568
 31
0.0
  0
LINE
  5
DA8A
  8
ALPHA
 10
23.365015
 20
20.755288
 30
0.0
 11
45.965015
 21
20.755288
 31
0.0
  0
LINE
  5
DA8B
  8
ALPHA
 10
23.365015
 20
19.926568
 30
0.0
 11
45.965015
 21
19.926568
 31
0.0
  0
LINE
  5
DA8C
  8
ALPHA
 10
23.415175
 20
19.626568
 30
0.0
 11
45.914854
 21
19.626568
 31
0.0
  0
LINE
  5
DA8D
  8
ALPHA
 10
34.962123
 20
19.609411
 30
0.0
 11
39.461732
 21
19.609411
 31
0.0
  0
LINE
  5
DA8E
  8
ALPHA
 10
34.962123
 20
17.482502
 30
0.0
 11
39.461732
 21
17.482502
 31
0.0
  0
LINE
  5
DA8F
  8
ALPHA
 10
45.996566
 20
17.435715
 30
0.0
 11
23.333463
 21
17.435715
 31
0.0
  0
LINE
  5
DA90
  8
ALPHA
 10
23.892198
 20
16.052797
 30
0.0
 11
45.437831
 21
16.052797
 31
0.0
  0
LINE
  5
DA91
  8
ALPHA
 10
23.965015
 20
15.67819
 30
0.0
 11
45.365015
 21
15.67819
 31
0.0
  0
LINE
  5
DA92
  8
ALPHA
 10
45.365015
 20
12.926568
 30
0.0
 11
23.965015
 21
12.926568
 31
0.0
  0
LINE
  5
DA93
  8
ALPHA
 10
23.815015
 20
12.426568
 30
0.0
 11
45.515015
 21
12.426568
 31
0.0
  0
LINE
  5
DA94
  8
ALPHA
 10
23.815041
 20
11.626568
 30
0.0
 11
45.514988
 21
11.626568
 31
0.0
  0
LINE
  5
DA9F
  8
ALPHA
 10
23.115015
 20
19.326568
 30
0.0
 11
29.783774
 21
19.326568
 31
0.0
  0
LINE
  5
DAA0
  8
ALPHA
 10
29.783774
 20
18.559535
 30
0.0
 11
23.115015
 21
18.559535
 31
0.0
  0
ARC
  5
DAA1
  8
ALPHA
 10
26.115015
 20
18.559535
 30
0.0
 40
3.0
 50
180.0
 51
202.0
  0
LINE
  5
DAA2
  8
ALPHA
 10
23.815015
 20
12.426568
 30
0.0
 11
23.815015
 21
11.626568
 31
0.0
  0
ARC
  5
DAA3
  8
ALPHA
 10
22.965015
 20
15.67819
 30
0.0
 40
1.0
 50
0.0
 51
22.0
  0
ARC
  5
DAA4
  8
ALPHA
 10
24.315015
 20
12.426568
 30
0.0
 40
0.5
 50
90.0
 51
180.0
  0
LINE
  5
DAA5
  8
ALPHA
 10
23.892198
 20
16.052797
 30
0.0
 11
23.333463
 21
17.435715
 31
0.0
  0
LINE
  5
DAA6
  8
ALPHA
 10
23.965015
 20
12.926568
 30
0.0
 11
23.965015
 21
15.67819
 31
0.0
  0
LINE
  5
DAA7
  8
ALPHA
 10
22.565015
 20
21.426568
 30
0.0
 11
23.365015
 21
20.755288
 31
0.0
  0
LINE
  5
DAA8
  8
ALPHA
 10
23.365015
 20
22.097848
 30
0.0
 11
22.565015
 21
21.426568
 31
0.0
  0
LINE
  5
DAA9
  8
ALPHA
 10
22.663283
 20
25.426568
 30
0.0
 11
22.663283
 21
22.926568
 31
0.0
  0
LINE
  5
DAAA
  8
ALPHA
 10
22.215015
 20
25.426568
 30
0.0
 11
22.215015
 21
22.926568
 31
0.0
  0
ARC
  5
DAAB
  8
ALPHA
 10
24.465015
 20
20.026568
 30
0.0
 40
0.4
 50
270.0
 51
345.437694
  0
ARC
  5
DAAC
  8
ALPHA
 10
23.415015
 20
19.326568
 30
0.0
 40
0.3
 50
90.0
 51
180.0
  0
LINE
  5
DAAD
  8
ALPHA
 10
23.365015
 20
20.755288
 30
0.0
 11
23.365015
 21
19.926568
 31
0.0
  0
LINE
  5
DAAE
  8
ALPHA
 10
23.365015
 20
22.926568
 30
0.0
 11
23.365015
 21
22.097848
 31
0.0
  0
LINE
  5
DAAF
  8
ALPHA
 10
23.115015
 20
18.559535
 30
0.0
 11
23.115015
 21
19.326568
 31
0.0
  0
POLYLINE
  5
DAB0
  8
ALPHA
 66
     1
 10
0.0
 20
0.0
 30
0.0
  0
VERTEX
  5
DC4A
  8
ALPHA
 10
34.962123
 20
17.482502
 30
0.0
  0
VERTEX
  5
DC4B
  8
ALPHA
 10
34.965016
 20
17.832223
 30
0.0
  0
VERTEX
  5
DC4C
  8
ALPHA
 10
34.96677
 20
18.193125
 30
0.0
  0
VERTEX
  5
DC4D
  8
ALPHA
 10
34.967358
 20
18.559535
 30
0.0
  0
SEQEND
  5
DC4E
  8
ALPHA
  0
POLYLINE
  5
DAB1
  8
ALPHA
 66
     1
 10
0.0
 20
0.0
 30
0.0
  0
VERTEX
  5
DC4F
  8
ALPHA
 10
34.367906
 20
17.482502
 30
0.0
  0
VERTEX
  5
DC50
  8
ALPHA
 10
34.365014
 20
17.832223
 30
0.0
  0
VERTEX
  5
DC51
  8
ALPHA
 10
34.363259
 20
18.193125
 30
0.0
  0
SEQEND
  5
DC52
  8
ALPHA
  0
LINE
  5
DAB2
  8
ALPHA
 10
32.70189
 20
17.894653
 30
0.0
 11
32.763765
 21
17.971249
 31
0.0
  0
LINE
  5
DAB3
  8
ALPHA
 10
32.928765
 20
18.047844
 30
0.0
 11
32.887515
 21
17.894653
 31
0.0
  0
LINE
  5
DAB4
  8
ALPHA
 10
33.23814
 20
18.469121
 30
0.0
 11
33.23814
 21
17.856355
 31
0.0
  0
LINE
  5
DAB5
  8
ALPHA
 10
33.11439
 20
17.626568
 30
0.0
 11
33.11439
 21
19.426568
 31
0.0
  0
LINE
  5
DAB6
  8
ALPHA
 10
31.75314
 20
17.894653
 30
0.0
 11
31.815015
 21
17.971249
 31
0.0
  0
LINE
  5
DAB7
  8
ALPHA
 10
31.95939
 20
18.086142
 30
0.0
 11
31.938765
 21
17.894653
 31
0.0
  0
LINE
  5
DAB8
  8
ALPHA
 10
32.24814
 20
19.19678
 30
0.0
 11
32.24814
 21
17.856355
 31
0.0
  0
LINE
  5
DAB9
  8
ALPHA
 10
32.124389
 20
17.626568
 30
0.0
 11
32.124389
 21
19.426568
 31
0.0
  0
LINE
  5
DABA
  8
ALPHA
 10
31.21689
 20
17.894653
 30
0.0
 11
31.175639
 21
18.047844
 31
0.0
  0
LINE
  5
DABB
  8
ALPHA
 10
31.34064
 20
17.971249
 30
0.0
 11
31.402515
 21
17.894653
 31
0.0
  0
LINE
  5
DABC
  8
ALPHA
 10
30.165015
 20
17.932951
 30
0.0
 11
30.88689
 21
19.235079
 31
0.0
  0
LINE
  5
DABD
  8
ALPHA
 10
30.990015
 20
19.158483
 30
0.0
 11
30.288765
 21
17.856355
 31
0.0
  0
POLYLINE
  5
DABE
  8
ALPHA
 66
     1
 10
0.0
 20
0.0
 30
0.0
  0
VERTEX
  5
DC53
  8
ALPHA
 10
29.868297
 20
17.482502
 30
0.0
  0
VERTEX
  5
DC54
  8
ALPHA
 10
29.821598
 20
17.832223
 30
0.0
  0
VERTEX
  5
DC55
  8
ALPHA
 10
29.793266
 20
18.193125
 30
0.0
  0
VERTEX
  5
DC56
  8
ALPHA
 10
29.783774
 20
18.559535
 30
0.0
  0
SEQEND
  5
DC57
  8
ALPHA
  0
LINE
  5
DABF
  8
ALPHA
 10
29.868297
 20
19.609411
 30
0.0
 11
29.868297
 21
17.482502
 31
0.0
  0
LINE
  5
DAC0
  8
ALPHA
 10
30.288765
 20
17.856355
 30
0.0
 11
30.990015
 21
17.856355
 31
0.0
  0
LINE
  5
DAC1
  8
ALPHA
 10
30.990015
 20
17.626568
 30
0.0
 11
30.165015
 21
17.626568
 31
0.0
  0
LINE
  5
DAC2
  8
ALPHA
 10
29.868297
 20
17.482502
 30
0.0
 11
34.367906
 21
17.482502
 31
0.0
  0
LINE
  5
DAC3
  8
ALPHA
 10
30.165015
 20
17.626568
 30
0.0
 11
30.165015
 21
17.932951
 31
0.0
  0
LINE
  5
DAC4
  8
ALPHA
 10
32.722515
 20
17.664866
 30
0.0
 11
32.61939
 21
17.626568
 31
0.0
  0
LINE
  5
DAC5
  8
ALPHA
 10
32.24814
 20
17.856355
 30
0.0
 11
32.61939
 21
17.856355
 31
0.0
  0
LINE
  5
DAC6
  8
ALPHA
 10
31.485014
 20
17.856355
 30
0.0
 11
31.67064
 21
17.856355
 31
0.0
  0
LINE
  5
DAC7
  8
ALPHA
 10
31.773765
 20
17.664866
 30
0.0
 11
31.67064
 21
17.626568
 31
0.0
  0
LINE
  5
DAC8
  8
ALPHA
 10
32.61939
 20
17.856355
 30
0.0
 11
32.70189
 21
17.894653
 31
0.0
  0
LINE
  5
DAC9
  8
ALPHA
 10
31.67064
 20
17.856355
 30
0.0
 11
31.75314
 21
17.894653
 31
0.0
  0
LINE
  5
DACA
  8
ALPHA
 10
32.805015
 20
17.741461
 30
0.0
 11
32.722515
 21
17.664866
 31
0.0
  0
LINE
  5
DACB
  8
ALPHA
 10
31.67064
 20
17.626568
 30
0.0
 11
31.485015
 21
17.626568
 31
0.0
  0
LINE
  5
DACC
  8
ALPHA
 10
32.61939
 20
17.626568
 30
0.0
 11
32.124389
 21
17.626568
 31
0.0
  0
LINE
  5
DACD
  8
ALPHA
 10
31.856265
 20
17.741461
 30
0.0
 11
31.773765
 21
17.664866
 31
0.0
  0
LINE
  5
DACE
  8
ALPHA
 10
32.887515
 20
17.894653
 30
0.0
 11
32.805015
 21
17.741461
 31
0.0
  0
LINE
  5
DACF
  8
ALPHA
 10
31.402515
 20
17.894653
 30
0.0
 11
31.485015
 21
17.856355
 31
0.0
  0
LINE
  5
DAD0
  8
ALPHA
 10
31.485015
 20
17.626568
 30
0.0
 11
31.38189
 21
17.664866
 31
0.0
  0
LINE
  5
DAD1
  8
ALPHA
 10
31.938765
 20
17.894653
 30
0.0
 11
31.856265
 21
17.741461
 31
0.0
  0
LINE
  5
DAD2
  8
ALPHA
 10
31.29939
 20
17.741461
 30
0.0
 11
31.21689
 21
17.894653
 31
0.0
  0
LINE
  5
DAD3
  8
ALPHA
 10
31.38189
 20
17.664866
 30
0.0
 11
31.29939
 21
17.741461
 31
0.0
  0
LINE
  5
DAD4
  8
ALPHA
 10
30.990015
 20
17.856355
 30
0.0
 11
30.990015
 21
17.626568
 31
0.0
  0
LINE
  5
DAD5
  8
ALPHA
 10
33.23814
 20
17.856355
 30
0.0
 11
33.85689
 21
17.856355
 31
0.0
  0
LINE
  5
DAD6
  8
ALPHA
 10
33.85689
 20
17.856355
 30
0.0
 11
33.85689
 21
17.626568
 31
0.0
  0
LINE
  5
DAD7
  8
ALPHA
 10
33.85689
 20
17.626568
 30
0.0
 11
33.11439
 21
17.626568
 31
0.0
  0
LINE
  5
DAD8
  8
ALPHA
 10
29.868297
 20
19.609411
 30
0.0
 11
34.367906
 21
19.609411
 31
0.0
  0
LINE
  5
DAD9
  8
ALPHA
 10
30.165015
 20
19.426568
 30
0.0
 11
30.990015
 21
19.426568
 31
0.0
  0
LINE
  5
DADA
  8
ALPHA
 10
30.88689
 20
19.235079
 30
0.0
 11
30.165015
 21
19.235079
 31
0.0
  0
LINE
  5
DADB
  8
ALPHA
 10
30.165015
 20
19.235079
 30
0.0
 11
30.165015
 21
19.426568
 31
0.0
  0
POLYLINE
  5
DADC
  8
ALPHA
 66
     1
 10
0.0
 20
0.0
 30
0.0
  0
VERTEX
  5
DC58
  8
ALPHA
 10
29.783774
 20
19.326568
 30
0.0
  0
VERTEX
  5
DC59
  8
ALPHA
 10
29.789731
 20
19.417447
 30
0.0
  0
VERTEX
  5
DC5A
  8
ALPHA
 10
29.807041
 20
19.499779
 30
0.0
  0
VERTEX
  5
DC5B
  8
ALPHA
 10
29.834077
 20
19.565835
 30
0.0
  0
VERTEX
  5
DC5C
  8
ALPHA
 10
29.868297
 20
19.609411
 30
0.0
  0
SEQEND
  5
DC5D
  8
ALPHA
  0
LINE
  5
DADD
  8
ALPHA
 10
29.783774
 20
18.559535
 30
0.0
 11
29.783774
 21
19.326568
 31
0.0
  0
LINE
  5
DADE
  8
ALPHA
 10
32.61939
 20
19.426568
 30
0.0
 11
32.722515
 21
19.38827
 31
0.0
  0
LINE
  5
DADF
  8
ALPHA
 10
32.124389
 20
19.426568
 30
0.0
 11
32.61939
 21
19.426568
 31
0.0
  0
LINE
  5
DAE0
  8
ALPHA
 10
31.485014
 20
19.426568
 30
0.0
 11
31.67064
 21
19.426568
 31
0.0
  0
LINE
  5
DAE1
  8
ALPHA
 10
31.67064
 20
19.19678
 30
0.0
 11
31.485015
 21
19.19678
 31
0.0
  0
LINE
  5
DAE2
  8
ALPHA
 10
32.61939
 20
19.19678
 30
0.0
 11
32.24814
 21
19.19678
 31
0.0
  0
LINE
  5
DAE3
  8
ALPHA
 10
31.959389
 20
18.966993
 30
0.0
 11
31.83564
 21
18.966993
 31
0.0
  0
LINE
  5
DAE4
  8
ALPHA
 10
32.722515
 20
19.38827
 30
0.0
 11
32.805015
 21
19.311674
 31
0.0
  0
LINE
  5
DAE5
  8
ALPHA
 10
32.70189
 20
19.158483
 30
0.0
 11
32.61939
 21
19.19678
 31
0.0
  0
LINE
  5
DAE6
  8
ALPHA
 10
31.75314
 20
19.158483
 30
0.0
 11
31.67064
 21
19.19678
 31
0.0
  0
LINE
  5
DAE7
  8
ALPHA
 10
31.67064
 20
19.426568
 30
0.0
 11
31.773765
 21
19.38827
 31
0.0
  0
LINE
  5
DAE8
  8
ALPHA
 10
31.835639
 20
18.086142
 30
0.0
 11
31.959389
 21
18.086142
 31
0.0
  0
LINE
  5
DAE9
  8
ALPHA
 10
32.887515
 20
19.158483
 30
0.0
 11
32.928765
 21
19.005291
 31
0.0
  0
LINE
  5
DAEA
  8
ALPHA
 10
32.805015
 20
18.966993
 30
0.0
 11
32.763765
 21
19.081887
 31
0.0
  0
LINE
  5
DAEB
  8
ALPHA
 10
32.805015
 20
19.311674
 30
0.0
 11
32.887515
 21
19.158483
 31
0.0
  0
LINE
  5
DAEC
  8
ALPHA
 10
32.763765
 20
19.081887
 30
0.0
 11
32.70189
 21
19.158483
 31
0.0
  0
LINE
  5
DAED
  8
ALPHA
 10
31.773765
 20
19.38827
 30
0.0
 11
31.856265
 21
19.311674
 31
0.0
  0
LINE
  5
DAEE
  8
ALPHA
 10
32.763765
 20
17.971249
 30
0.0
 11
32.805015
 21
18.086142
 31
0.0
  0
LINE
  5
DAEF
  8
ALPHA
 10
32.94939
 20
18.239334
 30
0.0
 11
32.928765
 21
18.047844
 31
0.0
  0
LINE
  5
DAF0
  8
ALPHA
 10
32.94939
 20
18.813802
 30
0.0
 11
32.94939
 21
18.239334
 31
0.0
  0
LINE
  5
DAF1
  8
ALPHA
 10
32.928765
 20
19.005291
 30
0.0
 11
32.94939
 21
18.813802
 31
0.0
  0
LINE
  5
DAF2
  8
ALPHA
 10
32.82564
 20
18.813802
 30
0.0
 11
32.805015
 21
18.966993
 31
0.0
  0
LINE
  5
DAF3
  8
ALPHA
 10
31.83564
 20
18.966993
 30
0.0
 11
31.815015
 21
19.081887
 31
0.0
  0
LINE
  5
DAF4
  8
ALPHA
 10
31.856265
 20
19.311674
 30
0.0
 11
31.938765
 21
19.158483
 31
0.0
  0
LINE
  5
DAF5
  8
ALPHA
 10
31.815015
 20
19.081887
 30
0.0
 11
31.75314
 21
19.158483
 31
0.0
  0
LINE
  5
DAF6
  8
ALPHA
 10
31.38189
 20
19.38827
 30
0.0
 11
31.485015
 21
19.426568
 31
0.0
  0
LINE
  5
DAF7
  8
ALPHA
 10
31.485015
 20
19.19678
 30
0.0
 11
31.402515
 21
19.158483
 31
0.0
  0
LINE
  5
DAF8
  8
ALPHA
 10
31.815015
 20
17.971249
 30
0.0
 11
31.83564
 21
18.086142
 31
0.0
  0
LINE
  5
DAF9
  8
ALPHA
 10
32.805015
 20
18.086142
 30
0.0
 11
32.82564
 21
18.239334
 31
0.0
  0
LINE
  5
DAFA
  8
ALPHA
 10
32.82564
 20
18.239334
 30
0.0
 11
32.82564
 21
18.813802
 31
0.0
  0
LINE
  5
DAFB
  8
ALPHA
 10
31.938765
 20
19.158483
 30
0.0
 11
31.95939
 21
18.966993
 31
0.0
  0
LINE
  5
DAFC
  8
ALPHA
 10
31.278765
 20
18.239334
 30
0.0
 11
31.29939
 21
18.086142
 31
0.0
  0
LINE
  5
DAFD
  8
ALPHA
 10
31.29939
 20
18.086142
 30
0.0
 11
31.34064
 21
17.971249
 31
0.0
  0
LINE
  5
DAFE
  8
ALPHA
 10
31.29939
 20
19.311674
 30
0.0
 11
31.38189
 21
19.38827
 31
0.0
  0
LINE
  5
DAFF
  8
ALPHA
 10
31.402515
 20
19.158483
 30
0.0
 11
31.34064
 21
19.081887
 31
0.0
  0
LINE
  5
DB00
  8
ALPHA
 10
31.21689
 20
19.158483
 30
0.0
 11
31.29939
 21
19.311674
 31
0.0
  0
LINE
  5
DB01
  8
ALPHA
 10
31.34064
 20
19.081887
 30
0.0
 11
31.29939
 21
18.966993
 31
0.0
  0
LINE
  5
DB02
  8
ALPHA
 10
31.175639
 20
19.005291
 30
0.0
 11
31.21689
 21
19.158483
 31
0.0
  0
LINE
  5
DB03
  8
ALPHA
 10
31.29939
 20
18.966993
 30
0.0
 11
31.278765
 21
18.813802
 31
0.0
  0
LINE
  5
DB04
  8
ALPHA
 10
31.155015
 20
18.813802
 30
0.0
 11
31.175639
 21
19.005291
 31
0.0
  0
LINE
  5
DB05
  8
ALPHA
 10
31.278765
 20
18.813802
 30
0.0
 11
31.278765
 21
18.239334
 31
0.0
  0
LINE
  5
DB06
  8
ALPHA
 10
31.155015
 20
18.239334
 30
0.0
 11
31.155015
 21
18.813802
 31
0.0
  0
LINE
  5
DB07
  8
ALPHA
 10
31.175639
 20
18.047844
 30
0.0
 11
31.155015
 21
18.239334
 31
0.0
  0
LINE
  5
DB08
  8
ALPHA
 10
30.990015
 20
19.426568
 30
0.0
 11
30.990015
 21
19.158483
 31
0.0
  0
LINE
  5
DB09
  8
ALPHA
 10
33.11439
 20
19.426568
 30
0.0
 11
33.856889
 21
19.426568
 31
0.0
  0
LINE
  5
DB0A
  8
ALPHA
 10
34.967358
 20
19.326568
 30
0.0
 11
34.362671
 21
19.326568
 31
0.0
  0
LINE
  5
DB0B
  8
ALPHA
 10
33.85689
 20
19.19678
 30
0.0
 11
33.23814
 21
19.19678
 31
0.0
  0
LINE
  5
DB0C
  8
ALPHA
 10
33.23814
 20
18.698908
 30
0.0
 11
33.77439
 21
18.698908
 31
0.0
  0
LINE
  5
DB0D
  8
ALPHA
 10
34.967358
 20
18.559535
 30
0.0
 11
34.966984
 21
19.418123
 31
0.0
  0
POLYLINE
  5
DB0E
  8
ALPHA
 66
     1
 10
0.0
 20
0.0
 30
0.0
  0
VERTEX
  5
DC5E
  8
ALPHA
 10
34.966984
 20
19.418123
 30
0.0
  0
VERTEX
  5
DC5F
  8
ALPHA
 10
34.965913
 20
19.500024
 30
0.0
  0
VERTEX
  5
DC60
  8
ALPHA
 10
34.964241
 20
19.565892
 30
0.0
  0
VERTEX
  5
DC61
  8
ALPHA
 10
34.962123
 20
19.609411
 30
0.0
  0
SEQEND
  5
DC62
  8
ALPHA
  0
LINE
  5
DB0F
  8
ALPHA
 10
34.967358
 20
18.559535
 30
0.0
 11
34.362671
 21
18.559535
 31
0.0
  0
LINE
  5
DB10
  8
ALPHA
 10
33.77439
 20
18.469121
 30
0.0
 11
33.23814
 21
18.469121
 31
0.0
  0
POLYLINE
  5
DB11
  8
ALPHA
 66
     1
 10
0.0
 20
0.0
 30
0.0
  0
VERTEX
  5
DC63
  8
ALPHA
 10
34.362671
 20
19.326568
 30
0.0
  0
VERTEX
  5
DC64
  8
ALPHA
 10
34.363045
 20
19.418123
 30
0.0
  0
VERTEX
  5
DC65
  8
ALPHA
 10
34.364117
 20
19.500024
 30
0.0
  0
VERTEX
  5
DC66
  8
ALPHA
 10
34.365789
 20
19.565892
 30
0.0
  0
VERTEX
  5
DC67
  8
ALPHA
 10
34.367906
 20
19.609411
 30
0.0
  0
SEQEND
  5
DC68
  8
ALPHA
  0
LINE
  5
DB12
  8
ALPHA
 10
34.363259
 20
18.193125
 30
0.0
 11
34.362671
 21
19.326568
 31
0.0
  0
LINE
  5
DB13
  8
ALPHA
 10
33.85689
 20
19.426568
 30
0.0
 11
33.85689
 21
19.19678
 31
0.0
  0
LINE
  5
DB14
  8
ALPHA
 10
33.77439
 20
18.698908
 30
0.0
 11
33.77439
 21
18.469121
 31
0.0
  0
LINE
  5
DB15
  8
ALPHA
 10
33.23814
 20
19.19678
 30
0.0
 11
33.23814
 21
18.698908
 31
0.0
  0
LINE
  5
DB18
  8
ALPHA
 10
39.546256
 20
19.326568
 30
0.0
 11
46.215015
 21
19.326568
 31
0.0
  0
LINE
  5
DB19
  8
ALPHA
 10
46.215015
 20
18.559535
 30
0.0
 11
39.546256
 21
18.559535
 31
0.0
  0
POLYLINE
  5
DB1A
  8
ALPHA
 66
     1
 10
0.0
 20
0.0
 30
0.0
  0
VERTEX
  5
DC69
  8
ALPHA
 10
39.461732
 20
17.482502
 30
0.0
  0
VERTEX
  5
DC6A
  8
ALPHA
 10
39.508432
 20
17.832223
 30
0.0
  0
VERTEX
  5
DC6B
  8
ALPHA
 10
39.536763
 20
18.193125
 30
0.0
  0
VERTEX
  5
DC6C
  8
ALPHA
 10
39.546256
 20
18.559535
 30
0.0
  0
SEQEND
  5
DC6D
  8
ALPHA
  0
LINE
  5
DB1B
  8
ALPHA
 10
39.461732
 20
19.609411
 30
0.0
 11
39.461732
 21
17.482502
 31
0.0
  0
LINE
  5
DB1C
  8
ALPHA
 10
38.456265
 20
18.545717
 30
0.0
 11
38.806889
 21
17.626568
 31
0.0
  0
LINE
  5
DB1D
  8
ALPHA
 10
38.68314
 20
17.626568
 30
0.0
 11
38.394389
 21
18.354228
 31
0.0
  0
LINE
  5
DB1E
  8
ALPHA
 10
38.394389
 20
18.354228
 30
0.0
 11
38.10564
 21
17.626568
 31
0.0
  0
LINE
  5
DB1F
  8
ALPHA
 10
37.98189
 20
17.626568
 30
0.0
 11
38.332515
 21
18.545717
 31
0.0
  0
LINE
  5
DB20
  8
ALPHA
 10
37.466265
 20
18.545717
 30
0.0
 11
37.81689
 21
17.626568
 31
0.0
  0
LINE
  5
DB21
  8
ALPHA
 10
37.69314
 20
17.626568
 30
0.0
 11
37.40439
 21
18.354228
 31
0.0
  0
LINE
  5
DB22
  8
ALPHA
 10
37.40439
 20
18.354228
 30
0.0
 11
37.11564
 21
17.626568
 31
0.0
  0
LINE
  5
DB23
  8
ALPHA
 10
36.99189
 20
17.626568
 30
0.0
 11
37.342515
 21
18.545717
 31
0.0
  0
LINE
  5
DB24
  8
ALPHA
 10
36.476265
 20
18.545717
 30
0.0
 11
36.82689
 21
17.626568
 31
0.0
  0
LINE
  5
DB25
  8
ALPHA
 10
36.70314
 20
17.626568
 30
0.0
 11
36.41439
 21
18.354228
 31
0.0
  0
LINE
  5
DB26
  8
ALPHA
 10
36.41439
 20
18.354228
 30
0.0
 11
36.12564
 21
17.626568
 31
0.0
  0
LINE
  5
DB27
  8
ALPHA
 10
36.00189
 20
17.626568
 30
0.0
 11
36.352515
 21
18.545717
 31
0.0
  0
LINE
  5
DB28
  8
ALPHA
 10
36.12564
 20
17.626568
 30
0.0
 11
36.001889
 21
17.626568
 31
0.0
  0
LINE
  5
DB29
  8
ALPHA
 10
36.82689
 20
17.626568
 30
0.0
 11
36.70314
 21
17.626568
 31
0.0
  0
LINE
  5
DB2A
  8
ALPHA
 10
37.115639
 20
17.626568
 30
0.0
 11
36.991889
 21
17.626568
 31
0.0
  0
LINE
  5
DB2B
  8
ALPHA
 10
37.81689
 20
17.626568
 30
0.0
 11
37.69314
 21
17.626568
 31
0.0
  0
LINE
  5
DB2C
  8
ALPHA
 10
38.105639
 20
17.626568
 30
0.0
 11
37.981889
 21
17.626568
 31
0.0
  0
LINE
  5
DB2D
  8
ALPHA
 10
38.80689
 20
17.626568
 30
0.0
 11
38.68314
 21
17.626568
 31
0.0
  0
LINE
  5
DB2E
  8
ALPHA
 10
37.11564
 20
19.426568
 30
0.0
 11
37.40439
 21
18.698908
 31
0.0
  0
LINE
  5
DB2F
  8
ALPHA
 10
37.342515
 20
18.545717
 30
0.0
 11
36.99189
 21
19.426568
 31
0.0
  0
LINE
  5
DB30
  8
ALPHA
 10
36.12564
 20
19.426568
 30
0.0
 11
36.41439
 21
18.698908
 31
0.0
  0
LINE
  5
DB31
  8
ALPHA
 10
36.352515
 20
18.545717
 30
0.0
 11
36.00189
 21
19.426568
 31
0.0
  0
LINE
  5
DB32
  8
ALPHA
 10
36.82689
 20
19.426568
 30
0.0
 11
36.476265
 21
18.545717
 31
0.0
  0
LINE
  5
DB33
  8
ALPHA
 10
36.41439
 20
18.698908
 30
0.0
 11
36.70314
 21
19.426568
 31
0.0
  0
LINE
  5
DB34
  8
ALPHA
 10
36.991889
 20
19.426568
 30
0.0
 11
37.115639
 21
19.426568
 31
0.0
  0
LINE
  5
DB35
  8
ALPHA
 10
36.70314
 20
19.426568
 30
0.0
 11
36.82689
 21
19.426568
 31
0.0
  0
LINE
  5
DB36
  8
ALPHA
 10
36.00189
 20
19.426568
 30
0.0
 11
36.12564
 21
19.426568
 31
0.0
  0
LINE
  5
DB37
  8
ALPHA
 10
38.10564
 20
19.426568
 30
0.0
 11
38.394389
 21
18.698908
 31
0.0
  0
LINE
  5
DB38
  8
ALPHA
 10
38.332515
 20
18.545717
 30
0.0
 11
37.98189
 21
19.426568
 31
0.0
  0
LINE
  5
DB39
  8
ALPHA
 10
38.806889
 20
19.426568
 30
0.0
 11
38.456265
 21
18.545717
 31
0.0
  0
LINE
  5
DB3A
  8
ALPHA
 10
38.394389
 20
18.698908
 30
0.0
 11
38.68314
 21
19.426568
 31
0.0
  0
LINE
  5
DB3B
  8
ALPHA
 10
37.81689
 20
19.426568
 30
0.0
 11
37.466265
 21
18.545717
 31
0.0
  0
LINE
  5
DB3C
  8
ALPHA
 10
37.40439
 20
18.698908
 30
0.0
 11
37.69314
 21
19.426568
 31
0.0
  0
LINE
  5
DB3D
  8
ALPHA
 10
38.68314
 20
19.426568
 30
0.0
 11
38.806889
 21
19.426568
 31
0.0
  0
LINE
  5
DB3E
  8
ALPHA
 10
37.98189
 20
19.426568
 30
0.0
 11
38.10564
 21
19.426568
 31
0.0
  0
LINE
  5
DB3F
  8
ALPHA
 10
37.69314
 20
19.426568
 30
0.0
 11
37.81689
 21
19.426568
 31
0.0
  0
LINE
  5
DB40
  8
ALPHA
 10
39.546256
 20
18.559535
 30
0.0
 11
39.546256
 21
19.326568
 31
0.0
  0
POLYLINE
  5
DB41
  8
ALPHA
 66
     1
 10
0.0
 20
0.0
 30
0.0
  0
VERTEX
  5
DC6E
  8
ALPHA
 10
39.546256
 20
19.326568
 30
0.0
  0
VERTEX
  5
DC6F
  8
ALPHA
 10
39.540298
 20
19.417447
 30
0.0
  0
VERTEX
  5
DC70
  8
ALPHA
 10
39.522988
 20
19.499779
 30
0.0
  0
VERTEX
  5
DC71
  8
ALPHA
 10
39.495952
 20
19.565835
 30
0.0
  0
VERTEX
  5
DC72
  8
ALPHA
 10
39.461732
 20
19.609411
 30
0.0
  0
SEQEND
  5
DC73
  8
ALPHA
  0
ARC
  5
DB42
  8
ALPHA
 10
43.215015
 20
18.559535
 30
0.0
 40
3.0
 50
338.0
 51
0.0
  0
LINE
  5
DB43
  8
ALPHA
 10
45.515015
 20
12.426568
 30
0.0
 11
45.515015
 21
11.626568
 31
0.0
  0
ARC
  5
DB44
  8
ALPHA
 10
45.015015
 20
12.426568
 30
0.0
 40
0.5
 50
0.0
 51
90.0
  0
ARC
  5
DB45
  8
ALPHA
 10
46.365015
 20
15.67819
 30
0.0
 40
1.0
 50
158.0
 51
180.0
  0
LINE
  5
DB46
  8
ALPHA
 10
45.437831
 20
16.052797
 30
0.0
 11
45.996566
 21
17.435715
 31
0.0
  0
LINE
  5
DB47
  8
ALPHA
 10
45.365015
 20
12.926568
 30
0.0
 11
45.365015
 21
15.67819
 31
0.0
  0
LINE
  5
DB48
  8
ALPHA
 10
47.115015
 20
22.926568
 30
0.0
 11
47.115015
 21
25.426568
 31
0.0
  0
LINE
  5
DB49
  8
ALPHA
 10
46.666746
 20
22.926568
 30
0.0
 11
46.666746
 21
25.426568
 31
0.0
  0
ARC
  5
DB4A
  8
ALPHA
 10
44.865015
 20
20.026568
 30
0.0
 40
0.4
 50
194.562306
 51
270.0
  0
ARC
  5
DB4B
  8
ALPHA
 10
45.915015
 20
19.326568
 30
0.0
 40
0.3
 50
0.0
 51
90.0
  0
LINE
  5
DB4C
  8
ALPHA
 10
46.215015
 20
18.559535
 30
0.0
 11
46.215015
 21
19.326568
 31
0.0
  0
LINE
  5
DB4D
  8
ALPHA
 10
45.965015
 20
20.755288
 30
0.0
 11
45.965015
 21
19.926568
 31
0.0
  0
LINE
  5
DB4E
  8
ALPHA
 10
45.965015
 20
22.926568
 30
0.0
 11
45.965015
 21
22.097848
 31
0.0
  0
LINE
  5
DB4F
  8
ALPHA
 10
45.965015
 20
22.097848
 30
0.0
 11
46.765015
 21
21.426568
 31
0.0
  0
LINE
  5
DB50
  8
ALPHA
 10
46.765015
 20
21.426568
 30
0.0
 11
45.965015
 21
20.755288
 31
0.0
  0
VIEWPORT
  5
494D
 67
     1
  8
0
 10
4.995325
 20
6.556512
 30
0.0
 40
22.70986
 41
13.988421
 68
    -1
 69
     1
1001
ACAD
1000
MVIEW
1002
{
1070
    16
1010
0.0
1020
0.0
1030
0.0
1010
0.0
1020
0.0
1030
1.0
1040
0.0
1040
13.988421
1040
4.995325
1040
6.556512
1040
50.0
1040
0.0
1040
0.0
1070
     0
1070
   100
1070
     1
1070
     1
1070
     0
1070
     0
1070
     0
1070
     0
1040
0.0
1040
0.0
1040
0.0
1040
10.0
1040
10.0
1040
10.0
1040
10.0
1070
     0
1002
{
1002
}
1002
}
  0
ENDSEC
  0
EOF
