  0
SECTION
  2
HEADER
  9
$ACADVER
  1
AC1009
  9
$INSBASE
 10
402.590624
 20
-1.041018
 30
0.0
  9
$EXTMIN
 10
158.550226
 20
-211.151624
 30
0.0
  9
$EXTMAX
 10
256.685579
 20
-113.622443
 30
0.0
  9
$LIMMIN
 10
-407.970438
 20
-367.832444
  9
$LIMMAX
 10
429.804077
 20
234.370848
  9
$ORTHOMODE
 70
     1
  9
$REGENMODE
 70
     1
  9
$FILLMODE
 70
     1
  9
$QTEXTMODE
 70
     0
  9
$MIRRTEXT
 70
     1
  9
$DRAGMODE
 70
     2
  9
$LTSCALE
 40
10.0
  9
$OSMODE
 70
    32
  9
$ATTMODE
 70
     1
  9
$TEXTSIZE
 40
6.0
  9
$TRACEWID
 40
1.0
  9
$TEXTSTYLE
  7
ROMANS
  9
$CLAYER
  8
ALPHA
  9
$CELTYPE
  6
BYLAYER
  9
$CECOLOR
 62
   256
  9
$DIMSCALE
 40
1.0
  9
$DIMASZ
 40
5.0
  9
$DIMEXO
 40
2.0
  9
$DIMDLI
 40
0.38
  9
$DIMRND
 40
0.0
  9
$DIMDLE
 40
0.0
  9
$DIMEXE
 40
2.5
  9
$DIMTP
 40
0.0
  9
$DIMTM
 40
0.0
  9
$DIMTXT
 40
2.5
  9
$DIMCEN
 40
0.0
  9
$DIMTSZ
 40
0.0
  9
$DIMTOL
 70
     0
  9
$DIMLIM
 70
     0
  9
$DIMTIH
 70
     1
  9
$DIMTOH
 70
     1
  9
$DIMSE1
 70
     0
  9
$DIMSE2
 70
     0
  9
$DIMTAD
 70
     1
  9
$DIMZIN
 70
    12
  9
$DIMBLK
  1
OPEN30
  9
$DIMASO
 70
     1
  9
$DIMSHO
 70
     1
  9
$DIMPOST
  1

  9
$DIMAPOST
  1

  9
$DIMALT
 70
     0
  9
$DIMALTD
 70
     2
  9
$DIMALTF
 40
25.4
  9
$DIMLFAC
 40
1.0
  9
$DIMTOFL
 70
     0
  9
$DIMTVP
 40
0.0
  9
$DIMTIX
 70
     0
  9
$DIMSOXD
 70
     0
  9
$DIMSAH
 70
     0
  9
$DIMBLK1
  1

  9
$DIMBLK2
  1

  9
$DIMSTYLE
  2
SC_DEFAUT
  9
$DIMCLRD
 70
     0
  9
$DIMCLRE
 70
     0
  9
$DIMCLRT
 70
     0
  9
$DIMTFAC
 40
1.0
  9
$DIMGAP
 40
2.0
  9
$LUNITS
 70
     2
  9
$LUPREC
 70
     1
  9
$SKETCHINC
 40
0.1
  9
$FILLETRAD
 40
0.0
  9
$AUNITS
 70
     0
  9
$AUPREC
 70
     0
  9
$MENU
  1
acad
  9
$ELEVATION
 40
0.0
  9
$PELEVATION
 40
0.0
  9
$THICKNESS
 40
0.0
  9
$LIMCHECK
 70
     0
  9
$BLIPMODE
 70
     0
  9
$CHAMFERA
 40
0.0
  9
$CHAMFERB
 40
0.0
  9
$SKPOLY
 70
     0
  9
$TDCREATE
 40
2450373.687919
  9
$TDUPDATE
 40
2453028.640561
  9
$TDINDWG
 40
1.085137
  9
$TDUSRTIMER
 40
1.085137
  9
$USRTIMER
 70
     1
  9
$ANGBASE
 50
0.0
  9
$ANGDIR
 70
     0
  9
$PDMODE
 70
    32
  9
$PDSIZE
 40
0.0
  9
$PLINEWID
 40
0.0
  9
$COORDS
 70
     1
  9
$SPLFRAME
 70
     0
  9
$SPLINETYPE
 70
     6
  9
$SPLINESEGS
 70
     8
  9
$ATTDIA
 70
     0
  9
$ATTREQ
 70
     1
  9
$HANDLING
 70
     1
  9
$HANDSEED
  5
B3BC
  9
$SURFTAB1
 70
     6
  9
$SURFTAB2
 70
     6
  9
$SURFTYPE
 70
     6
  9
$SURFU
 70
     6
  9
$SURFV
 70
     6
  9
$UCSNAME
  2

  9
$UCSORG
 10
0.0
 20
0.0
 30
0.0
  9
$UCSXDIR
 10
1.0
 20
0.0
 30
0.0
  9
$UCSYDIR
 10
0.0
 20
1.0
 30
0.0
  9
$PUCSNAME
  2

  9
$PUCSORG
 10
0.0
 20
0.0
 30
0.0
  9
$PUCSXDIR
 10
1.0
 20
0.0
 30
0.0
  9
$PUCSYDIR
 10
0.0
 20
1.0
 30
0.0
  9
$USERI1
 70
     0
  9
$USERI2
 70
     0
  9
$USERI3
 70
     0
  9
$USERI4
 70
     0
  9
$USERI5
 70
     0
  9
$USERR1
 40
0.0
  9
$USERR2
 40
0.0
  9
$USERR3
 40
0.0
  9
$USERR4
 40
0.0
  9
$USERR5
 40
0.0
  9
$WORLDVIEW
 70
     1
  9
$SHADEDGE
 70
     3
  9
$SHADEDIF
 70
    70
  9
$TILEMODE
 70
     1
  9
$MAXACTVP
 70
    16
  9
$PLIMCHECK
 70
     0
  9
$PEXTMIN
 10
-1.452248
 20
-0.437698
 30
0.0
  9
$PEXTMAX
 10
12.749749
 20
8.310198
 30
0.0
  9
$PLIMMIN
 10
0.0
 20
0.0
  9
$PLIMMAX
 10
12.0
 20
9.0
  9
$UNITMODE
 70
     0
  9
$VISRETAIN
 70
     0
  9
$PLINEGEN
 70
     0
  9
$PSLTSCALE
 70
     0
  0
ENDSEC
  0
SECTION
  2
TABLES
  0
TABLE
  2
VPORT
 70
     2
  0
VPORT
  2
*ACTIVE
 70
     0
 10
0.0
 20
0.0
 11
1.0
 21
1.0
 12
207.621768
 22
-162.387173
 13
0.0
 23
0.0
 14
1.0
 24
1.0
 15
10.0
 25
10.0
 16
0.0
 26
0.0
 36
1.0
 17
0.0
 27
0.0
 37
0.0
 40
98.288944
 41
1.466346
 42
50.0
 43
0.0
 44
0.0
 50
0.0
 51
0.0
 71
     0
 72
   100
 73
     1
 74
     0
 75
     0
 76
     0
 77
     0
 78
     0
  0
ENDTAB
  0
TABLE
  2
LTYPE
 70
     2
  0
LTYPE
  2
CONTINUOUS
 70
     0
  3
Solid line
 72
    65
 73
     0
 40
0.0
  0
LTYPE
  2
AXES2
 70
     0
  3
___ _ ___ _ ___ _ ___ _ ___ _ ___ _ ___ _ ___ _
 72
    65
 73
     4
 40
1.125
 49
0.75
 49
-0.125
 49
0.125
 49
-0.125
  0
ENDTAB
  0
TABLE
  2
LAYER
 70
     5
  0
LAYER
  2
0
 70
     0
 62
   255
  6
CONTINUOUS
  0
LAYER
  2
COTATION1
 70
     0
 62
     2
  6
CONTINUOUS
  0
LAYER
  2
AXE
 70
     0
 62
    80
  6
AXES2
  0
LAYER
  2
DEFPOINTS
 70
     0
 62
     7
  6
CONTINUOUS
  0
LAYER
  2
ALPHA
 70
     0
 62
   254
  6
CONTINUOUS
  0
ENDTAB
  0
TABLE
  2
STYLE
 70
     2
  0
STYLE
  2
ROMANS
 70
     0
 40
0.0
 41
1.0
 50
0.0
 71
     0
 42
6.0
  3
romans
  4

  0
STYLE
  2
STANDARD
 70
     0
 40
0.0
 41
1.0
 50
0.0
 71
     0
 42
0.2
  3
txt
  4

  0
ENDTAB
  0
TABLE
  2
VIEW
 70
     0
  0
ENDTAB
  0
TABLE
  2
UCS
 70
     0
  0
ENDTAB
  0
TABLE
  2
APPID
 70
     1
  0
APPID
  2
ACAD
 70
     0
  0
ENDTAB
  0
TABLE
  2
DIMSTYLE
 70
     2
  0
DIMSTYLE
  2
SC_DEFAUT
 70
     0
  3

  4

  5
OPEN30
  6

  7

 40
1.0
 41
5.0
 42
2.0
 43
0.38
 44
2.5
 45
0.0
 46
0.0
 47
0.0
 48
0.0
140
2.5
141
0.0
142
0.0
143
25.4
144
1.0
145
0.0
146
1.0
147
2.0
 71
     0
 72
     0
 73
     1
 74
     1
 75
     0
 76
     0
 77
     1
 78
    12
170
     0
171
     2
172
     0
173
     0
174
     0
175
     0
176
     0
177
     0
178
     0
  0
DIMSTYLE
  2
STANDARD
 70
     0
  3

  4

  5

  6

  7

 40
1.0
 41
3.0
 42
0.0625
 43
0.38
 44
0.18
 45
0.0
 46
0.0
 47
0.01
 48
0.01
140
3.5
141
0.09
142
0.0
143
25.4
144
1.0
145
0.0
146
1.0
147
0.09
 71
     1
 72
     0
 73
     0
 74
     0
 75
     0
 76
     0
 77
     1
 78
     8
170
     0
171
     2
172
     0
173
     0
174
     0
175
     0
176
     0
177
     0
178
     0
  0
ENDTAB
  0
ENDSEC
  0
SECTION
  2
BLOCKS
  0
BLOCK
  8
0
  2
$MODEL_SPACE
 70
     0
 10
0.0
 20
0.0
 30
0.0
  3
$MODEL_SPACE
  1

  0
ENDBLK
  5
B35F
  8
0
  0
BLOCK
 67
     1
  8
0
  2
$PAPER_SPACE
 70
     0
 10
0.0
 20
0.0
 30
0.0
  3
$PAPER_SPACE
  1

  0
ENDBLK
  5
B35D
 67
     1
  8
0
  0
BLOCK
  8
0
  2
COTE
 70
     0
 10
0.0
 20
0.0
 30
0.0
  3
COTE
  1

  0
ENDBLK
  5
F
  8
0
  0
BLOCK
  8
0
  2
FOND
 70
     0
 10
0.0
 20
0.0
 30
0.0
  3
FOND
  1

  0
ENDBLK
  5
75
  8
0
  0
BLOCK
  8
0
  2
_OPEN30
 70
     0
 10
0.0
 20
0.0
 30
0.0
  3
_OPEN30
  1

  0
LINE
  5
4B05
  8
COTATION1
 62
     0
 10
-1.0
 20
0.267949
 30
0.0
 11
0.0
 21
0.0
 31
0.0
1001
ACAD
1000
RTLwPs
1070
   158
  0
LINE
  5
4B06
  8
COTATION1
 62
     0
 10
0.0
 20
0.0
 30
0.0
 11
-1.0
 21
-0.267949
 31
0.0
1001
ACAD
1000
RTLwPs
1070
   158
  0
LINE
  5
4B07
  8
COTATION1
 62
     0
 10
0.0
 20
0.0
 30
0.0
 11
-1.0
 21
0.0
 31
0.0
1001
ACAD
1000
RTLwPs
1070
   158
  0
ENDBLK
  5
4B09
  8
0
  0
BLOCK
  8
0
  2
*D3
 70
     1
 10
0.0
 20
0.0
 30
0.0
  3
*D3
  1

  0
LINE
  5
B19C
  8
COTATION1
 62
     0
 10
189.185579
 20
-143.326561
 30
0.0
 11
189.185579
 21
-115.622443
 31
0.0
1001
ACAD
1000
RTLwPs
1070
   158
  0
LINE
  5
B19D
  8
COTATION1
 62
     0
 10
219.185579
 20
-143.326561
 30
0.0
 11
219.185579
 21
-115.622443
 31
0.0
1001
ACAD
1000
RTLwPs
1070
   158
  0
LINE
  5
B19E
  8
COTATION1
 62
     0
 10
194.185579
 20
-118.122443
 30
0.0
 11
214.185579
 21
-118.122443
 31
0.0
1001
ACAD
1000
RTLwPs
1070
   158
  0
INSERT
  5
B19F
  8
COTATION1
 62
     0
  2
_OPEN30
 10
189.185579
 20
-118.122443
 30
0.0
 41
5.0
 42
5.0
 43
5.0
 50
180.0
1001
ACAD
1000
RTLwPs
1070
   158
  0
INSERT
  5
B1A0
  8
COTATION1
 62
     0
  2
_OPEN30
 10
219.185579
 20
-118.122443
 30
0.0
 41
5.0
 42
5.0
 43
5.0
1001
ACAD
1000
RTLwPs
1070
   158
  0
TEXT
  5
B1A1
  8
COTATION1
 62
     0
 10
201.804627
 20
-116.122443
 30
0.0
 40
2.5
  1
30
1001
ACAD
1000
MTEXTBEGIN
1070
    73
1070
     1
1070
    44
1040
1.0
1070
    74
1070
     0
1000
MTEXTEND
  0
POINT
  5
B1A2
  8
DEFPOINTS
 62
     0
 10
189.185579
 20
-145.326561
 30
0.0
  0
POINT
  5
B1A3
  8
DEFPOINTS
 62
     0
 10
219.185579
 20
-145.326561
 30
0.0
  0
POINT
  5
B1A4
  8
DEFPOINTS
 62
     0
 10
219.185579
 20
-118.122443
 30
0.0
  0
ENDBLK
  5
A0E9
  8
0
  0
BLOCK
  8
0
  2
*D4
 70
     1
 10
0.0
 20
0.0
 30
0.0
  3
*D4
  1

  0
LINE
  5
B193
  8
COTATION1
 62
     0
 10
194.185579
 20
-144.047443
 30
0.0
 11
194.185579
 21
-125.622443
 31
0.0
1001
ACAD
1000
RTLwPs
1070
   158
  0
LINE
  5
B194
  8
COTATION1
 62
     0
 10
214.185579
 20
-144.047443
 30
0.0
 11
214.185579
 21
-125.622443
 31
0.0
1001
ACAD
1000
RTLwPs
1070
   158
  0
LINE
  5
B195
  8
COTATION1
 62
     0
 10
199.185579
 20
-128.122443
 30
0.0
 11
209.185579
 21
-128.122443
 31
0.0
1001
ACAD
1000
RTLwPs
1070
   158
  0
INSERT
  5
B196
  8
COTATION1
 62
     0
  2
_OPEN30
 10
194.185579
 20
-128.122443
 30
0.0
 41
5.0
 42
5.0
 43
5.0
 50
180.0
1001
ACAD
1000
RTLwPs
1070
   158
  0
INSERT
  5
B197
  8
COTATION1
 62
     0
  2
_OPEN30
 10
214.185579
 20
-128.122443
 30
0.0
 41
5.0
 42
5.0
 43
5.0
1001
ACAD
1000
RTLwPs
1070
   158
  0
TEXT
  5
B198
  8
COTATION1
 62
     0
 10
201.804627
 20
-126.122443
 30
0.0
 40
2.5
  1
20
1001
ACAD
1000
MTEXTBEGIN
1070
    73
1070
     1
1070
    44
1040
1.0
1070
    74
1070
     0
1000
MTEXTEND
  0
POINT
  5
B199
  8
DEFPOINTS
 62
     0
 10
194.185579
 20
-146.047443
 30
0.0
  0
POINT
  5
B19A
  8
DEFPOINTS
 62
     0
 10
214.185579
 20
-146.047443
 30
0.0
  0
POINT
  5
B19B
  8
DEFPOINTS
 62
     0
 10
214.185579
 20
-128.122443
 30
0.0
  0
ENDBLK
  5
A0F5
  8
0
  0
BLOCK
  8
0
  2
*D5
 70
     1
 10
0.0
 20
0.0
 30
0.0
  3
*D5
  1

  0
LINE
  5
B1CA
  8
COTATION1
 62
     0
 10
214.185579
 20
-143.122443
 30
0.0
 11
256.685579
 21
-143.122443
 31
0.0
1001
ACAD
1000
RTLwPs
1070
   158
  0
LINE
  5
B1CB
  8
COTATION1
 62
     0
 10
216.185579
 20
-193.122443
 30
0.0
 11
256.685579
 21
-193.122443
 31
0.0
1001
ACAD
1000
RTLwPs
1070
   158
  0
LINE
  5
B1CC
  8
COTATION1
 62
     0
 10
254.185579
 20
-148.122443
 30
0.0
 11
254.185579
 21
-164.872443
 31
0.0
1001
ACAD
1000
RTLwPs
1070
   158
  0
LINE
  5
B1CD
  8
COTATION1
 62
     0
 10
254.185579
 20
-188.122443
 30
0.0
 11
254.185579
 21
-171.372443
 31
0.0
1001
ACAD
1000
RTLwPs
1070
   158
  0
INSERT
  5
B1CE
  8
COTATION1
 62
     0
  2
_OPEN30
 10
254.185579
 20
-143.122443
 30
0.0
 41
5.0
 42
5.0
 43
5.0
 50
90.0
1001
ACAD
1000
RTLwPs
1070
   158
  0
INSERT
  5
B1CF
  8
COTATION1
 62
     0
  2
_OPEN30
 10
254.185579
 20
-193.122443
 30
0.0
 41
5.0
 42
5.0
 43
5.0
 50
270.0
1001
ACAD
1000
RTLwPs
1070
   158
  0
TEXT
  5
B1D0
  8
COTATION1
 62
     0
 10
251.804627
 20
-169.372443
 30
0.0
 40
2.5
  1
50
1001
ACAD
1000
MTEXTBEGIN
1070
    73
1070
     1
1070
    44
1040
1.0
1070
    74
1070
     0
1000
MTEXTEND
  0
POINT
  5
B1D1
  8
DEFPOINTS
 62
     0
 10
212.185579
 20
-143.122443
 30
0.0
  0
POINT
  5
B1D2
  8
DEFPOINTS
 62
     0
 10
214.185579
 20
-193.122443
 30
0.0
  0
POINT
  5
B1D3
  8
DEFPOINTS
 62
     0
 10
254.185579
 20
-193.122443
 30
0.0
  0
ENDBLK
  5
A102
  8
0
  0
BLOCK
  8
0
  2
*D6
 70
     1
 10
0.0
 20
0.0
 30
0.0
  3
*D6
  1

  0
LINE
  5
B1C0
  8
COTATION1
 62
     0
 10
223.260579
 20
-153.122443
 30
0.0
 11
246.685579
 21
-153.122443
 31
0.0
1001
ACAD
1000
RTLwPs
1070
   158
  0
LINE
  5
B1C1
  8
COTATION1
 62
     0
 10
216.185579
 20
-193.122443
 30
0.0
 11
246.685579
 21
-193.122443
 31
0.0
1001
ACAD
1000
RTLwPs
1070
   158
  0
LINE
  5
B1C2
  8
COTATION1
 62
     0
 10
244.185579
 20
-158.122443
 30
0.0
 11
244.185579
 21
-169.872443
 31
0.0
1001
ACAD
1000
RTLwPs
1070
   158
  0
LINE
  5
B1C3
  8
COTATION1
 62
     0
 10
244.185579
 20
-188.122443
 30
0.0
 11
244.185579
 21
-176.372443
 31
0.0
1001
ACAD
1000
RTLwPs
1070
   158
  0
INSERT
  5
B1C4
  8
COTATION1
 62
     0
  2
_OPEN30
 10
244.185579
 20
-153.122443
 30
0.0
 41
5.0
 42
5.0
 43
5.0
 50
90.0
1001
ACAD
1000
RTLwPs
1070
   158
  0
INSERT
  5
B1C5
  8
COTATION1
 62
     0
  2
_OPEN30
 10
244.185579
 20
-193.122443
 30
0.0
 41
5.0
 42
5.0
 43
5.0
 50
270.0
1001
ACAD
1000
RTLwPs
1070
   158
  0
TEXT
  5
B1C6
  8
COTATION1
 62
     0
 10
241.804627
 20
-174.372443
 30
0.0
 40
2.5
  1
40
1001
ACAD
1000
MTEXTBEGIN
1070
    73
1070
     1
1070
    44
1040
1.0
1070
    74
1070
     0
1000
MTEXTEND
  0
POINT
  5
B1C7
  8
DEFPOINTS
 62
     0
 10
221.260579
 20
-153.122443
 30
0.0
  0
POINT
  5
B1C8
  8
DEFPOINTS
 62
     0
 10
214.185579
 20
-193.122443
 30
0.0
  0
POINT
  5
B1C9
  8
DEFPOINTS
 62
     0
 10
244.185579
 20
-193.122443
 30
0.0
  0
ENDBLK
  5
A10F
  8
0
  0
BLOCK
  8
0
  2
*D7
 70
     1
 10
0.0
 20
0.0
 30
0.0
  3
*D7
  1

  0
LINE
  5
B2CE
  8
COTATION1
 62
     0
 10
158.550226
 20
-133.279692
 30
0.0
 11
172.454988
 21
-133.279692
 31
0.0
  0
LINE
  5
B2CF
  8
COTATION1
 62
     0
 10
172.454988
 20
-133.279692
 30
0.0
 11
188.924085
 21
-148.31804
 31
0.0
  0
TEXT
  5
B2D0
  8
COTATION1
 62
     0
 10
158.193083
 20
-131.279692
 30
0.0
 40
2.5
  1
2x%%c4.3
  0
INSERT
  5
B2D1
  8
COTATION1
 62
     0
  2
_OPEN30
 10
192.616362
 20
-151.689551
 30
0.0
 41
5.0
 42
5.0
 43
5.0
 50
317.600007
  0
POINT
  5
B2D2
  8
DEFPOINTS
 62
     0
 10
192.616362
 20
-151.689551
 30
0.0
  0
POINT
  5
B2D3
  8
DEFPOINTS
 62
     0
 10
195.754797
 20
-154.555336
 30
0.0
  0
ENDBLK
  5
A8FC
  8
0
  0
ENDSEC
  0
SECTION
  2
ENTITIES
  0
INSERT
  5
A
  8
0
  2
COTE
 10
0.0
 20
0.0
 30
0.0
  0
INSERT
  5
17
  8
0
  2
COTE
 10
284.010391
 20
6.373258
 30
0.0
  0
INSERT
  5
72
  8
0
  2
FOND
 10
0.0
 20
0.0
 30
0.0
  0
DIMENSION
  5
A0D4
  8
COTATION1
  2
*D4
 10
214.185579
 20
-128.122443
 30
0.0
 11
204.185579
 21
-124.872443
 31
0.0
 13
194.185579
 23
-146.047443
 33
0.0
 14
214.185579
 24
-146.047443
 34
0.0
  0
DIMENSION
  5
A0D5
  8
COTATION1
  2
*D3
 10
219.185579
 20
-118.122443
 30
0.0
 11
204.185579
 21
-114.872443
 31
0.0
 13
189.185579
 23
-145.326561
 33
0.0
 14
219.185579
 24
-145.326561
 34
0.0
  0
LINE
  5
A0D8
  8
AXE
 10
204.185579
 20
-138.122443
 30
0.0
 11
204.185579
 21
-211.151624
 31
0.0
  0
DIMENSION
  5
A0D9
  8
COTATION1
  2
*D6
 10
244.185579
 20
-193.122443
 30
0.0
 11
244.185579
 21
-173.122443
 31
0.0
 13
221.260579
 23
-153.122443
 33
0.0
 14
214.185579
 24
-193.122443
 34
0.0
 50
90.0
  0
DIMENSION
  5
A0DA
  8
COTATION1
  2
*D5
 10
254.185579
 20
-193.122443
 30
0.0
 11
254.185579
 21
-168.122443
 31
0.0
 13
212.185579
 23
-143.122443
 33
0.0
 14
214.185579
 24
-193.122443
 34
0.0
 50
90.0
  0
LINE
  5
A0DB
  8
AXE
 10
184.185579
 20
-166.724484
 30
0.0
 11
234.185579
 21
-166.724484
 31
0.0
  0
TEXT
  5
A0DC
  8
AXE
 10
227.709389
 20
-165.724484
 30
0.0
 40
8.0
  1
X
 72
     2
 11
234.185579
 21
-165.724484
 31
0.0
  0
TEXT
  5
A0DD
  8
AXE
 10
196.709389
 20
-211.151624
 30
0.0
 40
8.0
  1
Y
 72
     2
 11
203.185579
 21
-211.151624
 31
0.0
  0
LINE
  5
A145
  8
AXE
 10
187.110579
 20
-153.122443
 30
0.0
 11
201.260579
 21
-153.122443
 31
0.0
  0
LINE
  5
A146
  8
AXE
 10
194.185579
 20
-160.197443
 30
0.0
 11
194.185579
 21
-146.047443
 31
0.0
  0
LINE
  5
A147
  8
AXE
 10
207.110579
 20
-153.122443
 30
0.0
 11
221.260579
 21
-153.122443
 31
0.0
  0
LINE
  5
A148
  8
AXE
 10
214.185579
 20
-160.197443
 30
0.0
 11
214.185579
 21
-146.047443
 31
0.0
  0
DIMENSION
  5
A8F3
  8
COTATION1
  2
*D7
 10
195.754797
 20
-154.555336
 30
0.0
 11
172.454988
 21
-133.279692
 31
0.0
 70
   131
  1
2x<>
 15
192.616362
 25
-151.689551
 35
0.0
 40
0.0
1001
ACAD
1000
DSTYLE
1002
{
1070
   287
1070
     4
1070
   287
1070
     4
1070
   287
1070
     4
1070
   279
1070
     1
1070
   289
1070
     3
1002
}
  0
ARC
  5
AF20
  8
ALPHA
 10
224.727964
 20
-177.451624
 30
0.0
 40
11.3
 50
240.588561
 51
288.29927
  0
ARC
  5
AF21
  8
ALPHA
 10
224.727964
 20
-177.451624
 30
0.0
 40
18.7
 50
236.913137
 51
286.975
  0
LINE
  5
AF66
  8
ALPHA
 10
219.185579
 20
-145.326561
 30
0.0
 11
219.185579
 21
-188.622443
 31
0.0
  0
LINE
  5
AF67
  8
ALPHA
 10
218.485579
 20
-153.929057
 30
0.0
 11
218.485579
 21
-189.057466
 31
0.0
  0
LINE
  5
AF68
  8
ALPHA
 10
189.885579
 20
-192.602433
 30
0.0
 11
189.885579
 21
-153.929057
 31
0.0
  0
LINE
  5
AF69
  8
ALPHA
 10
189.185579
 20
-191.922443
 30
0.0
 11
189.185579
 21
-145.326561
 31
0.0
  0
LINE
  5
AF6A
  8
ALPHA
 10
190.385579
 20
-192.822443
 30
0.0
 11
214.185579
 21
-192.822443
 31
0.0
  0
LINE
  5
AF6B
  8
ALPHA
 10
190.385579
 20
-193.122443
 30
0.0
 11
214.185579
 21
-193.122443
 31
0.0
  0
ARC
  5
AF92
  8
ALPHA
 10
190.385579
 20
-191.922443
 30
0.0
 40
1.2
 50
180.0
 51
270.0
  0
LINE
  5
AF93
  8
ALPHA
 10
190.018267
 20
-192.723824
 30
0.0
 11
189.88558
 21
-193.013315
 31
0.0
  0
LINE
  5
AF94
  8
ALPHA
 10
190.018267
 20
-192.723824
 30
0.0
 11
190.385579
 21
-192.822443
 31
0.0
  0
LINE
  5
AF95
  8
ALPHA
 10
189.885579
 20
-192.602433
 30
0.0
 11
189.674704
 21
-192.889219
 31
0.0
  0
LINE
  5
AF96
  8
ALPHA
 10
189.885579
 20
-192.602433
 30
0.0
 11
190.018267
 21
-192.723824
 31
0.0
  0
POLYLINE
  5
AF97
  8
ALPHA
 66
     1
 10
0.0
 20
0.0
 30
0.0
 70
   128
  0
VERTEX
  5
B365
  8
ALPHA
 10
189.185579
 20
-191.922443
 30
0.0
  0
VERTEX
  5
B366
  8
ALPHA
 10
189.488124
 20
-192.305766
 30
0.0
  0
VERTEX
  5
B367
  8
ALPHA
 10
189.885579
 20
-192.602433
 30
0.0
  0
SEQEND
  5
B368
  8
ALPHA
  0
LINE
  5
AF98
  8
ALPHA
 10
190.385579
 20
-192.822443
 30
0.0
 11
190.385579
 21
-193.122443
 31
0.0
  0
POLYLINE
  5
AF99
  8
ALPHA
 66
     1
 10
0.0
 20
0.0
 30
0.0
 70
   128
  0
VERTEX
  5
B369
  8
ALPHA
 10
207.682032
 20
-190.331689
 30
0.0
  0
VERTEX
  5
B36A
  8
ALPHA
 10
207.525781
 20
-190.169884
 30
0.0
  0
VERTEX
  5
B36B
  8
ALPHA
 10
207.283729
 20
-190.14775
 30
0.0
  0
VERTEX
  5
B36C
  8
ALPHA
 10
207.042073
 20
-190.173035
 30
0.0
  0
VERTEX
  5
B36D
  8
ALPHA
 10
206.897569
 20
-190.344219
 30
0.0
  0
SEQEND
  5
B36E
  8
ALPHA
  0
ARC
  5
AF9A
  8
ALPHA
 10
207.385579
 20
-190.422443
 30
0.0
 40
0.9
 50
270.0
 51
90.0
  0
LINE
  5
AF9B
  8
ALPHA
 10
208.068593
 20
-189.837503
 30
0.0
 11
206.334214
 21
-190.122443
 31
0.0
  0
LINE
  5
AF9C
  8
ALPHA
 10
208.048923
 20
-189.818475
 30
0.0
 11
200.186748
 21
-189.818475
 31
0.0
  0
LINE
  5
AF9D
  8
ALPHA
 10
199.995223
 20
-190.122443
 30
0.0
 11
208.225935
 21
-190.122443
 31
0.0
  0
LINE
  5
AF9E
  8
ALPHA
 10
203.81395
 20
-190.422443
 30
0.0
 11
200.591488
 21
-190.565277
 31
0.0
  0
LINE
  5
AF9F
  8
ALPHA
 10
207.385579
 20
-189.522443
 30
0.0
 11
200.835579
 21
-189.522443
 31
0.0
  0
LINE
  5
AFA0
  8
ALPHA
 10
200.181838
 20
-191.034731
 30
0.0
 11
203.893919
 21
-191.034731
 31
0.0
  0
LINE
  5
AFA1
  8
ALPHA
 10
200.835579
 20
-191.322443
 30
0.0
 11
203.961973
 21
-191.322443
 31
0.0
  0
LINE
  5
AFA2
  8
ALPHA
 10
200.186748
 20
-189.818475
 30
0.0
 11
202.036944
 21
-190.122443
 31
0.0
  0
LINE
  5
AFA3
  8
ALPHA
 10
200.602615
 20
-190.523785
 30
0.0
 11
200.591488
 21
-190.565277
 31
0.0
  0
LINE
  5
AFA4
  8
ALPHA
 10
200.540849
 20
-190.526918
 30
0.0
 11
200.602615
 21
-190.523785
 31
0.0
  0
LINE
  5
AFA5
  8
ALPHA
 10
200.591488
 20
-190.565277
 30
0.0
 11
200.552487
 21
-190.685855
 31
0.0
  0
LINE
  5
AFA6
  8
ALPHA
 10
200.465177
 20
-191.034731
 30
0.0
 11
200.552845
 21
-190.684754
 31
0.0
  0
LINE
  5
AFA7
  8
ALPHA
 10
200.552845
 20
-190.684754
 30
0.0
 11
200.002355
 21
-190.745131
 31
0.0
  0
LINE
  5
AFA8
  8
ALPHA
 10
199.949439
 20
-190.566395
 30
0.0
 11
200.401503
 21
-190.534632
 31
0.0
  0
POLYLINE
  5
AFA9
  8
ALPHA
 66
     1
 10
0.0
 20
0.0
 30
0.0
 70
   128
210
0.0
220
0.0
230
-1.0
  0
VERTEX
  5
B36F
  8
ALPHA
 10
-200.275788
 20
-190.122443
 30
0.0
  0
VERTEX
  5
B370
  8
ALPHA
 10
-200.491843
 20
-190.264856
 30
0.0
  0
VERTEX
  5
B371
  8
ALPHA
 10
-200.540849
 20
-190.526918
 30
0.0
  0
SEQEND
  5
B372
  8
ALPHA
  0
LINE
  5
AFAA
  8
ALPHA
 10
200.401503
 20
-190.534632
 30
0.0
 11
200.540849
 21
-190.526918
 31
0.0
  0
LINE
  5
AFAB
  8
ALPHA
 10
199.957958
 20
-190.594082
 30
0.0
 11
200.551376
 21
-190.528812
 31
0.0
  0
ARC
  5
AFAC
  8
ALPHA
 10
200.985579
 20
-190.422443
 30
0.0
 40
0.9
 50
142.059182
 51
160.353821
  0
ARC
  5
AFAD
  8
ALPHA
 10
200.835579
 20
-190.422443
 30
0.0
 40
0.9
 50
90.0
 51
270.0
  0
LINE
  5
AFAE
  8
ALPHA
 10
200.189156
 20
-189.803815
 30
0.0
 11
200.186748
 21
-189.818475
 31
0.0
  0
LINE
  5
AFAF
  8
ALPHA
 10
200.552487
 20
-190.685855
 30
0.0
 11
200.551376
 21
-190.528812
 31
0.0
  0
LINE
  5
AFB0
  8
ALPHA
 10
200.130108
 20
-189.872443
 30
0.0
 11
200.515243
 21
-189.872443
 31
0.0
  0
LINE
  5
AFB1
  8
ALPHA
 10
204.409186
 20
-191.322443
 30
0.0
 11
207.385579
 21
-191.322443
 31
0.0
  0
LINE
  5
AFB2
  8
ALPHA
 10
204.559571
 20
-191.23588
 30
0.0
 11
204.601999
 21
-191.322443
 31
0.0
  0
POLYLINE
  5
AFB3
  8
ALPHA
 66
     1
 10
0.0
 20
0.0
 30
0.0
 70
   128
210
0.0
220
0.0
230
-1.0
  0
VERTEX
  5
B373
  8
ALPHA
 10
-203.811588
 20
-191.23588
 30
0.0
  0
VERTEX
  5
B374
  8
ALPHA
 10
-204.185579
 20
-191.030061
 30
0.0
  0
VERTEX
  5
B375
  8
ALPHA
 10
-204.559571
 20
-191.23588
 30
0.0
  0
SEQEND
  5
B376
  8
ALPHA
  0
LINE
  5
AFB4
  8
ALPHA
 10
203.76916
 20
-191.322443
 30
0.0
 11
203.811588
 21
-191.23588
 31
0.0
  0
LINE
  5
AFB5
  8
ALPHA
 10
203.790479
 20
-190.122443
 30
0.0
 11
203.81395
 21
-190.422443
 31
0.0
  0
LINE
  5
AFB6
  8
ALPHA
 10
204.17659
 20
-190.122443
 30
0.0
 11
203.81395
 21
-190.422443
 31
0.0
  0
ARC
  5
AFB7
  8
ALPHA
 10
204.185579
 20
-191.522443
 30
0.0
 40
0.3
 50
41.810315
 51
138.189685
  0
LINE
  5
AFB8
  8
ALPHA
 10
204.966181
 20
-191.322443
 30
0.0
 11
204.966181
 21
-190.122443
 31
0.0
  0
LINE
  5
AFB9
  8
ALPHA
 10
204.182032
 20
-191.036977
 30
0.0
 11
204.182032
 21
-190.122443
 31
0.0
  0
LINE
  5
AFBA
  8
ALPHA
 10
203.893919
 20
-191.034731
 30
0.0
 11
203.893919
 21
-191.148538
 31
0.0
  0
LINE
  5
AFBB
  8
ALPHA
 10
203.81395
 20
-190.425517
 30
0.0
 11
203.81395
 21
-190.422443
 31
0.0
  0
LINE
  5
AFBC
  8
ALPHA
 10
203.81395
 20
-191.034731
 30
0.0
 11
203.81395
 21
-190.425517
 31
0.0
  0
LINE
  5
AFBD
  8
ALPHA
 10
206.897569
 20
-191.322443
 30
0.0
 11
206.897569
 21
-190.122443
 31
0.0
  0
POLYLINE
  5
AFBE
  8
ALPHA
 66
     1
 10
0.0
 20
0.0
 30
0.0
 70
   128
  0
VERTEX
  5
B377
  8
ALPHA
 10
214.185579
 20
-192.822443
 30
0.0
  0
VERTEX
  5
B378
  8
ALPHA
 10
215.377271
 20
-192.66372
 30
0.0
  0
VERTEX
  5
B379
  8
ALPHA
 10
216.482827
 20
-192.192061
 30
0.0
  0
VERTEX
  5
B37A
  8
ALPHA
 10
217.414042
 20
-191.432573
 30
0.0
  0
VERTEX
  5
B37B
  8
ALPHA
 10
218.085672
 20
-190.436623
 30
0.0
  0
SEQEND
  5
B37C
  8
ALPHA
  0
ARC
  5
AFBF
  8
ALPHA
 10
214.185579
 20
-188.122443
 30
0.0
 40
5.0
 50
270.0
 51
0.000411
  0
LINE
  5
AFC0
  8
ALPHA
 10
208.049345
 20
-191.025997
 30
0.0
 11
207.682032
 21
-190.331689
 31
0.0
  0
LINE
  5
AFC1
  8
ALPHA
 10
208.079524
 20
-190.122443
 30
0.0
 11
208.079524
 21
-190.990378
 31
0.0
  0
LINE
  5
AFC2
  8
ALPHA
 10
207.682032
 20
-191.266393
 30
0.0
 11
207.682032
 21
-190.331689
 31
0.0
  0
LINE
  5
AFC3
  8
ALPHA
 10
207.855915
 20
-189.872443
 30
0.0
 11
208.091051
 21
-189.872443
 31
0.0
  0
LINE
  5
AFC4
  8
ALPHA
 10
214.185579
 20
-192.822443
 30
0.0
 11
214.185579
 21
-193.122443
 31
0.0
  0
LINE
  5
AFC5
  8
ALPHA
 10
218.485579
 20
-189.057466
 30
0.0
 11
219.071405
 21
-189.184852
 31
0.0
  0
LINE
  5
AFC6
  8
ALPHA
 10
218.485579
 20
-189.057466
 30
0.0
 11
219.185579
 21
-188.122443
 31
0.0
  0
LINE
  5
AFC7
  8
ALPHA
 10
218.085672
 20
-190.436623
 30
0.0
 11
218.485579
 21
-190.673914
 31
0.0
  0
LINE
  5
AFC8
  8
ALPHA
 10
218.085672
 20
-190.436623
 30
0.0
 11
218.485579
 21
-189.057466
 31
0.0
  0
LINE
  5
AFC9
  8
ALPHA
 10
219.185579
 20
-188.622443
 30
0.0
 11
219.160356
 21
-188.622443
 31
0.0
  0
ARC
  5
AFCA
  8
ALPHA
 10
194.185579
 20
-153.122443
 30
0.0
 40
4.375
 50
190.624332
 51
47.807538
  0
ARC
  5
AFCB
  8
ALPHA
 10
191.220315
 20
-145.289796
 30
0.0
 40
0.4
 50
190.0
 51
281.953211
  0
ARC
  5
AFCC
  8
ALPHA
 10
194.185579
 20
-153.122443
 30
0.0
 40
4.375
 50
128.467
 51
169.375668
  0
ARC
  5
AFCD
  8
ALPHA
 10
194.185579
 20
-153.122443
 30
0.0
 40
4.075
 50
128.467
 51
47.807538
  0
ARC
  5
AFCE
  8
ALPHA
 10
204.185579
 20
-206.532443
 30
0.0
 40
63.4
 50
91.961682
 51
103.327962
  0
ARC
  5
AFCF
  8
ALPHA
 10
191.220315
 20
-145.289796
 30
0.0
 40
0.2
 50
190.0
 51
281.953211
  0
ARC
  5
AFD0
  8
ALPHA
 10
194.185579
 20
-153.122443
 30
0.0
 40
4.0
 50
99.746525
 51
177.897255
  0
ARC
  5
AFD1
  8
ALPHA
 10
194.185579
 20
-153.122443
 30
0.0
 40
4.0
 50
180.0
 51
358.041398
  0
LINE
  5
AFD2
  8
ALPHA
 10
191.023353
 20
-145.324525
 30
0.0
 11
190.826392
 21
-145.359255
 31
0.0
  0
LINE
  5
AFD3
  8
ALPHA
 10
191.378078
 20
-152.933796
 30
0.0
 11
190.192593
 21
-152.885677
 31
0.0
  0
LINE
  5
AFD4
  8
ALPHA
 10
190.185579
 20
-153.122443
 30
0.0
 11
191.371747
 21
-153.122443
 31
0.0
  0
LINE
  5
AFD5
  8
ALPHA
 10
191.373524
 20
-153.022443
 30
0.0
 11
190.188273
 21
-152.975677
 31
0.0
  0
LINE
  5
AFD6
  8
ALPHA
 10
191.656532
 20
-151.888923
 30
0.0
 11
190.581384
 21
-151.387574
 31
0.0
  0
LINE
  5
AFD7
  8
ALPHA
 10
191.616053
 20
-151.975628
 30
0.0
 11
190.540916
 21
-151.474283
 31
0.0
  0
LINE
  5
AFD8
  8
ALPHA
 10
191.023353
 20
-145.324525
 30
0.0
 11
190.921671
 21
-144.747856
 31
0.0
  0
LINE
  5
AFED
  8
ALPHA
 10
189.885579
 20
-145.074165
 30
0.0
 11
189.885579
 21
-152.31583
 31
0.0
  0
LINE
  5
AFEE
  8
ALPHA
 10
189.885579
 20
-153.929057
 30
0.0
 11
189.754329
 21
-153.122443
 31
0.0
  0
LINE
  5
AFEF
  8
ALPHA
 10
189.885579
 20
-153.929057
 30
0.0
 11
190.180437
 21
-153.873746
 31
0.0
  0
LINE
  5
AFF0
  8
ALPHA
 10
189.754329
 20
-153.122443
 30
0.0
 11
189.885579
 21
-152.31583
 31
0.0
  0
LINE
  5
AFF1
  8
ALPHA
 10
189.885579
 20
-152.31583
 30
0.0
 11
190.180437
 21
-152.371141
 31
0.0
  0
LINE
  5
AFF2
  8
ALPHA
 10
190.742088
 20
-144.881145
 30
0.0
 11
190.682112
 21
-144.587174
 31
0.0
  0
LINE
  5
AFF3
  8
ALPHA
 10
189.454896
 20
-145.131948
 30
0.0
 11
189.570317
 21
-144.840028
 31
0.0
  0
LINE
  5
AFF4
  8
ALPHA
 10
189.454896
 20
-145.131948
 30
0.0
 11
189.185579
 21
-145.326561
 31
0.0
  0
LINE
  5
AFF5
  8
ALPHA
 10
189.885579
 20
-145.074165
 30
0.0
 11
189.454896
 21
-145.131948
 31
0.0
  0
LINE
  5
AFF6
  8
ALPHA
 10
190.939052
 20
-144.846416
 30
0.0
 11
190.922441
 21
-144.752226
 31
0.0
  0
LINE
  5
AFF7
  8
ALPHA
 10
190.922441
 20
-144.752226
 30
0.0
 11
190.921884
 21
-144.74914
 31
0.0
  0
ARC
  5
AFF8
  8
ALPHA
 10
204.185579
 20
-206.532443
 30
0.0
 40
63.1
 50
102.301184
 51
103.098417
  0
ARC
  5
AFF9
  8
ALPHA
 10
190.724709
 20
-144.782585
 30
0.0
 40
0.2
 50
10.0
 51
102.297541
  0
ARC
  5
AFFA
  8
ALPHA
 10
189.685579
 20
-145.326561
 30
0.0
 40
0.5
 50
103.327962
 51
180.0
  0
LINE
  5
AFFB
  8
ALPHA
 10
190.742088
 20
-144.881145
 30
0.0
 11
190.93905
 21
-144.846416
 31
0.0
  0
LINE
  5
AFFC
  8
ALPHA
 10
190.682112
 20
-144.587174
 30
0.0
 11
189.817592
 21
-144.78197
 31
0.0
  0
LINE
  5
AFFD
  8
ALPHA
 10
190.742088
 20
-144.881145
 30
0.0
 11
190.826392
 21
-145.359255
 31
0.0
  0
LINE
  5
AFFE
  8
ALPHA
 10
189.885579
 20
-145.074165
 30
0.0
 11
189.817592
 21
-144.78197
 31
0.0
  0
POLYLINE
  5
AFFF
  8
ALPHA
 66
     1
 10
0.0
 20
0.0
 30
0.0
 70
   128
210
0.0
220
0.0
230
-1.0
  0
VERTEX
  5
B37D
  8
ALPHA
 10
-208.156088
 20
-151.104013
 30
0.0
  0
VERTEX
  5
B37E
  8
ALPHA
 10
-207.809632
 20
-152.765354
 30
0.0
  0
VERTEX
  5
B37F
  8
ALPHA
 10
-207.471787
 20
-153.611922
 30
0.0
  0
VERTEX
  5
B380
  8
ALPHA
 10
-206.989419
 20
-154.440106
 30
0.0
  0
VERTEX
  5
B381
  8
ALPHA
 10
-206.39046
 20
-155.190009
 30
0.0
  0
VERTEX
  5
B382
  8
ALPHA
 10
-205.704058
 20
-155.800872
 30
0.0
  0
VERTEX
  5
B383
  8
ALPHA
 10
-204.959362
 20
-156.211936
 30
0.0
  0
VERTEX
  5
B384
  8
ALPHA
 10
-204.18552
 20
-156.362443
 30
0.0
  0
VERTEX
  5
B385
  8
ALPHA
 10
-203.41168
 20
-156.211893
 30
0.0
  0
VERTEX
  5
B386
  8
ALPHA
 10
-202.666991
 20
-155.800794
 30
0.0
  0
VERTEX
  5
B387
  8
ALPHA
 10
-201.980601
 20
-155.189906
 30
0.0
  0
VERTEX
  5
B388
  8
ALPHA
 10
-201.381657
 20
-154.439986
 30
0.0
  0
VERTEX
  5
B389
  8
ALPHA
 10
-200.899309
 20
-153.611793
 30
0.0
  0
VERTEX
  5
B38A
  8
ALPHA
 10
-200.561486
 20
-152.765225
 30
0.0
  0
VERTEX
  5
B38B
  8
ALPHA
 10
-200.215059
 20
-151.103882
 30
0.0
  0
SEQEND
  5
B38C
  8
ALPHA
  0
POLYLINE
  5
B000
  8
ALPHA
 66
     1
 10
0.0
 20
0.0
 30
0.0
 70
   128
210
0.0
220
0.0
230
-1.0
  0
VERTEX
  5
B38D
  8
ALPHA
 10
-207.745647
 20
-149.42002
 30
0.0
  0
VERTEX
  5
B38E
  8
ALPHA
 10
-207.518817
 20
-150.245555
 30
0.0
  0
VERTEX
  5
B38F
  8
ALPHA
 10
-207.395613
 20
-150.655484
 30
0.0
  0
VERTEX
  5
B390
  8
ALPHA
 10
-207.321332
 20
-150.856126
 30
0.0
  0
VERTEX
  5
B391
  8
ALPHA
 10
-207.266199
 20
-150.947299
 30
0.0
  0
VERTEX
  5
B392
  8
ALPHA
 10
-207.185579
 20
-150.911155
 30
0.0
  0
SEQEND
  5
B393
  8
ALPHA
  0
LINE
  5
B001
  8
ALPHA
 10
213.560579
 20
-145.427102
 30
0.0
 11
204.185579
 21
-144.780504
 31
0.0
  0
ARC
  5
B002
  8
ALPHA
 10
204.185579
 20
-206.532443
 30
0.0
 40
63.1
 50
76.901583
 51
95.730045
  0
ARC
  5
B003
  8
ALPHA
 10
204.185579
 20
-206.532443
 30
0.0
 40
63.4
 50
76.672038
 51
88.038318
  0
LINE
  5
B004
  8
ALPHA
 10
212.185579
 20
-143.122443
 30
0.0
 11
196.185579
 21
-143.122443
 31
0.0
  0
LINE
  5
B005
  8
ALPHA
 10
197.43753
 20
-145.622443
 30
0.0
 11
213.560579
 21
-145.622443
 31
0.0
  0
LINE
  5
B006
  8
ALPHA
 10
204.685579
 20
-146.822443
 30
0.0
 11
213.435579
 21
-146.822443
 31
0.0
  0
LINE
  5
B007
  8
ALPHA
 10
204.685579
 20
-147.622443
 30
0.0
 11
213.435579
 21
-147.622443
 31
0.0
  0
LINE
  5
B008
  8
ALPHA
 10
204.585579
 20
-147.842443
 30
0.0
 11
208.110095
 21
-147.842443
 31
0.0
  0
LINE
  5
B009
  8
ALPHA
 10
204.629624
 20
-147.920089
 30
0.0
 11
208.226418
 21
-147.920089
 31
0.0
  0
LINE
  5
B00A
  8
ALPHA
 10
196.720514
 20
-148.304804
 30
0.0
 11
200.19359
 21
-148.597464
 31
0.0
  0
LINE
  5
B00B
  8
ALPHA
 10
204.185579
 20
-144.780504
 30
0.0
 11
197.574446
 21
-145.1016
 31
0.0
  0
LINE
  5
B00C
  8
ALPHA
 10
197.115991
 20
-146.822443
 30
0.0
 11
203.685579
 21
-146.822443
 31
0.0
  0
LINE
  5
B00D
  8
ALPHA
 10
196.901631
 20
-147.622443
 30
0.0
 11
203.685579
 21
-147.622443
 31
0.0
  0
LINE
  5
B00E
  8
ALPHA
 10
196.834644
 20
-147.872443
 30
0.0
 11
200.136022
 21
-147.872443
 31
0.0
  0
LINE
  5
B00F
  8
ALPHA
 10
196.354085
 20
-149.665916
 30
0.0
 11
197.615943
 21
-144.956595
 31
0.0
  0
LINE
  5
B010
  8
ALPHA
 10
193.747411
 20
-148.962154
 30
0.0
 11
194.990779
 21
-144.321842
 31
0.0
  0
CIRCLE
  5
B011
  8
ALPHA
 10
194.185579
 20
-153.122443
 30
0.0
 40
2.125
  0
CIRCLE
  5
B012
  8
ALPHA
 10
194.185579
 20
-153.122443
 30
0.0
 40
2.25
  0
LINE
  5
B013
  8
ALPHA
 10
193.875494
 20
-148.484141
 30
0.0
 11
196.483494
 21
-149.182953
 31
0.0
  0
LINE
  5
B014
  8
ALPHA
 10
193.771967
 20
-148.870512
 30
0.0
 11
196.379967
 21
-149.569323
 31
0.0
  0
LINE
  5
B015
  8
ALPHA
 10
193.746043
 20
-148.967093
 30
0.0
 11
196.354085
 21
-149.665916
 31
0.0
  0
ARC
  5
B016
  8
ALPHA
 10
194.185579
 20
-153.122443
 30
0.0
 40
4.975
 50
92.624102
 51
119.709398
  0
ARC
  5
B017
  8
ALPHA
 10
194.185579
 20
-153.122443
 30
0.0
 40
4.675
 50
93.822521
 51
119.709398
  0
ARC
  5
B018
  8
ALPHA
 10
192.017324
 20
-149.322536
 30
0.0
 40
0.6
 50
119.709398
 51
188.0
  0
ARC
  5
B019
  8
ALPHA
 10
192.017324
 20
-149.322536
 30
0.0
 40
0.3
 50
119.709398
 51
188.0
  0
ARC
  5
B01A
  8
ALPHA
 10
191.46405
 20
-149.696965
 30
0.0
 40
0.3
 50
308.467
 51
8.0
  0
ARC
  5
B01B
  8
ALPHA
 10
194.185579
 20
-153.122443
 30
0.0
 40
2.813833
 50
153.999619
 51
180.0
  0
LINE
  5
B01C
  8
ALPHA
 10
191.423164
 20
-149.40604
 30
0.0
 11
191.720244
 21
-149.364288
 31
0.0
  0
LINE
  5
B01D
  8
ALPHA
 10
191.46405
 20
-149.696965
 30
0.0
 11
191.761131
 21
-149.655213
 31
0.0
  0
LINE
  5
B01E
  8
ALPHA
 10
191.650669
 20
-149.931855
 30
0.0
 11
191.46405
 21
-149.696965
 31
0.0
  0
LINE
  5
B01F
  8
ALPHA
 10
191.868644
 20
-149.061971
 30
0.0
 11
191.719964
 21
-148.801406
 31
0.0
  0
LINE
  5
B020
  8
ALPHA
 10
191.720244
 20
-149.364288
 30
0.0
 11
191.761131
 21
-149.655213
 31
0.0
  0
LINE
  5
B021
  8
ALPHA
 10
191.423164
 20
-149.40604
 30
0.0
 11
191.46405
 21
-149.696965
 31
0.0
  0
ARC
  5
B022
  8
ALPHA
 10
193.457634
 20
-148.884508
 30
0.0
 40
0.3
 50
279.746525
 51
345.0
  0
ARC
  5
B023
  8
ALPHA
 10
194.185579
 20
-153.122443
 30
0.0
 40
2.813833
 50
333.999619
 51
0.0
  0
LINE
  5
B024
  8
ALPHA
 10
196.997885
 20
-153.21513
 30
0.0
 11
198.183243
 21
-153.259153
 31
0.0
  0
LINE
  5
B025
  8
ALPHA
 10
196.993552
 20
-153.303952
 30
0.0
 11
198.179139
 21
-153.349335
 31
0.0
  0
LINE
  5
B026
  8
ALPHA
 10
196.755109
 20
-154.269261
 30
0.0
 11
197.830242
 21
-154.770603
 31
0.0
  0
LINE
  5
B027
  8
ALPHA
 10
196.714627
 20
-154.355963
 30
0.0
 11
197.789775
 21
-154.857313
 31
0.0
  0
ARC
  5
B028
  8
ALPHA
 10
196.610046
 20
-149.48066
 30
0.0
 40
0.6
 50
345.0
 51
56.346868
  0
ARC
  5
B029
  8
ALPHA
 10
194.185579
 20
-153.122443
 30
0.0
 40
4.0
 50
0.0
 51
54.58379
  0
LINE
  5
B02A
  8
ALPHA
 10
196.899823
 20
-149.558305
 30
0.0
 11
197.189601
 21
-149.635951
 31
0.0
  0
LINE
  5
B02B
  8
ALPHA
 10
198.185579
 20
-153.122443
 30
0.0
 11
196.999412
 21
-153.122443
 31
0.0
  0
LINE
  5
B02C
  8
ALPHA
 10
197.123931
 20
-149.881037
 30
0.0
 11
197.189601
 21
-149.635951
 31
0.0
  0
ARC
  5
B02D
  8
ALPHA
 10
194.185579
 20
-153.122443
 30
0.0
 40
4.975
 50
56.346868
 51
61.007152
  0
ARC
  5
B02E
  8
ALPHA
 10
197.123931
 20
-149.881037
 30
0.0
 40
0.3
 50
165.0
 51
227.807538
  0
ARC
  5
B02F
  8
ALPHA
 10
196.610046
 20
-149.48066
 30
0.0
 40
0.3
 50
345.0
 51
56.346868
  0
ARC
  5
B030
  8
ALPHA
 10
194.185579
 20
-153.122443
 30
0.0
 40
4.675
 50
56.346868
 51
60.071418
  0
ARC
  5
B031
  8
ALPHA
 10
196.67748
 20
-149.618099
 30
0.0
 40
0.3
 50
173.697974
 51
234.58379
  0
LINE
  5
B032
  8
ALPHA
 10
197.123931
 20
-149.881037
 30
0.0
 11
196.834153
 21
-149.803391
 31
0.0
  0
LINE
  5
B033
  8
ALPHA
 10
196.834153
 20
-149.803391
 30
0.0
 11
196.899823
 21
-149.558305
 31
0.0
  0
LINE
  5
B034
  8
ALPHA
 10
196.922444
 20
-150.103305
 30
0.0
 11
197.123931
 21
-149.881037
 31
0.0
  0
LINE
  5
B035
  8
ALPHA
 10
196.942544
 20
-148.981215
 30
0.0
 11
196.776295
 21
-149.230937
 31
0.0
  0
LINE
  5
B036
  8
ALPHA
 10
197.632981
 20
-143.99742
 30
0.0
 11
194.990779
 21
-144.321842
 31
0.0
  0
LINE
  5
B037
  8
ALPHA
 10
197.632981
 20
-144.400424
 30
0.0
 11
194.879121
 21
-144.738556
 31
0.0
  0
ARC
  5
B038
  8
ALPHA
 10
204.185579
 20
-206.532443
 30
0.0
 40
62.2
 50
98.685111
 51
101.953211
  0
ARC
  5
B039
  8
ALPHA
 10
204.185579
 20
-206.532443
 30
0.0
 40
62.4
 50
98.605056
 51
101.953211
  0
LINE
  5
B03A
  8
ALPHA
 10
191.30316
 20
-145.681122
 30
0.0
 11
191.261738
 21
-145.485459
 31
0.0
  0
LINE
  5
B03B
  8
ALPHA
 10
196.185579
 20
-143.122443
 30
0.0
 11
196.185579
 21
-143.639201
 31
0.0
  0
LINE
  5
B03C
  8
ALPHA
 10
197.865643
 20
-143.448227
 30
0.0
 11
197.885579
 21
-143.747732
 31
0.0
  0
ARC
  5
B03D
  8
ALPHA
 10
197.485579
 20
-144.292022
 30
0.0
 40
0.4
 50
291.975285
 51
0.0
  0
ARC
  5
B03E
  8
ALPHA
 10
197.485579
 20
-144.292022
 30
0.0
 40
0.2
 50
318.072032
 51
0.0
  0
ARC
  5
B03F
  8
ALPHA
 10
197.885579
 20
-143.647231
 30
0.0
 40
0.2
 50
95.720948
 51
175.373269
  0
ARC
  5
B040
  8
ALPHA
 10
197.132981
 20
-144.827185
 30
0.0
 40
0.5
 50
345.0
 51
0.0
  0
LINE
  5
B041
  8
ALPHA
 10
197.885579
 20
-143.747732
 30
0.0
 11
197.685579
 21
-143.747732
 31
0.0
  0
LINE
  5
B042
  8
ALPHA
 10
197.885579
 20
-144.292022
 30
0.0
 11
197.685579
 21
-144.292022
 31
0.0
  0
LINE
  5
B043
  8
ALPHA
 10
197.685579
 20
-143.647231
 30
0.0
 11
197.686231
 21
-143.631098
 31
0.0
  0
LINE
  5
B044
  8
ALPHA
 10
197.885579
 20
-144.292022
 30
0.0
 11
197.885579
 21
-143.747732
 31
0.0
  0
LINE
  5
B045
  8
ALPHA
 10
197.685579
 20
-144.292022
 30
0.0
 11
197.685579
 21
-143.647231
 31
0.0
  0
LINE
  5
B046
  8
ALPHA
 10
197.632981
 20
-144.827185
 30
0.0
 11
197.632981
 21
-143.99742
 31
0.0
  0
LINE
  5
B047
  8
ALPHA
 10
204.685579
 20
-146.822443
 30
0.0
 11
204.685579
 21
-147.622443
 31
0.0
  0
LINE
  5
B048
  8
ALPHA
 10
203.685579
 20
-146.822443
 30
0.0
 11
203.685579
 21
-147.622443
 31
0.0
  0
POLYLINE
  5
B049
  8
ALPHA
 66
     1
 10
0.0
 20
0.0
 30
0.0
 70
   128
  0
VERTEX
  5
B394
  8
ALPHA
 10
203.687436
 20
-148.999994
 30
0.0
  0
VERTEX
  5
B395
  8
ALPHA
 10
202.892504
 20
-149.204536
 30
0.0
  0
VERTEX
  5
B396
  8
ALPHA
 10
202.183482
 20
-149.61657
 30
0.0
  0
VERTEX
  5
B397
  8
ALPHA
 10
201.618662
 20
-150.212533
 30
0.0
  0
VERTEX
  5
B398
  8
ALPHA
 10
201.185579
 20
-150.911155
 30
0.0
  0
SEQEND
  5
B399
  8
ALPHA
  0
LINE
  5
B04A
  8
ALPHA
 10
200.261064
 20
-147.842443
 30
0.0
 11
203.785579
 21
-147.842443
 31
0.0
  0
LINE
  5
B04B
  8
ALPHA
 10
203.741534
 20
-147.920089
 30
0.0
 11
200.144741
 21
-147.920089
 31
0.0
  0
LINE
  5
B04C
  8
ALPHA
 10
200.215059
 20
-151.103882
 30
0.0
 11
200.19359
 21
-148.597464
 31
0.0
  0
LINE
  5
B04D
  8
ALPHA
 10
200.262774
 20
-147.872443
 30
0.0
 11
200.261064
 21
-147.842443
 31
0.0
  0
POLYLINE
  5
B04E
  8
ALPHA
 66
     1
 10
0.0
 20
0.0
 30
0.0
 70
   128
210
0.0
220
0.0
230
-1.0
  0
VERTEX
  5
B39A
  8
ALPHA
 10
-201.185579
 20
-150.911155
 30
0.0
  0
VERTEX
  5
B39B
  8
ALPHA
 10
-201.104944
 20
-150.947291
 30
0.0
  0
VERTEX
  5
B39C
  8
ALPHA
 10
-201.049828
 20
-150.856127
 30
0.0
  0
VERTEX
  5
B39D
  8
ALPHA
 10
-200.975547
 20
-150.655487
 30
0.0
  0
VERTEX
  5
B39E
  8
ALPHA
 10
-200.852342
 20
-150.245556
 30
0.0
  0
VERTEX
  5
B39F
  8
ALPHA
 10
-200.625512
 20
-149.42002
 30
0.0
  0
SEQEND
  5
B3A0
  8
ALPHA
  0
LINE
  5
B04F
  8
ALPHA
 10
200.625512
 20
-149.42002
 30
0.0
 11
200.225147
 21
-148.220169
 31
0.0
  0
LINE
  5
B050
  8
ALPHA
 10
200.208396
 20
-148.219637
 30
0.0
 11
200.209942
 21
-148.163423
 31
0.0
  0
LINE
  5
B051
  8
ALPHA
 10
200.19359
 20
-148.597464
 30
0.0
 11
200.208396
 21
-148.219637
 31
0.0
  0
ARC
  5
B052
  8
ALPHA
 10
200.434519
 20
-147.842443
 30
0.0
 40
0.3
 50
185.73917
 51
195.0
  0
LINE
  5
B053
  8
ALPHA
 10
200.262774
 20
-147.872443
 30
0.0
 11
200.144741
 21
-147.872443
 31
0.0
  0
LINE
  5
B054
  8
ALPHA
 10
200.225147
 20
-148.220169
 30
0.0
 11
200.144741
 21
-147.920089
 31
0.0
  0
LINE
  5
B055
  8
ALPHA
 10
201.185579
 20
-147.622443
 30
0.0
 11
201.185579
 21
-150.911155
 31
0.0
  0
LINE
  5
B056
  8
ALPHA
 10
200.261064
 20
-147.842443
 30
0.0
 11
200.261064
 21
-147.622443
 31
0.0
  0
LINE
  5
B057
  8
ALPHA
 10
200.215056
 20
-151.103845
 30
0.0
 11
200.625512
 21
-149.42002
 31
0.0
  0
POLYLINE
  5
B058
  8
ALPHA
 66
     1
 10
0.0
 20
0.0
 30
0.0
 70
   128
  0
VERTEX
  5
B3A1
  8
ALPHA
 10
207.185579
 20
-150.911155
 30
0.0
  0
VERTEX
  5
B3A2
  8
ALPHA
 10
206.752497
 20
-150.212533
 30
0.0
  0
VERTEX
  5
B3A3
  8
ALPHA
 10
206.187677
 20
-149.61657
 30
0.0
  0
VERTEX
  5
B3A4
  8
ALPHA
 10
205.478655
 20
-149.204536
 30
0.0
  0
VERTEX
  5
B3A5
  8
ALPHA
 10
204.683723
 20
-148.999994
 30
0.0
  0
SEQEND
  5
B3A6
  8
ALPHA
  0
LINE
  5
B059
  8
ALPHA
 10
203.741534
 20
-147.920089
 30
0.0
 11
203.785579
 21
-147.842443
 31
0.0
  0
LINE
  5
B05A
  8
ALPHA
 10
203.686637
 20
-148.981987
 30
0.0
 11
203.685609
 21
-148.936958
 31
0.0
  0
LINE
  5
B05B
  8
ALPHA
 10
203.741487
 20
-149.284442
 30
0.0
 11
203.687441
 21
-149.000099
 31
0.0
  0
LINE
  5
B05C
  8
ALPHA
 10
203.687436
 20
-148.999994
 30
0.0
 11
203.686637
 21
-148.981987
 31
0.0
  0
LINE
  5
B05D
  8
ALPHA
 10
204.685579
 20
-148.615648
 30
0.0
 11
204.611461
 21
-148.64153
 31
0.0
  0
LINE
  5
B05E
  8
ALPHA
 10
203.785579
 20
-149.37023
 30
0.0
 11
203.741487
 21
-149.284442
 31
0.0
  0
LINE
  5
B05F
  8
ALPHA
 10
204.585579
 20
-149.37023
 30
0.0
 11
203.785579
 21
-149.37023
 31
0.0
  0
LINE
  5
B060
  8
ALPHA
 10
203.685579
 20
-148.255144
 30
0.0
 11
203.741534
 21
-147.920089
 31
0.0
  0
LINE
  5
B061
  8
ALPHA
 10
204.585579
 20
-147.842443
 30
0.0
 11
204.629624
 21
-147.920089
 31
0.0
  0
LINE
  5
B062
  8
ALPHA
 10
204.629624
 20
-147.920089
 30
0.0
 11
204.685579
 21
-148.255144
 31
0.0
  0
LINE
  5
B063
  8
ALPHA
 10
203.685579
 20
-148.615648
 30
0.0
 11
203.759697
 21
-148.64153
 31
0.0
  0
LINE
  5
B064
  8
ALPHA
 10
204.684522
 20
-148.981987
 30
0.0
 11
204.683723
 21
-148.999994
 31
0.0
  0
LINE
  5
B065
  8
ALPHA
 10
204.683718
 20
-149.000099
 30
0.0
 11
204.629672
 21
-149.284442
 31
0.0
  0
LINE
  5
B066
  8
ALPHA
 10
204.629672
 20
-149.284442
 30
0.0
 11
204.585579
 21
-149.37023
 31
0.0
  0
LINE
  5
B067
  8
ALPHA
 10
204.68555
 20
-148.936958
 30
0.0
 11
204.684522
 21
-148.981987
 31
0.0
  0
LINE
  5
B068
  8
ALPHA
 10
204.585579
 20
-148.615648
 30
0.0
 11
204.611461
 21
-148.64153
 31
0.0
  0
LINE
  5
B069
  8
ALPHA
 10
204.611461
 20
-148.64153
 30
0.0
 11
204.585579
 21
-148.665648
 31
0.0
  0
LINE
  5
B06A
  8
ALPHA
 10
203.785579
 20
-148.665648
 30
0.0
 11
203.759697
 21
-148.64153
 31
0.0
  0
LINE
  5
B06B
  8
ALPHA
 10
203.759697
 20
-148.64153
 30
0.0
 11
203.785579
 21
-148.615648
 31
0.0
  0
LINE
  5
B06C
  8
ALPHA
 10
204.585579
 20
-148.615648
 30
0.0
 11
203.785578
 21
-148.615648
 31
0.0
  0
LINE
  5
B06D
  8
ALPHA
 10
204.585579
 20
-148.665648
 30
0.0
 11
203.785578
 21
-148.665648
 31
0.0
  0
LINE
  5
B06E
  8
ALPHA
 10
204.585579
 20
-149.024734
 30
0.0
 11
203.785579
 21
-149.024734
 31
0.0
  0
POLYLINE
  5
B06F
  8
ALPHA
 66
     1
 10
0.0
 20
0.0
 30
0.0
  0
VERTEX
  5
B3A7
  8
ALPHA
 10
204.629672
 20
-149.284442
 30
0.0
  0
VERTEX
  5
B3A8
  8
ALPHA
 10
204.615553
 20
-149.285785
 30
0.0
  0
VERTEX
  5
B3A9
  8
ALPHA
 10
204.600742
 20
-149.286604
 30
0.0
  0
VERTEX
  5
B3AA
  8
ALPHA
 10
204.585579
 20
-149.286879
 30
0.0
  0
SEQEND
  5
B3AB
  8
ALPHA
  0
POLYLINE
  5
B070
  8
ALPHA
 66
     1
 10
0.0
 20
0.0
 30
0.0
  0
VERTEX
  5
B3AC
  8
ALPHA
 10
203.741487
 20
-149.284442
 30
0.0
  0
VERTEX
  5
B3AD
  8
ALPHA
 10
203.755605
 20
-149.285785
 30
0.0
  0
VERTEX
  5
B3AE
  8
ALPHA
 10
203.770417
 20
-149.286604
 30
0.0
  0
VERTEX
  5
B3AF
  8
ALPHA
 10
203.785579
 20
-149.286879
 30
0.0
  0
SEQEND
  5
B3B0
  8
ALPHA
  0
LINE
  5
B071
  8
ALPHA
 10
204.585579
 20
-149.286879
 30
0.0
 11
203.785579
 21
-149.286879
 31
0.0
  0
POLYLINE
  5
B072
  8
ALPHA
 66
     1
 10
0.0
 20
0.0
 30
0.0
  0
VERTEX
  5
B3B1
  8
ALPHA
 10
203.686637
 20
-148.981987
 30
0.0
  0
VERTEX
  5
B3B2
  8
ALPHA
 10
203.704229
 20
-149.003812
 30
0.0
  0
VERTEX
  5
B3B3
  8
ALPHA
 10
203.739839
 20
-149.019197
 30
0.0
  0
VERTEX
  5
B3B4
  8
ALPHA
 10
203.785579
 20
-149.024734
 30
0.0
  0
SEQEND
  5
B3B5
  8
ALPHA
  0
LINE
  5
B073
  8
ALPHA
 10
204.685579
 20
-148.255144
 30
0.0
 11
204.685549
 21
-148.936958
 31
0.0
  0
LINE
  5
B074
  8
ALPHA
 10
204.585579
 20
-148.615648
 30
0.0
 11
204.585579
 21
-147.842443
 31
0.0
  0
LINE
  5
B075
  8
ALPHA
 10
204.585579
 20
-149.37023
 30
0.0
 11
204.585579
 21
-148.665648
 31
0.0
  0
LINE
  5
B076
  8
ALPHA
 10
203.785578
 20
-148.665648
 30
0.0
 11
203.785579
 21
-149.37023
 31
0.0
  0
LINE
  5
B077
  8
ALPHA
 10
203.785579
 20
-147.842443
 30
0.0
 11
203.785578
 21
-148.615648
 31
0.0
  0
LINE
  5
B078
  8
ALPHA
 10
203.685579
 20
-148.255144
 30
0.0
 11
203.685609
 21
-148.936958
 31
0.0
  0
POLYLINE
  5
B079
  8
ALPHA
 66
     1
 10
0.0
 20
0.0
 30
0.0
  0
VERTEX
  5
B3B6
  8
ALPHA
 10
204.684522
 20
-148.981987
 30
0.0
  0
VERTEX
  5
B3B7
  8
ALPHA
 10
204.66693
 20
-149.003812
 30
0.0
  0
VERTEX
  5
B3B8
  8
ALPHA
 10
204.63132
 20
-149.019197
 30
0.0
  0
VERTEX
  5
B3B9
  8
ALPHA
 10
204.585579
 20
-149.024734
 30
0.0
  0
SEQEND
  5
B3BA
  8
ALPHA
  0
LINE
  5
B07A
  8
ALPHA
 10
207.185579
 20
-147.622443
 30
0.0
 11
207.185579
 21
-150.911155
 31
0.0
  0
LINE
  5
B07B
  8
ALPHA
 10
204.185579
 20
-143.432443
 30
0.0
 11
202.015326
 21
-143.169599
 31
0.0
  0
LINE
  5
B07C
  8
ALPHA
 10
204.185579
 20
-143.432443
 30
0.0
 11
206.355833
 21
-143.169599
 31
0.0
  0
LINE
  5
B07D
  8
ALPHA
 10
203.685579
 20
-146.822443
 30
0.0
 11
204.685579
 21
-146.822443
 31
0.0
  0
LINE
  5
B07E
  8
ALPHA
 10
204.185579
 20
-145.622443
 30
0.0
 11
204.185579
 21
-144.780504
 31
0.0
  0
ARC
  5
B07F
  8
ALPHA
 10
214.185579
 20
-153.122443
 30
0.0
 40
4.375
 50
10.624332
 51
349.375668
  0
CIRCLE
  5
B080
  8
ALPHA
 10
214.185579
 20
-153.122443
 30
0.0
 40
4.075
  0
CIRCLE
  5
B081
  8
ALPHA
 10
214.185579
 20
-153.122443
 30
0.0
 40
2.125
  0
LINE
  5
B082
  8
ALPHA
 10
213.560579
 20
-145.427102
 30
0.0
 11
213.560579
 21
-148.067785
 31
0.0
  0
LINE
  5
B083
  8
ALPHA
 10
213.435579
 20
-147.622443
 30
0.0
 11
213.435579
 21
-145.622443
 31
0.0
  0
LINE
  5
B084
  8
ALPHA
 10
208.177569
 20
-148.597464
 30
0.0
 11
213.560579
 21
-148.067785
 31
0.0
  0
LINE
  5
B085
  8
ALPHA
 10
208.235137
 20
-147.872443
 30
0.0
 11
213.560579
 21
-147.872443
 31
0.0
  0
LINE
  5
B086
  8
ALPHA
 10
208.177569
 20
-148.597464
 30
0.0
 11
208.156088
 21
-151.104013
 31
0.0
  0
LINE
  5
B087
  8
ALPHA
 10
208.110095
 20
-147.842443
 30
0.0
 11
208.108385
 21
-147.872443
 31
0.0
  0
LINE
  5
B088
  8
ALPHA
 10
208.146012
 20
-148.220169
 30
0.0
 11
207.745647
 21
-149.42002
 31
0.0
  0
LINE
  5
B089
  8
ALPHA
 10
208.162763
 20
-148.219637
 30
0.0
 11
208.177569
 21
-148.597464
 31
0.0
  0
LINE
  5
B08A
  8
ALPHA
 10
208.161217
 20
-148.163423
 30
0.0
 11
208.162763
 21
-148.219637
 31
0.0
  0
ARC
  5
B08B
  8
ALPHA
 10
207.93664
 20
-147.842443
 30
0.0
 40
0.3
 50
345.0
 51
354.26083
  0
LINE
  5
B08C
  8
ALPHA
 10
208.108385
 20
-147.872443
 30
0.0
 11
208.226418
 21
-147.872443
 31
0.0
  0
LINE
  5
B08D
  8
ALPHA
 10
208.156103
 20
-151.103845
 30
0.0
 11
207.745647
 21
-149.42002
 31
0.0
  0
LINE
  5
B08E
  8
ALPHA
 10
208.110095
 20
-147.622443
 30
0.0
 11
208.110095
 21
-147.842443
 31
0.0
  0
LINE
  5
B08F
  8
ALPHA
 10
208.226418
 20
-147.920089
 30
0.0
 11
208.146012
 21
-148.220169
 31
0.0
  0
LINE
  5
B090
  8
ALPHA
 10
213.435579
 20
-146.772443
 30
0.0
 11
213.560579
 21
-146.772443
 31
0.0
  0
LINE
  5
B091
  8
ALPHA
 10
213.435579
 20
-147.122443
 30
0.0
 11
213.560579
 21
-147.122443
 31
0.0
  0
LINE
  5
B092
  8
ALPHA
 10
212.185579
 20
-143.122443
 30
0.0
 11
212.185579
 21
-143.639201
 31
0.0
  0
LINE
  5
B093
  8
ALPHA
 10
218.485579
 20
-152.31583
 30
0.0
 11
218.485579
 21
-145.074165
 31
0.0
  0
LINE
  5
B094
  8
ALPHA
 10
218.616829
 20
-153.122443
 30
0.0
 11
218.485579
 21
-153.929057
 31
0.0
  0
LINE
  5
B095
  8
ALPHA
 10
218.485579
 20
-153.929057
 30
0.0
 11
218.190722
 21
-153.873746
 31
0.0
  0
LINE
  5
B096
  8
ALPHA
 10
218.485579
 20
-152.31583
 30
0.0
 11
218.616829
 21
-153.122443
 31
0.0
  0
LINE
  5
B097
  8
ALPHA
 10
218.485579
 20
-152.31583
 30
0.0
 11
218.190722
 21
-152.371141
 31
0.0
  0
LINE
  5
B098
  8
ALPHA
 10
218.916263
 20
-145.131948
 30
0.0
 11
218.800842
 21
-144.840028
 31
0.0
  0
LINE
  5
B099
  8
ALPHA
 10
219.185579
 20
-145.326561
 30
0.0
 11
218.916263
 21
-145.131948
 31
0.0
  0
LINE
  5
B09A
  8
ALPHA
 10
218.485579
 20
-145.074165
 30
0.0
 11
218.916263
 21
-145.131948
 31
0.0
  0
ARC
  5
B09B
  8
ALPHA
 10
218.685579
 20
-145.326561
 30
0.0
 40
0.5
 50
0.0
 51
76.672038
  0
LINE
  5
B09C
  8
ALPHA
 10
218.485579
 20
-145.074165
 30
0.0
 11
218.553567
 21
-144.78197
 31
0.0
  0
LINE
  5
B09D
  8
ALPHA
 10
230.187511
 20
-195.336907
 30
0.0
 11
228.275942
 21
-188.180177
 31
0.0
  0
VIEWPORT
  5
494D
 67
     1
  8
0
 10
4.995325
 20
6.556512
 30
0.0
 40
22.70986
 41
13.988421
 68
    -1
 69
     1
1001
ACAD
1000
MVIEW
1002
{
1070
    16
1010
0.0
1020
0.0
1030
0.0
1010
0.0
1020
0.0
1030
1.0
1040
0.0
1040
13.988421
1040
4.995325
1040
6.556512
1040
50.0
1040
0.0
1040
0.0
1070
     0
1070
   100
1070
     1
1070
     1
1070
     0
1070
     0
1070
     0
1070
     0
1040
0.0
1040
0.0
1040
0.0
1040
10.0
1040
10.0
1040
10.0
1040
10.0
1070
     0
1002
{
1002
}
1002
}
  0
ENDSEC
  0
EOF
