  0
SECTION
  2
HEADER
  9
$ACADVER
  1
AC1009
  9
$INSBASE
 10
402.590624
 20
-1.041018
 30
0.0
  9
$EXTMIN
 10
-33.112627
 20
-167.196253
 30
0.0
  9
$EXTMAX
 10
174.677028
 20
-69.667072
 30
0.0
  9
$LIMMIN
 10
-407.970438
 20
-367.832444
  9
$LIMMAX
 10
429.804077
 20
234.370848
  9
$ORTHOMODE
 70
     1
  9
$REGENMODE
 70
     1
  9
$FILLMODE
 70
     1
  9
$QTEXTMODE
 70
     0
  9
$MIRRTEXT
 70
     1
  9
$DRAGMODE
 70
     2
  9
$LTSCALE
 40
10.0
  9
$OSMODE
 70
   161
  9
$ATTMODE
 70
     1
  9
$TEXTSIZE
 40
6.0
  9
$TRACEWID
 40
1.0
  9
$TEXTSTYLE
  7
ROMANS
  9
$CLAYER
  8
ALPHA
  9
$CELTYPE
  6
BYLAYER
  9
$CECOLOR
 62
   256
  9
$DIMSCALE
 40
1.0
  9
$DIMASZ
 40
5.0
  9
$DIMEXO
 40
2.0
  9
$DIMDLI
 40
0.38
  9
$DIMRND
 40
0.0
  9
$DIMDLE
 40
0.0
  9
$DIMEXE
 40
2.5
  9
$DIMTP
 40
0.0
  9
$DIMTM
 40
0.0
  9
$DIMTXT
 40
2.5
  9
$DIMCEN
 40
0.0
  9
$DIMTSZ
 40
0.0
  9
$DIMTOL
 70
     0
  9
$DIMLIM
 70
     0
  9
$DIMTIH
 70
     1
  9
$DIMTOH
 70
     1
  9
$DIMSE1
 70
     0
  9
$DIMSE2
 70
     0
  9
$DIMTAD
 70
     1
  9
$DIMZIN
 70
    12
  9
$DIMBLK
  1
OPEN30
  9
$DIMASO
 70
     1
  9
$DIMSHO
 70
     1
  9
$DIMPOST
  1

  9
$DIMAPOST
  1

  9
$DIMALT
 70
     0
  9
$DIMALTD
 70
     2
  9
$DIMALTF
 40
25.4
  9
$DIMLFAC
 40
1.0
  9
$DIMTOFL
 70
     0
  9
$DIMTVP
 40
0.0
  9
$DIMTIX
 70
     0
  9
$DIMSOXD
 70
     0
  9
$DIMSAH
 70
     0
  9
$DIMBLK1
  1

  9
$DIMBLK2
  1

  9
$DIMSTYLE
  2
SC_DEFAUT
  9
$DIMCLRD
 70
     0
  9
$DIMCLRE
 70
     0
  9
$DIMCLRT
 70
     0
  9
$DIMTFAC
 40
1.0
  9
$DIMGAP
 40
2.0
  9
$LUNITS
 70
     2
  9
$LUPREC
 70
     1
  9
$SKETCHINC
 40
0.1
  9
$FILLETRAD
 40
0.0
  9
$AUNITS
 70
     0
  9
$AUPREC
 70
     0
  9
$MENU
  1
acad
  9
$ELEVATION
 40
0.0
  9
$PELEVATION
 40
0.0
  9
$THICKNESS
 40
0.0
  9
$LIMCHECK
 70
     0
  9
$BLIPMODE
 70
     0
  9
$CHAMFERA
 40
0.0
  9
$CHAMFERB
 40
0.0
  9
$SKPOLY
 70
     0
  9
$TDCREATE
 40
2450373.687919
  9
$TDUPDATE
 40
2453031.659297
  9
$TDINDWG
 40
1.074588
  9
$TDUSRTIMER
 40
1.074588
  9
$USRTIMER
 70
     1
  9
$ANGBASE
 50
0.0
  9
$ANGDIR
 70
     0
  9
$PDMODE
 70
    32
  9
$PDSIZE
 40
0.0
  9
$PLINEWID
 40
0.0
  9
$COORDS
 70
     1
  9
$SPLFRAME
 70
     0
  9
$SPLINETYPE
 70
     6
  9
$SPLINESEGS
 70
     8
  9
$ATTDIA
 70
     0
  9
$ATTREQ
 70
     1
  9
$HANDLING
 70
     1
  9
$HANDSEED
  5
A14C
  9
$SURFTAB1
 70
     6
  9
$SURFTAB2
 70
     6
  9
$SURFTYPE
 70
     6
  9
$SURFU
 70
     6
  9
$SURFV
 70
     6
  9
$UCSNAME
  2

  9
$UCSORG
 10
0.0
 20
0.0
 30
0.0
  9
$UCSXDIR
 10
1.0
 20
0.0
 30
0.0
  9
$UCSYDIR
 10
0.0
 20
1.0
 30
0.0
  9
$PUCSNAME
  2

  9
$PUCSORG
 10
0.0
 20
0.0
 30
0.0
  9
$PUCSXDIR
 10
1.0
 20
0.0
 30
0.0
  9
$PUCSYDIR
 10
0.0
 20
1.0
 30
0.0
  9
$USERI1
 70
     0
  9
$USERI2
 70
     0
  9
$USERI3
 70
     0
  9
$USERI4
 70
     0
  9
$USERI5
 70
     0
  9
$USERR1
 40
0.0
  9
$USERR2
 40
0.0
  9
$USERR3
 40
0.0
  9
$USERR4
 40
0.0
  9
$USERR5
 40
0.0
  9
$WORLDVIEW
 70
     1
  9
$SHADEDGE
 70
     3
  9
$SHADEDIF
 70
    70
  9
$TILEMODE
 70
     1
  9
$MAXACTVP
 70
    16
  9
$PLIMCHECK
 70
     0
  9
$PEXTMIN
 10
-1.452248
 20
-0.437698
 30
0.0
  9
$PEXTMAX
 10
12.749749
 20
8.310198
 30
0.0
  9
$PLIMMIN
 10
0.0
 20
0.0
  9
$PLIMMAX
 10
12.0
 20
9.0
  9
$UNITMODE
 70
     0
  9
$VISRETAIN
 70
     0
  9
$PLINEGEN
 70
     0
  9
$PSLTSCALE
 70
     0
  0
ENDSEC
  0
SECTION
  2
TABLES
  0
TABLE
  2
VPORT
 70
     2
  0
VPORT
  2
*ACTIVE
 70
     0
 10
0.0
 20
0.0
 11
1.0
 21
1.0
 12
70.807166
 22
-118.41832
 13
0.0
 23
0.0
 14
1.0
 24
1.0
 15
10.0
 25
10.0
 16
0.0
 26
0.0
 36
1.0
 17
0.0
 27
0.0
 37
0.0
 40
142.448978
 41
1.466346
 42
50.0
 43
0.0
 44
0.0
 50
0.0
 51
0.0
 71
     0
 72
   100
 73
     1
 74
     0
 75
     0
 76
     0
 77
     0
 78
     0
  0
ENDTAB
  0
TABLE
  2
LTYPE
 70
     2
  0
LTYPE
  2
CONTINUOUS
 70
     0
  3
Solid line
 72
    65
 73
     0
 40
0.0
  0
LTYPE
  2
AXES2
 70
     0
  3
___ _ ___ _ ___ _ ___ _ ___ _ ___ _ ___ _ ___ _
 72
    65
 73
     4
 40
1.125
 49
0.75
 49
-0.125
 49
0.125
 49
-0.125
  0
ENDTAB
  0
TABLE
  2
LAYER
 70
     5
  0
LAYER
  2
0
 70
     0
 62
   255
  6
CONTINUOUS
  0
LAYER
  2
COTATION1
 70
     0
 62
     2
  6
CONTINUOUS
  0
LAYER
  2
AXE
 70
     0
 62
    80
  6
AXES2
  0
LAYER
  2
DEFPOINTS
 70
     0
 62
     7
  6
CONTINUOUS
  0
LAYER
  2
ALPHA
 70
     0
 62
   254
  6
CONTINUOUS
  0
ENDTAB
  0
TABLE
  2
STYLE
 70
     2
  0
STYLE
  2
ROMANS
 70
     0
 40
0.0
 41
1.0
 50
0.0
 71
     0
 42
6.0
  3
romans
  4

  0
STYLE
  2
STANDARD
 70
     0
 40
0.0
 41
1.0
 50
0.0
 71
     0
 42
0.2
  3
txt
  4

  0
ENDTAB
  0
TABLE
  2
VIEW
 70
     0
  0
ENDTAB
  0
TABLE
  2
UCS
 70
     0
  0
ENDTAB
  0
TABLE
  2
APPID
 70
     1
  0
APPID
  2
ACAD
 70
     0
  0
ENDTAB
  0
TABLE
  2
DIMSTYLE
 70
     2
  0
DIMSTYLE
  2
SC_DEFAUT
 70
     0
  3

  4

  5
OPEN30
  6

  7

 40
1.0
 41
5.0
 42
2.0
 43
0.38
 44
2.5
 45
0.0
 46
0.0
 47
0.0
 48
0.0
140
2.5
141
0.0
142
0.0
143
25.4
144
1.0
145
0.0
146
1.0
147
2.0
 71
     0
 72
     0
 73
     1
 74
     1
 75
     0
 76
     0
 77
     1
 78
    12
170
     0
171
     2
172
     0
173
     0
174
     0
175
     0
176
     0
177
     0
178
     0
  0
DIMSTYLE
  2
STANDARD
 70
     0
  3

  4

  5

  6

  7

 40
1.0
 41
0.18
 42
0.0625
 43
0.38
 44
0.18
 45
0.0
 46
0.0
 47
0.0
 48
0.0
140
0.18
141
0.09
142
0.0
143
25.4
144
1.0
145
0.0
146
1.0
147
0.09
 71
     0
 72
     0
 73
     1
 74
     1
 75
     0
 76
     0
 77
     0
 78
     0
170
     0
171
     2
172
     0
173
     0
174
     0
175
     0
176
     0
177
     0
178
     0
  0
ENDTAB
  0
ENDSEC
  0
SECTION
  2
BLOCKS
  0
BLOCK
  8
0
  2
$MODEL_SPACE
 70
     0
 10
0.0
 20
0.0
 30
0.0
  3
$MODEL_SPACE
  1

  0
ENDBLK
  5
A0FB
  8
0
  0
BLOCK
 67
     1
  8
0
  2
$PAPER_SPACE
 70
     0
 10
0.0
 20
0.0
 30
0.0
  3
$PAPER_SPACE
  1

  0
ENDBLK
  5
A0F9
 67
     1
  8
0
  0
BLOCK
  8
0
  2
COTE
 70
     0
 10
0.0
 20
0.0
 30
0.0
  3
COTE
  1

  0
ENDBLK
  5
F
  8
0
  0
BLOCK
  8
0
  2
FOND
 70
     0
 10
0.0
 20
0.0
 30
0.0
  3
FOND
  1

  0
ENDBLK
  5
75
  8
0
  0
BLOCK
  8
0
  2
_OPEN30
 70
     0
 10
0.0
 20
0.0
 30
0.0
  3
_OPEN30
  1

  0
LINE
  5
4B05
  8
COTATION1
 62
     0
 10
-1.0
 20
0.267949
 30
0.0
 11
0.0
 21
0.0
 31
0.0
1001
ACAD
1000
RTLwPs
1070
   158
  0
LINE
  5
4B06
  8
COTATION1
 62
     0
 10
0.0
 20
0.0
 30
0.0
 11
-1.0
 21
-0.267949
 31
0.0
1001
ACAD
1000
RTLwPs
1070
   158
  0
LINE
  5
4B07
  8
COTATION1
 62
     0
 10
0.0
 20
0.0
 30
0.0
 11
-1.0
 21
0.0
 31
0.0
1001
ACAD
1000
RTLwPs
1070
   158
  0
ENDBLK
  5
4B09
  8
0
  0
BLOCK
  8
0
  2
*D3
 70
     1
 10
0.0
 20
0.0
 30
0.0
  3
*D3
  1

  0
LINE
  5
9FAC
  8
COTATION1
 62
     0
 10
154.790963
 20
-142.521253
 30
0.0
 11
173.784171
 21
-142.521253
 31
0.0
1001
ACAD
1000
RTLwPs
1070
   158
  0
LINE
  5
9FAD
  8
COTATION1
 62
     0
 10
154.290963
 20
-154.471253
 30
0.0
 11
173.784171
 21
-154.471253
 31
0.0
1001
ACAD
1000
RTLwPs
1070
   158
  0
LINE
  5
9FAE
  8
COTATION1
 62
     0
 10
171.284171
 20
-137.521253
 30
0.0
 11
171.284171
 21
-132.521253
 31
0.0
1001
ACAD
1000
RTLwPs
1070
   158
  0
LINE
  5
9FAF
  8
COTATION1
 62
     0
 10
171.284171
 20
-159.471253
 30
0.0
 11
171.284171
 21
-164.471253
 31
0.0
1001
ACAD
1000
RTLwPs
1070
   158
  0
TEXT
  5
9FB0
  8
COTATION1
 62
     0
 10
167.415123
 20
-149.666144
 30
0.0
 40
2.5
  1
M12
1001
ACAD
1000
MTEXTBEGIN
1070
    73
1070
     1
1070
    44
1040
1.0
1070
    74
1070
     0
1000
MTEXTEND
  0
INSERT
  5
9FB1
  8
COTATION1
 62
     0
  2
_OPEN30
 10
171.284171
 20
-142.521253
 30
0.0
 41
5.0
 42
5.0
 43
5.0
 50
270.0
1001
ACAD
1000
RTLwPs
1070
   158
  0
INSERT
  5
9FB2
  8
COTATION1
 62
     0
  2
_OPEN30
 10
171.284171
 20
-154.471253
 30
0.0
 41
5.0
 42
5.0
 43
5.0
 50
90.0
1001
ACAD
1000
RTLwPs
1070
   158
  0
POINT
  5
9FB3
  8
DEFPOINTS
 62
     0
 10
152.790963
 20
-142.521253
 30
0.0
  0
POINT
  5
9FB4
  8
DEFPOINTS
 62
     0
 10
152.290963
 20
-154.471253
 30
0.0
  0
POINT
  5
9FB5
  8
DEFPOINTS
 62
     0
 10
171.284171
 20
-154.471253
 30
0.0
  0
ENDBLK
  5
9AD6
  8
0
  0
BLOCK
  8
0
  2
*D4
 70
     1
 10
0.0
 20
0.0
 30
0.0
  3
*D4
  1

  0
LINE
  5
9FA3
  8
COTATION1
 62
     0
 10
155.387373
 20
-141.121253
 30
0.0
 11
155.387373
 21
-128.646253
 31
0.0
1001
ACAD
1000
RTLwPs
1070
   158
  0
LINE
  5
9FA4
  8
COTATION1
 62
     0
 10
114.387373
 20
-143.196253
 30
0.0
 11
114.387373
 21
-128.646253
 31
0.0
1001
ACAD
1000
RTLwPs
1070
   158
  0
LINE
  5
9FA5
  8
COTATION1
 62
     0
 10
150.387373
 20
-131.146253
 30
0.0
 11
119.387373
 21
-131.146253
 31
0.0
1001
ACAD
1000
RTLwPs
1070
   158
  0
INSERT
  5
9FA6
  8
COTATION1
 62
     0
  2
_OPEN30
 10
155.387373
 20
-131.146253
 30
0.0
 41
5.0
 42
5.0
 43
5.0
1001
ACAD
1000
RTLwPs
1070
   158
  0
INSERT
  5
9FA7
  8
COTATION1
 62
     0
  2
_OPEN30
 10
114.387373
 20
-131.146253
 30
0.0
 41
5.0
 42
5.0
 43
5.0
 50
180.0
1001
ACAD
1000
RTLwPs
1070
   158
  0
TEXT
  5
9FA8
  8
COTATION1
 62
     0
 10
132.863564
 20
-129.146253
 30
0.0
 40
2.5
  1
41
1001
ACAD
1000
MTEXTBEGIN
1070
    73
1070
     1
1070
    44
1040
1.0
1070
    74
1070
     0
1000
MTEXTEND
  0
POINT
  5
9FA9
  8
DEFPOINTS
 62
     0
 10
155.387373
 20
-143.121253
 30
0.0
  0
POINT
  5
9FAA
  8
DEFPOINTS
 62
     0
 10
114.387373
 20
-145.196253
 30
0.0
  0
POINT
  5
9FAB
  8
DEFPOINTS
 62
     0
 10
114.387373
 20
-131.146253
 30
0.0
  0
ENDBLK
  5
9B17
  8
0
  0
BLOCK
  8
0
  2
*D5
 70
     1
 10
0.0
 20
0.0
 30
0.0
  3
*D5
  1

  0
LINE
  5
9F25
  8
COTATION1
 62
     0
 10
4.387373
 20
-99.37119
 30
0.0
 11
4.387373
 21
-71.667072
 31
0.0
1001
ACAD
1000
RTLwPs
1070
   158
  0
LINE
  5
9F26
  8
COTATION1
 62
     0
 10
34.387373
 20
-99.37119
 30
0.0
 11
34.387373
 21
-71.667072
 31
0.0
1001
ACAD
1000
RTLwPs
1070
   158
  0
LINE
  5
9F27
  8
COTATION1
 62
     0
 10
9.387373
 20
-74.167072
 30
0.0
 11
29.387373
 21
-74.167072
 31
0.0
1001
ACAD
1000
RTLwPs
1070
   158
  0
INSERT
  5
9F28
  8
COTATION1
 62
     0
  2
_OPEN30
 10
4.387373
 20
-74.167072
 30
0.0
 41
5.0
 42
5.0
 43
5.0
 50
180.0
1001
ACAD
1000
RTLwPs
1070
   158
  0
INSERT
  5
9F29
  8
COTATION1
 62
     0
  2
_OPEN30
 10
34.387373
 20
-74.167072
 30
0.0
 41
5.0
 42
5.0
 43
5.0
1001
ACAD
1000
RTLwPs
1070
   158
  0
TEXT
  5
9F2A
  8
COTATION1
 62
     0
 10
17.006421
 20
-72.167072
 30
0.0
 40
2.5
  1
30
1001
ACAD
1000
MTEXTBEGIN
1070
    73
1070
     1
1070
    44
1040
1.0
1070
    74
1070
     0
1000
MTEXTEND
  0
POINT
  5
9F2B
  8
DEFPOINTS
 62
     0
 10
4.387373
 20
-101.37119
 30
0.0
  0
POINT
  5
9F2C
  8
DEFPOINTS
 62
     0
 10
34.387373
 20
-101.37119
 30
0.0
  0
POINT
  5
9F2D
  8
DEFPOINTS
 62
     0
 10
34.387373
 20
-74.167072
 30
0.0
  0
ENDBLK
  5
9EF5
  8
0
  0
BLOCK
  8
0
  2
*D6
 70
     1
 10
0.0
 20
0.0
 30
0.0
  3
*D6
  1

  0
LINE
  5
9F2E
  8
COTATION1
 62
     0
 10
9.387373
 20
-100.092072
 30
0.0
 11
9.387373
 21
-81.667072
 31
0.0
1001
ACAD
1000
RTLwPs
1070
   158
  0
LINE
  5
9F2F
  8
COTATION1
 62
     0
 10
29.387373
 20
-100.092072
 30
0.0
 11
29.387373
 21
-81.667072
 31
0.0
1001
ACAD
1000
RTLwPs
1070
   158
  0
LINE
  5
9F30
  8
COTATION1
 62
     0
 10
14.387373
 20
-84.167072
 30
0.0
 11
24.387373
 21
-84.167072
 31
0.0
1001
ACAD
1000
RTLwPs
1070
   158
  0
INSERT
  5
9F31
  8
COTATION1
 62
     0
  2
_OPEN30
 10
9.387373
 20
-84.167072
 30
0.0
 41
5.0
 42
5.0
 43
5.0
 50
180.0
1001
ACAD
1000
RTLwPs
1070
   158
  0
INSERT
  5
9F32
  8
COTATION1
 62
     0
  2
_OPEN30
 10
29.387373
 20
-84.167072
 30
0.0
 41
5.0
 42
5.0
 43
5.0
1001
ACAD
1000
RTLwPs
1070
   158
  0
TEXT
  5
9F33
  8
COTATION1
 62
     0
 10
17.006421
 20
-82.167072
 30
0.0
 40
2.5
  1
20
1001
ACAD
1000
MTEXTBEGIN
1070
    73
1070
     1
1070
    44
1040
1.0
1070
    74
1070
     0
1000
MTEXTEND
  0
POINT
  5
9F34
  8
DEFPOINTS
 62
     0
 10
9.387373
 20
-102.092072
 30
0.0
  0
POINT
  5
9F35
  8
DEFPOINTS
 62
     0
 10
29.387373
 20
-102.092072
 30
0.0
  0
POINT
  5
9F36
  8
DEFPOINTS
 62
     0
 10
29.387373
 20
-84.167072
 30
0.0
  0
ENDBLK
  5
9F01
  8
0
  0
BLOCK
  8
0
  2
*D7
 70
     1
 10
0.0
 20
0.0
 30
0.0
  3
*D7
  1

  0
LINE
  5
A073
  8
COTATION1
 62
     0
 10
-26.24798
 20
-89.32432
 30
0.0
 11
-12.343218
 21
-89.32432
 31
0.0
  0
LINE
  5
A074
  8
COTATION1
 62
     0
 10
-12.343218
 20
-89.32432
 30
0.0
 11
4.125879
 21
-104.362668
 31
0.0
  0
TEXT
  5
A075
  8
COTATION1
 62
     0
 10
-26.605123
 20
-87.32432
 30
0.0
 40
2.5
  1
2x%%c4.3
  0
INSERT
  5
A076
  8
COTATION1
 62
     0
  2
_OPEN30
 10
7.818156
 20
-107.73418
 30
0.0
 41
5.0
 42
5.0
 43
5.0
 50
317.600007
  0
POINT
  5
A077
  8
DEFPOINTS
 62
     0
 10
7.818156
 20
-107.73418
 30
0.0
  0
POINT
  5
A078
  8
DEFPOINTS
 62
     0
 10
10.956591
 20
-110.599964
 30
0.0
  0
ENDBLK
  5
9F0A
  8
0
  0
BLOCK
  8
0
  2
*D8
 70
     1
 10
0.0
 20
0.0
 30
0.0
  3
*D8
  1

  0
LINE
  5
9F6F
  8
COTATION1
 62
     0
 10
9.387373
 20
-99.167072
 30
0.0
 11
-33.112627
 21
-99.167072
 31
0.0
1001
ACAD
1000
RTLwPs
1070
   158
  0
LINE
  5
9F70
  8
COTATION1
 62
     0
 10
3.587373
 20
-149.167072
 30
0.0
 11
-33.112627
 21
-149.167072
 31
0.0
1001
ACAD
1000
RTLwPs
1070
   158
  0
LINE
  5
9F71
  8
COTATION1
 62
     0
 10
-30.612627
 20
-104.167072
 30
0.0
 11
-30.612627
 21
-120.917072
 31
0.0
1001
ACAD
1000
RTLwPs
1070
   158
  0
LINE
  5
9F72
  8
COTATION1
 62
     0
 10
-30.612627
 20
-144.167072
 30
0.0
 11
-30.612627
 21
-127.417072
 31
0.0
1001
ACAD
1000
RTLwPs
1070
   158
  0
INSERT
  5
9F73
  8
COTATION1
 62
     0
  2
_OPEN30
 10
-30.612627
 20
-99.167072
 30
0.0
 41
5.0
 42
5.0
 43
5.0
 50
90.0
1001
ACAD
1000
RTLwPs
1070
   158
  0
INSERT
  5
9F74
  8
COTATION1
 62
     0
  2
_OPEN30
 10
-30.612627
 20
-149.167072
 30
0.0
 41
5.0
 42
5.0
 43
5.0
 50
270.0
1001
ACAD
1000
RTLwPs
1070
   158
  0
TEXT
  5
9F75
  8
COTATION1
 62
     0
 10
-32.993579
 20
-125.417072
 30
0.0
 40
2.5
  1
50
1001
ACAD
1000
MTEXTBEGIN
1070
    73
1070
     1
1070
    44
1040
1.0
1070
    74
1070
     0
1000
MTEXTEND
  0
POINT
  5
9F76
  8
DEFPOINTS
 62
     0
 10
11.387373
 20
-99.167072
 30
0.0
  0
POINT
  5
9F77
  8
DEFPOINTS
 62
     0
 10
5.587373
 20
-149.167072
 30
0.0
  0
POINT
  5
9F78
  8
DEFPOINTS
 62
     0
 10
-30.612627
 20
-149.167072
 30
0.0
  0
ENDBLK
  5
9F17
  8
0
  0
BLOCK
  8
0
  2
*D9
 70
     1
 10
0.0
 20
0.0
 30
0.0
  3
*D9
  1

  0
LINE
  5
9F65
  8
COTATION1
 62
     0
 10
0.312373
 20
-109.167072
 30
0.0
 11
-23.112627
 21
-109.167072
 31
0.0
1001
ACAD
1000
RTLwPs
1070
   158
  0
LINE
  5
9F66
  8
COTATION1
 62
     0
 10
3.587373
 20
-149.167072
 30
0.0
 11
-23.112627
 21
-149.167072
 31
0.0
1001
ACAD
1000
RTLwPs
1070
   158
  0
LINE
  5
9F67
  8
COTATION1
 62
     0
 10
-20.612627
 20
-114.167072
 30
0.0
 11
-20.612627
 21
-125.917072
 31
0.0
1001
ACAD
1000
RTLwPs
1070
   158
  0
LINE
  5
9F68
  8
COTATION1
 62
     0
 10
-20.612627
 20
-144.167072
 30
0.0
 11
-20.612627
 21
-132.417072
 31
0.0
1001
ACAD
1000
RTLwPs
1070
   158
  0
INSERT
  5
9F69
  8
COTATION1
 62
     0
  2
_OPEN30
 10
-20.612627
 20
-109.167072
 30
0.0
 41
5.0
 42
5.0
 43
5.0
 50
90.0
1001
ACAD
1000
RTLwPs
1070
   158
  0
INSERT
  5
9F6A
  8
COTATION1
 62
     0
  2
_OPEN30
 10
-20.612627
 20
-149.167072
 30
0.0
 41
5.0
 42
5.0
 43
5.0
 50
270.0
1001
ACAD
1000
RTLwPs
1070
   158
  0
TEXT
  5
9F6B
  8
COTATION1
 62
     0
 10
-22.993579
 20
-130.417072
 30
0.0
 40
2.5
  1
40
1001
ACAD
1000
MTEXTBEGIN
1070
    73
1070
     1
1070
    44
1040
1.0
1070
    74
1070
     0
1000
MTEXTEND
  0
POINT
  5
9F6C
  8
DEFPOINTS
 62
     0
 10
2.312373
 20
-109.167072
 30
0.0
  0
POINT
  5
9F6D
  8
DEFPOINTS
 62
     0
 10
5.587373
 20
-149.167072
 30
0.0
  0
POINT
  5
9F6E
  8
DEFPOINTS
 62
     0
 10
-20.612627
 20
-149.167072
 30
0.0
  0
ENDBLK
  5
9F24
  8
0
  0
BLOCK
  8
0
  2
*D10
 70
     1
 10
0.0
 20
0.0
 30
0.0
  3
*D10
  1

  0
LINE
  5
9FDE
  8
COTATION1
 62
     0
 10
114.387373
 20
-143.196253
 30
0.0
 11
114.387373
 21
-128.646253
 31
0.0
1001
ACAD
1000
RTLwPs
1070
   158
  0
LINE
  5
9FDF
  8
COTATION1
 62
     0
 10
34.38058
 20
-141.339861
 30
0.0
 11
34.38058
 21
-128.646253
 31
0.0
1001
ACAD
1000
RTLwPs
1070
   158
  0
LINE
  5
9FE0
  8
COTATION1
 62
     0
 10
109.387373
 20
-131.146253
 30
0.0
 11
39.38058
 21
-131.146253
 31
0.0
1001
ACAD
1000
RTLwPs
1070
   158
  0
INSERT
  5
9FE1
  8
COTATION1
 62
     0
  2
_OPEN30
 10
114.387373
 20
-131.146253
 30
0.0
 41
5.0
 42
5.0
 43
5.0
1001
ACAD
1000
RTLwPs
1070
   158
  0
INSERT
  5
9FE2
  8
COTATION1
 62
     0
  2
_OPEN30
 10
34.38058
 20
-131.146253
 30
0.0
 41
5.0
 42
5.0
 43
5.0
 50
180.0
1001
ACAD
1000
RTLwPs
1070
   158
  0
TEXT
  5
9FE3
  8
COTATION1
 62
     0
 10
70.812548
 20
-129.146253
 30
0.0
 40
2.5
  1
800
1001
ACAD
1000
MTEXTBEGIN
1070
    73
1070
     1
1070
    44
1040
1.0
1070
    74
1070
     0
1000
MTEXTEND
  0
POINT
  5
9FE4
  8
DEFPOINTS
 62
     0
 10
114.387373
 20
-145.196253
 30
0.0
  0
POINT
  5
9FE5
  8
DEFPOINTS
 62
     0
 10
34.38058
 20
-143.339861
 30
0.0
  0
POINT
  5
9FE6
  8
DEFPOINTS
 62
     0
 10
34.38058
 20
-131.146253
 30
0.0
  0
ENDBLK
  5
9FC2
  8
0
  0
ENDSEC
  0
SECTION
  2
ENTITIES
  0
INSERT
  5
A
  8
0
  2
COTE
 10
0.0
 20
0.0
 30
0.0
  0
INSERT
  5
17
  8
0
  2
COTE
 10
284.010391
 20
6.373258
 30
0.0
  0
INSERT
  5
72
  8
0
  2
FOND
 10
0.0
 20
0.0
 30
0.0
  0
LINE
  5
9999
  8
ALPHA
 10
114.387373
 20
-145.696253
 30
0.0
 11
80.882261
 21
-145.696253
 31
0.0
  0
LINE
  5
999A
  8
ALPHA
 10
114.387373
 20
-151.296253
 30
0.0
 11
84.115423
 21
-151.296253
 31
0.0
  0
LINE
  5
999B
  8
ALPHA
 10
146.444553
 20
-143.121253
 30
0.0
 11
144.887373
 21
-143.121253
 31
0.0
  0
LINE
  5
999C
  8
ALPHA
 10
145.944553
 20
-153.871253
 30
0.0
 11
144.887373
 21
-153.871253
 31
0.0
  0
LINE
  5
999D
  8
ALPHA
 10
150.944553
 20
-153.871253
 30
0.0
 11
151.407027
 21
-143.188478
 31
0.0
  0
LINE
  5
999E
  8
ALPHA
 10
146.816769
 20
-150.803268
 30
0.0
 11
146.675575
 21
-153.804689
 31
0.0
  0
LINE
  5
999F
  8
ALPHA
 10
148.137373
 20
-143.121253
 30
0.0
 11
147.674874
 21
-153.803999
 31
0.0
  0
LINE
  5
99A0
  8
ALPHA
 10
149.137374
 20
-143.121253
 30
0.0
 11
148.673184
 21
-153.735771
 31
0.0
  0
LINE
  5
99A1
  8
ALPHA
 10
148.718647
 20
-143.135002
 30
0.0
 11
148.36328
 21
-153.857503
 31
0.0
  0
LINE
  5
99A2
  8
ALPHA
 10
151.137373
 20
-143.121253
 30
0.0
 11
150.673191
 21
-153.735711
 31
0.0
  0
LINE
  5
99A3
  8
ALPHA
 10
152.137374
 20
-143.121253
 30
0.0
 11
151.67543
 21
-153.804553
 31
0.0
  0
LINE
  5
99A4
  8
ALPHA
 10
149.540963
 20
-148.496253
 30
0.0
 11
149.36328
 21
-153.857503
 31
0.0
  0
LINE
  5
99A5
  8
ALPHA
 10
152.815288
 20
-150.848359
 30
0.0
 11
152.647166
 21
-153.869978
 31
0.0
  0
LINE
  5
99A6
  8
ALPHA
 10
151.944554
 20
-153.871253
 30
0.0
 11
152.406325
 21
-143.187791
 31
0.0
  0
LINE
  5
99A7
  8
ALPHA
 10
147.718647
 20
-143.135002
 30
0.0
 11
147.363279
 21
-153.857503
 31
0.0
  0
LINE
  5
99A8
  8
ALPHA
 10
148.944553
 20
-153.871253
 30
0.0
 11
149.194553
 21
-148.496253
 31
0.0
  0
LINE
  5
99A9
  8
ALPHA
 10
146.479677
 20
-150.744621
 30
0.0
 11
146.363279
 21
-153.857503
 31
0.0
  0
LINE
  5
99AA
  8
ALPHA
 10
145.944553
 20
-153.871253
 30
0.0
 11
146.29648
 21
-145.2673
 31
0.0
  0
LINE
  5
99AB
  8
ALPHA
 10
146.944553
 20
-153.871253
 30
0.0
 11
147.406445
 21
-143.187902
 31
0.0
  0
LINE
  5
99AC
  8
ALPHA
 10
147.944553
 20
-153.871253
 30
0.0
 11
148.408732
 21
-143.256824
 31
0.0
  0
LINE
  5
99AD
  8
ALPHA
 10
149.887373
 20
-148.496253
 30
0.0
 11
149.674917
 21
-153.809603
 31
0.0
  0
LINE
  5
99AE
  8
ALPHA
 10
152.480004
 20
-150.733319
 30
0.0
 11
152.36328
 21
-153.857503
 31
0.0
  0
LINE
  5
99AF
  8
ALPHA
 10
151.718647
 20
-143.135002
 30
0.0
 11
151.36328
 21
-153.857503
 31
0.0
  0
LINE
  5
99B0
  8
ALPHA
 10
149.944553
 20
-153.871253
 30
0.0
 11
150.408723
 21
-143.256883
 31
0.0
  0
LINE
  5
99B1
  8
ALPHA
 10
150.718647
 20
-143.135002
 30
0.0
 11
150.363279
 21
-153.857503
 31
0.0
  0
LINE
  5
99B2
  8
ALPHA
 10
155.387373
 20
-143.121253
 30
0.0
 11
155.387373
 21
-153.871253
 31
0.0
  0
LINE
  5
99B3
  8
ALPHA
 10
155.387373
 20
-153.871253
 30
0.0
 11
152.637374
 21
-153.871253
 31
0.0
  0
LINE
  5
99B4
  8
ALPHA
 10
149.645529
 20
-153.864198
 30
0.0
 11
149.298301
 21
-154.464904
 31
0.0
  0
LINE
  5
99B5
  8
ALPHA
 10
151.645529
 20
-153.864198
 30
0.0
 11
151.298301
 21
-154.464904
 31
0.0
  0
LINE
  5
99B6
  8
ALPHA
 10
151.675256
 20
-153.809982
 30
0.0
 11
151.647129
 21
-153.870016
 31
0.0
  0
LINE
  5
99B7
  8
ALPHA
 10
152.36328
 20
-153.857503
 30
0.0
 11
152.297643
 21
-154.464564
 31
0.0
  0
LINE
  5
99B8
  8
ALPHA
 10
152.283626
 20
-154.464904
 30
0.0
 11
151.936398
 21
-153.864198
 31
0.0
  0
LINE
  5
99B9
  8
ALPHA
 10
152.645529
 20
-153.864198
 30
0.0
 11
152.298302
 21
-154.464904
 31
0.0
  0
LINE
  5
99BA
  8
ALPHA
 10
152.297643
 20
-154.464564
 30
0.0
 11
152.284283
 21
-154.464565
 31
0.0
  0
LINE
  5
99BB
  8
ALPHA
 10
151.944554
 20
-153.871253
 30
0.0
 11
151.637373
 21
-153.871253
 31
0.0
  0
LINE
  5
99BC
  8
ALPHA
 10
150.675651
 20
-153.80476
 30
0.0
 11
150.647114
 21
-153.870032
 31
0.0
  0
LINE
  5
99BD
  8
ALPHA
 10
150.673191
 20
-153.735711
 30
0.0
 11
150.675651
 21
-153.80476
 31
0.0
  0
LINE
  5
99BE
  8
ALPHA
 10
149.674917
 20
-153.809603
 30
0.0
 11
149.647153
 21
-153.869992
 31
0.0
  0
LINE
  5
99BF
  8
ALPHA
 10
151.36328
 20
-153.857503
 30
0.0
 11
151.297643
 21
-154.464565
 31
0.0
  0
LINE
  5
99C0
  8
ALPHA
 10
150.363279
 20
-153.857503
 30
0.0
 11
150.297643
 21
-154.464565
 31
0.0
  0
LINE
  5
99C1
  8
ALPHA
 10
151.283625
 20
-154.464904
 30
0.0
 11
150.936398
 21
-153.864198
 31
0.0
  0
LINE
  5
99C2
  8
ALPHA
 10
150.283625
 20
-154.464904
 30
0.0
 11
149.936397
 21
-153.864198
 31
0.0
  0
LINE
  5
99C3
  8
ALPHA
 10
151.297643
 20
-154.464565
 30
0.0
 11
151.284283
 21
-154.464565
 31
0.0
  0
LINE
  5
99C4
  8
ALPHA
 10
150.645528
 20
-153.864198
 30
0.0
 11
150.2983
 21
-154.464904
 31
0.0
  0
LINE
  5
99C5
  8
ALPHA
 10
150.297643
 20
-154.464565
 30
0.0
 11
150.284283
 21
-154.464564
 31
0.0
  0
LINE
  5
99C6
  8
ALPHA
 10
149.944553
 20
-153.871253
 30
0.0
 11
149.637374
 21
-153.871253
 31
0.0
  0
LINE
  5
99C7
  8
ALPHA
 10
150.944553
 20
-153.871253
 30
0.0
 11
150.637373
 21
-153.871253
 31
0.0
  0
LINE
  5
99C8
  8
ALPHA
 10
147.645528
 20
-153.864198
 30
0.0
 11
147.298301
 21
-154.464904
 31
0.0
  0
LINE
  5
99C9
  8
ALPHA
 10
147.674725
 20
-153.809376
 30
0.0
 11
147.647165
 21
-153.869978
 31
0.0
  0
LINE
  5
99CA
  8
ALPHA
 10
148.67564
 20
-153.804749
 30
0.0
 11
148.647116
 21
-153.870031
 31
0.0
  0
LINE
  5
99CB
  8
ALPHA
 10
148.673184
 20
-153.735771
 30
0.0
 11
148.67564
 21
-153.804749
 31
0.0
  0
LINE
  5
99CC
  8
ALPHA
 10
148.36328
 20
-153.857503
 30
0.0
 11
148.297643
 21
-154.464565
 31
0.0
  0
LINE
  5
99CD
  8
ALPHA
 10
149.36328
 20
-153.857503
 30
0.0
 11
149.297643
 21
-154.464565
 31
0.0
  0
LINE
  5
99CE
  8
ALPHA
 10
149.283626
 20
-154.464904
 30
0.0
 11
148.936398
 21
-153.864198
 31
0.0
  0
LINE
  5
99CF
  8
ALPHA
 10
148.283626
 20
-154.464904
 30
0.0
 11
147.936398
 21
-153.864198
 31
0.0
  0
LINE
  5
99D0
  8
ALPHA
 10
149.297643
 20
-154.464565
 30
0.0
 11
149.284283
 21
-154.464565
 31
0.0
  0
LINE
  5
99D1
  8
ALPHA
 10
148.645529
 20
-153.864198
 30
0.0
 11
148.298301
 21
-154.464904
 31
0.0
  0
LINE
  5
99D2
  8
ALPHA
 10
148.297643
 20
-154.464565
 30
0.0
 11
148.284283
 21
-154.464565
 31
0.0
  0
LINE
  5
99D3
  8
ALPHA
 10
147.944553
 20
-153.871253
 30
0.0
 11
147.637373
 21
-153.871253
 31
0.0
  0
LINE
  5
99D4
  8
ALPHA
 10
148.944553
 20
-153.871253
 30
0.0
 11
148.637374
 21
-153.871253
 31
0.0
  0
LINE
  5
99D5
  8
ALPHA
 10
146.675395
 20
-153.810133
 30
0.0
 11
146.647119
 21
-153.870026
 31
0.0
  0
LINE
  5
99D6
  8
ALPHA
 10
147.363279
 20
-153.857503
 30
0.0
 11
147.297643
 21
-154.464565
 31
0.0
  0
LINE
  5
99D7
  8
ALPHA
 10
146.363279
 20
-153.857503
 30
0.0
 11
146.297643
 21
-154.464565
 31
0.0
  0
LINE
  5
99D8
  8
ALPHA
 10
147.283625
 20
-154.464904
 30
0.0
 11
146.936397
 21
-153.864198
 31
0.0
  0
LINE
  5
99D9
  8
ALPHA
 10
146.283625
 20
-154.464904
 30
0.0
 11
145.936398
 21
-153.864198
 31
0.0
  0
LINE
  5
99DA
  8
ALPHA
 10
147.297643
 20
-154.464565
 30
0.0
 11
147.284283
 21
-154.464565
 31
0.0
  0
LINE
  5
99DB
  8
ALPHA
 10
146.645528
 20
-153.864198
 30
0.0
 11
146.298301
 21
-154.464904
 31
0.0
  0
LINE
  5
99DC
  8
ALPHA
 10
146.297643
 20
-154.464565
 30
0.0
 11
146.284283
 21
-154.464565
 31
0.0
  0
LINE
  5
99DD
  8
ALPHA
 10
146.944553
 20
-153.871253
 30
0.0
 11
146.637373
 21
-153.871253
 31
0.0
  0
LINE
  5
99DE
  8
ALPHA
 10
155.387373
 20
-143.121253
 30
0.0
 11
153.137374
 21
-143.121253
 31
0.0
  0
LINE
  5
99DF
  8
ALPHA
 10
149.436398
 20
-143.128308
 30
0.0
 11
149.783625
 21
-142.527602
 31
0.0
  0
LINE
  5
99E0
  8
ALPHA
 10
149.718647
 20
-143.135002
 30
0.0
 11
149.540963
 21
-148.496253
 31
0.0
  0
LINE
  5
99E1
  8
ALPHA
 10
150.137373
 20
-143.121253
 30
0.0
 11
149.887373
 21
-148.496253
 31
0.0
  0
LINE
  5
99E2
  8
ALPHA
 10
152.921409
 20
-147.355543
 30
0.0
 11
152.850533
 21
-149.72936
 31
0.0
  0
LINE
  5
99E3
  8
ALPHA
 10
152.574784
 20
-147.236513
 30
0.0
 11
152.50772
 21
-149.734712
 31
0.0
  0
LINE
  5
99E4
  8
ALPHA
 10
152.818608
 20
-150.742512
 30
0.0
 11
152.815288
 21
-150.848359
 31
0.0
  0
LINE
  5
99E5
  8
ALPHA
 10
152.833282
 20
-150.2788
 30
0.0
 11
152.818608
 21
-150.742512
 31
0.0
  0
LINE
  5
99E6
  8
ALPHA
 10
152.836446
 20
-150.1789
 30
0.0
 11
152.833282
 21
-150.2788
 31
0.0
  0
LINE
  5
99E7
  8
ALPHA
 10
152.850533
 20
-149.72936
 30
0.0
 11
152.836446
 21
-150.1789
 31
0.0
  0
LINE
  5
99E8
  8
ALPHA
 10
152.505249
 20
-149.825834
 30
0.0
 11
152.480004
 21
-150.733319
 31
0.0
  0
LINE
  5
99E9
  8
ALPHA
 10
152.50772
 20
-149.734712
 30
0.0
 11
152.505249
 21
-149.825834
 31
0.0
  0
LINE
  5
99EA
  8
ALPHA
 10
151.436398
 20
-143.128308
 30
0.0
 11
151.783626
 21
-142.527602
 31
0.0
  0
LINE
  5
99EB
  8
ALPHA
 10
152.924799
 20
-147.245859
 30
0.0
 11
152.921409
 21
-147.355543
 31
0.0
  0
LINE
  5
99EC
  8
ALPHA
 10
152.939338
 20
-146.782207
 30
0.0
 11
152.924799
 21
-147.245859
 31
0.0
  0
LINE
  5
99ED
  8
ALPHA
 10
152.942491
 20
-146.682306
 30
0.0
 11
152.939338
 21
-146.782207
 31
0.0
  0
LINE
  5
99EE
  8
ALPHA
 10
152.956177
 20
-146.246842
 30
0.0
 11
152.942491
 21
-146.682306
 31
0.0
  0
LINE
  5
99EF
  8
ALPHA
 10
152.957818
 20
-146.194115
 30
0.0
 11
152.956177
 21
-146.246842
 31
0.0
  0
LINE
  5
99F0
  8
ALPHA
 10
153.137374
 20
-143.121253
 30
0.0
 11
152.957818
 21
-146.194115
 31
0.0
  0
LINE
  5
99F1
  8
ALPHA
 10
152.406506
 20
-143.182345
 30
0.0
 11
152.434809
 21
-143.122477
 31
0.0
  0
LINE
  5
99F2
  8
ALPHA
 10
152.576678
 20
-147.166708
 30
0.0
 11
152.574784
 21
-147.236513
 31
0.0
  0
LINE
  5
99F3
  8
ALPHA
 10
152.60257
 20
-146.236784
 30
0.0
 11
152.576678
 21
-147.166708
 31
0.0
  0
LINE
  5
99F4
  8
ALPHA
 10
152.718647
 20
-143.135002
 30
0.0
 11
152.60257
 21
-146.236784
 31
0.0
  0
LINE
  5
99F5
  8
ALPHA
 10
152.784283
 20
-142.52794
 30
0.0
 11
152.718647
 21
-143.135002
 31
0.0
  0
LINE
  5
99F6
  8
ALPHA
 10
151.784283
 20
-142.52794
 30
0.0
 11
151.718647
 21
-143.135002
 31
0.0
  0
LINE
  5
99F7
  8
ALPHA
 10
152.436398
 20
-143.128308
 30
0.0
 11
152.783626
 21
-142.527602
 31
0.0
  0
LINE
  5
99F8
  8
ALPHA
 10
152.798301
 20
-142.527602
 30
0.0
 11
153.145529
 21
-143.128307
 31
0.0
  0
LINE
  5
99F9
  8
ALPHA
 10
152.797643
 20
-142.527941
 30
0.0
 11
152.784283
 21
-142.52794
 31
0.0
  0
LINE
  5
99FA
  8
ALPHA
 10
151.798301
 20
-142.527602
 30
0.0
 11
152.145529
 21
-143.128307
 31
0.0
  0
LINE
  5
99FB
  8
ALPHA
 10
151.797643
 20
-142.527941
 30
0.0
 11
151.784283
 21
-142.52794
 31
0.0
  0
LINE
  5
99FC
  8
ALPHA
 10
152.444553
 20
-143.121253
 30
0.0
 11
152.137374
 21
-143.121253
 31
0.0
  0
LINE
  5
99FD
  8
ALPHA
 10
149.784283
 20
-142.527941
 30
0.0
 11
149.718647
 21
-143.135002
 31
0.0
  0
LINE
  5
99FE
  8
ALPHA
 10
151.407177
 20
-143.183098
 30
0.0
 11
151.434763
 21
-143.122526
 31
0.0
  0
LINE
  5
99FF
  8
ALPHA
 10
150.406258
 20
-143.187728
 30
0.0
 11
150.434812
 21
-143.122473
 31
0.0
  0
LINE
  5
9A00
  8
ALPHA
 10
150.408723
 20
-143.256883
 30
0.0
 11
150.406258
 21
-143.187728
 31
0.0
  0
LINE
  5
9A01
  8
ALPHA
 10
150.784283
 20
-142.527941
 30
0.0
 11
150.718647
 21
-143.135002
 31
0.0
  0
LINE
  5
9A02
  8
ALPHA
 10
150.436397
 20
-143.128308
 30
0.0
 11
150.783625
 21
-142.527602
 31
0.0
  0
LINE
  5
9A03
  8
ALPHA
 10
150.798301
 20
-142.527602
 30
0.0
 11
151.145528
 21
-143.128307
 31
0.0
  0
LINE
  5
9A04
  8
ALPHA
 10
150.797643
 20
-142.52794
 30
0.0
 11
150.784283
 21
-142.527941
 31
0.0
  0
LINE
  5
9A05
  8
ALPHA
 10
149.798301
 20
-142.527602
 30
0.0
 11
150.145528
 21
-143.128307
 31
0.0
  0
LINE
  5
9A06
  8
ALPHA
 10
149.797643
 20
-142.52794
 30
0.0
 11
149.784283
 21
-142.527941
 31
0.0
  0
LINE
  5
9A07
  8
ALPHA
 10
150.444553
 20
-143.121253
 30
0.0
 11
150.137373
 21
-143.121253
 31
0.0
  0
LINE
  5
9A08
  8
ALPHA
 10
151.444553
 20
-143.121253
 30
0.0
 11
151.137373
 21
-143.121253
 31
0.0
  0
LINE
  5
9A09
  8
ALPHA
 10
146.92436
 20
-147.258441
 30
0.0
 11
146.901784
 21
-148.007144
 31
0.0
  0
LINE
  5
9A0A
  8
ALPHA
 10
146.574492
 20
-147.24725
 30
0.0
 11
146.554319
 21
-147.996708
 31
0.0
  0
LINE
  5
9A0B
  8
ALPHA
 10
149.194553
 20
-148.496253
 30
0.0
 11
149.413024
 21
-143.189831
 31
0.0
  0
LINE
  5
9A0C
  8
ALPHA
 10
146.81827
 20
-150.755061
 30
0.0
 11
146.816769
 21
-150.803268
 31
0.0
  0
LINE
  5
9A0D
  8
ALPHA
 10
146.849658
 20
-149.756045
 30
0.0
 11
146.81827
 21
-150.755061
 31
0.0
  0
LINE
  5
9A0E
  8
ALPHA
 10
146.853214
 20
-149.64105
 30
0.0
 11
146.849658
 21
-149.756045
 31
0.0
  0
LINE
  5
9A0F
  8
ALPHA
 10
146.872356
 20
-149.006245
 30
0.0
 11
146.853214
 21
-149.64105
 31
0.0
  0
LINE
  5
9A10
  8
ALPHA
 10
146.901784
 20
-148.007144
 30
0.0
 11
146.872356
 21
-149.006245
 31
0.0
  0
LINE
  5
9A11
  8
ALPHA
 10
146.505249
 20
-149.825798
 30
0.0
 11
146.479677
 21
-150.744621
 31
0.0
  0
LINE
  5
9A12
  8
ALPHA
 10
146.507428
 20
-149.745448
 30
0.0
 11
146.505249
 21
-149.825798
 31
0.0
  0
LINE
  5
9A13
  8
ALPHA
 10
146.527601
 20
-148.99599
 30
0.0
 11
146.507428
 21
-149.745448
 31
0.0
  0
LINE
  5
9A14
  8
ALPHA
 10
146.554319
 20
-147.996708
 30
0.0
 11
146.527601
 21
-148.99599
 31
0.0
  0
LINE
  5
9A15
  8
ALPHA
 10
147.436398
 20
-143.128308
 30
0.0
 11
147.783625
 21
-142.527602
 31
0.0
  0
LINE
  5
9A16
  8
ALPHA
 10
148.784283
 20
-142.52794
 30
0.0
 11
148.718647
 21
-143.135002
 31
0.0
  0
LINE
  5
9A17
  8
ALPHA
 10
147.784283
 20
-142.527941
 30
0.0
 11
147.718647
 21
-143.135002
 31
0.0
  0
LINE
  5
9A18
  8
ALPHA
 10
149.413024
 20
-143.189831
 30
0.0
 11
149.43429
 21
-143.123115
 31
0.0
  0
LINE
  5
9A19
  8
ALPHA
 10
148.40627
 20
-143.18774
 30
0.0
 11
148.434813
 21
-143.122473
 31
0.0
  0
LINE
  5
9A1A
  8
ALPHA
 10
148.408732
 20
-143.256824
 30
0.0
 11
148.40627
 21
-143.18774
 31
0.0
  0
LINE
  5
9A1B
  8
ALPHA
 10
148.436398
 20
-143.128308
 30
0.0
 11
148.783626
 21
-142.527602
 31
0.0
  0
LINE
  5
9A1C
  8
ALPHA
 10
148.798302
 20
-142.527602
 30
0.0
 11
149.145529
 21
-143.128307
 31
0.0
  0
LINE
  5
9A1D
  8
ALPHA
 10
148.797643
 20
-142.527941
 30
0.0
 11
148.784283
 21
-142.52794
 31
0.0
  0
LINE
  5
9A1E
  8
ALPHA
 10
147.798301
 20
-142.527602
 30
0.0
 11
148.145529
 21
-143.128307
 31
0.0
  0
LINE
  5
9A1F
  8
ALPHA
 10
147.797643
 20
-142.527941
 30
0.0
 11
147.784283
 21
-142.527941
 31
0.0
  0
LINE
  5
9A20
  8
ALPHA
 10
148.444554
 20
-143.121253
 30
0.0
 11
148.137373
 21
-143.121253
 31
0.0
  0
LINE
  5
9A21
  8
ALPHA
 10
149.444553
 20
-143.121253
 30
0.0
 11
149.137374
 21
-143.121253
 31
0.0
  0
LINE
  5
9A22
  8
ALPHA
 10
146.955842
 20
-146.259432
 30
0.0
 11
146.92436
 21
-147.258441
 31
0.0
  0
LINE
  5
9A23
  8
ALPHA
 10
146.959456
 20
-146.144246
 30
0.0
 11
146.955842
 21
-146.259432
 31
0.0
  0
LINE
  5
9A24
  8
ALPHA
 10
146.988324
 20
-145.291603
 30
0.0
 11
146.959456
 21
-146.144246
 31
0.0
  0
LINE
  5
9A25
  8
ALPHA
 10
146.995076
 20
-145.130233
 30
0.0
 11
146.988324
 21
-145.291603
 31
0.0
  0
LINE
  5
9A26
  8
ALPHA
 10
147.137373
 20
-143.121253
 30
0.0
 11
146.995076
 21
-145.130233
 31
0.0
  0
LINE
  5
9A27
  8
ALPHA
 10
146.576678
 20
-147.166672
 30
0.0
 11
146.574492
 21
-147.24725
 31
0.0
  0
LINE
  5
9A28
  8
ALPHA
 10
146.602242
 20
-146.248087
 30
0.0
 11
146.576678
 21
-147.166672
 31
0.0
  0
LINE
  5
9A29
  8
ALPHA
 10
146.631834
 20
-145.278745
 30
0.0
 11
146.602242
 21
-146.248087
 31
0.0
  0
LINE
  5
9A2A
  8
ALPHA
 10
146.718647
 20
-143.135003
 30
0.0
 11
146.631834
 21
-145.278745
 31
0.0
  0
LINE
  5
9A2B
  8
ALPHA
 10
146.784283
 20
-142.527941
 30
0.0
 11
146.718647
 21
-143.135003
 31
0.0
  0
LINE
  5
9A2C
  8
ALPHA
 10
146.302255
 20
-145.130233
 30
0.0
 11
146.434759
 21
-143.122529
 31
0.0
  0
LINE
  5
9A2D
  8
ALPHA
 10
146.29648
 20
-145.2673
 30
0.0
 11
146.302255
 21
-145.130233
 31
0.0
  0
LINE
  5
9A2E
  8
ALPHA
 10
147.40662
 20
-143.182467
 30
0.0
 11
147.4348
 21
-143.122486
 31
0.0
  0
LINE
  5
9A2F
  8
ALPHA
 10
146.436397
 20
-143.128308
 30
0.0
 11
146.783625
 21
-142.527602
 31
0.0
  0
LINE
  5
9A30
  8
ALPHA
 10
146.7983
 20
-142.527602
 30
0.0
 11
147.145528
 21
-143.128307
 31
0.0
  0
LINE
  5
9A31
  8
ALPHA
 10
146.797643
 20
-142.52794
 30
0.0
 11
146.784283
 21
-142.527941
 31
0.0
  0
LINE
  5
9A32
  8
ALPHA
 10
147.444553
 20
-143.121253
 30
0.0
 11
147.137373
 21
-143.121253
 31
0.0
  0
LINE
  5
9A33
  8
ALPHA
 10
129.687373
 20
-153.496253
 30
0.0
 11
126.187373
 21
-152.896253
 31
0.0
  0
LINE
  5
9A34
  8
ALPHA
 10
116.887373
 20
-153.746253
 30
0.0
 11
114.387373
 21
-151.796253
 31
0.0
  0
LINE
  5
9A35
  8
ALPHA
 10
116.887373
 20
-143.246253
 30
0.0
 11
116.887373
 21
-153.746253
 31
0.0
  0
LINE
  5
9A36
  8
ALPHA
 10
117.387373
 20
-143.246253
 30
0.0
 11
117.387373
 21
-153.746253
 31
0.0
  0
LINE
  5
9A37
  8
ALPHA
 10
129.687373
 20
-143.496253
 30
0.0
 11
129.687373
 21
-153.496253
 31
0.0
  0
LINE
  5
9A38
  8
ALPHA
 10
130.187373
 20
-143.496253
 30
0.0
 11
130.187373
 21
-153.496253
 31
0.0
  0
LINE
  5
9A39
  8
ALPHA
 10
131.187373
 20
-142.546253
 30
0.0
 11
131.187373
 21
-154.446253
 31
0.0
  0
LINE
  5
9A3A
  8
ALPHA
 10
135.387373
 20
-141.646253
 30
0.0
 11
135.387373
 21
-155.346253
 31
0.0
  0
LINE
  5
9A3B
  8
ALPHA
 10
136.387373
 20
-141.446253
 30
0.0
 11
136.387373
 21
-155.546253
 31
0.0
  0
LINE
  5
9A3C
  8
ALPHA
 10
136.687373
 20
-155.846253
 30
0.0
 11
136.687373
 21
-141.146253
 31
0.0
  0
LINE
  5
9A3D
  8
ALPHA
 10
144.587373
 20
-155.846253
 30
0.0
 11
144.587373
 21
-141.146253
 31
0.0
  0
LINE
  5
9A3E
  8
ALPHA
 10
144.887373
 20
-141.446253
 30
0.0
 11
144.887373
 21
-155.546253
 31
0.0
  0
LINE
  5
9A3F
  8
ALPHA
 10
144.587373
 20
-155.846253
 30
0.0
 11
136.687373
 21
-155.846253
 31
0.0
  0
ARC
  5
9A40
  8
ALPHA
 10
144.587373
 20
-155.546253
 30
0.0
 40
0.3
 50
270.0
 51
0.0
  0
LINE
  5
9A41
  8
ALPHA
 10
135.387373
 20
-155.346253
 30
0.0
 11
131.187373
 21
-154.446253
 31
0.0
  0
ARC
  5
9A42
  8
ALPHA
 10
136.687373
 20
-155.546253
 30
0.0
 40
0.3
 50
180.0
 51
270.0
  0
LINE
  5
9A43
  8
ALPHA
 10
136.387373
 20
-155.346253
 30
0.0
 11
135.387373
 21
-155.346253
 31
0.0
  0
LINE
  5
9A44
  8
ALPHA
 10
130.187373
 20
-153.496253
 30
0.0
 11
129.687373
 21
-153.496253
 31
0.0
  0
LINE
  5
9A45
  8
ALPHA
 10
117.387373
 20
-153.746253
 30
0.0
 11
116.887373
 21
-153.746253
 31
0.0
  0
LINE
  5
9A46
  8
ALPHA
 10
129.687373
 20
-143.496253
 30
0.0
 11
126.187373
 21
-144.096253
 31
0.0
  0
LINE
  5
9A47
  8
ALPHA
 10
144.587373
 20
-141.146253
 30
0.0
 11
136.687373
 21
-141.146253
 31
0.0
  0
ARC
  5
9A48
  8
ALPHA
 10
144.587373
 20
-141.446253
 30
0.0
 40
0.3
 50
0.0
 51
90.0
  0
LINE
  5
9A49
  8
ALPHA
 10
135.387373
 20
-141.646253
 30
0.0
 11
131.187373
 21
-142.546253
 31
0.0
  0
LINE
  5
9A4A
  8
ALPHA
 10
131.187373
 20
-152.996253
 30
0.0
 11
130.187373
 21
-152.996253
 31
0.0
  0
LINE
  5
9A4B
  8
ALPHA
 10
131.187373
 20
-143.996253
 30
0.0
 11
130.187373
 21
-143.996253
 31
0.0
  0
LINE
  5
9A4C
  8
ALPHA
 10
130.187373
 20
-143.496253
 30
0.0
 11
129.687373
 21
-143.496253
 31
0.0
  0
ARC
  5
9A4D
  8
ALPHA
 10
136.687373
 20
-141.446253
 30
0.0
 40
0.3
 50
90.0
 51
180.0
  0
LINE
  5
9A4E
  8
ALPHA
 10
136.387373
 20
-141.646253
 30
0.0
 11
135.387373
 21
-141.646253
 31
0.0
  0
LINE
  5
9A4F
  8
ALPHA
 10
126.187373
 20
-144.096253
 30
0.0
 11
117.387373
 21
-144.096253
 31
0.0
  0
LINE
  5
9A50
  8
ALPHA
 10
126.187373
 20
-152.896253
 30
0.0
 11
117.387373
 21
-152.896253
 31
0.0
  0
LINE
  5
9A51
  8
ALPHA
 10
126.187373
 20
-144.096253
 30
0.0
 11
126.187373
 21
-152.896253
 31
0.0
  0
LINE
  5
9A52
  8
ALPHA
 10
116.887373
 20
-143.246253
 30
0.0
 11
114.387373
 21
-145.196253
 31
0.0
  0
LINE
  5
9A53
  8
ALPHA
 10
117.387373
 20
-143.246253
 30
0.0
 11
116.887373
 21
-143.246253
 31
0.0
  0
LINE
  5
9A54
  8
ALPHA
 10
114.387373
 20
-145.196253
 30
0.0
 11
114.387373
 21
-151.796253
 31
0.0
  0
LINE
  5
9A55
  8
ALPHA
 10
94.726348
 20
-145.696253
 30
0.0
 11
94.726348
 21
-151.296253
 31
0.0
  0
LINE
  5
9AB4
  8
AXE
 10
159.562204
 20
-148.496253
 30
0.0
 11
82.498842
 21
-148.496253
 31
0.0
  0
DIMENSION
  5
9ABC
  8
COTATION1
  2
*D3
 10
171.284171
 20
-154.471253
 30
0.0
 11
171.284171
 21
-148.416144
 31
0.0
 70
   128
  1
M12
 13
152.790963
 23
-142.521253
 33
0.0
 14
152.290963
 24
-154.471253
 34
0.0
 50
90.0
  0
DIMENSION
  5
9B0B
  8
COTATION1
  2
*D4
 10
114.387373
 20
-131.146253
 30
0.0
 11
134.887373
 21
-127.896253
 31
0.0
 13
155.387373
 23
-143.121253
 33
0.0
 14
114.387373
 24
-145.196253
 34
0.0
 50
180.0
  0
LINE
  5
9DDD
  8
ALPHA
 10
4.387373
 20
-147.967072
 30
0.0
 11
4.387373
 21
-101.37119
 31
0.0
  0
LINE
  5
9DDE
  8
ALPHA
 10
5.087373
 20
-148.647061
 30
0.0
 11
5.087373
 21
-109.973685
 31
0.0
  0
LINE
  5
9DDF
  8
ALPHA
 10
33.687373
 20
-109.973685
 30
0.0
 11
33.687373
 21
-145.102095
 31
0.0
  0
LINE
  5
9DE0
  8
ALPHA
 10
34.387373
 20
-101.37119
 30
0.0
 11
34.387373
 21
-144.667072
 31
0.0
  0
TEXT
  5
9DE1
  8
AXE
 10
42.911183
 20
-121.769113
 30
0.0
 40
8.0
  1
X
 72
     2
 11
49.387373
 21
-121.769113
 31
0.0
  0
DIMENSION
  5
9DE2
  8
COTATION1
  2
*D8
 10
-30.612627
 20
-149.167072
 30
0.0
 11
-30.612627
 21
-124.167072
 31
0.0
 13
11.387373
 23
-99.167072
 33
0.0
 14
5.587373
 24
-149.167072
 34
0.0
 50
90.0
  0
DIMENSION
  5
9DE3
  8
COTATION1
  2
*D9
 10
-20.612627
 20
-149.167072
 30
0.0
 11
-20.612627
 21
-129.167072
 31
0.0
 13
2.312373
 23
-109.167072
 33
0.0
 14
5.587373
 24
-149.167072
 34
0.0
 50
90.0
  0
LINE
  5
9DE4
  8
AXE
 10
19.387373
 20
-94.167072
 30
0.0
 11
19.387373
 21
-167.196253
 31
0.0
  0
LINE
  5
9DE5
  8
ALPHA
 10
19.61098
 20
-147.367072
 30
0.0
 11
22.587373
 21
-147.367072
 31
0.0
  0
LINE
  5
9DE6
  8
ALPHA
 10
22.587373
 20
-145.567072
 30
0.0
 11
16.037373
 21
-145.567072
 31
0.0
  0
LINE
  5
9DE7
  8
ALPHA
 10
15.197017
 20
-146.167072
 30
0.0
 11
23.427729
 21
-146.167072
 31
0.0
  0
LINE
  5
9DE8
  8
ALPHA
 10
23.250717
 20
-145.863103
 30
0.0
 11
15.388542
 21
-145.863103
 31
0.0
  0
LINE
  5
9DE9
  8
ALPHA
 10
23.270387
 20
-145.882131
 30
0.0
 11
21.536008
 21
-146.167072
 31
0.0
  0
POLYLINE
  5
9DEA
  8
ALPHA
 66
     1
 10
0.0
 20
0.0
 30
0.0
 70
   128
  0
VERTEX
  5
A101
  8
ALPHA
 10
22.883826
 20
-146.376317
 30
0.0
  0
VERTEX
  5
A102
  8
ALPHA
 10
22.727575
 20
-146.214513
 30
0.0
  0
VERTEX
  5
A103
  8
ALPHA
 10
22.485523
 20
-146.192379
 30
0.0
  0
VERTEX
  5
A104
  8
ALPHA
 10
22.243867
 20
-146.217663
 30
0.0
  0
VERTEX
  5
A105
  8
ALPHA
 10
22.099363
 20
-146.388847
 30
0.0
  0
SEQEND
  5
A106
  8
ALPHA
  0
LINE
  5
9DEB
  8
ALPHA
 10
5.587373
 20
-149.167072
 30
0.0
 11
29.387373
 21
-149.167072
 31
0.0
  0
LINE
  5
9DEC
  8
ALPHA
 10
5.587373
 20
-148.867072
 30
0.0
 11
29.387373
 21
-148.867072
 31
0.0
  0
LINE
  5
9DED
  8
AXE
 10
-0.612627
 20
-122.769113
 30
0.0
 11
49.387373
 21
-122.769113
 31
0.0
  0
TEXT
  5
9DEE
  8
AXE
 10
11.911183
 20
-167.196253
 30
0.0
 40
8.0
  1
Y
 72
     2
 11
18.387373
 21
-167.196253
 31
0.0
  0
LINE
  5
9DEF
  8
ALPHA
 10
5.587373
 20
-148.867072
 30
0.0
 11
5.587373
 21
-149.167072
 31
0.0
  0
LINE
  5
9DF0
  8
ALPHA
 10
4.387373
 20
-147.967072
 30
0.0
 11
5.087373
 21
-148.647061
 31
0.0
  0
LINE
  5
9DF1
  8
ALPHA
 10
5.087373
 20
-148.647061
 30
0.0
 11
5.220061
 21
-148.768452
 31
0.0
  0
LINE
  5
9DF2
  8
ALPHA
 10
5.087373
 20
-148.647061
 30
0.0
 11
4.876498
 21
-148.933848
 31
0.0
  0
LINE
  5
9DF3
  8
ALPHA
 10
5.220061
 20
-148.768452
 30
0.0
 11
5.587373
 21
-148.867072
 31
0.0
  0
LINE
  5
9DF4
  8
ALPHA
 10
5.220061
 20
-148.768452
 30
0.0
 11
5.087374
 21
-149.057943
 31
0.0
  0
ARC
  5
9DF5
  8
ALPHA
 10
5.587373
 20
-147.967072
 30
0.0
 40
1.2
 50
180.0
 51
270.0
  0
LINE
  5
9DF6
  8
ALPHA
 10
22.099363
 20
-147.367072
 30
0.0
 11
22.099363
 21
-146.167072
 31
0.0
  0
LINE
  5
9DF7
  8
ALPHA
 10
19.015744
 20
-147.07936
 30
0.0
 11
19.015744
 21
-146.470145
 31
0.0
  0
LINE
  5
9DF8
  8
ALPHA
 10
19.015744
 20
-146.470145
 30
0.0
 11
19.015744
 21
-146.467072
 31
0.0
  0
LINE
  5
9DF9
  8
ALPHA
 10
19.095713
 20
-147.07936
 30
0.0
 11
19.095713
 21
-147.193166
 31
0.0
  0
LINE
  5
9DFA
  8
ALPHA
 10
19.383826
 20
-147.081606
 30
0.0
 11
19.383826
 21
-146.167072
 31
0.0
  0
LINE
  5
9DFB
  8
ALPHA
 10
20.167975
 20
-147.367072
 30
0.0
 11
20.167975
 21
-146.167072
 31
0.0
  0
ARC
  5
9DFC
  8
ALPHA
 10
19.387373
 20
-147.567072
 30
0.0
 40
0.3
 50
41.810315
 51
138.189685
  0
LINE
  5
9DFD
  8
ALPHA
 10
19.378384
 20
-146.167072
 30
0.0
 11
19.015744
 21
-146.467072
 31
0.0
  0
LINE
  5
9DFE
  8
ALPHA
 10
18.992273
 20
-146.167072
 30
0.0
 11
19.015744
 21
-146.467072
 31
0.0
  0
LINE
  5
9DFF
  8
ALPHA
 10
18.970954
 20
-147.367072
 30
0.0
 11
19.013382
 21
-147.280509
 31
0.0
  0
POLYLINE
  5
9E00
  8
ALPHA
 66
     1
 10
0.0
 20
0.0
 30
0.0
 70
   128
210
0.0
220
0.0
230
-1.0
  0
VERTEX
  5
A107
  8
ALPHA
 10
-19.013382
 20
-147.280509
 30
0.0
  0
VERTEX
  5
A108
  8
ALPHA
 10
-19.387373
 20
-147.07469
 30
0.0
  0
VERTEX
  5
A109
  8
ALPHA
 10
-19.761365
 20
-147.280509
 30
0.0
  0
SEQEND
  5
A10A
  8
ALPHA
  0
LINE
  5
9E01
  8
ALPHA
 10
19.761365
 20
-147.280509
 30
0.0
 11
19.803793
 21
-147.367072
 31
0.0
  0
LINE
  5
9E02
  8
ALPHA
 10
15.331902
 20
-145.917072
 30
0.0
 11
15.717037
 21
-145.917072
 31
0.0
  0
LINE
  5
9E03
  8
ALPHA
 10
15.754281
 20
-146.730484
 30
0.0
 11
15.75317
 21
-146.57344
 31
0.0
  0
LINE
  5
9E04
  8
ALPHA
 10
15.39095
 20
-145.848444
 30
0.0
 11
15.388542
 21
-145.863103
 31
0.0
  0
ARC
  5
9E05
  8
ALPHA
 10
16.037373
 20
-146.467072
 30
0.0
 40
0.9
 50
90.0
 51
270.0
  0
ARC
  5
9E06
  8
ALPHA
 10
16.187373
 20
-146.467072
 30
0.0
 40
0.9
 50
142.059182
 51
160.353821
  0
LINE
  5
9E07
  8
ALPHA
 10
15.159752
 20
-146.638711
 30
0.0
 11
15.75317
 21
-146.57344
 31
0.0
  0
LINE
  5
9E08
  8
ALPHA
 10
15.603297
 20
-146.57926
 30
0.0
 11
15.742643
 21
-146.571546
 31
0.0
  0
POLYLINE
  5
9E09
  8
ALPHA
 66
     1
 10
0.0
 20
0.0
 30
0.0
 70
   128
210
0.0
220
0.0
230
-1.0
  0
VERTEX
  5
A10B
  8
ALPHA
 10
-15.477582
 20
-146.167072
 30
0.0
  0
VERTEX
  5
A10C
  8
ALPHA
 10
-15.693637
 20
-146.309485
 30
0.0
  0
VERTEX
  5
A10D
  8
ALPHA
 10
-15.742643
 20
-146.571546
 30
0.0
  0
SEQEND
  5
A10E
  8
ALPHA
  0
LINE
  5
9E0A
  8
ALPHA
 10
15.151233
 20
-146.611023
 30
0.0
 11
15.603297
 21
-146.57926
 31
0.0
  0
LINE
  5
9E0B
  8
ALPHA
 10
15.754639
 20
-146.729383
 30
0.0
 11
15.204149
 21
-146.78976
 31
0.0
  0
LINE
  5
9E0C
  8
ALPHA
 10
15.666971
 20
-147.07936
 30
0.0
 11
15.754639
 21
-146.729383
 31
0.0
  0
LINE
  5
9E0D
  8
ALPHA
 10
15.793282
 20
-146.609905
 30
0.0
 11
15.754281
 21
-146.730484
 31
0.0
  0
LINE
  5
9E0E
  8
ALPHA
 10
15.742643
 20
-146.571546
 30
0.0
 11
15.804409
 21
-146.568414
 31
0.0
  0
LINE
  5
9E0F
  8
ALPHA
 10
15.804409
 20
-146.568414
 30
0.0
 11
15.793282
 21
-146.609905
 31
0.0
  0
LINE
  5
9E10
  8
ALPHA
 10
15.388542
 20
-145.863103
 30
0.0
 11
17.238738
 21
-146.167072
 31
0.0
  0
LINE
  5
9E11
  8
ALPHA
 10
16.037373
 20
-147.367072
 30
0.0
 11
19.163767
 21
-147.367072
 31
0.0
  0
LINE
  5
9E12
  8
ALPHA
 10
15.383632
 20
-147.07936
 30
0.0
 11
19.095713
 21
-147.07936
 31
0.0
  0
LINE
  5
9E13
  8
ALPHA
 10
19.015744
 20
-146.467072
 30
0.0
 11
15.793282
 21
-146.609905
 31
0.0
  0
ARC
  5
9E16
  8
ALPHA
 10
29.387373
 20
-144.167072
 30
0.0
 40
5.0
 50
270.0
 51
0.000411
  0
POLYLINE
  5
9E17
  8
ALPHA
 66
     1
 10
0.0
 20
0.0
 30
0.0
 70
   128
  0
VERTEX
  5
A10F
  8
ALPHA
 10
29.387373
 20
-148.867072
 30
0.0
  0
VERTEX
  5
A110
  8
ALPHA
 10
30.579065
 20
-148.708349
 30
0.0
  0
VERTEX
  5
A111
  8
ALPHA
 10
31.684621
 20
-148.236689
 30
0.0
  0
VERTEX
  5
A112
  8
ALPHA
 10
32.615836
 20
-147.477202
 30
0.0
  0
VERTEX
  5
A113
  8
ALPHA
 10
33.287466
 20
-146.481251
 30
0.0
  0
SEQEND
  5
A114
  8
ALPHA
  0
LINE
  5
9E18
  8
ALPHA
 10
29.387373
 20
-148.867072
 30
0.0
 11
29.387373
 21
-149.167072
 31
0.0
  0
LINE
  5
9E19
  8
ALPHA
 10
23.057709
 20
-145.917072
 30
0.0
 11
23.292845
 21
-145.917072
 31
0.0
  0
LINE
  5
9E1A
  8
ALPHA
 10
22.883826
 20
-147.311022
 30
0.0
 11
22.883826
 21
-146.376317
 31
0.0
  0
LINE
  5
9E1B
  8
ALPHA
 10
23.281318
 20
-146.167072
 30
0.0
 11
23.281318
 21
-147.035007
 31
0.0
  0
LINE
  5
9E1C
  8
ALPHA
 10
23.251139
 20
-147.070626
 30
0.0
 11
22.883826
 21
-146.376317
 31
0.0
  0
ARC
  5
9E1D
  8
ALPHA
 10
22.587373
 20
-146.467072
 30
0.0
 40
0.9
 50
270.0
 51
90.0
  0
LINE
  5
9E1E
  8
ALPHA
 10
34.387373
 20
-144.667072
 30
0.0
 11
34.36215
 21
-144.667072
 31
0.0
  0
LINE
  5
9E1F
  8
ALPHA
 10
33.287466
 20
-146.481251
 30
0.0
 11
33.687373
 21
-145.102095
 31
0.0
  0
LINE
  5
9E20
  8
ALPHA
 10
33.287466
 20
-146.481251
 30
0.0
 11
33.687373
 21
-146.718542
 31
0.0
  0
LINE
  5
9E21
  8
ALPHA
 10
33.687373
 20
-145.102095
 30
0.0
 11
34.387373
 21
-144.167072
 31
0.0
  0
LINE
  5
9E22
  8
ALPHA
 10
33.687373
 20
-145.102095
 30
0.0
 11
34.273199
 21
-145.229481
 31
0.0
  0
LINE
  5
9E24
  8
ALPHA
 10
19.831418
 20
-103.964718
 30
0.0
 11
23.428212
 21
-103.964718
 31
0.0
  0
LINE
  5
9E25
  8
ALPHA
 10
19.787373
 20
-103.887072
 30
0.0
 11
23.311889
 21
-103.887072
 31
0.0
  0
LINE
  5
9E26
  8
ALPHA
 10
19.887373
 20
-103.667072
 30
0.0
 11
28.637373
 21
-103.667072
 31
0.0
  0
LINE
  5
9E27
  8
ALPHA
 10
19.887373
 20
-102.867072
 30
0.0
 11
28.637373
 21
-102.867072
 31
0.0
  0
LINE
  5
9E28
  8
ALPHA
 10
12.639324
 20
-101.667072
 30
0.0
 11
28.762373
 21
-101.667072
 31
0.0
  0
LINE
  5
9E29
  8
ALPHA
 10
27.387373
 20
-99.167072
 30
0.0
 11
11.387373
 21
-99.167072
 31
0.0
  0
ARC
  5
9E2A
  8
ALPHA
 10
19.387373
 20
-162.577072
 30
0.0
 40
63.4
 50
76.672038
 51
88.038318
  0
ARC
  5
9E2B
  8
ALPHA
 10
19.387373
 20
-162.577072
 30
0.0
 40
63.1
 50
76.901583
 51
95.730045
  0
LINE
  5
9E2C
  8
ALPHA
 10
28.762373
 20
-101.47173
 30
0.0
 11
19.387373
 21
-100.825132
 31
0.0
  0
POLYLINE
  5
9E2D
  8
ALPHA
 66
     1
 10
0.0
 20
0.0
 30
0.0
 70
   128
210
0.0
220
0.0
230
-1.0
  0
VERTEX
  5
A115
  8
ALPHA
 10
-22.947441
 20
-105.464648
 30
0.0
  0
VERTEX
  5
A116
  8
ALPHA
 10
-22.720611
 20
-106.290183
 30
0.0
  0
VERTEX
  5
A117
  8
ALPHA
 10
-22.597407
 20
-106.700113
 30
0.0
  0
VERTEX
  5
A118
  8
ALPHA
 10
-22.523126
 20
-106.900754
 30
0.0
  0
VERTEX
  5
A119
  8
ALPHA
 10
-22.387373
 20
-106.955783
 30
0.0
  0
SEQEND
  5
A11A
  8
ALPHA
  0
POLYLINE
  5
9E2E
  8
ALPHA
 66
     1
 10
0.0
 20
0.0
 30
0.0
 70
   128
210
0.0
220
0.0
230
-1.0
  0
VERTEX
  5
A11B
  8
ALPHA
 10
-23.357882
 20
-107.148642
 30
0.0
  0
VERTEX
  5
A11C
  8
ALPHA
 10
-23.011426
 20
-108.809983
 30
0.0
  0
VERTEX
  5
A11D
  8
ALPHA
 10
-22.191213
 20
-110.484735
 30
0.0
  0
VERTEX
  5
A11E
  8
ALPHA
 10
-20.905852
 20
-111.845501
 30
0.0
  0
VERTEX
  5
A11F
  8
ALPHA
 10
-20.161156
 20
-112.256565
 30
0.0
  0
VERTEX
  5
A120
  8
ALPHA
 10
-19.387314
 20
-112.407072
 30
0.0
  0
VERTEX
  5
A121
  8
ALPHA
 10
-18.613474
 20
-112.256521
 30
0.0
  0
VERTEX
  5
A122
  8
ALPHA
 10
-17.868785
 20
-111.845423
 30
0.0
  0
VERTEX
  5
A123
  8
ALPHA
 10
-16.583451
 20
-110.484615
 30
0.0
  0
VERTEX
  5
A124
  8
ALPHA
 10
-15.76328
 20
-108.809854
 30
0.0
  0
VERTEX
  5
A125
  8
ALPHA
 10
-15.416853
 20
-107.148511
 30
0.0
  0
SEQEND
  5
A126
  8
ALPHA
  0
LINE
  5
9E2F
  8
AXE
 10
22.312373
 20
-109.167072
 30
0.0
 11
36.462373
 21
-109.167072
 31
0.0
  0
DIMENSION
  5
9E30
  8
COTATION1
  2
*D5
 10
34.387373
 20
-74.167072
 30
0.0
 11
19.387373
 21
-70.917072
 31
0.0
 13
4.387373
 23
-101.37119
 33
0.0
 14
34.387373
 24
-101.37119
 34
0.0
  0
DIMENSION
  5
9E31
  8
COTATION1
  2
*D6
 10
29.387373
 20
-84.167072
 30
0.0
 11
19.387373
 21
-80.917072
 31
0.0
 13
9.387373
 23
-102.092072
 33
0.0
 14
29.387373
 24
-102.092072
 34
0.0
  0
DIMENSION
  5
9E32
  8
COTATION1
  2
*D7
 10
10.956591
 20
-110.599964
 30
0.0
 11
-12.343218
 21
-89.32432
 31
0.0
 70
   131
  1
2x<>
 15
7.818156
 25
-107.73418
 35
0.0
 40
0.0
1001
ACAD
1000
DSTYLE
1002
{
1070
   287
1070
     4
1070
   287
1070
     4
1070
   287
1070
     4
1070
   287
1070
     4
1070
   279
1070
     1
1070
   289
1070
     3
1002
}
  0
LINE
  5
9E33
  8
ALPHA
 10
5.943882
 20
-100.925774
 30
0.0
 11
6.140844
 21
-100.891044
 31
0.0
  0
ARC
  5
9E34
  8
ALPHA
 10
5.926503
 20
-100.827214
 30
0.0
 40
0.2
 50
10.0
 51
102.297541
  0
LINE
  5
9E35
  8
ALPHA
 10
6.817847
 20
-108.020256
 30
0.0
 11
5.74271
 21
-107.518912
 31
0.0
  0
LINE
  5
9E36
  8
ALPHA
 10
6.858326
 20
-107.933552
 30
0.0
 11
5.783178
 21
-107.432202
 31
0.0
  0
LINE
  5
9E37
  8
ALPHA
 10
6.575318
 20
-109.067072
 30
0.0
 11
5.390067
 21
-109.020306
 31
0.0
  0
LINE
  5
9E38
  8
ALPHA
 10
5.387373
 20
-109.167072
 30
0.0
 11
6.573541
 21
-109.167072
 31
0.0
  0
LINE
  5
9E39
  8
ALPHA
 10
6.579872
 20
-108.978424
 30
0.0
 11
5.394387
 21
-108.930305
 31
0.0
  0
LINE
  5
9E3A
  8
ALPHA
 10
6.225147
 20
-101.369154
 30
0.0
 11
6.028186
 21
-101.403883
 31
0.0
  0
ARC
  5
9E3B
  8
ALPHA
 10
9.387373
 20
-109.167072
 30
0.0
 40
4.0
 50
180.0
 51
358.041398
  0
ARC
  5
9E3C
  8
ALPHA
 10
9.387373
 20
-109.167072
 30
0.0
 40
4.0
 50
99.746525
 51
177.897255
  0
ARC
  5
9E3D
  8
ALPHA
 10
19.387373
 20
-162.577072
 30
0.0
 40
63.4
 50
91.961682
 51
103.327962
  0
ARC
  5
9E3E
  8
ALPHA
 10
9.387373
 20
-109.167072
 30
0.0
 40
4.075
 50
128.467
 51
47.807538
  0
ARC
  5
9E3F
  8
ALPHA
 10
9.387373
 20
-109.167072
 30
0.0
 40
4.375
 50
128.467
 51
169.375668
  0
ARC
  5
9E40
  8
ALPHA
 10
6.422109
 20
-101.334424
 30
0.0
 40
0.4
 50
190.0
 51
281.953211
  0
ARC
  5
9E41
  8
ALPHA
 10
9.387373
 20
-109.167072
 30
0.0
 40
4.375
 50
190.624332
 51
47.807538
  0
LINE
  5
9E42
  8
AXE
 10
2.312373
 20
-109.167072
 30
0.0
 11
16.462373
 21
-109.167072
 31
0.0
  0
LINE
  5
9E43
  8
ALPHA
 10
5.087373
 20
-101.118793
 30
0.0
 11
5.087373
 21
-108.360459
 31
0.0
  0
LINE
  5
9E44
  8
ALPHA
 10
5.087373
 20
-108.360459
 30
0.0
 11
5.382231
 21
-108.415769
 31
0.0
  0
LINE
  5
9E45
  8
ALPHA
 10
4.956123
 20
-109.167072
 30
0.0
 11
5.087373
 21
-108.360459
 31
0.0
  0
LINE
  5
9E46
  8
ALPHA
 10
5.087373
 20
-109.973685
 30
0.0
 11
5.382231
 21
-109.918375
 31
0.0
  0
LINE
  5
9E47
  8
ALPHA
 10
5.087373
 20
-109.973685
 30
0.0
 11
4.956123
 21
-109.167072
 31
0.0
  0
LINE
  5
9E48
  8
ALPHA
 10
5.087373
 20
-101.118793
 30
0.0
 11
5.019386
 21
-100.826599
 31
0.0
  0
LINE
  5
9E49
  8
ALPHA
 10
5.943882
 20
-100.925774
 30
0.0
 11
6.028186
 21
-101.403883
 31
0.0
  0
LINE
  5
9E4A
  8
ALPHA
 10
5.883906
 20
-100.631803
 30
0.0
 11
5.019386
 21
-100.826599
 31
0.0
  0
ARC
  5
9E4B
  8
ALPHA
 10
4.887373
 20
-101.37119
 30
0.0
 40
0.5
 50
103.327962
 51
180.0
  0
ARC
  5
9E4C
  8
ALPHA
 10
19.387373
 20
-162.577072
 30
0.0
 40
63.1
 50
102.301184
 51
103.098417
  0
LINE
  5
9E4D
  8
ALPHA
 10
5.087373
 20
-101.118793
 30
0.0
 11
4.65669
 21
-101.176577
 31
0.0
  0
LINE
  5
9E4E
  8
ALPHA
 10
4.65669
 20
-101.176577
 30
0.0
 11
4.387373
 21
-101.37119
 31
0.0
  0
LINE
  5
9E4F
  8
ALPHA
 10
4.65669
 20
-101.176577
 30
0.0
 11
4.772111
 21
-100.884657
 31
0.0
  0
LINE
  5
9E50
  8
ALPHA
 10
5.943882
 20
-100.925774
 30
0.0
 11
5.883906
 21
-100.631803
 31
0.0
  0
LINE
  5
9E51
  8
ALPHA
 10
22.387373
 20
-103.667072
 30
0.0
 11
22.387373
 21
-106.955783
 31
0.0
  0
LINE
  5
9E52
  8
ALPHA
 10
18.987372
 20
-104.710277
 30
0.0
 11
18.987373
 21
-105.414859
 31
0.0
  0
LINE
  5
9E53
  8
ALPHA
 10
19.787373
 20
-105.414859
 30
0.0
 11
19.787373
 21
-104.710277
 31
0.0
  0
LINE
  5
9E54
  8
ALPHA
 10
19.885512
 20
-105.044727
 30
0.0
 11
19.831466
 21
-105.329071
 31
0.0
  0
LINE
  5
9E55
  8
ALPHA
 10
18.943281
 20
-105.329071
 30
0.0
 11
18.889235
 21
-105.044727
 31
0.0
  0
POLYLINE
  5
9E56
  8
ALPHA
 66
     1
 10
0.0
 20
0.0
 30
0.0
 70
   128
  0
VERTEX
  5
A127
  8
ALPHA
 10
22.387373
 20
-106.955783
 30
0.0
  0
VERTEX
  5
A128
  8
ALPHA
 10
21.389471
 20
-105.661198
 30
0.0
  0
VERTEX
  5
A129
  8
ALPHA
 10
20.680449
 20
-105.249165
 30
0.0
  0
VERTEX
  5
A12A
  8
ALPHA
 10
19.885517
 20
-105.044623
 30
0.0
  0
SEQEND
  5
A12B
  8
ALPHA
  0
LINE
  5
9E57
  8
ALPHA
 10
16.387373
 20
-103.667072
 30
0.0
 11
16.387373
 21
-106.955783
 31
0.0
  0
LINE
  5
9E58
  8
ALPHA
 10
15.827306
 20
-105.464648
 30
0.0
 11
15.426941
 21
-104.264798
 31
0.0
  0
LINE
  5
9E59
  8
ALPHA
 10
15.416853
 20
-107.148511
 30
0.0
 11
15.395384
 21
-104.642092
 31
0.0
  0
POLYLINE
  5
9E5A
  8
ALPHA
 66
     1
 10
0.0
 20
0.0
 30
0.0
 70
   128
  0
VERTEX
  5
A12C
  8
ALPHA
 10
18.88923
 20
-105.044623
 30
0.0
  0
VERTEX
  5
A12D
  8
ALPHA
 10
18.094298
 20
-105.249165
 30
0.0
  0
VERTEX
  5
A12E
  8
ALPHA
 10
17.385276
 20
-105.661198
 30
0.0
  0
VERTEX
  5
A12F
  8
ALPHA
 10
16.387373
 20
-106.955783
 30
0.0
  0
SEQEND
  5
A130
  8
ALPHA
  0
LINE
  5
9E5B
  8
ALPHA
 10
12.144338
 20
-105.025844
 30
0.0
 11
11.978089
 21
-105.275566
 31
0.0
  0
ARC
  5
9E5C
  8
ALPHA
 10
11.81184
 20
-105.525288
 30
0.0
 40
0.6
 50
345.0
 51
56.346868
  0
ARC
  5
9E5D
  8
ALPHA
 10
8.659428
 20
-104.929137
 30
0.0
 40
0.3
 50
279.746525
 51
345.0
  0
ARC
  5
9E5E
  8
ALPHA
 10
7.219118
 20
-105.367165
 30
0.0
 40
0.3
 50
119.709398
 51
188.0
  0
ARC
  5
9E5F
  8
ALPHA
 10
7.219118
 20
-105.367165
 30
0.0
 40
0.6
 50
119.709398
 51
188.0
  0
LINE
  5
9E60
  8
ALPHA
 10
8.947837
 20
-105.011721
 30
0.0
 11
11.555879
 21
-105.710544
 31
0.0
  0
LINE
  5
9E61
  8
ALPHA
 10
8.973761
 20
-104.91514
 30
0.0
 11
11.581761
 21
-105.613951
 31
0.0
  0
LINE
  5
9E62
  8
ALPHA
 10
9.077288
 20
-104.52877
 30
0.0
 11
11.685288
 21
-105.227581
 31
0.0
  0
LINE
  5
9E63
  8
ALPHA
 10
11.555879
 20
-105.710544
 30
0.0
 11
12.817737
 21
-101.001223
 31
0.0
  0
LINE
  5
9E64
  8
AXE
 10
9.387373
 20
-116.242072
 30
0.0
 11
9.387373
 21
-102.092072
 31
0.0
  0
LINE
  5
9E65
  8
ALPHA
 10
12.124238
 20
-106.147933
 30
0.0
 11
12.325725
 21
-105.925665
 31
0.0
  0
LINE
  5
9E66
  8
ALPHA
 10
12.035947
 20
-105.84802
 30
0.0
 11
12.101617
 21
-105.602934
 31
0.0
  0
LINE
  5
9E67
  8
ALPHA
 10
12.325725
 20
-105.925665
 30
0.0
 11
12.035947
 21
-105.84802
 31
0.0
  0
ARC
  5
9E68
  8
ALPHA
 10
11.879274
 20
-105.662727
 30
0.0
 40
0.3
 50
173.697974
 51
234.58379
  0
ARC
  5
9E69
  8
ALPHA
 10
9.387373
 20
-109.167072
 30
0.0
 40
4.675
 50
56.346868
 51
60.071418
  0
ARC
  5
9E6A
  8
ALPHA
 10
11.81184
 20
-105.525288
 30
0.0
 40
0.3
 50
345.0
 51
56.346868
  0
ARC
  5
9E6B
  8
ALPHA
 10
12.325725
 20
-105.925665
 30
0.0
 40
0.3
 50
165.0
 51
227.807538
  0
LINE
  5
9E6C
  8
ALPHA
 10
12.325725
 20
-105.925665
 30
0.0
 11
12.391395
 21
-105.68058
 31
0.0
  0
LINE
  5
9E6D
  8
ALPHA
 10
13.387373
 20
-109.167072
 30
0.0
 11
12.201206
 21
-109.167072
 31
0.0
  0
LINE
  5
9E6E
  8
ALPHA
 10
12.101617
 20
-105.602934
 30
0.0
 11
12.391395
 21
-105.68058
 31
0.0
  0
ARC
  5
9E6F
  8
ALPHA
 10
9.387373
 20
-109.167072
 30
0.0
 40
4.0
 50
0.0
 51
54.58379
  0
LINE
  5
9E70
  8
ALPHA
 10
11.916421
 20
-110.400592
 30
0.0
 11
12.991569
 21
-110.901942
 31
0.0
  0
LINE
  5
9E71
  8
ALPHA
 10
11.956903
 20
-110.313889
 30
0.0
 11
13.032036
 21
-110.815232
 31
0.0
  0
LINE
  5
9E72
  8
ALPHA
 10
12.195346
 20
-109.34858
 30
0.0
 11
13.380933
 21
-109.393963
 31
0.0
  0
LINE
  5
9E73
  8
ALPHA
 10
12.199679
 20
-109.259759
 30
0.0
 11
13.385037
 21
-109.303782
 31
0.0
  0
ARC
  5
9E74
  8
ALPHA
 10
9.387373
 20
-109.167072
 30
0.0
 40
2.813833
 50
333.999619
 51
0.0
  0
LINE
  5
9E75
  8
ALPHA
 10
6.624958
 20
-105.450669
 30
0.0
 11
6.665844
 21
-105.741593
 31
0.0
  0
LINE
  5
9E76
  8
ALPHA
 10
6.922038
 20
-105.408917
 30
0.0
 11
6.962925
 21
-105.699841
 31
0.0
  0
LINE
  5
9E77
  8
ALPHA
 10
6.852463
 20
-105.976483
 30
0.0
 11
6.665844
 21
-105.741593
 31
0.0
  0
LINE
  5
9E78
  8
ALPHA
 10
6.665844
 20
-105.741593
 30
0.0
 11
6.962925
 21
-105.699841
 31
0.0
  0
LINE
  5
9E79
  8
ALPHA
 10
6.624958
 20
-105.450669
 30
0.0
 11
6.922038
 21
-105.408917
 31
0.0
  0
ARC
  5
9E7A
  8
ALPHA
 10
9.387373
 20
-109.167072
 30
0.0
 40
2.813833
 50
153.999619
 51
180.0
  0
ARC
  5
9E7B
  8
ALPHA
 10
6.665844
 20
-105.741593
 30
0.0
 40
0.3
 50
308.467
 51
8.0
  0
CIRCLE
  5
9E7C
  8
ALPHA
 10
9.387373
 20
-109.167072
 30
0.0
 40
2.25
  0
CIRCLE
  5
9E7D
  8
ALPHA
 10
9.387373
 20
-109.167072
 30
0.0
 40
2.125
  0
LINE
  5
9E7E
  8
ALPHA
 10
19.787373
 20
-105.331508
 30
0.0
 11
18.987373
 21
-105.331508
 31
0.0
  0
POLYLINE
  5
9E7F
  8
ALPHA
 66
     1
 10
0.0
 20
0.0
 30
0.0
  0
VERTEX
  5
A131
  8
ALPHA
 10
18.943281
 20
-105.329071
 30
0.0
  0
VERTEX
  5
A132
  8
ALPHA
 10
18.957399
 20
-105.330414
 30
0.0
  0
VERTEX
  5
A133
  8
ALPHA
 10
18.972211
 20
-105.331233
 30
0.0
  0
VERTEX
  5
A134
  8
ALPHA
 10
18.987373
 20
-105.331508
 30
0.0
  0
SEQEND
  5
A135
  8
ALPHA
  0
POLYLINE
  5
9E80
  8
ALPHA
 66
     1
 10
0.0
 20
0.0
 30
0.0
  0
VERTEX
  5
A136
  8
ALPHA
 10
19.831466
 20
-105.329071
 30
0.0
  0
VERTEX
  5
A137
  8
ALPHA
 10
19.817347
 20
-105.330414
 30
0.0
  0
VERTEX
  5
A138
  8
ALPHA
 10
19.802536
 20
-105.331233
 30
0.0
  0
VERTEX
  5
A139
  8
ALPHA
 10
19.787373
 20
-105.331508
 30
0.0
  0
SEQEND
  5
A13A
  8
ALPHA
  0
LINE
  5
9E81
  8
ALPHA
 10
19.831466
 20
-105.329071
 30
0.0
 11
19.787373
 21
-105.414859
 31
0.0
  0
LINE
  5
9E82
  8
ALPHA
 10
19.787373
 20
-105.414859
 30
0.0
 11
18.987373
 21
-105.414859
 31
0.0
  0
LINE
  5
9E83
  8
ALPHA
 10
18.987373
 20
-105.414859
 30
0.0
 11
18.943281
 21
-105.329071
 31
0.0
  0
LINE
  5
9E84
  8
ALPHA
 10
15.41685
 20
-107.148474
 30
0.0
 11
15.827306
 21
-105.464648
 31
0.0
  0
POLYLINE
  5
9E85
  8
ALPHA
 66
     1
 10
0.0
 20
0.0
 30
0.0
 70
   128
210
0.0
220
0.0
230
-1.0
  0
VERTEX
  5
A13B
  8
ALPHA
 10
-16.387373
 20
-106.955783
 30
0.0
  0
VERTEX
  5
A13C
  8
ALPHA
 10
-16.251622
 20
-106.900756
 30
0.0
  0
VERTEX
  5
A13D
  8
ALPHA
 10
-16.177341
 20
-106.700115
 30
0.0
  0
VERTEX
  5
A13E
  8
ALPHA
 10
-16.054136
 20
-106.290185
 30
0.0
  0
VERTEX
  5
A13F
  8
ALPHA
 10
-15.827306
 20
-105.464648
 30
0.0
  0
SEQEND
  5
A140
  8
ALPHA
  0
LINE
  5
9E86
  8
ALPHA
 10
12.036438
 20
-103.917072
 30
0.0
 11
15.337816
 21
-103.917072
 31
0.0
  0
LINE
  5
9E87
  8
ALPHA
 10
12.103425
 20
-103.667072
 30
0.0
 11
18.887373
 21
-103.667072
 31
0.0
  0
LINE
  5
9E88
  8
ALPHA
 10
12.317785
 20
-102.867072
 30
0.0
 11
18.887373
 21
-102.867072
 31
0.0
  0
LINE
  5
9E89
  8
ALPHA
 10
19.387373
 20
-100.825132
 30
0.0
 11
12.77624
 21
-101.146228
 31
0.0
  0
LINE
  5
9E8A
  8
ALPHA
 10
11.922308
 20
-104.349432
 30
0.0
 11
15.395384
 21
-104.642092
 31
0.0
  0
LINE
  5
9E8B
  8
ALPHA
 10
12.834774
 20
-100.871814
 30
0.0
 11
12.834774
 21
-100.042049
 31
0.0
  0
LINE
  5
9E8C
  8
ALPHA
 10
12.887373
 20
-100.336651
 30
0.0
 11
12.887373
 21
-99.691859
 31
0.0
  0
LINE
  5
9E8D
  8
ALPHA
 10
13.087373
 20
-100.336651
 30
0.0
 11
13.087373
 21
-99.79236
 31
0.0
  0
LINE
  5
9E8E
  8
ALPHA
 10
12.887373
 20
-99.691859
 30
0.0
 11
12.888025
 21
-99.675726
 31
0.0
  0
LINE
  5
9E8F
  8
ALPHA
 10
13.087373
 20
-100.336651
 30
0.0
 11
12.887373
 21
-100.336651
 31
0.0
  0
LINE
  5
9E90
  8
ALPHA
 10
13.087373
 20
-99.79236
 30
0.0
 11
12.887373
 21
-99.79236
 31
0.0
  0
ARC
  5
9E91
  8
ALPHA
 10
12.334774
 20
-100.871814
 30
0.0
 40
0.5
 50
345.0
 51
0.0
  0
ARC
  5
9E92
  8
ALPHA
 10
13.087373
 20
-99.691859
 30
0.0
 40
0.2
 50
95.720948
 51
175.373269
  0
ARC
  5
9E93
  8
ALPHA
 10
12.687373
 20
-100.336651
 30
0.0
 40
0.2
 50
318.072032
 51
0.0
  0
ARC
  5
9E94
  8
ALPHA
 10
12.687373
 20
-100.336651
 30
0.0
 40
0.4
 50
291.975285
 51
0.0
  0
LINE
  5
9E95
  8
ALPHA
 10
13.067437
 20
-99.492855
 30
0.0
 11
13.087373
 21
-99.79236
 31
0.0
  0
LINE
  5
9E96
  8
ALPHA
 10
11.387373
 20
-99.167072
 30
0.0
 11
11.387373
 21
-99.683829
 31
0.0
  0
LINE
  5
9E97
  8
ALPHA
 10
6.504954
 20
-101.725751
 30
0.0
 11
6.463532
 21
-101.530087
 31
0.0
  0
ARC
  5
9E98
  8
ALPHA
 10
19.387373
 20
-162.577072
 30
0.0
 40
62.4
 50
98.605056
 51
101.953211
  0
ARC
  5
9E99
  8
ALPHA
 10
19.387373
 20
-162.577072
 30
0.0
 40
62.2
 50
98.685111
 51
101.953211
  0
LINE
  5
9E9A
  8
ALPHA
 10
12.834774
 20
-100.445053
 30
0.0
 11
10.080915
 21
-100.783184
 31
0.0
  0
LINE
  5
9E9B
  8
ALPHA
 10
12.834774
 20
-100.042049
 30
0.0
 11
10.192573
 21
-100.366471
 31
0.0
  0
ARC
  5
9E9C
  8
ALPHA
 10
9.387373
 20
-109.167072
 30
0.0
 40
4.975
 50
56.346868
 51
61.007152
  0
LINE
  5
9E9D
  8
ALPHA
 10
7.070438
 20
-105.1066
 30
0.0
 11
6.921758
 21
-104.846035
 31
0.0
  0
ARC
  5
9E9E
  8
ALPHA
 10
9.387373
 20
-109.167072
 30
0.0
 40
4.675
 50
93.822521
 51
119.709398
  0
ARC
  5
9E9F
  8
ALPHA
 10
9.387373
 20
-109.167072
 30
0.0
 40
4.975
 50
92.624102
 51
119.709398
  0
LINE
  5
9EA0
  8
ALPHA
 10
8.949205
 20
-105.006782
 30
0.0
 11
10.192573
 21
-100.366471
 31
0.0
  0
LINE
  5
9EA1
  8
ALPHA
 10
6.124235
 20
-100.796854
 30
0.0
 11
6.123678
 21
-100.793769
 31
0.0
  0
LINE
  5
9EA2
  8
ALPHA
 10
6.140846
 20
-100.891045
 30
0.0
 11
6.124235
 21
-100.796854
 31
0.0
  0
LINE
  5
9EA3
  8
ALPHA
 10
6.225147
 20
-101.369154
 30
0.0
 11
6.123465
 21
-100.792484
 31
0.0
  0
ARC
  5
9EA4
  8
ALPHA
 10
6.422109
 20
-101.334424
 30
0.0
 40
0.2
 50
190.0
 51
281.953211
  0
LINE
  5
9EA5
  8
ALPHA
 10
19.387373
 20
-101.667072
 30
0.0
 11
19.387373
 21
-100.825132
 31
0.0
  0
LINE
  5
9EA6
  8
ALPHA
 10
18.887373
 20
-102.867072
 30
0.0
 11
19.887373
 21
-102.867072
 31
0.0
  0
LINE
  5
9EA7
  8
ALPHA
 10
19.387373
 20
-99.477072
 30
0.0
 11
21.557627
 21
-99.214228
 31
0.0
  0
LINE
  5
9EA8
  8
ALPHA
 10
19.387373
 20
-99.477072
 30
0.0
 11
17.21712
 21
-99.214228
 31
0.0
  0
POLYLINE
  5
9EA9
  8
ALPHA
 66
     1
 10
0.0
 20
0.0
 30
0.0
  0
VERTEX
  5
A141
  8
ALPHA
 10
19.886316
 20
-105.026615
 30
0.0
  0
VERTEX
  5
A142
  8
ALPHA
 10
19.868724
 20
-105.048441
 30
0.0
  0
VERTEX
  5
A143
  8
ALPHA
 10
19.833114
 20
-105.063826
 30
0.0
  0
VERTEX
  5
A144
  8
ALPHA
 10
19.787373
 20
-105.069363
 30
0.0
  0
SEQEND
  5
A145
  8
ALPHA
  0
LINE
  5
9EAA
  8
ALPHA
 10
18.887373
 20
-104.299773
 30
0.0
 11
18.887403
 21
-104.981587
 31
0.0
  0
LINE
  5
9EAB
  8
ALPHA
 10
18.987373
 20
-103.887072
 30
0.0
 11
18.987372
 21
-104.660277
 31
0.0
  0
LINE
  5
9EAC
  8
ALPHA
 10
19.787373
 20
-104.660277
 30
0.0
 11
19.787373
 21
-103.887072
 31
0.0
  0
LINE
  5
9EAD
  8
ALPHA
 10
19.887373
 20
-104.299773
 30
0.0
 11
19.887343
 21
-104.981587
 31
0.0
  0
POLYLINE
  5
9EAE
  8
ALPHA
 66
     1
 10
0.0
 20
0.0
 30
0.0
  0
VERTEX
  5
A146
  8
ALPHA
 10
18.888431
 20
-105.026615
 30
0.0
  0
VERTEX
  5
A147
  8
ALPHA
 10
18.906023
 20
-105.048441
 30
0.0
  0
VERTEX
  5
A148
  8
ALPHA
 10
18.941633
 20
-105.063826
 30
0.0
  0
VERTEX
  5
A149
  8
ALPHA
 10
18.987373
 20
-105.069363
 30
0.0
  0
SEQEND
  5
A14A
  8
ALPHA
  0
LINE
  5
9EAF
  8
ALPHA
 10
19.787373
 20
-105.069363
 30
0.0
 11
18.987373
 21
-105.069363
 31
0.0
  0
LINE
  5
9EB0
  8
ALPHA
 10
19.787373
 20
-104.710277
 30
0.0
 11
18.987372
 21
-104.710277
 31
0.0
  0
LINE
  5
9EB1
  8
ALPHA
 10
19.787373
 20
-104.660277
 30
0.0
 11
18.987372
 21
-104.660277
 31
0.0
  0
LINE
  5
9EB2
  8
ALPHA
 10
18.961491
 20
-104.686159
 30
0.0
 11
18.987373
 21
-104.660277
 31
0.0
  0
LINE
  5
9EB3
  8
ALPHA
 10
18.987373
 20
-104.710277
 30
0.0
 11
18.961491
 21
-104.686159
 31
0.0
  0
LINE
  5
9EB4
  8
ALPHA
 10
19.813255
 20
-104.686159
 30
0.0
 11
19.787373
 21
-104.710277
 31
0.0
  0
LINE
  5
9EB5
  8
ALPHA
 10
19.787373
 20
-104.660277
 30
0.0
 11
19.813255
 21
-104.686159
 31
0.0
  0
LINE
  5
9EB6
  8
ALPHA
 10
19.887344
 20
-104.981587
 30
0.0
 11
19.886316
 21
-105.026615
 31
0.0
  0
LINE
  5
9EB7
  8
ALPHA
 10
19.886316
 20
-105.026615
 30
0.0
 11
19.885517
 21
-105.044623
 31
0.0
  0
LINE
  5
9EB8
  8
ALPHA
 10
18.887373
 20
-104.660277
 30
0.0
 11
18.961491
 21
-104.686159
 31
0.0
  0
LINE
  5
9EB9
  8
ALPHA
 10
19.831418
 20
-103.964718
 30
0.0
 11
19.887373
 21
-104.299773
 31
0.0
  0
LINE
  5
9EBA
  8
ALPHA
 10
19.787373
 20
-103.887072
 30
0.0
 11
19.831418
 21
-103.964718
 31
0.0
  0
LINE
  5
9EBB
  8
ALPHA
 10
18.887373
 20
-104.299773
 30
0.0
 11
18.943328
 21
-103.964718
 31
0.0
  0
LINE
  5
9EBC
  8
ALPHA
 10
19.887373
 20
-104.660277
 30
0.0
 11
19.813255
 21
-104.686159
 31
0.0
  0
LINE
  5
9EBD
  8
ALPHA
 10
18.88923
 20
-105.044623
 30
0.0
 11
18.888431
 21
-105.026615
 31
0.0
  0
LINE
  5
9EBE
  8
ALPHA
 10
18.888431
 20
-105.026615
 30
0.0
 11
18.887403
 21
-104.981587
 31
0.0
  0
LINE
  5
9EBF
  8
ALPHA
 10
18.943328
 20
-103.964718
 30
0.0
 11
18.987373
 21
-103.887072
 31
0.0
  0
LINE
  5
9EC0
  8
ALPHA
 10
15.462858
 20
-103.887072
 30
0.0
 11
15.462858
 21
-103.667072
 31
0.0
  0
LINE
  5
9EC1
  8
ALPHA
 10
15.426941
 20
-104.264798
 30
0.0
 11
15.346535
 21
-103.964718
 31
0.0
  0
LINE
  5
9EC2
  8
ALPHA
 10
15.464568
 20
-103.917072
 30
0.0
 11
15.346535
 21
-103.917072
 31
0.0
  0
ARC
  5
9EC3
  8
ALPHA
 10
15.636313
 20
-103.887072
 30
0.0
 40
0.3
 50
185.73917
 51
195.0
  0
LINE
  5
9EC4
  8
ALPHA
 10
15.395384
 20
-104.642092
 30
0.0
 11
15.41019
 21
-104.264265
 31
0.0
  0
LINE
  5
9EC5
  8
ALPHA
 10
15.41019
 20
-104.264265
 30
0.0
 11
15.411736
 21
-104.208052
 31
0.0
  0
LINE
  5
9EC6
  8
ALPHA
 10
15.464568
 20
-103.917072
 30
0.0
 11
15.462858
 21
-103.887072
 31
0.0
  0
LINE
  5
9EC7
  8
ALPHA
 10
18.943328
 20
-103.964718
 30
0.0
 11
15.346535
 21
-103.964718
 31
0.0
  0
LINE
  5
9EC8
  8
ALPHA
 10
15.462858
 20
-103.887072
 30
0.0
 11
18.987373
 21
-103.887072
 31
0.0
  0
LINE
  5
9EC9
  8
ALPHA
 10
18.887373
 20
-102.867072
 30
0.0
 11
18.887373
 21
-103.667072
 31
0.0
  0
LINE
  5
9ECA
  8
ALPHA
 10
19.887373
 20
-102.867072
 30
0.0
 11
19.887373
 21
-103.667072
 31
0.0
  0
LINE
  5
9ECB
  8
ALPHA
 10
33.687373
 20
-108.360459
 30
0.0
 11
33.687373
 21
-101.118793
 31
0.0
  0
LINE
  5
9ECC
  8
ALPHA
 10
23.347806
 20
-104.264798
 30
0.0
 11
22.947441
 21
-105.464648
 31
0.0
  0
LINE
  5
9ECD
  8
ALPHA
 10
23.379363
 20
-104.642092
 30
0.0
 11
23.357882
 21
-107.148642
 31
0.0
  0
CIRCLE
  5
9ECE
  8
ALPHA
 10
29.387373
 20
-109.167072
 30
0.0
 40
4.075
  0
ARC
  5
9ECF
  8
ALPHA
 10
29.387373
 20
-109.167072
 30
0.0
 40
4.375
 50
10.624332
 51
349.375668
  0
LINE
  5
9ED0
  8
AXE
 10
29.387373
 20
-116.242072
 30
0.0
 11
29.387373
 21
-102.092072
 31
0.0
  0
CIRCLE
  5
9ED1
  8
ALPHA
 10
29.387373
 20
-109.167072
 30
0.0
 40
2.125
  0
LINE
  5
9ED2
  8
ALPHA
 10
23.357897
 20
-107.148474
 30
0.0
 11
22.947441
 21
-105.464648
 31
0.0
  0
LINE
  5
9ED3
  8
ALPHA
 10
33.687373
 20
-108.360459
 30
0.0
 11
33.392516
 21
-108.415769
 31
0.0
  0
LINE
  5
9ED4
  8
ALPHA
 10
33.687373
 20
-108.360459
 30
0.0
 11
33.818623
 21
-109.167072
 31
0.0
  0
LINE
  5
9ED5
  8
ALPHA
 10
33.687373
 20
-109.973685
 30
0.0
 11
33.392516
 21
-109.918375
 31
0.0
  0
LINE
  5
9ED6
  8
ALPHA
 10
33.818623
 20
-109.167072
 30
0.0
 11
33.687373
 21
-109.973685
 31
0.0
  0
LINE
  5
9ED7
  8
ALPHA
 10
27.387373
 20
-99.167072
 30
0.0
 11
27.387373
 21
-99.683829
 31
0.0
  0
LINE
  5
9ED8
  8
ALPHA
 10
28.637373
 20
-103.167072
 30
0.0
 11
28.762373
 21
-103.167072
 31
0.0
  0
LINE
  5
9ED9
  8
ALPHA
 10
28.637373
 20
-102.817072
 30
0.0
 11
28.762373
 21
-102.817072
 31
0.0
  0
LINE
  5
9EDA
  8
ALPHA
 10
23.428212
 20
-103.964718
 30
0.0
 11
23.347806
 21
-104.264798
 31
0.0
  0
LINE
  5
9EDB
  8
ALPHA
 10
23.311889
 20
-103.667072
 30
0.0
 11
23.311889
 21
-103.887072
 31
0.0
  0
LINE
  5
9EDC
  8
ALPHA
 10
23.310179
 20
-103.917072
 30
0.0
 11
23.428212
 21
-103.917072
 31
0.0
  0
ARC
  5
9EDD
  8
ALPHA
 10
23.138434
 20
-103.887072
 30
0.0
 40
0.3
 50
345.0
 51
354.26083
  0
LINE
  5
9EDE
  8
ALPHA
 10
23.363011
 20
-104.208052
 30
0.0
 11
23.364557
 21
-104.264265
 31
0.0
  0
LINE
  5
9EDF
  8
ALPHA
 10
23.364557
 20
-104.264265
 30
0.0
 11
23.379363
 21
-104.642092
 31
0.0
  0
LINE
  5
9EE0
  8
ALPHA
 10
23.311889
 20
-103.887072
 30
0.0
 11
23.310179
 21
-103.917072
 31
0.0
  0
LINE
  5
9EE1
  8
ALPHA
 10
23.436931
 20
-103.917072
 30
0.0
 11
28.762373
 21
-103.917072
 31
0.0
  0
LINE
  5
9EE2
  8
ALPHA
 10
23.379363
 20
-104.642092
 30
0.0
 11
28.762373
 21
-104.112413
 31
0.0
  0
LINE
  5
9EE3
  8
ALPHA
 10
28.637373
 20
-103.667072
 30
0.0
 11
28.637373
 21
-101.667072
 31
0.0
  0
LINE
  5
9EE4
  8
ALPHA
 10
28.762373
 20
-101.47173
 30
0.0
 11
28.762373
 21
-104.112413
 31
0.0
  0
LINE
  5
9EE5
  8
ALPHA
 10
33.687373
 20
-101.118793
 30
0.0
 11
33.755361
 21
-100.826599
 31
0.0
  0
ARC
  5
9EE6
  8
ALPHA
 10
33.887373
 20
-101.37119
 30
0.0
 40
0.5
 50
0.0
 51
76.672038
  0
LINE
  5
9EE7
  8
ALPHA
 10
33.687373
 20
-101.118793
 30
0.0
 11
34.118057
 21
-101.176577
 31
0.0
  0
LINE
  5
9EE8
  8
ALPHA
 10
34.387373
 20
-101.37119
 30
0.0
 11
34.118057
 21
-101.176577
 31
0.0
  0
LINE
  5
9EE9
  8
ALPHA
 10
34.118057
 20
-101.176577
 30
0.0
 11
34.002636
 21
-100.884657
 31
0.0
  0
DIMENSION
  5
9FB6
  8
COTATION1
  2
*D10
 10
34.38058
 20
-131.146253
 30
0.0
 11
74.383977
 21
-127.896253
 31
0.0
  1
800
 13
114.387373
 23
-145.196253
 33
0.0
 14
34.38058
 24
-143.339861
 34
0.0
 50
180.0
  0
LINE
  5
9FEE
  8
AXE
 10
77.447027
 20
-139.746253
 30
0.0
 11
87.550657
 21
-157.246253
 31
0.0
  0
LINE
  5
9FF0
  8
AXE
 10
72.828225
 20
-139.746253
 30
0.0
 11
82.931855
 21
-157.246253
 31
0.0
  0
ARC
  5
9FF3
  8
AXE
 10
39.929758
 20
-133.496253
 30
0.0
 40
15.0
 50
244.534851
 51
270.0
  0
ARC
  5
A034
  8
ALPHA
 10
39.929758
 20
-133.496253
 30
0.0
 40
12.2
 50
242.980495
 51
270.0
  0
ARC
  5
A035
  8
ALPHA
 10
39.929758
 20
-133.496253
 30
0.0
 40
17.8
 50
239.911914
 51
270.0
  0
LINE
  5
A036
  8
ALPHA
 10
79.496621
 20
-151.296253
 30
0.0
 11
39.929758
 21
-151.296253
 31
0.0
  0
LINE
  5
A037
  8
ALPHA
 10
76.263459
 20
-145.696253
 30
0.0
 11
39.929758
 21
-145.696253
 31
0.0
  0
LINE
  5
A038
  8
AXE
 10
77.88004
 20
-148.496253
 30
0.0
 11
39.929758
 21
-148.496253
 31
0.0
  0
VIEWPORT
  5
494D
 67
     1
  8
0
 10
4.995325
 20
6.556512
 30
0.0
 40
22.70986
 41
13.988421
 68
    -1
 69
     1
1001
ACAD
1000
MVIEW
1002
{
1070
    16
1010
0.0
1020
0.0
1030
0.0
1010
0.0
1020
0.0
1030
1.0
1040
0.0
1040
13.988421
1040
4.995325
1040
6.556512
1040
50.0
1040
0.0
1040
0.0
1070
     0
1070
   100
1070
     1
1070
     1
1070
     0
1070
     0
1070
     0
1070
     0
1040
0.0
1040
0.0
1040
0.0
1040
10.0
1040
10.0
1040
10.0
1040
10.0
1070
     0
1002
{
1002
}
1002
}
  0
ENDSEC
  0
EOF
