  0
SECTION
  2
HEADER
  9
$ACADVER
  1
AC1009
  9
$INSBASE
 10
402.590624
 20
-1.041018
 30
0.0
  9
$EXTMIN
 10
194.734084
 20
-175.213327
 30
0.0
  9
$EXTMAX
 10
230.734084
 20
-67.40617
 30
0.0
  9
$LIMMIN
 10
-407.970438
 20
-367.832444
  9
$LIMMAX
 10
429.804077
 20
234.370848
  9
$ORTHOMODE
 70
     1
  9
$REGENMODE
 70
     1
  9
$FILLMODE
 70
     1
  9
$QTEXTMODE
 70
     0
  9
$MIRRTEXT
 70
     1
  9
$DRAGMODE
 70
     2
  9
$LTSCALE
 40
10.0
  9
$OSMODE
 70
   161
  9
$ATTMODE
 70
     1
  9
$TEXTSIZE
 40
6.0
  9
$TRACEWID
 40
1.0
  9
$TEXTSTYLE
  7
ROMANS
  9
$CLAYER
  8
ALPHA
  9
$CELTYPE
  6
BYLAYER
  9
$CECOLOR
 62
   256
  9
$DIMSCALE
 40
1.0
  9
$DIMASZ
 40
5.0
  9
$DIMEXO
 40
2.0
  9
$DIMDLI
 40
0.38
  9
$DIMRND
 40
0.0
  9
$DIMDLE
 40
0.0
  9
$DIMEXE
 40
2.5
  9
$DIMTP
 40
0.0
  9
$DIMTM
 40
0.0
  9
$DIMTXT
 40
2.5
  9
$DIMCEN
 40
0.0
  9
$DIMTSZ
 40
0.0
  9
$DIMTOL
 70
     0
  9
$DIMLIM
 70
     0
  9
$DIMTIH
 70
     1
  9
$DIMTOH
 70
     1
  9
$DIMSE1
 70
     0
  9
$DIMSE2
 70
     0
  9
$DIMTAD
 70
     1
  9
$DIMZIN
 70
    12
  9
$DIMBLK
  1
OPEN30
  9
$DIMASO
 70
     1
  9
$DIMSHO
 70
     1
  9
$DIMPOST
  1

  9
$DIMAPOST
  1

  9
$DIMALT
 70
     0
  9
$DIMALTD
 70
     2
  9
$DIMALTF
 40
25.4
  9
$DIMLFAC
 40
1.0
  9
$DIMTOFL
 70
     0
  9
$DIMTVP
 40
0.0
  9
$DIMTIX
 70
     0
  9
$DIMSOXD
 70
     0
  9
$DIMSAH
 70
     0
  9
$DIMBLK1
  1

  9
$DIMBLK2
  1

  9
$DIMSTYLE
  2
SC_DEFAUT
  9
$DIMCLRD
 70
     0
  9
$DIMCLRE
 70
     0
  9
$DIMCLRT
 70
     0
  9
$DIMTFAC
 40
1.0
  9
$DIMGAP
 40
2.0
  9
$LUNITS
 70
     2
  9
$LUPREC
 70
     1
  9
$SKETCHINC
 40
0.1
  9
$FILLETRAD
 40
0.0
  9
$AUNITS
 70
     0
  9
$AUPREC
 70
     0
  9
$MENU
  1
acad
  9
$ELEVATION
 40
0.0
  9
$PELEVATION
 40
0.0
  9
$THICKNESS
 40
0.0
  9
$LIMCHECK
 70
     0
  9
$BLIPMODE
 70
     0
  9
$CHAMFERA
 40
0.0
  9
$CHAMFERB
 40
0.0
  9
$SKPOLY
 70
     0
  9
$TDCREATE
 40
2450373.687919
  9
$TDUPDATE
 40
2453031.658092
  9
$TDINDWG
 40
1.056729
  9
$TDUSRTIMER
 40
1.056729
  9
$USRTIMER
 70
     1
  9
$ANGBASE
 50
0.0
  9
$ANGDIR
 70
     0
  9
$PDMODE
 70
    32
  9
$PDSIZE
 40
0.0
  9
$PLINEWID
 40
0.0
  9
$COORDS
 70
     1
  9
$SPLFRAME
 70
     0
  9
$SPLINETYPE
 70
     6
  9
$SPLINESEGS
 70
     8
  9
$ATTDIA
 70
     0
  9
$ATTREQ
 70
     1
  9
$HANDLING
 70
     1
  9
$HANDSEED
  5
A08D
  9
$SURFTAB1
 70
     6
  9
$SURFTAB2
 70
     6
  9
$SURFTYPE
 70
     6
  9
$SURFU
 70
     6
  9
$SURFV
 70
     6
  9
$UCSNAME
  2

  9
$UCSORG
 10
0.0
 20
0.0
 30
0.0
  9
$UCSXDIR
 10
1.0
 20
0.0
 30
0.0
  9
$UCSYDIR
 10
0.0
 20
1.0
 30
0.0
  9
$PUCSNAME
  2

  9
$PUCSORG
 10
0.0
 20
0.0
 30
0.0
  9
$PUCSXDIR
 10
1.0
 20
0.0
 30
0.0
  9
$PUCSYDIR
 10
0.0
 20
1.0
 30
0.0
  9
$USERI1
 70
     0
  9
$USERI2
 70
     0
  9
$USERI3
 70
     0
  9
$USERI4
 70
     0
  9
$USERI5
 70
     0
  9
$USERR1
 40
0.0
  9
$USERR2
 40
0.0
  9
$USERR3
 40
0.0
  9
$USERR4
 40
0.0
  9
$USERR5
 40
0.0
  9
$WORLDVIEW
 70
     1
  9
$SHADEDGE
 70
     3
  9
$SHADEDIF
 70
    70
  9
$TILEMODE
 70
     1
  9
$MAXACTVP
 70
    16
  9
$PLIMCHECK
 70
     0
  9
$PEXTMIN
 10
-1.452248
 20
-0.437698
 30
0.0
  9
$PEXTMAX
 10
12.749749
 20
8.310198
 30
0.0
  9
$PLIMMIN
 10
0.0
 20
0.0
  9
$PLIMMAX
 10
12.0
 20
9.0
  9
$UNITMODE
 70
     0
  9
$VISRETAIN
 70
     0
  9
$PLINEGEN
 70
     0
  9
$PSLTSCALE
 70
     0
  0
ENDSEC
  0
SECTION
  2
TABLES
  0
TABLE
  2
VPORT
 70
     2
  0
VPORT
  2
*ACTIVE
 70
     0
 10
0.0
 20
0.0
 11
1.0
 21
1.0
 12
212.735138
 22
-121.312821
 13
0.0
 23
0.0
 14
1.0
 24
1.0
 15
10.0
 25
10.0
 16
0.0
 26
0.0
 36
1.0
 17
0.0
 27
0.0
 37
0.0
 40
108.654633
 41
1.466346
 42
50.0
 43
0.0
 44
0.0
 50
0.0
 51
0.0
 71
     0
 72
   100
 73
     1
 74
     0
 75
     0
 76
     0
 77
     0
 78
     0
  0
ENDTAB
  0
TABLE
  2
LTYPE
 70
     2
  0
LTYPE
  2
CONTINUOUS
 70
     0
  3
Solid line
 72
    65
 73
     0
 40
0.0
  0
LTYPE
  2
AXES2
 70
     0
  3
___ _ ___ _ ___ _ ___ _ ___ _ ___ _ ___ _ ___ _
 72
    65
 73
     4
 40
1.125
 49
0.75
 49
-0.125
 49
0.125
 49
-0.125
  0
ENDTAB
  0
TABLE
  2
LAYER
 70
     5
  0
LAYER
  2
0
 70
     0
 62
   255
  6
CONTINUOUS
  0
LAYER
  2
COTATION1
 70
     0
 62
     2
  6
CONTINUOUS
  0
LAYER
  2
AXE
 70
     0
 62
    80
  6
AXES2
  0
LAYER
  2
DEFPOINTS
 70
     0
 62
     7
  6
CONTINUOUS
  0
LAYER
  2
ALPHA
 70
     0
 62
   254
  6
CONTINUOUS
  0
ENDTAB
  0
TABLE
  2
STYLE
 70
     2
  0
STYLE
  2
ROMANS
 70
     0
 40
0.0
 41
1.0
 50
0.0
 71
     0
 42
6.0
  3
romans
  4

  0
STYLE
  2
STANDARD
 70
     0
 40
0.0
 41
1.0
 50
0.0
 71
     0
 42
0.2
  3
txt
  4

  0
ENDTAB
  0
TABLE
  2
VIEW
 70
     0
  0
ENDTAB
  0
TABLE
  2
UCS
 70
     0
  0
ENDTAB
  0
TABLE
  2
APPID
 70
     1
  0
APPID
  2
ACAD
 70
     0
  0
ENDTAB
  0
TABLE
  2
DIMSTYLE
 70
     2
  0
DIMSTYLE
  2
SC_DEFAUT
 70
     0
  3

  4

  5
OPEN30
  6

  7

 40
1.0
 41
5.0
 42
2.0
 43
0.38
 44
2.5
 45
0.0
 46
0.0
 47
0.0
 48
0.0
140
2.5
141
0.0
142
0.0
143
25.4
144
1.0
145
0.0
146
1.0
147
2.0
 71
     0
 72
     0
 73
     1
 74
     1
 75
     0
 76
     0
 77
     1
 78
    12
170
     0
171
     2
172
     0
173
     0
174
     0
175
     0
176
     0
177
     0
178
     0
  0
DIMSTYLE
  2
STANDARD
 70
     0
  3

  4

  5

  6

  7

 40
1.0
 41
0.18
 42
0.0625
 43
0.38
 44
0.18
 45
0.0
 46
0.0
 47
0.0
 48
0.0
140
0.18
141
0.09
142
0.0
143
25.4
144
1.0
145
0.0
146
1.0
147
0.09
 71
     0
 72
     0
 73
     1
 74
     1
 75
     0
 76
     0
 77
     0
 78
     0
170
     0
171
     2
172
     0
173
     0
174
     0
175
     0
176
     0
177
     0
178
     0
  0
ENDTAB
  0
ENDSEC
  0
SECTION
  2
BLOCKS
  0
BLOCK
  8
0
  2
$MODEL_SPACE
 70
     0
 10
0.0
 20
0.0
 30
0.0
  3
$MODEL_SPACE
  1

  0
ENDBLK
  5
9F84
  8
0
  0
BLOCK
 67
     1
  8
0
  2
$PAPER_SPACE
 70
     0
 10
0.0
 20
0.0
 30
0.0
  3
$PAPER_SPACE
  1

  0
ENDBLK
  5
9F82
 67
     1
  8
0
  0
BLOCK
  8
0
  2
COTE
 70
     0
 10
0.0
 20
0.0
 30
0.0
  3
COTE
  1

  0
ENDBLK
  5
F
  8
0
  0
BLOCK
  8
0
  2
FOND
 70
     0
 10
0.0
 20
0.0
 30
0.0
  3
FOND
  1

  0
ENDBLK
  5
75
  8
0
  0
BLOCK
  8
0
  2
_OPEN30
 70
     0
 10
0.0
 20
0.0
 30
0.0
  3
_OPEN30
  1

  0
LINE
  5
4B05
  8
COTATION1
 62
     0
 10
-1.0
 20
0.267949
 30
0.0
 11
0.0
 21
0.0
 31
0.0
1001
ACAD
1000
RTLwPs
1070
   158
  0
LINE
  5
4B06
  8
COTATION1
 62
     0
 10
0.0
 20
0.0
 30
0.0
 11
-1.0
 21
-0.267949
 31
0.0
1001
ACAD
1000
RTLwPs
1070
   158
  0
LINE
  5
4B07
  8
COTATION1
 62
     0
 10
0.0
 20
0.0
 30
0.0
 11
-1.0
 21
0.0
 31
0.0
1001
ACAD
1000
RTLwPs
1070
   158
  0
ENDBLK
  5
4B09
  8
0
  0
BLOCK
  8
0
  2
*D3
 70
     1
 10
0.0
 20
0.0
 30
0.0
  3
*D3
  1

  0
LINE
  5
9D73
  8
COTATION1
 62
     0
 10
199.334084
 20
-86.184151
 30
0.0
 11
199.334084
 21
-69.40617
 31
0.0
1001
ACAD
1000
RTLwPs
1070
   158
  0
LINE
  5
9D74
  8
COTATION1
 62
     0
 10
215.734084
 20
-84.90617
 30
0.0
 11
215.734084
 21
-69.40617
 31
0.0
1001
ACAD
1000
RTLwPs
1070
   158
  0
LINE
  5
9D75
  8
COTATION1
 62
     0
 10
204.334084
 20
-71.90617
 30
0.0
 11
210.734084
 21
-71.90617
 31
0.0
1001
ACAD
1000
RTLwPs
1070
   158
  0
INSERT
  5
9D76
  8
COTATION1
 62
     0
  2
_OPEN30
 10
199.334084
 20
-71.90617
 30
0.0
 41
5.0
 42
5.0
 43
5.0
 50
180.0
1001
ACAD
1000
RTLwPs
1070
   158
  0
INSERT
  5
9D77
  8
COTATION1
 62
     0
  2
_OPEN30
 10
215.734084
 20
-71.90617
 30
0.0
 41
5.0
 42
5.0
 43
5.0
1001
ACAD
1000
RTLwPs
1070
   158
  0
TEXT
  5
9D78
  8
COTATION1
 62
     0
 10
203.129322
 20
-69.90617
 30
0.0
 40
2.5
  1
16.4
1001
ACAD
1000
MTEXTBEGIN
1070
    73
1070
     1
1070
    44
1040
1.0
1070
    74
1070
     0
1000
MTEXTEND
  0
POINT
  5
9D79
  8
DEFPOINTS
 62
     0
 10
199.334084
 20
-88.184151
 30
0.0
  0
POINT
  5
9D7A
  8
DEFPOINTS
 62
     0
 10
215.734084
 20
-86.90617
 30
0.0
  0
POINT
  5
9D7B
  8
DEFPOINTS
 62
     0
 10
215.734084
 20
-71.90617
 30
0.0
  0
ENDBLK
  5
9D72
  8
0
  0
BLOCK
  8
0
  2
*D4
 70
     1
 10
0.0
 20
0.0
 30
0.0
  3
*D4
  1

  0
LINE
  5
9DD6
  8
COTATION1
 62
     0
 10
200.384084
 20
-138.20617
 30
0.0
 11
200.384084
 21
-175.213327
 31
0.0
1001
ACAD
1000
RTLwPs
1070
   158
  0
LINE
  5
9DD7
  8
COTATION1
 62
     0
 10
215.084084
 20
-138.20617
 30
0.0
 11
215.084084
 21
-175.213327
 31
0.0
1001
ACAD
1000
RTLwPs
1070
   158
  0
LINE
  5
9DD8
  8
COTATION1
 62
     0
 10
205.384084
 20
-172.713327
 30
0.0
 11
210.084084
 21
-172.713327
 31
0.0
1001
ACAD
1000
RTLwPs
1070
   158
  0
INSERT
  5
9DD9
  8
COTATION1
 62
     0
  2
_OPEN30
 10
200.384084
 20
-172.713327
 30
0.0
 41
5.0
 42
5.0
 43
5.0
 50
180.0
1001
ACAD
1000
RTLwPs
1070
   158
  0
INSERT
  5
9DDA
  8
COTATION1
 62
     0
  2
_OPEN30
 10
215.084084
 20
-172.713327
 30
0.0
 41
5.0
 42
5.0
 43
5.0
1001
ACAD
1000
RTLwPs
1070
   158
  0
TEXT
  5
9DDB
  8
COTATION1
 62
     0
 10
202.555513
 20
-170.713327
 30
0.0
 40
2.5
  1
%%c
1001
ACAD
1000
MTEXTBEGIN
1070
    73
1070
     1
1070
    44
1040
1.0
1070
    74
1070
     0
1000
MTEXTEND
  0
TEXT
  5
9F55
  8
COTATION1
 62
     0
 10
204.817417
 20
-170.713327
 30
0.0
 40
2.5
  1
14.7
1001
ACAD
1000
R13OBJECT
1002
{
1005
9DDB
1002
}
  0
POINT
  5
9DDC
  8
DEFPOINTS
 62
     0
 10
200.384084
 20
-136.20617
 30
0.0
  0
POINT
  5
9DDD
  8
DEFPOINTS
 62
     0
 10
215.084084
 20
-136.20617
 30
0.0
  0
POINT
  5
9DDE
  8
DEFPOINTS
 62
     0
 10
215.084084
 20
-172.713327
 30
0.0
  0
ENDBLK
  5
9DD5
  8
0
  0
ENDSEC
  0
SECTION
  2
ENTITIES
  0
INSERT
  5
A
  8
0
  2
COTE
 10
0.0
 20
0.0
 30
0.0
  0
INSERT
  5
17
  8
0
  2
COTE
 10
284.010391
 20
6.373258
 30
0.0
  0
INSERT
  5
72
  8
0
  2
FOND
 10
0.0
 20
0.0
 30
0.0
  0
LINE
  5
9CE4
  8
ALPHA
 10
215.034084
 20
-131.90617
 30
0.0
 11
215.034084
 21
-89.110288
 31
0.0
  0
LINE
  5
9CE5
  8
ALPHA
 10
215.734084
 20
-136.60617
 30
0.0
 11
215.734084
 21
-86.90617
 31
0.0
  0
LINE
  5
9CE6
  8
ALPHA
 10
199.734084
 20
-136.60617
 30
0.0
 11
199.734084
 21
-86.90617
 31
0.0
  0
LINE
  5
9CE7
  8
ALPHA
 10
200.434084
 20
-89.110288
 30
0.0
 11
200.434084
 21
-131.906134
 31
0.0
  0
TEXT
  5
9CE8
  8
AXE
 10
224.257894
 20
-109.508211
 30
0.0
 40
8.0
  1
Z
 72
     2
 11
230.734084
 21
-109.508211
 31
0.0
  0
LINE
  5
9CE9
  8
AXE
 10
207.734084
 20
-81.90617
 30
0.0
 11
207.734084
 21
-159.935351
 31
0.0
  0
TEXT
  5
9CEA
  8
AXE
 10
200.257894
 20
-159.935351
 30
0.0
 40
8.0
  1
Y
 72
     2
 11
206.734084
 21
-159.935351
 31
0.0
  0
LINE
  5
9CEB
  8
ALPHA
 10
200.417493
 20
-136.90617
 30
0.0
 11
200.034084
 21
-136.90617
 31
0.0
  0
LINE
  5
9CEC
  8
ALPHA
 10
200.034084
 20
-136.90617
 30
0.0
 11
200.199092
 21
-134.45764
 31
0.0
  0
POLYLINE
  5
9CED
  8
ALPHA
 66
     1
 10
0.0
 20
0.0
 30
0.0
 70
   128
210
0.0
220
0.0
230
-1.0
  0
VERTEX
  5
9F8A
  8
ALPHA
 10
-199.734084
 20
-132.841193
 30
0.0
  0
VERTEX
  5
9F8B
  8
ALPHA
 10
-199.928571
 20
-132.257061
 30
0.0
  0
VERTEX
  5
9F8C
  8
ALPHA
 10
-200.434084
 20
-131.90617
 30
0.0
  0
SEQEND
  5
9F8D
  8
ALPHA
  0
POLYLINE
  5
9CEE
  8
ALPHA
 66
     1
 10
0.0
 20
0.0
 30
0.0
 70
   128
  0
VERTEX
  5
9F8E
  8
ALPHA
 10
199.734084
 20
-134.220349
 30
0.0
  0
VERTEX
  5
9F8F
  8
ALPHA
 10
199.929444
 20
-134.398671
 30
0.0
  0
VERTEX
  5
9F90
  8
ALPHA
 10
200.199092
 20
-134.45764
 30
0.0
  0
SEQEND
  5
9F91
  8
ALPHA
  0
LINE
  5
9CEF
  8
ALPHA
 10
199.734084
 20
-132.841193
 30
0.0
 11
200.333599
 21
-132.968579
 31
0.0
  0
LINE
  5
9CF0
  8
AXE
 10
194.734084
 20
-110.508211
 30
0.0
 11
230.734084
 21
-110.508211
 31
0.0
  0
ARC
  5
9CF1
  8
ALPHA
 10
200.034084
 20
-136.60617
 30
0.0
 40
0.3
 50
180.0
 51
270.0
  0
LINE
  5
9CF2
  8
ALPHA
 10
212.384084
 20
-130.51407
 30
0.0
 11
212.384084
 21
-126.55617
 31
0.0
  0
LINE
  5
9CF3
  8
ALPHA
 10
214.634084
 20
-126.60617
 30
0.0
 11
214.634084
 21
-133.673879
 31
0.0
  0
LINE
  5
9CF4
  8
ALPHA
 10
214.769595
 20
-134.079179
 30
0.0
 11
214.739145
 21
-125.35617
 31
0.0
  0
LINE
  5
9CF5
  8
ALPHA
 10
200.834084
 20
-126.60617
 30
0.0
 11
200.834084
 21
-133.673879
 31
0.0
  0
LINE
  5
9CF6
  8
ALPHA
 10
203.084084
 20
-126.55617
 30
0.0
 11
203.084084
 21
-130.51407
 31
0.0
  0
LINE
  5
9CF7
  8
ALPHA
 10
200.698573
 20
-134.079179
 30
0.0
 11
200.729023
 21
-125.35617
 31
0.0
  0
ARC
  5
9CFA
  8
ALPHA
 10
207.734084
 20
-132.40617
 30
0.0
 40
3.7
 50
67.041249
 51
112.958751
  0
ARC
  5
9CFD
  8
ALPHA
 10
207.734084
 20
-132.40617
 30
0.0
 40
4.0
 50
50.872184
 51
129.127816
  0
LINE
  5
9D08
  8
ALPHA
 10
200.706159
 20
-131.90617
 30
0.0
 11
200.434084
 21
-131.906134
 31
0.0
  0
LINE
  5
9D09
  8
ALPHA
 10
200.199092
 20
-134.45764
 30
0.0
 11
200.333599
 21
-132.968579
 31
0.0
  0
LINE
  5
9D0A
  8
ALPHA
 10
200.333599
 20
-132.968579
 30
0.0
 11
200.434086
 21
-131.906134
 31
0.0
  0
LINE
  5
9D0B
  8
ALPHA
 10
200.834084
 20
-131.90617
 30
0.0
 11
201.77317
 21
-131.90617
 31
0.0
  0
LINE
  5
9D11
  8
ALPHA
 10
215.434084
 20
-136.90617
 30
0.0
 11
215.050675
 21
-136.90617
 31
0.0
  0
LINE
  5
9D13
  8
ALPHA
 10
215.034084
 20
-131.90617
 30
0.0
 11
214.762009
 21
-131.90617
 31
0.0
  0
ARC
  5
9D14
  8
ALPHA
 10
215.434084
 20
-136.60617
 30
0.0
 40
0.3
 50
270.0
 51
0.0
  0
LINE
  5
9D15
  8
ALPHA
 10
215.13461
 20
-132.968791
 30
0.0
 11
215.269076
 21
-134.45764
 31
0.0
  0
LINE
  5
9D16
  8
ALPHA
 10
215.734084
 20
-132.841388
 30
0.0
 11
215.13461
 21
-132.968791
 31
0.0
  0
LINE
  5
9D17
  8
ALPHA
 10
215.269076
 20
-134.45764
 30
0.0
 11
215.434084
 21
-136.90617
 31
0.0
  0
POLYLINE
  5
9D18
  8
ALPHA
 66
     1
 10
0.0
 20
0.0
 30
0.0
 70
   128
210
0.0
220
0.0
230
-1.0
  0
VERTEX
  5
9F92
  8
ALPHA
 10
-215.734084
 20
-134.220349
 30
0.0
  0
VERTEX
  5
9F93
  8
ALPHA
 10
-215.538731
 20
-134.398684
 30
0.0
  0
VERTEX
  5
9F94
  8
ALPHA
 10
-215.269076
 20
-134.457641
 30
0.0
  0
SEQEND
  5
9F95
  8
ALPHA
  0
POLYLINE
  5
9D19
  8
ALPHA
 66
     1
 10
0.0
 20
0.0
 30
0.0
 70
   128
210
0.0
220
0.0
230
-1.0
  0
VERTEX
  5
9F96
  8
ALPHA
 10
-215.034084
 20
-131.90617
 30
0.0
  0
VERTEX
  5
9F97
  8
ALPHA
 10
-215.539648
 20
-132.257138
 30
0.0
  0
VERTEX
  5
9F98
  8
ALPHA
 10
-215.734084
 20
-132.841388
 30
0.0
  0
SEQEND
  5
9F99
  8
ALPHA
  0
LINE
  5
9D1A
  8
ALPHA
 10
215.034084
 20
-131.90617
 30
0.0
 11
215.13461
 21
-132.968791
 31
0.0
  0
LINE
  5
9D1C
  8
ALPHA
 10
213.694998
 20
-131.90617
 30
0.0
 11
214.634084
 21
-131.90617
 31
0.0
  0
LINE
  5
9D27
  8
ALPHA
 10
214.634084
 20
-125.45617
 30
0.0
 11
200.834084
 21
-125.45617
 31
0.0
  0
LINE
  5
9D28
  8
ALPHA
 10
214.739145
 20
-125.35617
 30
0.0
 11
200.729023
 21
-125.35617
 31
0.0
  0
LINE
  5
9D29
  8
ALPHA
 10
202.384084
 20
-125.45617
 30
0.0
 11
202.384084
 21
-125.35617
 31
0.0
  0
LINE
  5
9D2A
  8
ALPHA
 10
200.834084
 20
-125.90617
 30
0.0
 11
200.734084
 21
-125.90617
 31
0.0
  0
LINE
  5
9D2B
  8
ALPHA
 10
201.634084
 20
-126.55617
 30
0.0
 11
201.634084
 21
-126.60617
 31
0.0
  0
LINE
  5
9D2C
  8
ALPHA
 10
203.084084
 20
-126.60617
 30
0.0
 11
200.834084
 21
-126.60617
 31
0.0
  0
LINE
  5
9D2D
  8
ALPHA
 10
200.834084
 20
-126.55617
 30
0.0
 11
203.084084
 21
-126.55617
 31
0.0
  0
LINE
  5
9D2E
  8
ALPHA
 10
200.834084
 20
-125.45617
 30
0.0
 11
200.834084
 21
-126.55617
 31
0.0
  0
LINE
  5
9D2F
  8
ALPHA
 10
214.734084
 20
-125.90617
 30
0.0
 11
214.634084
 21
-125.90617
 31
0.0
  0
LINE
  5
9D30
  8
ALPHA
 10
214.734084
 20
-125.35617
 30
0.0
 11
214.734084
 21
-125.90617
 31
0.0
  0
LINE
  5
9D31
  8
ALPHA
 10
213.084084
 20
-125.45617
 30
0.0
 11
213.084084
 21
-125.35617
 31
0.0
  0
LINE
  5
9D32
  8
ALPHA
 10
213.834084
 20
-126.55617
 30
0.0
 11
213.834084
 21
-126.60617
 31
0.0
  0
LINE
  5
9D33
  8
ALPHA
 10
214.634084
 20
-126.60617
 30
0.0
 11
212.384084
 21
-126.60617
 31
0.0
  0
LINE
  5
9D34
  8
ALPHA
 10
212.384084
 20
-126.55617
 30
0.0
 11
214.634084
 21
-126.55617
 31
0.0
  0
LINE
  5
9D35
  8
ALPHA
 10
214.634084
 20
-126.55617
 30
0.0
 11
214.634084
 21
-125.45617
 31
0.0
  0
LINE
  5
9D36
  8
ALPHA
 10
200.434084
 20
-89.110288
 30
0.0
 11
199.882258
 21
-88.915675
 31
0.0
  0
LINE
  5
9D37
  8
ALPHA
 10
200.434084
 20
-89.110288
 30
0.0
 11
200.118755
 21
-88.623755
 31
0.0
  0
LINE
  5
9D38
  8
ALPHA
 10
201.942144
 20
-87.156796
 30
0.0
 11
200.034084
 21
-86.953326
 31
0.0
  0
LINE
  5
9D39
  8
ALPHA
 10
215.349413
 20
-88.623755
 30
0.0
 11
200.118755
 21
-88.623755
 31
0.0
  0
LINE
  5
9D3A
  8
ALPHA
 10
215.733866
 20
-86.90617
 30
0.0
 11
199.734302
 21
-86.90617
 31
0.0
  0
DIMENSION
  5
9D3B
  8
COTATION1
  2
*D3
 10
215.734084
 20
-71.90617
 30
0.0
 11
207.534084
 21
-68.65617
 31
0.0
 13
199.334084
 23
-88.184151
 33
0.0
 14
215.734084
 24
-86.90617
 34
0.0
  0
LINE
  5
9D3C
  8
ALPHA
 10
199.334084
 20
-92.966679
 30
0.0
 11
199.334084
 21
-88.184151
 31
0.0
  0
LINE
  5
9D3D
  8
ALPHA
 10
199.634084
 20
-92.966679
 30
0.0
 11
199.634084
 21
-88.184151
 31
0.0
  0
POLYLINE
  5
9D3E
  8
ALPHA
 66
     1
 10
0.0
 20
0.0
 30
0.0
  0
VERTEX
  5
9F9A
  8
ALPHA
 10
199.334084
 20
-92.966679
 30
0.0
  0
VERTEX
  5
9F9B
  8
ALPHA
 10
199.347733
 20
-93.06675
 30
0.0
  0
VERTEX
  5
9F9C
  8
ALPHA
 10
199.387636
 20
-93.159801
 30
0.0
  0
VERTEX
  5
9F9D
  8
ALPHA
 10
199.451241
 20
-93.239884
 30
0.0
  0
VERTEX
  5
9F9E
  8
ALPHA
 10
199.53415
 20
-93.301322
 30
0.0
  0
VERTEX
  5
9F9F
  8
ALPHA
 10
199.630483
 20
-93.339866
 30
0.0
  0
VERTEX
  5
9FA0
  8
ALPHA
 10
199.734084
 20
-93.35305
 30
0.0
  0
SEQEND
  5
9FA1
  8
ALPHA
  0
POLYLINE
  5
9D3F
  8
ALPHA
 66
     1
 10
0.0
 20
0.0
 30
0.0
  0
VERTEX
  5
9FA2
  8
ALPHA
 10
199.734084
 20
-93.063272
 30
0.0
  0
VERTEX
  5
9FA3
  8
ALPHA
 10
199.703159
 20
-93.058537
 30
0.0
  0
VERTEX
  5
9FA4
  8
ALPHA
 10
199.675296
 20
-93.044817
 30
0.0
  0
VERTEX
  5
9FA5
  8
ALPHA
 10
199.65319
 20
-93.023465
 30
0.0
  0
VERTEX
  5
9FA6
  8
ALPHA
 10
199.638986
 20
-92.996551
 30
0.0
  0
VERTEX
  5
9FA7
  8
ALPHA
 10
199.634084
 20
-92.966679
 30
0.0
  0
SEQEND
  5
9FA8
  8
ALPHA
  0
LINE
  5
9D40
  8
ALPHA
 10
199.734043
 20
-96.099529
 30
0.0
 11
199.741167
 21
-96.90617
 31
0.0
  0
LINE
  5
9D41
  8
ALPHA
 10
199.734084
 20
-96.099557
 30
0.0
 11
199.746499
 21
-96.90617
 31
0.0
  0
LINE
  5
9D42
  8
ALPHA
 10
199.741157
 20
-96.90617
 30
0.0
 11
199.734039
 21
-97.71281
 31
0.0
  0
LINE
  5
9D43
  8
ALPHA
 10
199.746499
 20
-96.90617
 30
0.0
 11
199.734084
 21
-97.712783
 31
0.0
  0
LINE
  5
9D44
  8
ALPHA
 10
200.034084
 20
-88.565697
 30
0.0
 11
200.034084
 21
-86.953326
 31
0.0
  0
LINE
  5
9D45
  8
ALPHA
 10
200.034084
 20
-88.565697
 30
0.0
 11
200.118755
 21
-88.623755
 31
0.0
  0
LINE
  5
9D46
  8
ALPHA
 10
199.882258
 20
-88.915675
 30
0.0
 11
200.118755
 21
-88.623755
 31
0.0
  0
LINE
  5
9D47
  8
ALPHA
 10
199.634084
 20
-88.740321
 30
0.0
 11
199.334084
 21
-88.740321
 31
0.0
  0
LINE
  5
9D48
  8
ALPHA
 10
199.634084
 20
-88.610912
 30
0.0
 11
199.334084
 21
-88.610912
 31
0.0
  0
POLYLINE
  5
9D49
  8
ALPHA
 66
     1
 10
0.0
 20
0.0
 30
0.0
 70
   128
210
0.0
220
0.0
230
-1.0
  0
VERTEX
  5
9FA9
  8
ALPHA
 10
-199.334084
 20
-88.184151
 30
0.0
  0
VERTEX
  5
9FAA
  8
ALPHA
 10
-199.450713
 20
-87.899718
 30
0.0
  0
VERTEX
  5
9FAB
  8
ALPHA
 10
-199.734084
 20
-87.781147
 30
0.0
  0
SEQEND
  5
9FAC
  8
ALPHA
  0
LINE
  5
9D4A
  8
ALPHA
 10
199.634084
 20
-88.522283
 30
0.0
 11
199.72543
 21
-88.418499
 31
0.0
  0
LINE
  5
9D4B
  8
ALPHA
 10
199.72543
 20
-88.418499
 30
0.0
 11
199.734084
 21
-88.418104
 31
0.0
  0
LINE
  5
9D4C
  8
ALPHA
 10
199.634084
 20
-88.184151
 30
0.0
 11
199.734084
 21
-88.0834
 31
0.0
  0
LINE
  5
9D4D
  8
ALPHA
 10
199.734084
 20
-87.21617
 30
0.0
 11
199.827192
 21
-87.010765
 31
0.0
  0
LINE
  5
9D4E
  8
ALPHA
 10
199.734084
 20
-88.857892
 30
0.0
 11
199.882258
 21
-88.915675
 31
0.0
  0
LINE
  5
9D4F
  8
ALPHA
 10
199.827192
 20
-87.010765
 30
0.0
 11
200.034084
 21
-86.953326
 31
0.0
  0
POLYLINE
  5
9D50
  8
ALPHA
 66
     1
 10
0.0
 20
0.0
 30
0.0
 70
   128
210
0.0
220
0.0
230
-1.0
  0
VERTEX
  5
9FAD
  8
ALPHA
 10
-199.734084
 20
-88.857892
 30
0.0
  0
VERTEX
  5
9FAE
  8
ALPHA
 10
-199.823408
 20
-88.64987
 30
0.0
  0
VERTEX
  5
9FAF
  8
ALPHA
 10
-200.034084
 20
-88.565697
 30
0.0
  0
SEQEND
  5
9FB0
  8
ALPHA
  0
POLYLINE
  5
9D51
  8
ALPHA
 66
     1
 10
0.0
 20
0.0
 30
0.0
  0
VERTEX
  5
9FB1
  8
ALPHA
 10
199.734084
 20
-92.364461
 30
0.0
  0
VERTEX
  5
9FB2
  8
ALPHA
 10
199.703159
 20
-92.359726
 30
0.0
  0
VERTEX
  5
9FB3
  8
ALPHA
 10
199.675296
 20
-92.346006
 30
0.0
  0
VERTEX
  5
9FB4
  8
ALPHA
 10
199.65319
 20
-92.324653
 30
0.0
  0
VERTEX
  5
9FB5
  8
ALPHA
 10
199.638986
 20
-92.297739
 30
0.0
  0
VERTEX
  5
9FB6
  8
ALPHA
 10
199.634084
 20
-92.267868
 30
0.0
  0
SEQEND
  5
9FB7
  8
ALPHA
  0
LINE
  5
9D52
  8
ALPHA
 10
215.727
 20
-96.90617
 30
0.0
 11
215.734132
 21
-96.09953
 31
0.0
  0
LINE
  5
9D53
  8
ALPHA
 10
215.721669
 20
-96.90617
 30
0.0
 11
215.734084
 21
-96.099557
 31
0.0
  0
LINE
  5
9D54
  8
ALPHA
 10
215.734127
 20
-97.712812
 30
0.0
 11
215.727012
 21
-96.90617
 31
0.0
  0
LINE
  5
9D55
  8
ALPHA
 10
215.734084
 20
-97.712783
 30
0.0
 11
215.721669
 21
-96.90617
 31
0.0
  0
LINE
  5
9D56
  8
ALPHA
 10
212.354665
 20
-87.253425
 30
0.0
 11
207.734084
 21
-87.422927
 31
0.0
  0
LINE
  5
9D57
  8
ALPHA
 10
215.034084
 20
-89.110288
 30
0.0
 11
200.434084
 21
-89.110288
 31
0.0
  0
LINE
  5
9D58
  8
ALPHA
 10
203.113503
 20
-87.253425
 30
0.0
 11
201.975713
 21
-87.159865
 31
0.0
  0
LINE
  5
9D59
  8
ALPHA
 10
201.975713
 20
-87.159865
 30
0.0
 11
201.942144
 21
-87.156796
 31
0.0
  0
LINE
  5
9D5A
  8
ALPHA
 10
207.734084
 20
-87.422927
 30
0.0
 11
203.113503
 21
-87.253425
 31
0.0
  0
LINE
  5
9D5B
  8
ALPHA
 10
215.434084
 20
-88.565697
 30
0.0
 11
215.434084
 21
-86.953326
 31
0.0
  0
LINE
  5
9D5C
  8
ALPHA
 10
215.734084
 20
-88.857892
 30
0.0
 11
215.58591
 21
-88.915675
 31
0.0
  0
LINE
  5
9D5D
  8
ALPHA
 10
215.734084
 20
-87.21617
 30
0.0
 11
215.640976
 21
-87.010765
 31
0.0
  0
LINE
  5
9D5E
  8
ALPHA
 10
215.640976
 20
-87.010765
 30
0.0
 11
215.434084
 21
-86.953326
 31
0.0
  0
LINE
  5
9D5F
  8
ALPHA
 10
215.434084
 20
-88.565697
 30
0.0
 11
215.349413
 21
-88.623755
 31
0.0
  0
POLYLINE
  5
9D60
  8
ALPHA
 66
     1
 10
0.0
 20
0.0
 30
0.0
 70
   128
  0
VERTEX
  5
9FB8
  8
ALPHA
 10
215.734084
 20
-88.857892
 30
0.0
  0
VERTEX
  5
9FB9
  8
ALPHA
 10
215.64476
 20
-88.64987
 30
0.0
  0
VERTEX
  5
9FBA
  8
ALPHA
 10
215.434084
 20
-88.565697
 30
0.0
  0
SEQEND
  5
9FBB
  8
ALPHA
  0
LINE
  5
9D61
  8
ALPHA
 10
215.58591
 20
-88.915675
 30
0.0
 11
215.034084
 21
-89.110288
 31
0.0
  0
LINE
  5
9D62
  8
ALPHA
 10
215.349413
 20
-88.623755
 30
0.0
 11
215.034084
 21
-89.110288
 31
0.0
  0
LINE
  5
9D63
  8
ALPHA
 10
215.58591
 20
-88.915675
 30
0.0
 11
215.349413
 21
-88.623755
 31
0.0
  0
LINE
  5
9D64
  8
ALPHA
 10
213.525943
 20
-87.156803
 30
0.0
 11
213.492455
 21
-87.159865
 31
0.0
  0
LINE
  5
9D65
  8
ALPHA
 10
213.492455
 20
-87.159865
 30
0.0
 11
212.354665
 21
-87.253425
 31
0.0
  0
LINE
  5
9D66
  8
ALPHA
 10
215.434084
 20
-86.953326
 30
0.0
 11
213.525943
 21
-87.156803
 31
0.0
  0
DIMENSION
  5
9DAA
  8
COTATION1
  2
*D4
 10
215.084084
 20
-172.713327
 30
0.0
 11
207.734084
 21
-169.463327
 31
0.0
  1
%%c<>
 13
200.384084
 23
-136.20617
 33
0.0
 14
215.084084
 24
-136.20617
 34
0.0
  0
ARC
  5
9DAB
  8
ALPHA
 10
207.734084
 20
-136.20617
 30
0.0
 40
7.35
 50
90.0
 51
89.723805
  0
CIRCLE
  5
9DE2
  8
ALPHA
 10
207.734084
 20
-136.20617
 30
0.0
 40
5.375
  0
CIRCLE
  5
9DE3
  8
ALPHA
 10
207.734084
 20
-136.20617
 30
0.0
 40
7.049992
  0
POLYLINE
  5
9DE4
  8
ALPHA
 66
     1
 10
0.0
 20
0.0
 30
0.0
 70
   128
210
0.0
220
0.0
230
-1.0
  0
VERTEX
  5
9FBC
  8
ALPHA
 10
-201.802669
 20
-135.48654
 30
0.0
  0
VERTEX
  5
9FBD
  8
ALPHA
 10
-202.047748
 20
-134.363504
 30
0.0
  0
VERTEX
  5
9FBE
  8
ALPHA
 10
-202.509704
 20
-133.307982
 30
0.0
  0
VERTEX
  5
9FBF
  8
ALPHA
 10
-203.161595
 20
-132.359893
 30
0.0
  0
VERTEX
  5
9FC0
  8
ALPHA
 10
-203.983999
 20
-131.554554
 30
0.0
  0
VERTEX
  5
9FC1
  8
ALPHA
 10
-204.945496
 20
-130.921838
 30
0.0
  0
VERTEX
  5
9FC2
  8
ALPHA
 10
-206.010421
 20
-130.485217
 30
0.0
  0
VERTEX
  5
9FC3
  8
ALPHA
 10
-207.139333
 20
-130.260884
 30
0.0
  0
VERTEX
  5
9FC4
  8
ALPHA
 10
-208.290297
 20
-130.257153
 30
0.0
  0
VERTEX
  5
9FC5
  8
ALPHA
 10
-209.42063
 20
-130.474165
 30
0.0
  0
VERTEX
  5
9FC6
  8
ALPHA
 10
-210.488386
 20
-130.903875
 30
0.0
  0
VERTEX
  5
9FC7
  8
ALPHA
 10
-211.45394
 20
-131.53035
 30
0.0
  0
VERTEX
  5
9FC8
  8
ALPHA
 10
-212.281447
 20
-132.330348
 30
0.0
  0
VERTEX
  5
9FC9
  8
ALPHA
 10
-212.940202
 20
-133.274168
 30
0.0
  0
VERTEX
  5
9FCA
  8
ALPHA
 10
-213.405773
 20
-134.326778
 30
0.0
  0
VERTEX
  5
9FCB
  8
ALPHA
 10
-213.660891
 20
-135.449121
 30
0.0
  0
VERTEX
  5
9FCC
  8
ALPHA
 10
-213.696092
 20
-136.599558
 30
0.0
  0
VERTEX
  5
9FCD
  8
ALPHA
 10
-213.510064
 20
-137.735404
 30
0.0
  0
VERTEX
  5
9FCE
  8
ALPHA
 10
-213.109695
 20
-138.814509
 30
0.0
  0
VERTEX
  5
9FCF
  8
ALPHA
 10
-212.509833
 20
-139.796818
 30
0.0
  0
VERTEX
  5
9FD0
  8
ALPHA
 10
-211.732751
 20
-140.645877
 30
0.0
  0
VERTEX
  5
9FD1
  8
ALPHA
 10
-210.807297
 20
-141.330186
 30
0.0
  0
VERTEX
  5
9FD2
  8
ALPHA
 10
-209.767812
 20
-141.824364
 30
0.0
  0
VERTEX
  5
9FD3
  8
ALPHA
 10
-208.652864
 20
-142.110077
 30
0.0
  0
VERTEX
  5
9FD4
  8
ALPHA
 10
-207.503816
 20
-142.176718
 30
0.0
  0
VERTEX
  5
9FD5
  8
ALPHA
 10
-206.363305
 20
-142.021803
 30
0.0
  0
VERTEX
  5
9FD6
  8
ALPHA
 10
-205.273664
 20
-141.651066
 30
0.0
  0
VERTEX
  5
9FD7
  8
ALPHA
 10
-204.27533
 20
-141.078271
 30
0.0
  0
VERTEX
  5
9FD8
  8
ALPHA
 10
-203.405358
 20
-140.324705
 30
0.0
  0
VERTEX
  5
9FD9
  8
ALPHA
 10
-202.695967
 20
-139.418272
 30
0.0
  0
VERTEX
  5
9FDA
  8
ALPHA
 10
-202.173646
 20
-138.392798
 30
0.0
  0
VERTEX
  5
9FDB
  8
ALPHA
 10
-201.857337
 20
-137.285827
 30
0.0
  0
VERTEX
  5
9FDC
  8
ALPHA
 10
-201.759459
 20
-136.139332
 30
0.0
  0
SEQEND
  5
9FDD
  8
ALPHA
  0
POLYLINE
  5
9DE5
  8
ALPHA
 66
     1
 10
0.0
 20
0.0
 30
0.0
 70
   128
210
0.0
220
0.0
230
-1.0
  0
VERTEX
  5
9FDE
  8
ALPHA
 10
-201.802669
 20
-135.48654
 30
0.0
  0
VERTEX
  5
9FDF
  8
ALPHA
 10
-202.060176
 20
-134.325679
 30
0.0
  0
VERTEX
  5
9FE0
  8
ALPHA
 10
-202.548835
 20
-133.238624
 30
0.0
  0
VERTEX
  5
9FE1
  8
ALPHA
 10
-203.239336
 20
-132.269286
 30
0.0
  0
VERTEX
  5
9FE2
  8
ALPHA
 10
-204.109308
 20
-131.456287
 30
0.0
  0
VERTEX
  5
9FE3
  8
ALPHA
 10
-205.123017
 20
-130.831884
 30
0.0
  0
VERTEX
  5
9FE4
  8
ALPHA
 10
-206.240424
 20
-130.420885
 30
0.0
  0
VERTEX
  5
9FE5
  8
ALPHA
 10
-207.417142
 20
-130.239603
 30
0.0
  0
VERTEX
  5
9FE6
  8
ALPHA
 10
-208.606433
 20
-130.295228
 30
0.0
  0
VERTEX
  5
9FE7
  8
ALPHA
 10
-209.761085
 20
-130.585545
 30
0.0
  0
VERTEX
  5
9FE8
  8
ALPHA
 10
-210.835253
 20
-131.099027
 30
0.0
  0
VERTEX
  5
9FE9
  8
ALPHA
 10
-211.786293
 20
-131.815286
 30
0.0
  0
VERTEX
  5
9FEA
  8
ALPHA
 10
-212.576444
 20
-132.70589
 30
0.0
  0
VERTEX
  5
9FEB
  8
ALPHA
 10
-213.174328
 20
-133.73548
 30
0.0
  0
VERTEX
  5
9FEC
  8
ALPHA
 10
-213.556197
 20
-134.863179
 30
0.0
  0
VERTEX
  5
9FED
  8
ALPHA
 10
-213.706881
 20
-136.044204
 30
0.0
  0
VERTEX
  5
9FEE
  8
ALPHA
 10
-213.620404
 20
-137.231656
 30
0.0
  0
VERTEX
  5
9FEF
  8
ALPHA
 10
-213.300207
 20
-138.378384
 30
0.0
  0
VERTEX
  5
9FF0
  8
ALPHA
 10
-212.759009
 20
-139.43886
 30
0.0
  0
VERTEX
  5
9FF1
  8
ALPHA
 10
-212.0183
 20
-140.370982
 30
0.0
  0
VERTEX
  5
9FF2
  8
ALPHA
 10
-211.107486
 20
-141.137743
 30
0.0
  0
VERTEX
  5
9FF3
  8
ALPHA
 10
-210.062727
 20
-141.708699
 30
0.0
  0
VERTEX
  5
9FF4
  8
ALPHA
 10
-208.925502
 20
-142.061175
 30
0.0
  0
VERTEX
  5
9FF5
  8
ALPHA
 10
-207.740964
 20
-142.181166
 30
0.0
  0
VERTEX
  5
9FF6
  8
ALPHA
 10
-206.556152
 20
-142.063902
 30
0.0
  0
VERTEX
  5
9FF7
  8
ALPHA
 10
-205.418124
 20
-141.714047
 30
0.0
  0
VERTEX
  5
9FF8
  8
ALPHA
 10
-204.372029
 20
-141.145494
 30
0.0
  0
VERTEX
  5
9FF9
  8
ALPHA
 10
-203.459544
 20
-140.380854
 30
0.0
  0
VERTEX
  5
9FFA
  8
ALPHA
 10
-202.716378
 20
-139.450369
 30
0.0
  0
VERTEX
  5
9FFB
  8
ALPHA
 10
-202.173668
 20
-138.391355
 30
0.0
  0
VERTEX
  5
9FFC
  8
ALPHA
 10
-201.848454
 20
-137.244824
 30
0.0
  0
VERTEX
  5
9FFD
  8
ALPHA
 10
-201.763845
 20
-136.058625
 30
0.0
  0
VERTEX
  5
9FFE
  8
ALPHA
 10
-201.908894
 20
-134.87659
 30
0.0
  0
SEQEND
  5
9FFF
  8
ALPHA
  0
POLYLINE
  5
9DE6
  8
ALPHA
 66
     1
 10
0.0
 20
0.0
 30
0.0
 70
   128
210
0.0
220
0.0
230
-1.0
  0
VERTEX
  5
A000
  8
ALPHA
 10
-202.113875
 20
-134.177905
 30
0.0
  0
VERTEX
  5
A001
  8
ALPHA
 10
-202.602897
 20
-133.140187
 30
0.0
  0
VERTEX
  5
A002
  8
ALPHA
 10
-203.28731
 20
-132.216191
 30
0.0
  0
VERTEX
  5
A003
  8
ALPHA
 10
-204.132321
 20
-131.438697
 30
0.0
  0
VERTEX
  5
A004
  8
ALPHA
 10
-205.111252
 20
-130.837611
 30
0.0
  0
VERTEX
  5
A005
  8
ALPHA
 10
-206.187058
 20
-130.43494
 30
0.0
  0
VERTEX
  5
A006
  8
ALPHA
 10
-207.319989
 20
-130.245563
 30
0.0
  0
VERTEX
  5
A007
  8
ALPHA
 10
-208.468251
 20
-130.276486
 30
0.0
  0
VERTEX
  5
A008
  8
ALPHA
 10
-209.589364
 20
-130.526547
 30
0.0
  0
VERTEX
  5
A009
  8
ALPHA
 10
-210.64192
 20
-130.986513
 30
0.0
  0
VERTEX
  5
A00A
  8
ALPHA
 10
-211.587013
 20
-131.639391
 30
0.0
  0
VERTEX
  5
A00B
  8
ALPHA
 10
-212.389704
 20
-132.461064
 30
0.0
  0
VERTEX
  5
A00C
  8
ALPHA
 10
-213.020313
 20
-133.421163
 30
0.0
  0
VERTEX
  5
A00D
  8
ALPHA
 10
-213.455541
 20
-134.484189
 30
0.0
  0
VERTEX
  5
A00E
  8
ALPHA
 10
-213.679313
 20
-135.610849
 30
0.0
  0
VERTEX
  5
A00F
  8
ALPHA
 10
-213.683369
 20
-136.759508
 30
0.0
  0
VERTEX
  5
A010
  8
ALPHA
 10
-213.467557
 20
-137.887721
 30
0.0
  0
VERTEX
  5
A011
  8
ALPHA
 10
-213.039844
 20
-138.953794
 30
0.0
  0
VERTEX
  5
A012
  8
ALPHA
 10
-212.416025
 20
-139.918319
 30
0.0
  0
VERTEX
  5
A013
  8
ALPHA
 10
-211.619152
 20
-140.745635
 30
0.0
  0
VERTEX
  5
A014
  8
ALPHA
 10
-210.678692
 20
-141.405168
 30
0.0
  0
VERTEX
  5
A015
  8
ALPHA
 10
-209.629412
 20
-141.872553
 30
0.0
  0
VERTEX
  5
A016
  8
ALPHA
 10
-208.51009
 20
-142.130526
 30
0.0
  0
VERTEX
  5
A017
  8
ALPHA
 10
-207.362084
 20
-142.169553
 30
0.0
  0
VERTEX
  5
A018
  8
ALPHA
 10
-206.227822
 20
-141.988185
 30
0.0
  0
VERTEX
  5
A019
  8
ALPHA
 10
-205.149222
 20
-141.593109
 30
0.0
  0
VERTEX
  5
A01A
  8
ALPHA
 10
-204.166152
 20
-140.998918
 30
0.0
  0
VERTEX
  5
A01B
  8
ALPHA
 10
-203.315057
 20
-140.227613
 30
0.0
  0
VERTEX
  5
A01C
  8
ALPHA
 10
-202.626857
 20
-139.307591
 30
0.0
  0
VERTEX
  5
A01D
  8
ALPHA
 10
-202.128881
 20
-138.27329
 30
0.0
  0
VERTEX
  5
A01E
  8
ALPHA
 10
-201.833878
 20
-137.161638
 30
0.0
  0
VERTEX
  5
A01F
  8
ALPHA
 10
-201.765977
 20
-136.016731
 30
0.0
  0
VERTEX
  5
A020
  8
ALPHA
 10
-201.908894
 20
-134.87659
 30
0.0
  0
SEQEND
  5
A021
  8
ALPHA
  0
POLYLINE
  5
9DE7
  8
ALPHA
 66
     1
 10
0.0
 20
0.0
 30
0.0
 70
   128
210
0.0
220
0.0
230
-1.0
  0
VERTEX
  5
A022
  8
ALPHA
 10
-202.113875
 20
-134.177905
 30
0.0
  0
VERTEX
  5
A023
  8
ALPHA
 10
-202.646472
 20
-133.068582
 30
0.0
  0
VERTEX
  5
A024
  8
ALPHA
 10
-203.401033
 20
-132.093051
 30
0.0
  0
VERTEX
  5
A025
  8
ALPHA
 10
-204.335976
 20
-131.291423
 30
0.0
  0
VERTEX
  5
A026
  8
ALPHA
 10
-205.416445
 20
-130.699026
 30
0.0
  0
VERTEX
  5
A027
  8
ALPHA
 10
-206.595202
 20
-130.340721
 30
0.0
  0
VERTEX
  5
A028
  8
ALPHA
 10
-207.822447
 20
-130.231826
 30
0.0
  0
VERTEX
  5
A029
  8
ALPHA
 10
-209.045926
 20
-130.37696
 30
0.0
  0
VERTEX
  5
A02A
  8
ALPHA
 10
-210.213625
 20
-130.769954
 30
0.0
  0
VERTEX
  5
A02B
  8
ALPHA
 10
-211.275892
 20
-131.394095
 30
0.0
  0
VERTEX
  5
A02C
  8
ALPHA
 10
-212.187559
 20
-132.222841
 30
0.0
  0
VERTEX
  5
A02D
  8
ALPHA
 10
-212.909866
 20
-133.220951
 30
0.0
  0
VERTEX
  5
A02E
  8
ALPHA
 10
-213.412102
 20
-134.345985
 30
0.0
  0
VERTEX
  5
A02F
  8
ALPHA
 10
-213.672917
 20
-135.550111
 30
0.0
  0
VERTEX
  5
A030
  8
ALPHA
 10
-213.681221
 20
-136.78213
 30
0.0
  0
VERTEX
  5
A031
  8
ALPHA
 10
-213.436661
 20
-137.989663
 30
0.0
  0
VERTEX
  5
A032
  8
ALPHA
 10
-212.949634
 20
-139.121366
 30
0.0
  0
VERTEX
  5
A033
  8
ALPHA
 10
-212.240844
 20
-140.129122
 30
0.0
  0
VERTEX
  5
A034
  8
ALPHA
 10
-211.340427
 20
-140.97008
 30
0.0
  0
VERTEX
  5
A035
  8
ALPHA
 10
-210.286666
 20
-141.608479
 30
0.0
  0
VERTEX
  5
A036
  8
ALPHA
 10
-209.124367
 20
-142.01717
 30
0.0
  0
VERTEX
  5
A037
  8
ALPHA
 10
-207.902954
 20
-142.178776
 30
0.0
  0
VERTEX
  5
A038
  8
ALPHA
 10
-206.674365
 20
-142.086427
 30
0.0
  0
VERTEX
  5
A039
  8
ALPHA
 10
-205.490839
 20
-141.744054
 30
0.0
  0
VERTEX
  5
A03A
  8
ALPHA
 10
-204.402695
 20
-141.166217
 30
0.0
  0
VERTEX
  5
A03B
  8
ALPHA
 10
-203.456208
 20
-140.377492
 30
0.0
  0
VERTEX
  5
A03C
  8
ALPHA
 10
-202.691586
 20
-139.41139
 30
0.0
  0
VERTEX
  5
A03D
  8
ALPHA
 10
-202.141443
 20
-138.30907
 30
0.0
  0
VERTEX
  5
A03E
  8
ALPHA
 10
-201.828842
 20
-137.117137
 30
0.0
  0
VERTEX
  5
A03F
  8
ALPHA
 10
-201.768044
 20
-135.88704
 30
0.0
  0
VERTEX
  5
A040
  8
ALPHA
 10
-201.959066
 20
-134.669033
 30
0.0
  0
VERTEX
  5
A041
  8
ALPHA
 10
-202.399497
 20
-133.519454
 30
0.0
  0
VERTEX
  5
A042
  8
ALPHA
 10
-203.062635
 20
-132.480826
 30
0.0
  0
SEQEND
  5
A043
  8
ALPHA
  0
POLYLINE
  5
9DE8
  8
ALPHA
 66
     1
 10
0.0
 20
0.0
 30
0.0
 70
   128
210
0.0
220
0.0
230
-1.0
  0
VERTEX
  5
A044
  8
ALPHA
 10
-213.676227
 20
-136.831544
 30
0.0
  0
VERTEX
  5
A045
  8
ALPHA
 10
-213.448909
 20
-137.959164
 30
0.0
  0
VERTEX
  5
A046
  8
ALPHA
 10
-213.003078
 20
-139.022535
 30
0.0
  0
VERTEX
  5
A047
  8
ALPHA
 10
-212.365394
 20
-139.981362
 30
0.0
  0
VERTEX
  5
A048
  8
ALPHA
 10
-211.554927
 20
-140.799861
 30
0.0
  0
VERTEX
  5
A049
  8
ALPHA
 10
-210.602421
 20
-141.447627
 30
0.0
  0
VERTEX
  5
A04A
  8
ALPHA
 10
-209.543418
 20
-141.900603
 30
0.0
  0
VERTEX
  5
A04B
  8
ALPHA
 10
-208.417131
 20
-142.141959
 30
0.0
  0
VERTEX
  5
A04C
  8
ALPHA
 10
-207.26548
 20
-142.162733
 30
0.0
  0
VERTEX
  5
A04D
  8
ALPHA
 10
-206.131232
 20
-141.962148
 30
0.0
  0
VERTEX
  5
A04E
  8
ALPHA
 10
-205.056545
 20
-141.547647
 30
0.0
  0
VERTEX
  5
A04F
  8
ALPHA
 10
-204.081369
 20
-140.934623
 30
0.0
  0
VERTEX
  5
A050
  8
ALPHA
 10
-203.241953
 20
-140.145862
 30
0.0
  0
VERTEX
  5
A051
  8
ALPHA
 10
-202.569486
 20
-139.210694
 30
0.0
  0
VERTEX
  5
A052
  8
ALPHA
 10
-202.08895
 20
-138.163876
 30
0.0
  0
VERTEX
  5
A053
  8
ALPHA
 10
-201.818196
 20
-137.044307
 30
0.0
  0
VERTEX
  5
A054
  8
ALPHA
 10
-201.767287
 20
-135.893587
 30
0.0
  0
VERTEX
  5
A055
  8
ALPHA
 10
-201.938124
 20
-134.754475
 30
0.0
  0
VERTEX
  5
A056
  8
ALPHA
 10
-202.324374
 20
-133.669312
 30
0.0
  0
VERTEX
  5
A057
  8
ALPHA
 10
-202.911683
 20
-132.678437
 30
0.0
  0
VERTEX
  5
A058
  8
ALPHA
 10
-203.678207
 20
-131.818674
 30
0.0
  0
VERTEX
  5
A059
  8
ALPHA
 10
-204.595453
 20
-131.121964
 30
0.0
  0
VERTEX
  5
A05A
  8
ALPHA
 10
-205.629333
 20
-130.614192
 30
0.0
  0
VERTEX
  5
A05B
  8
ALPHA
 10
-206.741435
 20
-130.314227
 30
0.0
  0
VERTEX
  5
A05C
  8
ALPHA
 10
-207.890432
 20
-130.233223
 30
0.0
  0
VERTEX
  5
A05D
  8
ALPHA
 10
-209.033626
 20
-130.374206
 30
0.0
  0
VERTEX
  5
A05E
  8
ALPHA
 10
-210.128533
 20
-130.731943
 30
0.0
  0
VERTEX
  5
A05F
  8
ALPHA
 10
-211.134343
 20
-131.293124
 30
0.0
  0
VERTEX
  5
A060
  8
ALPHA
 10
-212.014224
 20
-132.036882
 30
0.0
  0
VERTEX
  5
A061
  8
ALPHA
 10
-212.733547
 20
-132.935577
 30
0.0
  0
VERTEX
  5
A062
  8
ALPHA
 10
-213.271304
 20
-133.955814
 30
0.0
  0
VERTEX
  5
A063
  8
ALPHA
 10
-213.594173
 20
-135.059688
 30
0.0
  0
VERTEX
  5
A064
  8
ALPHA
 10
-213.709084
 20
-136.206178
 30
0.0
  0
SEQEND
  5
A065
  8
ALPHA
  0
POLYLINE
  5
9DE9
  8
ALPHA
 66
     1
 10
0.0
 20
0.0
 30
0.0
 70
   128
210
0.0
220
0.0
230
-1.0
  0
VERTEX
  5
A066
  8
ALPHA
 10
-213.385867
 20
-138.144596
 30
0.0
  0
VERTEX
  5
A067
  8
ALPHA
 10
-212.89119
 20
-139.228856
 30
0.0
  0
VERTEX
  5
A068
  8
ALPHA
 10
-212.184493
 20
-140.192017
 30
0.0
  0
VERTEX
  5
A069
  8
ALPHA
 10
-211.304399
 20
-140.997264
 30
0.0
  0
VERTEX
  5
A06A
  8
ALPHA
 10
-210.280963
 20
-141.611162
 30
0.0
  0
VERTEX
  5
A06B
  8
ALPHA
 10
-209.156071
 20
-142.009489
 30
0.0
  0
VERTEX
  5
A06C
  8
ALPHA
 10
-207.974465
 20
-142.17632
 30
0.0
  0
VERTEX
  5
A06D
  8
ALPHA
 10
-206.783258
 20
-142.105003
 30
0.0
  0
VERTEX
  5
A06E
  8
ALPHA
 10
-205.629994
 20
-141.798396
 30
0.0
  0
VERTEX
  5
A06F
  8
ALPHA
 10
-204.560655
 20
-141.268729
 30
0.0
  0
VERTEX
  5
A070
  8
ALPHA
 10
-203.617898
 20
-140.537129
 30
0.0
  0
VERTEX
  5
A071
  8
ALPHA
 10
-202.839322
 20
-139.632776
 30
0.0
  0
VERTEX
  5
A072
  8
ALPHA
 10
-202.255987
 20
-138.591736
 30
0.0
  0
VERTEX
  5
A073
  8
ALPHA
 10
-201.891166
 20
-137.455534
 30
0.0
  0
VERTEX
  5
A074
  8
ALPHA
 10
-201.759421
 20
-136.26949
 30
0.0
  0
VERTEX
  5
A075
  8
ALPHA
 10
-201.866008
 20
-135.080923
 30
0.0
  0
VERTEX
  5
A076
  8
ALPHA
 10
-202.206668
 20
-133.937247
 30
0.0
  0
VERTEX
  5
A077
  8
ALPHA
 10
-202.767805
 20
-132.88408
 30
0.0
  0
VERTEX
  5
A078
  8
ALPHA
 10
-203.527034
 20
-131.963426
 30
0.0
  0
VERTEX
  5
A079
  8
ALPHA
 10
-204.454069
 20
-131.212005
 30
0.0
  0
VERTEX
  5
A07A
  8
ALPHA
 10
-205.511939
 20
-130.659788
 30
0.0
  0
VERTEX
  5
A07B
  8
ALPHA
 10
-206.658452
 20
-130.328802
 30
0.0
  0
VERTEX
  5
A07C
  8
ALPHA
 10
-207.847875
 20
-130.232258
 30
0.0
  0
VERTEX
  5
A07D
  8
ALPHA
 10
-209.032764
 20
-130.374013
 30
0.0
  0
VERTEX
  5
A07E
  8
ALPHA
 10
-210.165847
 20
-130.748418
 30
0.0
  0
VERTEX
  5
A07F
  8
ALPHA
 10
-211.201917
 20
-131.340526
 30
0.0
  0
VERTEX
  5
A080
  8
ALPHA
 10
-212.099683
 20
-132.126726
 30
0.0
  0
VERTEX
  5
A081
  8
ALPHA
 10
-212.823205
 20
-133.075592
 30
0.0
  0
VERTEX
  5
A082
  8
ALPHA
 10
-213.344101
 20
-134.149503
 30
0.0
  0
VERTEX
  5
A083
  8
ALPHA
 10
-213.640109
 20
-135.304913
 30
0.0
  0
VERTEX
  5
A084
  8
ALPHA
 10
-213.703511
 20
-136.497708
 30
0.0
  0
VERTEX
  5
A085
  8
ALPHA
 10
-213.522541
 20
-137.675866
 30
0.0
  0
VERTEX
  5
A086
  8
ALPHA
 10
-213.117371
 20
-138.79863
 30
0.0
  0
SEQEND
  5
A087
  8
ALPHA
  0
LINE
  5
9DEA
  8
ALPHA
 10
201.759084
 20
-136.20617
 30
0.0
 11
202.359084
 21
-136.20617
 31
0.0
  0
LINE
  5
9DEB
  8
ALPHA
 10
201.759459
 20
-136.273005
 30
0.0
 11
201.759084
 21
-136.20617
 31
0.0
  0
LINE
  5
9DEC
  8
ALPHA
 10
201.759084
 20
-136.20617
 30
0.0
 11
201.759459
 21
-136.139332
 31
0.0
  0
LINE
  5
9DED
  8
ALPHA
 10
201.759084
 20
-136.20617
 30
0.0
 11
201.90889
 21
-134.876606
 31
0.0
  0
CIRCLE
  5
9DEF
  8
ALPHA
 10
207.734084
 20
-136.20617
 30
0.0
 40
4.25
  0
CIRCLE
  5
9DF0
  8
ALPHA
 10
209.484084
 20
-134.45617
 30
0.0
 40
0.5
  0
CIRCLE
  5
9DF1
  8
ALPHA
 10
209.484084
 20
-134.45617
 30
0.0
 40
0.049998
  0
CIRCLE
  5
9DF2
  8
ALPHA
 10
209.484084
 20
-137.95617
 30
0.0
 40
0.5
  0
CIRCLE
  5
9DF3
  8
ALPHA
 10
209.484084
 20
-137.95617
 30
0.0
 40
0.049998
  0
CIRCLE
  5
9DF4
  8
ALPHA
 10
205.984084
 20
-134.45617
 30
0.0
 40
0.5
  0
CIRCLE
  5
9DF5
  8
ALPHA
 10
205.984084
 20
-134.45617
 30
0.0
 40
0.049998
  0
CIRCLE
  5
9DF6
  8
ALPHA
 10
207.734084
 20
-136.20617
 30
0.0
 40
0.5
  0
CIRCLE
  5
9DF7
  8
ALPHA
 10
207.734084
 20
-136.20617
 30
0.0
 40
0.049998
  0
CIRCLE
  5
9DF8
  8
ALPHA
 10
205.984084
 20
-137.95617
 30
0.0
 40
0.5
  0
CIRCLE
  5
9DF9
  8
ALPHA
 10
205.984084
 20
-137.95617
 30
0.0
 40
0.049998
  0
LINE
  5
9DFA
  8
ALPHA
 10
213.676227
 20
-136.831544
 30
0.0
 11
213.559275
 21
-137.535745
 31
0.0
  0
LINE
  5
9DFB
  8
ALPHA
 10
213.559275
 20
-137.535745
 30
0.0
 11
213.385867
 21
-138.144596
 31
0.0
  0
POLYLINE
  5
9DFC
  8
ALPHA
 66
     1
 10
0.0
 20
0.0
 30
0.0
 70
   128
210
0.0
220
0.0
230
-1.0
  0
VERTEX
  5
A088
  8
ALPHA
 10
-213.117371
 20
-138.79863
 30
0.0
  0
VERTEX
  5
A089
  8
ALPHA
 10
-212.405532
 20
-139.931516
 30
0.0
  0
VERTEX
  5
A08A
  8
ALPHA
 10
-211.459451
 20
-140.877601
 30
0.0
  0
SEQEND
  5
A08B
  8
ALPHA
  0
LINE
  5
9DFD
  8
ALPHA
 10
207.234084
 20
-132.485684
 30
0.0
 11
207.234084
 21
-132.021996
 31
0.0
  0
LINE
  5
9DFE
  8
ALPHA
 10
208.234084
 20
-132.021996
 30
0.0
 11
208.234084
 21
-132.485684
 31
0.0
  0
ARC
  5
9DFF
  8
ALPHA
 10
207.734084
 20
-132.485684
 30
0.0
 40
0.5
 50
180.0
 51
0.0
  0
VIEWPORT
  5
494D
 67
     1
  8
0
 10
4.995325
 20
6.556512
 30
0.0
 40
22.70986
 41
13.988421
 68
    -1
 69
     1
1001
ACAD
1000
MVIEW
1002
{
1070
    16
1010
0.0
1020
0.0
1030
0.0
1010
0.0
1020
0.0
1030
1.0
1040
0.0
1040
13.988421
1040
4.995325
1040
6.556512
1040
50.0
1040
0.0
1040
0.0
1070
     0
1070
   100
1070
     1
1070
     1
1070
     0
1070
     0
1070
     0
1070
     0
1040
0.0
1040
0.0
1040
0.0
1040
10.0
1040
10.0
1040
10.0
1040
10.0
1070
     0
1002
{
1002
}
1002
}
  0
ENDSEC
  0
EOF
