  0
SECTION
  2
HEADER
  9
$ACADVER
  1
AC1009
  9
$INSBASE
 10
402.590624
 20
-1.041018
 30
0.0
  9
$EXTMIN
 10
-4.729937
 20
-13.059586
 30
0.0
  9
$EXTMAX
 10
70.924538
 20
44.926568
 30
0.0
  9
$LIMMIN
 10
-407.970438
 20
-367.832444
  9
$LIMMAX
 10
429.804077
 20
234.370848
  9
$ORTHOMODE
 70
     1
  9
$REGENMODE
 70
     1
  9
$FILLMODE
 70
     1
  9
$QTEXTMODE
 70
     0
  9
$MIRRTEXT
 70
     1
  9
$DRAGMODE
 70
     2
  9
$LTSCALE
 40
10.0
  9
$OSMODE
 70
    35
  9
$ATTMODE
 70
     1
  9
$TEXTSIZE
 40
6.0
  9
$TRACEWID
 40
1.0
  9
$TEXTSTYLE
  7
ROMANS
  9
$CLAYER
  8
ALPHA
  9
$CELTYPE
  6
BYLAYER
  9
$CECOLOR
 62
   256
  9
$DIMSCALE
 40
1.0
  9
$DIMASZ
 40
5.0
  9
$DIMEXO
 40
2.0
  9
$DIMDLI
 40
0.38
  9
$DIMRND
 40
0.0
  9
$DIMDLE
 40
0.0
  9
$DIMEXE
 40
2.5
  9
$DIMTP
 40
0.0
  9
$DIMTM
 40
0.0
  9
$DIMTXT
 40
2.5
  9
$DIMCEN
 40
0.0
  9
$DIMTSZ
 40
0.0
  9
$DIMTOL
 70
     0
  9
$DIMLIM
 70
     0
  9
$DIMTIH
 70
     1
  9
$DIMTOH
 70
     1
  9
$DIMSE1
 70
     0
  9
$DIMSE2
 70
     0
  9
$DIMTAD
 70
     1
  9
$DIMZIN
 70
    12
  9
$DIMBLK
  1
OPEN30
  9
$DIMASO
 70
     1
  9
$DIMSHO
 70
     1
  9
$DIMPOST
  1

  9
$DIMAPOST
  1

  9
$DIMALT
 70
     0
  9
$DIMALTD
 70
     2
  9
$DIMALTF
 40
25.4
  9
$DIMLFAC
 40
1.0
  9
$DIMTOFL
 70
     0
  9
$DIMTVP
 40
0.0
  9
$DIMTIX
 70
     0
  9
$DIMSOXD
 70
     0
  9
$DIMSAH
 70
     0
  9
$DIMBLK1
  1

  9
$DIMBLK2
  1

  9
$DIMSTYLE
  2
SC_DEFAUT
  9
$DIMCLRD
 70
     0
  9
$DIMCLRE
 70
     0
  9
$DIMCLRT
 70
     0
  9
$DIMTFAC
 40
1.0
  9
$DIMGAP
 40
2.0
  9
$LUNITS
 70
     2
  9
$LUPREC
 70
     1
  9
$SKETCHINC
 40
0.1
  9
$FILLETRAD
 40
0.0
  9
$AUNITS
 70
     0
  9
$AUPREC
 70
     0
  9
$MENU
  1
acad
  9
$ELEVATION
 40
0.0
  9
$PELEVATION
 40
0.0
  9
$THICKNESS
 40
0.0
  9
$LIMCHECK
 70
     0
  9
$BLIPMODE
 70
     0
  9
$CHAMFERA
 40
0.0
  9
$CHAMFERB
 40
0.0
  9
$SKPOLY
 70
     0
  9
$TDCREATE
 40
2450373.687919
  9
$TDUPDATE
 40
2453038.463171
  9
$TDINDWG
 40
1.170059
  9
$TDUSRTIMER
 40
1.170059
  9
$USRTIMER
 70
     1
  9
$ANGBASE
 50
0.0
  9
$ANGDIR
 70
     0
  9
$PDMODE
 70
    32
  9
$PDSIZE
 40
0.0
  9
$PLINEWID
 40
0.0
  9
$COORDS
 70
     1
  9
$SPLFRAME
 70
     0
  9
$SPLINETYPE
 70
     6
  9
$SPLINESEGS
 70
     8
  9
$ATTDIA
 70
     0
  9
$ATTREQ
 70
     1
  9
$HANDLING
 70
     1
  9
$HANDSEED
  5
E78D
  9
$SURFTAB1
 70
     6
  9
$SURFTAB2
 70
     6
  9
$SURFTYPE
 70
     6
  9
$SURFU
 70
     6
  9
$SURFV
 70
     6
  9
$UCSNAME
  2

  9
$UCSORG
 10
0.0
 20
0.0
 30
0.0
  9
$UCSXDIR
 10
1.0
 20
0.0
 30
0.0
  9
$UCSYDIR
 10
0.0
 20
1.0
 30
0.0
  9
$PUCSNAME
  2

  9
$PUCSORG
 10
0.0
 20
0.0
 30
0.0
  9
$PUCSXDIR
 10
1.0
 20
0.0
 30
0.0
  9
$PUCSYDIR
 10
0.0
 20
1.0
 30
0.0
  9
$USERI1
 70
     0
  9
$USERI2
 70
     0
  9
$USERI3
 70
     0
  9
$USERI4
 70
     0
  9
$USERI5
 70
     0
  9
$USERR1
 40
0.0
  9
$USERR2
 40
0.0
  9
$USERR3
 40
0.0
  9
$USERR4
 40
0.0
  9
$USERR5
 40
0.0
  9
$WORLDVIEW
 70
     1
  9
$SHADEDGE
 70
     3
  9
$SHADEDIF
 70
    70
  9
$TILEMODE
 70
     1
  9
$MAXACTVP
 70
    16
  9
$PLIMCHECK
 70
     0
  9
$PEXTMIN
 10
-1.452248
 20
-0.437698
 30
0.0
  9
$PEXTMAX
 10
12.749749
 20
8.310198
 30
0.0
  9
$PLIMMIN
 10
0.0
 20
0.0
  9
$PLIMMAX
 10
12.0
 20
9.0
  9
$UNITMODE
 70
     0
  9
$VISRETAIN
 70
     0
  9
$PLINEGEN
 70
     0
  9
$PSLTSCALE
 70
     0
  0
ENDSEC
  0
SECTION
  2
TABLES
  0
TABLE
  2
VPORT
 70
     2
  0
VPORT
  2
*ACTIVE
 70
     0
 10
0.0
 20
0.0
 11
1.0
 21
1.0
 12
33.096063
 22
15.946268
 13
0.0
 23
0.0
 14
1.0
 24
1.0
 15
10.0
 25
10.0
 16
0.0
 26
0.0
 36
1.0
 17
0.0
 27
0.0
 37
0.0
 40
58.445826
 41
1.466346
 42
50.0
 43
0.0
 44
0.0
 50
0.0
 51
0.0
 71
     0
 72
   100
 73
     1
 74
     0
 75
     0
 76
     0
 77
     0
 78
     0
  0
ENDTAB
  0
TABLE
  2
LTYPE
 70
     2
  0
LTYPE
  2
CONTINUOUS
 70
     0
  3
Solid line
 72
    65
 73
     0
 40
0.0
  0
LTYPE
  2
AXES2
 70
     0
  3
___ _ ___ _ ___ _ ___ _ ___ _ ___ _ ___ _ ___ _
 72
    65
 73
     4
 40
1.125
 49
0.75
 49
-0.125
 49
0.125
 49
-0.125
  0
ENDTAB
  0
TABLE
  2
LAYER
 70
     5
  0
LAYER
  2
0
 70
     0
 62
   255
  6
CONTINUOUS
  0
LAYER
  2
COTATION1
 70
     0
 62
     2
  6
CONTINUOUS
  0
LAYER
  2
AXE
 70
     0
 62
    80
  6
AXES2
  0
LAYER
  2
DEFPOINTS
 70
     0
 62
     7
  6
CONTINUOUS
  0
LAYER
  2
ALPHA
 70
     0
 62
   254
  6
CONTINUOUS
  0
ENDTAB
  0
TABLE
  2
STYLE
 70
     2
  0
STYLE
  2
ROMANS
 70
     0
 40
0.0
 41
1.0
 50
0.0
 71
     0
 42
6.0
  3
romans
  4

  0
STYLE
  2
STANDARD
 70
     0
 40
0.0
 41
1.0
 50
0.0
 71
     0
 42
0.2
  3
txt
  4

  0
ENDTAB
  0
TABLE
  2
VIEW
 70
     0
  0
ENDTAB
  0
TABLE
  2
UCS
 70
     0
  0
ENDTAB
  0
TABLE
  2
APPID
 70
     1
  0
APPID
  2
ACAD
 70
     0
  0
ENDTAB
  0
TABLE
  2
DIMSTYLE
 70
     2
  0
DIMSTYLE
  2
SC_DEFAUT
 70
     0
  3

  4

  5
OPEN30
  6

  7

 40
1.0
 41
5.0
 42
2.0
 43
0.38
 44
2.5
 45
0.0
 46
0.0
 47
0.0
 48
0.0
140
2.5
141
0.0
142
0.0
143
25.4
144
1.0
145
0.0
146
1.0
147
2.0
 71
     0
 72
     0
 73
     1
 74
     1
 75
     0
 76
     0
 77
     1
 78
    12
170
     0
171
     2
172
     0
173
     0
174
     0
175
     0
176
     0
177
     0
178
     0
  0
DIMSTYLE
  2
STANDARD
 70
     0
  3

  4

  5

  6

  7

 40
1.0
 41
0.18
 42
0.0625
 43
0.38
 44
0.18
 45
0.0
 46
0.0
 47
0.0
 48
0.0
140
0.18
141
0.09
142
0.0
143
25.4
144
1.0
145
0.0
146
1.0
147
0.09
 71
     0
 72
     0
 73
     1
 74
     1
 75
     0
 76
     0
 77
     0
 78
     0
170
     0
171
     2
172
     0
173
     0
174
     0
175
     0
176
     0
177
     0
178
     0
  0
ENDTAB
  0
ENDSEC
  0
SECTION
  2
BLOCKS
  0
BLOCK
  8
0
  2
$MODEL_SPACE
 70
     0
 10
0.0
 20
0.0
 30
0.0
  3
$MODEL_SPACE
  1

  0
ENDBLK
  5
E67B
  8
0
  0
BLOCK
 67
     1
  8
0
  2
$PAPER_SPACE
 70
     0
 10
0.0
 20
0.0
 30
0.0
  3
$PAPER_SPACE
  1

  0
ENDBLK
  5
E679
 67
     1
  8
0
  0
BLOCK
  8
0
  2
COTE
 70
     0
 10
0.0
 20
0.0
 30
0.0
  3
COTE
  1

  0
ENDBLK
  5
F
  8
0
  0
BLOCK
  8
0
  2
FOND
 70
     0
 10
0.0
 20
0.0
 30
0.0
  3
FOND
  1

  0
ENDBLK
  5
75
  8
0
  0
BLOCK
  8
0
  2
_OPEN30
 70
     0
 10
0.0
 20
0.0
 30
0.0
  3
_OPEN30
  1

  0
LINE
  5
4B05
  8
COTATION1
 62
     0
 10
-1.0
 20
0.267949
 30
0.0
 11
0.0
 21
0.0
 31
0.0
1001
ACAD
1000
RTLwPs
1070
   158
  0
LINE
  5
4B06
  8
COTATION1
 62
     0
 10
0.0
 20
0.0
 30
0.0
 11
-1.0
 21
-0.267949
 31
0.0
1001
ACAD
1000
RTLwPs
1070
   158
  0
LINE
  5
4B07
  8
COTATION1
 62
     0
 10
0.0
 20
0.0
 30
0.0
 11
-1.0
 21
0.0
 31
0.0
1001
ACAD
1000
RTLwPs
1070
   158
  0
ENDBLK
  5
4B09
  8
0
  0
BLOCK
  8
0
  2
*D3
 70
     1
 10
0.0
 20
0.0
 30
0.0
  3
*D3
  1

  0
LINE
  5
E1D7
  8
COTATION1
 62
     0
 10
21.765015
 20
3.226568
 30
0.0
 11
21.765015
 21
42.926568
 31
0.0
1001
ACAD
1000
RTLwPs
1070
   158
  0
LINE
  5
E1D8
  8
COTATION1
 62
     0
 10
47.565015
 20
3.226568
 30
0.0
 11
47.565015
 21
42.926568
 31
0.0
1001
ACAD
1000
RTLwPs
1070
   158
  0
LINE
  5
E1D9
  8
COTATION1
 62
     0
 10
26.765015
 20
40.426568
 30
0.0
 11
42.565015
 21
40.426568
 31
0.0
1001
ACAD
1000
RTLwPs
1070
   158
  0
INSERT
  5
E1DA
  8
COTATION1
 62
     0
  2
_OPEN30
 10
21.765015
 20
40.426568
 30
0.0
 41
5.0
 42
5.0
 43
5.0
 50
180.0
1001
ACAD
1000
RTLwPs
1070
   158
  0
INSERT
  5
E1DB
  8
COTATION1
 62
     0
  2
_OPEN30
 10
47.565015
 20
40.426568
 30
0.0
 41
5.0
 42
5.0
 43
5.0
1001
ACAD
1000
RTLwPs
1070
   158
  0
TEXT
  5
E1DC
  8
COTATION1
 62
     0
 10
30.498348
 20
42.426568
 30
0.0
 40
2.5
  1
25.8
1001
ACAD
1000
MTEXTBEGIN
1070
    73
1070
     1
1070
    44
1040
1.0
1070
    74
1070
     0
1000
MTEXTEND
  0
POINT
  5
E1DD
  8
DEFPOINTS
 62
     0
 10
21.765015
 20
1.226568
 30
0.0
  0
POINT
  5
E1DE
  8
DEFPOINTS
 62
     0
 10
47.565015
 20
1.226568
 30
0.0
  0
POINT
  5
E1DF
  8
DEFPOINTS
 62
     0
 10
47.565015
 20
40.426568
 30
0.0
  0
ENDBLK
  5
D507
  8
0
  0
BLOCK
  8
0
  2
*D4
 70
     1
 10
0.0
 20
0.0
 30
0.0
  3
*D4
  1

  0
LINE
  5
E1C4
  8
COTATION1
 62
     0
 10
49.115015
 20
25.426568
 30
0.0
 11
69.615015
 21
25.426568
 31
0.0
1001
ACAD
1000
RTLwPs
1070
   158
  0
LINE
  5
E1C5
  8
COTATION1
 62
     0
 10
48.664985
 20
-2.273432
 30
0.0
 11
69.615015
 21
-2.273432
 31
0.0
1001
ACAD
1000
RTLwPs
1070
   158
  0
LINE
  5
E1C6
  8
COTATION1
 62
     0
 10
67.115015
 20
20.426568
 30
0.0
 11
67.115015
 21
14.826568
 31
0.0
1001
ACAD
1000
RTLwPs
1070
   158
  0
LINE
  5
E1C7
  8
COTATION1
 62
     0
 10
67.115015
 20
2.726568
 30
0.0
 11
67.115015
 21
8.326568
 31
0.0
1001
ACAD
1000
RTLwPs
1070
   158
  0
INSERT
  5
E1C8
  8
COTATION1
 62
     0
  2
_OPEN30
 10
67.115015
 20
25.426568
 30
0.0
 41
5.0
 42
5.0
 43
5.0
 50
90.0
1001
ACAD
1000
RTLwPs
1070
   158
  0
INSERT
  5
E1C9
  8
COTATION1
 62
     0
  2
_OPEN30
 10
67.115015
 20
-2.273432
 30
0.0
 41
5.0
 42
5.0
 43
5.0
 50
270.0
1001
ACAD
1000
RTLwPs
1070
   158
  0
TEXT
  5
E1CA
  8
COTATION1
 62
     0
 10
62.948348
 20
10.326568
 30
0.0
 40
2.5
  1
27.7
1001
ACAD
1000
MTEXTBEGIN
1070
    73
1070
     1
1070
    44
1040
1.0
1070
    74
1070
     0
1000
MTEXTEND
  0
POINT
  5
E1CB
  8
DEFPOINTS
 62
     0
 10
47.115015
 20
25.426568
 30
0.0
  0
POINT
  5
E1CC
  8
DEFPOINTS
 62
     0
 10
46.664985
 20
-2.273432
 30
0.0
  0
POINT
  5
E1CD
  8
DEFPOINTS
 62
     0
 10
67.115015
 20
-2.273432
 30
0.0
  0
ENDBLK
  5
D54C
  8
0
  0
ENDSEC
  0
SECTION
  2
ENTITIES
  0
INSERT
  5
A
  8
0
  2
COTE
 10
0.0
 20
0.0
 30
0.0
  0
INSERT
  5
17
  8
0
  2
COTE
 10
284.010391
 20
6.373258
 30
0.0
  0
INSERT
  5
72
  8
0
  2
FOND
 10
0.0
 20
0.0
 30
0.0
  0
DIMENSION
  5
D4FB
  8
COTATION1
  2
*D3
 10
47.565015
 20
40.426568
 30
0.0
 11
34.665015
 21
43.676568
 31
0.0
 13
21.765015
 23
1.226568
 33
0.0
 14
47.565015
 24
1.226568
 34
0.0
  0
DIMENSION
  5
D53F
  8
COTATION1
  2
*D4
 10
67.115015
 20
-2.273432
 30
0.0
 11
67.115015
 21
11.576568
 31
0.0
 13
47.115015
 23
25.426568
 33
0.0
 14
46.664985
 24
-2.273432
 34
0.0
 50
90.0
  0
LINE
  5
D563
  8
AXE
 10
52.115015
 20
11.626568
 30
0.0
 11
12.215015
 21
11.626568
 31
0.0
  0
TEXT
  5
D564
  8
AXE
 10
16.262634
 20
12.626568
 30
0.0
 40
5.0
  1
X
 71
     2
 72
     2
 11
12.215015
 21
12.626568
 31
0.0
  0
LINE
  5
E011
  8
ALPHA
 10
22.665044
 20
-2.273432
 30
0.0
 11
46.664985
 21
-2.273432
 31
0.0
  0
LINE
  5
E01C
  8
0
  6
CONTINUOUS
 62
     2
 10
22.015015
 20
21.576568
 30
0.0
 11
0.270063
 21
21.576568
 31
0.0
  0
LINE
  5
E01D
  8
0
  6
CONTINUOUS
 62
     2
 10
-4.729937
 20
14.076568
 30
0.0
 11
5.270063
 21
14.076568
 31
0.0
  0
LINE
  5
E01E
  8
0
  6
CONTINUOUS
 62
     2
 10
5.270063
 20
9.076568
 30
0.0
 11
-4.729937
 21
9.076568
 31
0.0
  0
TEXT
  5
E01F
  8
0
  6
CONTINUOUS
 62
     2
 10
-3.479937
 20
10.326568
 30
0.0
 40
2.5
  1
ENTRY
 41
0.642857
  7
STANDARD
 72
     5
 11
4.020063
 21
10.326568
 31
0.0
  0
LINE
  5
E020
  8
0
  6
CONTINUOUS
 62
     2
 10
-4.729937
 20
9.076568
 30
0.0
 11
-4.729937
 21
14.076568
 31
0.0
  0
SOLID
  5
E021
  8
0
  6
CONTINUOUS
 62
     2
 10
-1.173313
 20
21.576568
 30
0.0
 11
1.713438
 21
21.576568
 31
0.0
 12
0.270063
 22
19.076568
 32
0.0
 13
0.270063
 23
19.076568
 33
0.0
  0
LINE
  5
E022
  8
0
  6
CONTINUOUS
 62
     2
 10
0.270063
 20
19.076568
 30
0.0
 11
0.270063
 21
14.076568
 31
0.0
  0
LINE
  5
E02F
  8
0
  6
CONTINUOUS
 62
     2
 10
5.270063
 20
14.076568
 30
0.0
 11
5.270063
 21
9.076568
 31
0.0
  0
LINE
  5
E1C1
  8
AXE
 10
34.665015
 20
-13.059586
 30
0.0
 11
34.665015
 21
30.426568
 31
0.0
  0
TEXT
  5
E1C3
  8
AXE
 10
29.617396
 20
-13.059586
 30
0.0
 40
5.0
  1
Y
 72
     2
 11
33.665015
 21
-13.059586
 31
0.0
  0
LINE
  5
E353
  8
ALPHA
 10
38.715015
 20
22.576568
 30
0.0
 11
30.615015
 21
22.576568
 31
0.0
  0
LINE
  5
E354
  8
ALPHA
 10
33.761549
 20
22.352038
 30
0.0
 11
35.56848
 21
22.352038
 31
0.0
  0
LINE
  5
E355
  8
ALPHA
 10
33.908033
 20
22.1641
 30
0.0
 11
35.421997
 21
22.1641
 31
0.0
  0
LINE
  5
E356
  8
ALPHA
 10
35.616313
 20
21.776568
 30
0.0
 11
33.713716
 21
21.776568
 31
0.0
  0
LINE
  5
E357
  8
ALPHA
 10
35.809634
 20
21.576568
 30
0.0
 11
33.520395
 21
21.576568
 31
0.0
  0
LINE
  5
E358
  8
ALPHA
 10
32.165015
 20
21.376568
 30
0.0
 11
37.165015
 21
21.376568
 31
0.0
  0
LINE
  5
E359
  8
ALPHA
 10
45.215015
 20
21.076568
 30
0.0
 11
24.115015
 21
21.076568
 31
0.0
  0
LINE
  5
E35A
  8
ALPHA
 10
45.215015
 20
18.476568
 30
0.0
 11
24.115015
 21
18.476568
 31
0.0
  0
LINE
  5
E35B
  8
ALPHA
 10
23.115034
 20
18.276568
 30
0.0
 11
46.214998
 21
18.276568
 31
0.0
  0
LINE
  5
E35C
  8
ALPHA
 10
31.727418
 20
15.882676
 30
0.0
 11
37.602611
 21
15.882676
 31
0.0
  0
LINE
  5
E35D
  8
ALPHA
 10
45.996566
 20
15.835889
 30
0.0
 11
23.333463
 21
15.835889
 31
0.0
  0
LINE
  5
E35E
  8
ALPHA
 10
23.892198
 20
14.45297
 30
0.0
 11
45.437831
 21
14.45297
 31
0.0
  0
LINE
  5
E35F
  8
ALPHA
 10
23.965015
 20
14.078364
 30
0.0
 11
45.365015
 21
14.078364
 31
0.0
  0
LINE
  5
E360
  8
ALPHA
 10
23.965015
 20
13.911106
 30
0.0
 11
45.365015
 21
13.911106
 31
0.0
  0
LINE
  5
E361
  8
ALPHA
 10
23.115015
 20
9.876568
 30
0.0
 11
46.215015
 21
9.876568
 31
0.0
  0
POLYLINE
  5
E362
  8
ALPHA
 66
     1
 10
0.0
 20
0.0
 30
0.0
  0
VERTEX
  5
E681
  8
ALPHA
 10
34.665015
 20
8.376568
 30
0.0
  0
VERTEX
  5
E682
  8
ALPHA
 10
35.881189
 20
8.314583
 30
0.0
  0
VERTEX
  5
E683
  8
ALPHA
 10
37.10644
 20
8.128706
 30
0.0
  0
VERTEX
  5
E684
  8
ALPHA
 10
38.353679
 20
7.817987
 30
0.0
  0
VERTEX
  5
E685
  8
ALPHA
 10
39.644974
 20
7.376568
 30
0.0
  0
SEQEND
  5
E686
  8
ALPHA
  0
LINE
  5
E363
  8
ALPHA
 10
23.115015
 20
8.726568
 30
0.0
 11
46.215015
 21
8.726568
 31
0.0
  0
LINE
  5
E364
  8
ALPHA
 10
29.45253
 20
4.576568
 30
0.0
 11
39.8775
 21
4.576568
 31
0.0
  0
LINE
  5
E365
  8
ALPHA
 10
29.45253
 20
2.576568
 30
0.0
 11
39.8775
 21
2.576568
 31
0.0
  0
LINE
  5
E366
  8
ALPHA
 10
29.685055
 20
1.226568
 30
0.0
 11
39.644974
 21
1.226568
 31
0.0
  0
LINE
  5
E367
  8
ALPHA
 10
21.765095
 20
-0.773432
 30
0.0
 11
47.564888
 21
-0.773432
 31
0.0
  0
LINE
  5
E368
  8
ALPHA
 10
22.665015
 20
-0.973432
 30
0.0
 11
46.665015
 21
-0.973432
 31
0.0
  0
LINE
  5
E36C
  8
ALPHA
 10
21.765015
 20
-0.773432
 30
0.0
 11
21.765015
 21
1.226568
 31
0.0
  0
ARC
  5
E36D
  8
ALPHA
 10
22.865015
 20
-0.973432
 30
0.0
 40
0.2
 50
108.0
 51
180.0
  0
LINE
  5
E36E
  8
ALPHA
 10
22.665015
 20
-2.273432
 30
0.0
 11
22.665015
 21
-0.973432
 31
0.0
  0
ARC
  5
E377
  8
ALPHA
 10
23.515015
 20
22.676568
 30
0.0
 40
0.1
 50
180.0
 51
270.0
  0
LINE
  5
E378
  8
ALPHA
 10
26.615015
 20
22.776568
 30
0.0
 11
26.815015
 21
22.576568
 31
0.0
  0
LINE
  5
E379
  8
ALPHA
 10
30.615015
 20
21.766506
 30
0.0
 11
30.615015
 21
23.576568
 31
0.0
  0
LINE
  5
E37A
  8
ALPHA
 10
29.665015
 20
23.576568
 30
0.0
 11
29.665015
 21
21.576568
 31
0.0
  0
POLYLINE
  5
E37B
  8
ALPHA
 66
     1
 10
0.0
 20
0.0
 30
0.0
  0
VERTEX
  5
E687
  8
ALPHA
 10
23.410489
 20
22.676568
 30
0.0
  0
VERTEX
  5
E688
  8
ALPHA
 10
23.423584
 20
22.626567
 30
0.0
  0
VERTEX
  5
E689
  8
ALPHA
 10
23.459358
 20
22.589965
 30
0.0
  0
VERTEX
  5
E68A
  8
ALPHA
 10
23.508226
 20
22.576568
 30
0.0
  0
SEQEND
  5
E68B
  8
ALPHA
  0
LINE
  5
E37C
  8
ALPHA
 10
26.997229
 20
22.376568
 30
0.0
 11
26.997229
 21
25.426568
 31
0.0
  0
LINE
  5
E37D
  8
ALPHA
 10
26.815015
 20
22.575715
 30
0.0
 11
26.815015
 21
25.426568
 31
0.0
  0
LINE
  5
E37E
  8
ALPHA
 10
23.171726
 20
24.476568
 30
0.0
 11
23.171726
 21
22.376578
 31
0.0
  0
LINE
  5
E37F
  8
ALPHA
 10
22.366357
 20
21.576568
 30
0.0
 11
22.366357
 21
24.976568
 31
0.0
  0
LINE
  5
E380
  8
ALPHA
 10
22.215015
 20
21.576568
 30
0.0
 11
22.215015
 21
25.170399
 31
0.0
  0
LINE
  5
E381
  8
ALPHA
 10
22.015015
 20
25.426568
 30
0.0
 11
22.015015
 21
21.576568
 31
0.0
  0
POLYLINE
  5
E382
  8
ALPHA
 66
     1
 10
0.0
 20
0.0
 30
0.0
  0
VERTEX
  5
E68C
  8
ALPHA
 10
23.410489
 20
22.676568
 30
0.0
  0
VERTEX
  5
E68D
  8
ALPHA
 10
23.403184
 20
22.673935
 30
0.0
  0
VERTEX
  5
E68E
  8
ALPHA
 10
23.391719
 20
22.665363
 30
0.0
  0
VERTEX
  5
E68F
  8
ALPHA
 10
23.376064
 20
22.650358
 30
0.0
  0
VERTEX
  5
E690
  8
ALPHA
 10
23.356388
 20
22.628852
 30
0.0
  0
VERTEX
  5
E691
  8
ALPHA
 10
23.333015
 20
22.601056
 30
0.0
  0
VERTEX
  5
E692
  8
ALPHA
 10
23.306466
 20
22.567503
 30
0.0
  0
VERTEX
  5
E693
  8
ALPHA
 10
23.276986
 20
22.528401
 30
0.0
  0
VERTEX
  5
E694
  8
ALPHA
 10
23.244643
 20
22.483672
 30
0.0
  0
VERTEX
  5
E695
  8
ALPHA
 10
23.2096
 20
22.433268
 30
0.0
  0
VERTEX
  5
E696
  8
ALPHA
 10
23.171726
 20
22.376578
 30
0.0
  0
SEQEND
  5
E697
  8
ALPHA
  0
LINE
  5
E383
  8
ALPHA
 10
23.556436
 20
22.576568
 30
0.0
 11
23.763251
 21
22.783383
 31
0.0
  0
LINE
  5
E384
  8
ALPHA
 10
23.171726
 20
22.376568
 30
0.0
 11
26.997229
 21
22.376568
 31
0.0
  0
LINE
  5
E385
  8
ALPHA
 10
22.015015
 20
21.576568
 30
0.0
 11
33.470395
 21
21.576568
 31
0.0
  0
LINE
  5
E386
  8
ALPHA
 10
31.675655
 20
16.959709
 30
0.0
 11
23.115015
 21
16.959709
 31
0.0
  0
POLYLINE
  5
E387
  8
ALPHA
 66
     1
 10
0.0
 20
0.0
 30
0.0
  0
VERTEX
  5
E698
  8
ALPHA
 10
26.815015
 20
22.575715
 30
0.0
  0
VERTEX
  5
E699
  8
ALPHA
 10
26.827854
 20
22.556454
 30
0.0
  0
VERTEX
  5
E69A
  8
ALPHA
 10
26.85878
 20
22.520746
 30
0.0
  0
VERTEX
  5
E69B
  8
ALPHA
 10
26.900285
 20
22.475986
 30
0.0
  0
VERTEX
  5
E69C
  8
ALPHA
 10
26.947737
 20
22.426667
 30
0.0
  0
VERTEX
  5
E69D
  8
ALPHA
 10
26.997229
 20
22.376568
 30
0.0
  0
SEQEND
  5
E69E
  8
ALPHA
  0
LINE
  5
E388
  8
ALPHA
 10
22.765015
 20
7.376568
 30
0.0
 11
29.685055
 21
7.376568
 31
0.0
  0
ARC
  5
E389
  8
ALPHA
 10
13.965015
 20
13.911106
 30
0.0
 40
10.0
 50
336.205727
 51
0.0
  0
LINE
  5
E38A
  8
ALPHA
 10
22.764991
 20
8.376544
 30
0.0
 11
23.115015
 21
8.726568
 31
0.0
  0
LINE
  5
E38B
  8
ALPHA
 10
22.765015
 20
1.226568
 30
0.0
 11
22.765015
 21
8.376568
 31
0.0
  0
LINE
  5
E38C
  8
ALPHA
 10
21.765015
 20
1.226568
 30
0.0
 11
22.765015
 21
1.226568
 31
0.0
  0
LINE
  5
E38D
  8
ALPHA
 10
23.115015
 20
8.726568
 30
0.0
 11
23.115015
 21
9.876568
 31
0.0
  0
ARC
  5
E38E
  8
ALPHA
 10
26.115015
 20
16.959709
 30
0.0
 40
3.0
 50
180.0
 51
202.0
  0
ARC
  5
E38F
  8
ALPHA
 10
22.965015
 20
14.078364
 30
0.0
 40
1.0
 50
0.0
 51
22.0
  0
LINE
  5
E390
  8
ALPHA
 10
23.892198
 20
14.45297
 30
0.0
 11
23.333463
 21
15.835889
 31
0.0
  0
LINE
  5
E391
  8
ALPHA
 10
23.965015
 20
13.911106
 30
0.0
 11
23.965015
 21
14.078364
 31
0.0
  0
ARC
  5
E392
  8
ALPHA
 10
24.265015
 20
20.976568
 30
0.0
 40
0.6
 50
9.659258
 51
90.0
  0
ARC
  5
E393
  8
ALPHA
 10
24.465015
 20
18.676568
 30
0.0
 40
0.4
 50
270.0
 51
329.668273
  0
LINE
  5
E394
  8
ALPHA
 10
26.815015
 20
22.576568
 30
0.0
 11
23.508226
 21
22.576568
 31
0.0
  0
ARC
  5
E395
  8
ALPHA
 10
24.115015
 20
19.776568
 30
0.0
 40
1.3
 50
90.0
 51
270.0
  0
POLYLINE
  5
E396
  8
ALPHA
 66
     1
 10
0.0
 20
0.0
 30
0.0
  0
VERTEX
  5
E69F
  8
ALPHA
 10
23.508226
 20
22.576568
 30
0.0
  0
VERTEX
  5
E6A0
  8
ALPHA
 10
23.499996
 20
22.574815
 30
0.0
  0
VERTEX
  5
E6A1
  8
ALPHA
 10
23.485674
 20
22.5691
 30
0.0
  0
VERTEX
  5
E6A2
  8
ALPHA
 10
23.465071
 20
22.559094
 30
0.0
  0
SEQEND
  5
E6A3
  8
ALPHA
  0
LINE
  5
E397
  8
ALPHA
 10
23.115015
 20
16.959709
 30
0.0
 11
23.115015
 21
18.276568
 31
0.0
  0
LINE
  5
E398
  8
ALPHA
 10
23.465071
 20
22.559094
 30
0.0
 11
23.438344
 21
22.544756
 31
0.0
  0
POLYLINE
  5
E399
  8
ALPHA
 66
     1
 10
0.0
 20
0.0
 30
0.0
  0
VERTEX
  5
E6A4
  8
ALPHA
 10
23.438344
 20
22.544756
 30
0.0
  0
VERTEX
  5
E6A5
  8
ALPHA
 10
23.405889
 20
22.526226
 30
0.0
  0
VERTEX
  5
E6A6
  8
ALPHA
 10
23.368407
 20
22.503858
 30
0.0
  0
VERTEX
  5
E6A7
  8
ALPHA
 10
23.326211
 20
22.477791
 30
0.0
  0
VERTEX
  5
E6A8
  8
ALPHA
 10
23.279349
 20
22.447971
 30
0.0
  0
VERTEX
  5
E6A9
  8
ALPHA
 10
23.227965
 20
22.414368
 30
0.0
  0
VERTEX
  5
E6AA
  8
ALPHA
 10
23.171736
 20
22.376568
 30
0.0
  0
SEQEND
  5
E6AB
  8
ALPHA
  0
POLYLINE
  5
E39A
  8
ALPHA
 66
     1
 10
0.0
 20
0.0
 30
0.0
  0
VERTEX
  5
E6AC
  8
ALPHA
 10
29.685055
 20
7.376568
 30
0.0
  0
VERTEX
  5
E6AD
  8
ALPHA
 10
30.976497
 20
7.81803
 30
0.0
  0
VERTEX
  5
E6AE
  8
ALPHA
 10
32.223812
 20
8.12875
 30
0.0
  0
VERTEX
  5
E6AF
  8
ALPHA
 10
33.449002
 20
8.3146
 30
0.0
  0
VERTEX
  5
E6B0
  8
ALPHA
 10
34.665015
 20
8.376568
 30
0.0
  0
SEQEND
  5
E6B1
  8
ALPHA
  0
LINE
  5
E39B
  8
ALPHA
 10
29.685055
 20
4.576568
 30
0.0
 11
29.685055
 21
7.376568
 31
0.0
  0
LINE
  5
E39C
  8
ALPHA
 10
29.685055
 20
1.226568
 30
0.0
 11
29.685055
 21
2.576568
 31
0.0
  0
LINE
  5
E39D
  8
ALPHA
 10
29.45253
 20
2.576568
 30
0.0
 11
29.45253
 21
4.576568
 31
0.0
  0
LINE
  5
E39E
  8
ALPHA
 10
30.615015
 20
22.048413
 30
0.0
 11
33.538025
 21
22.048413
 31
0.0
  0
LINE
  5
E39F
  8
ALPHA
 10
30.615015
 20
21.766506
 30
0.0
 11
33.710731
 21
21.766506
 31
0.0
  0
LINE
  5
E3A0
  8
ALPHA
 10
31.727418
 20
18.276568
 30
0.0
 11
31.727418
 21
15.882676
 31
0.0
  0
POLYLINE
  5
E3A1
  8
ALPHA
 66
     1
 10
0.0
 20
0.0
 30
0.0
  0
VERTEX
  5
E6B2
  8
ALPHA
 10
31.727418
 20
15.882676
 30
0.0
  0
VERTEX
  5
E6B3
  8
ALPHA
 10
31.698819
 20
16.232397
 30
0.0
  0
VERTEX
  5
E6B4
  8
ALPHA
 10
31.681468
 20
16.593299
 30
0.0
  0
VERTEX
  5
E6B5
  8
ALPHA
 10
31.675655
 20
16.959709
 30
0.0
  0
SEQEND
  5
E6B6
  8
ALPHA
  0
ARC
  5
E3A2
  8
ALPHA
 10
32.465015
 20
21.376568
 30
0.0
 40
0.3
 50
180.0
 51
270.0
  0
POLYLINE
  5
E3A3
  8
ALPHA
 66
     1
 10
0.0
 20
0.0
 30
0.0
  0
VERTEX
  5
E6B7
  8
ALPHA
 10
32.465015
 20
21.076568
 30
0.0
  0
VERTEX
  5
E6B8
  8
ALPHA
 10
32.446848
 20
21.091313
 30
0.0
  0
VERTEX
  5
E6B9
  8
ALPHA
 10
32.430467
 20
21.134101
 30
0.0
  0
VERTEX
  5
E6BA
  8
ALPHA
 10
32.417489
 20
21.20068
 30
0.0
  0
VERTEX
  5
E6BB
  8
ALPHA
 10
32.409177
 20
21.284536
 30
0.0
  0
VERTEX
  5
E6BC
  8
ALPHA
 10
32.406348
 20
21.376568
 30
0.0
  0
SEQEND
  5
E6BD
  8
ALPHA
  0
LINE
  5
E3A4
  8
ALPHA
 10
32.406348
 20
21.376568
 30
0.0
 11
32.406348
 21
21.576568
 31
0.0
  0
LINE
  5
E3A5
  8
ALPHA
 10
32.165015
 20
21.376568
 30
0.0
 11
32.165015
 21
21.576568
 31
0.0
  0
LINE
  5
E3A6
  8
ALPHA
 10
31.675655
 20
16.959709
 30
0.0
 11
31.675655
 21
18.276568
 31
0.0
  0
POLYLINE
  5
E3A7
  8
ALPHA
 66
     1
 10
0.0
 20
0.0
 30
0.0
  0
VERTEX
  5
E6BE
  8
ALPHA
 10
33.538025
 20
22.048413
 30
0.0
  0
VERTEX
  5
E6BF
  8
ALPHA
 10
33.608257
 20
22.02961
 30
0.0
  0
VERTEX
  5
E6C0
  8
ALPHA
 10
33.668956
 20
21.987849
 30
0.0
  0
VERTEX
  5
E6C1
  8
ALPHA
 10
33.711883
 20
21.928799
 30
0.0
  0
VERTEX
  5
E6C2
  8
ALPHA
 10
33.731211
 20
21.860475
 30
0.0
  0
SEQEND
  5
E6C3
  8
ALPHA
  0
POLYLINE
  5
E3A8
  8
ALPHA
 66
     1
 10
0.0
 20
0.0
 30
0.0
  0
VERTEX
  5
E6C4
  8
ALPHA
 10
33.761549
 20
21.576568
 30
0.0
  0
VERTEX
  5
E6C5
  8
ALPHA
 10
33.803751
 20
21.584279
 30
0.0
  0
VERTEX
  5
E6C6
  8
ALPHA
 10
33.84447
 20
21.608277
 30
0.0
  0
VERTEX
  5
E6C7
  8
ALPHA
 10
33.879774
 20
21.649048
 30
0.0
  0
VERTEX
  5
E6C8
  8
ALPHA
 10
33.90515
 20
21.706019
 30
0.0
  0
VERTEX
  5
E6C9
  8
ALPHA
 10
33.915015
 20
21.776568
 30
0.0
  0
SEQEND
  5
E6CA
  8
ALPHA
  0
POLYLINE
  5
E3A9
  8
ALPHA
 66
     1
 10
0.0
 20
0.0
 30
0.0
  0
VERTEX
  5
E6CB
  8
ALPHA
 10
33.520395
 20
21.583383
 30
0.0
  0
VERTEX
  5
E6CC
  8
ALPHA
 10
33.502778
 20
21.579609
 30
0.0
  0
VERTEX
  5
E6CD
  8
ALPHA
 10
33.484866
 20
21.57733
 30
0.0
  0
VERTEX
  5
E6CE
  8
ALPHA
 10
33.466805
 20
21.576568
 30
0.0
  0
SEQEND
  5
E6CF
  8
ALPHA
  0
POLYLINE
  5
E3AA
  8
ALPHA
 66
     1
 10
0.0
 20
0.0
 30
0.0
  0
VERTEX
  5
E6D0
  8
ALPHA
 10
33.908033
 20
22.1641
 30
0.0
  0
VERTEX
  5
E6D1
  8
ALPHA
 10
33.882196
 20
22.230169
 30
0.0
  0
VERTEX
  5
E6D2
  8
ALPHA
 10
33.846368
 20
22.284563
 30
0.0
  0
VERTEX
  5
E6D3
  8
ALPHA
 10
33.805012
 20
22.325514
 30
0.0
  0
VERTEX
  5
E6D4
  8
ALPHA
 10
33.761549
 20
22.352038
 30
0.0
  0
SEQEND
  5
E6D5
  8
ALPHA
  0
POLYLINE
  5
E3AB
  8
ALPHA
 66
     1
 10
0.0
 20
0.0
 30
0.0
  0
VERTEX
  5
E6D6
  8
ALPHA
 10
33.908033
 20
22.1641
 30
0.0
  0
VERTEX
  5
E6D7
  8
ALPHA
 10
33.911871
 20
22.146663
 30
0.0
  0
VERTEX
  5
E6D8
  8
ALPHA
 10
33.914219
 20
22.128637
 30
0.0
  0
VERTEX
  5
E6D9
  8
ALPHA
 10
33.915015
 20
22.110146
 30
0.0
  0
SEQEND
  5
E6DA
  8
ALPHA
  0
LINE
  5
E3AC
  8
ALPHA
 10
33.915015
 20
21.776568
 30
0.0
 11
33.915015
 21
22.110146
 31
0.0
  0
POLYLINE
  5
E3AD
  8
ALPHA
 66
     1
 10
0.0
 20
0.0
 30
0.0
  0
VERTEX
  5
E6DB
  8
ALPHA
 10
33.713716
 20
21.776568
 30
0.0
  0
VERTEX
  5
E6DC
  8
ALPHA
 10
33.714836
 20
21.796759
 30
0.0
  0
VERTEX
  5
E6DD
  8
ALPHA
 10
33.717289
 20
21.817266
 30
0.0
  0
VERTEX
  5
E6DE
  8
ALPHA
 10
33.721064
 20
21.835831
 30
0.0
  0
VERTEX
  5
E6DF
  8
ALPHA
 10
33.725867
 20
21.850578
 30
0.0
  0
VERTEX
  5
E6E0
  8
ALPHA
 10
33.731211
 20
21.860475
 30
0.0
  0
SEQEND
  5
E6E1
  8
ALPHA
  0
POLYLINE
  5
E3AE
  8
ALPHA
 66
     1
 10
0.0
 20
0.0
 30
0.0
  0
VERTEX
  5
E6E2
  8
ALPHA
 10
33.520395
 20
21.766506
 30
0.0
  0
VERTEX
  5
E6E3
  8
ALPHA
 10
33.521028
 20
21.831364
 30
0.0
  0
VERTEX
  5
E6E4
  8
ALPHA
 10
33.523189
 20
21.899935
 30
0.0
  0
VERTEX
  5
E6E5
  8
ALPHA
 10
33.527001
 20
21.963775
 30
0.0
  0
VERTEX
  5
E6E6
  8
ALPHA
 10
33.532159
 20
22.01484
 30
0.0
  0
VERTEX
  5
E6E7
  8
ALPHA
 10
33.538025
 20
22.048413
 30
0.0
  0
SEQEND
  5
E6E8
  8
ALPHA
  0
LINE
  5
E3AF
  8
ALPHA
 10
33.520395
 20
21.583383
 30
0.0
 11
33.520395
 21
21.766506
 31
0.0
  0
POLYLINE
  5
E3B0
  8
ALPHA
 66
     1
 10
0.0
 20
0.0
 30
0.0
  0
VERTEX
  5
E6E9
  8
ALPHA
 10
33.710731
 20
21.766506
 30
0.0
  0
VERTEX
  5
E6EA
  8
ALPHA
 10
33.700323
 20
21.738785
 30
0.0
  0
VERTEX
  5
E6EB
  8
ALPHA
 10
33.686282
 20
21.71159
 30
0.0
  0
VERTEX
  5
E6EC
  8
ALPHA
 10
33.668539
 20
21.685126
 30
0.0
  0
VERTEX
  5
E6ED
  8
ALPHA
 10
33.646946
 20
21.659729
 30
0.0
  0
VERTEX
  5
E6EE
  8
ALPHA
 10
33.621243
 20
21.635841
 30
0.0
  0
VERTEX
  5
E6EF
  8
ALPHA
 10
33.591409
 20
21.614351
 30
0.0
  0
VERTEX
  5
E6F0
  8
ALPHA
 10
33.557475
 20
21.596329
 30
0.0
  0
VERTEX
  5
E6F1
  8
ALPHA
 10
33.520395
 20
21.583383
 30
0.0
  0
SEQEND
  5
E6F2
  8
ALPHA
  0
LINE
  5
E3B1
  8
ALPHA
 10
33.710731
 20
21.766506
 30
0.0
 11
33.713716
 21
21.776568
 31
0.0
  0
LINE
  5
E3B2
  8
ALPHA
 10
33.731211
 20
21.860475
 30
0.0
 11
33.915015
 21
22.110146
 31
0.0
  0
LINE
  5
E3B3
  8
ALPHA
 10
33.538025
 20
22.048413
 30
0.0
 11
33.761549
 21
22.352038
 31
0.0
  0
LINE
  5
E3B4
  8
ALPHA
 10
22.015015
 20
25.426568
 30
0.0
 11
28.165015
 21
25.426568
 31
0.0
  0
LINE
  5
E3B5
  8
ALPHA
 10
22.215015
 20
25.176568
 30
0.0
 11
24.715015
 21
25.176568
 31
0.0
  0
LINE
  5
E3B6
  8
ALPHA
 10
22.366357
 20
24.976568
 30
0.0
 11
24.480451
 21
24.976568
 31
0.0
  0
LINE
  5
E3B7
  8
ALPHA
 10
22.015015
 20
25.376568
 30
0.0
 11
22.215015
 21
25.176568
 31
0.0
  0
POLYLINE
  5
E3B8
  8
ALPHA
 66
     1
 10
0.0
 20
0.0
 30
0.0
  0
VERTEX
  5
E6F3
  8
ALPHA
 10
22.229744
 20
25.137626
 30
0.0
  0
VERTEX
  5
E6F4
  8
ALPHA
 10
22.265004
 20
25.089577
 30
0.0
  0
VERTEX
  5
E6F5
  8
ALPHA
 10
22.31236
 20
25.034193
 30
0.0
  0
VERTEX
  5
E6F6
  8
ALPHA
 10
22.366357
 20
24.976568
 30
0.0
  0
SEQEND
  5
E6F7
  8
ALPHA
  0
LINE
  5
E3B9
  8
ALPHA
 10
22.215015
 20
25.170399
 30
0.0
 11
22.229744
 21
25.137626
 31
0.0
  0
LINE
  5
E3BA
  8
ALPHA
 10
23.615015
 20
24.076568
 30
0.0
 11
24.915015
 21
24.076568
 31
0.0
  0
LINE
  5
E3BB
  8
ALPHA
 10
26.615015
 20
22.776568
 30
0.0
 11
23.815015
 21
22.776568
 31
0.0
  0
LINE
  5
E3BC
  8
ALPHA
 10
24.915015
 20
24.076568
 30
0.0
 11
24.715015
 21
24.276568
 31
0.0
  0
LINE
  5
E3BD
  8
ALPHA
 10
24.915015
 20
25.376568
 30
0.0
 11
24.715015
 21
25.176568
 31
0.0
  0
ARC
  5
E3BE
  8
ALPHA
 10
23.815015
 20
22.976568
 30
0.0
 40
0.2
 50
180.0
 51
270.0
  0
LINE
  5
E3BF
  8
ALPHA
 10
24.480451
 20
24.476568
 30
0.0
 11
23.171726
 21
24.476568
 31
0.0
  0
LINE
  5
E3C0
  8
ALPHA
 10
23.410418
 20
24.276568
 30
0.0
 11
24.715015
 21
24.276568
 31
0.0
  0
LINE
  5
E3C1
  8
ALPHA
 10
23.415015
 20
22.676568
 30
0.0
 11
23.410489
 21
22.676568
 31
0.0
  0
POLYLINE
  5
E3C2
  8
ALPHA
 66
     1
 10
0.0
 20
0.0
 30
0.0
  0
VERTEX
  5
E6F8
  8
ALPHA
 10
24.71212
 20
24.276568
 30
0.0
  0
VERTEX
  5
E6F9
  8
ALPHA
 10
24.690783
 20
24.287156
 30
0.0
  0
VERTEX
  5
E6FA
  8
ALPHA
 10
24.656379
 20
24.313196
 30
0.0
  0
VERTEX
  5
E6FB
  8
ALPHA
 10
24.614894
 20
24.348575
 30
0.0
  0
VERTEX
  5
E6FC
  8
ALPHA
 10
24.569965
 20
24.389473
 30
0.0
  0
VERTEX
  5
E6FD
  8
ALPHA
 10
24.524275
 20
24.433062
 30
0.0
  0
VERTEX
  5
E6FE
  8
ALPHA
 10
24.480451
 20
24.476568
 30
0.0
  0
SEQEND
  5
E6FF
  8
ALPHA
  0
POLYLINE
  5
E3C3
  8
ALPHA
 66
     1
 10
0.0
 20
0.0
 30
0.0
  0
VERTEX
  5
E700
  8
ALPHA
 10
23.410418
 20
24.276568
 30
0.0
  0
VERTEX
  5
E701
  8
ALPHA
 10
23.386366
 20
24.287156
 30
0.0
  0
VERTEX
  5
E702
  8
ALPHA
 10
23.349949
 20
24.313196
 30
0.0
  0
VERTEX
  5
E703
  8
ALPHA
 10
23.307091
 20
24.348575
 30
0.0
  0
VERTEX
  5
E704
  8
ALPHA
 10
23.26136
 20
24.389473
 30
0.0
  0
VERTEX
  5
E705
  8
ALPHA
 10
23.215383
 20
24.433062
 30
0.0
  0
VERTEX
  5
E706
  8
ALPHA
 10
23.171726
 20
24.476568
 30
0.0
  0
SEQEND
  5
E707
  8
ALPHA
  0
LINE
  5
E3C4
  8
ALPHA
 10
23.615015
 20
24.076568
 30
0.0
 11
23.415015
 21
24.276568
 31
0.0
  0
LINE
  5
E3C5
  8
ALPHA
 10
24.715015
 20
25.176568
 30
0.0
 11
24.715015
 21
24.276568
 31
0.0
  0
LINE
  5
E3C6
  8
ALPHA
 10
24.480451
 20
24.976568
 30
0.0
 11
24.480451
 21
24.476568
 31
0.0
  0
LINE
  5
E3C7
  8
ALPHA
 10
23.615015
 20
22.976568
 30
0.0
 11
23.615015
 21
24.076568
 31
0.0
  0
LINE
  5
E3C8
  8
ALPHA
 10
23.415015
 20
24.276568
 30
0.0
 11
23.415015
 21
22.676568
 31
0.0
  0
LINE
  5
E3C9
  8
ALPHA
 10
23.621829
 20
22.924804
 30
0.0
 11
23.415015
 21
22.717989
 31
0.0
  0
POLYLINE
  5
E3CA
  8
ALPHA
 66
     1
 10
0.0
 20
0.0
 30
0.0
  0
VERTEX
  5
E708
  8
ALPHA
 10
24.71212
 20
25.176568
 30
0.0
  0
VERTEX
  5
E709
  8
ALPHA
 10
24.690783
 20
25.165979
 30
0.0
  0
VERTEX
  5
E70A
  8
ALPHA
 10
24.656379
 20
25.13994
 30
0.0
  0
VERTEX
  5
E70B
  8
ALPHA
 10
24.614894
 20
25.10456
 30
0.0
  0
VERTEX
  5
E70C
  8
ALPHA
 10
24.569965
 20
25.063663
 30
0.0
  0
VERTEX
  5
E70D
  8
ALPHA
 10
24.524275
 20
25.020073
 30
0.0
  0
VERTEX
  5
E70E
  8
ALPHA
 10
24.480451
 20
24.976568
 30
0.0
  0
SEQEND
  5
E70F
  8
ALPHA
  0
LINE
  5
E3CB
  8
ALPHA
 10
26.615015
 20
25.426568
 30
0.0
 11
26.615015
 21
22.776568
 31
0.0
  0
LINE
  5
E3CC
  8
ALPHA
 10
25.589138
 20
22.776568
 30
0.0
 11
25.589138
 21
25.426568
 31
0.0
  0
LINE
  5
E3CD
  8
ALPHA
 10
24.915015
 20
24.076568
 30
0.0
 11
24.915015
 21
25.426568
 31
0.0
  0
LINE
  5
E3CE
  8
ALPHA
 10
30.615015
 20
23.576568
 30
0.0
 11
28.165015
 21
23.576568
 31
0.0
  0
LINE
  5
E3CF
  8
ALPHA
 10
28.165015
 20
25.426568
 30
0.0
 11
28.165015
 21
23.576568
 31
0.0
  0
LINE
  5
E3D0
  8
ALPHA
 10
47.565015
 20
-0.773432
 30
0.0
 11
47.565015
 21
1.226568
 31
0.0
  0
ARC
  5
E3D3
  8
ALPHA
 10
46.465015
 20
-0.973432
 30
0.0
 40
0.2
 50
0.0
 51
90.0
  0
LINE
  5
E3D4
  8
ALPHA
 10
46.665015
 20
-2.273432
 30
0.0
 11
46.665015
 21
-0.973432
 31
0.0
  0
ARC
  5
E3D5
  8
ALPHA
 10
45.815015
 20
22.676568
 30
0.0
 40
0.1
 50
270.0
 51
0.0
  0
LINE
  5
E3D6
  8
ALPHA
 10
45.566778
 20
22.783383
 30
0.0
 11
45.773593
 21
22.576568
 31
0.0
  0
POLYLINE
  5
E3D7
  8
ALPHA
 66
     1
 10
0.0
 20
0.0
 30
0.0
  0
VERTEX
  5
E710
  8
ALPHA
 10
45.91954
 20
22.676568
 30
0.0
  0
VERTEX
  5
E711
  8
ALPHA
 10
45.933319
 20
22.669446
 30
0.0
  0
VERTEX
  5
E712
  8
ALPHA
 10
45.95666
 20
22.647572
 30
0.0
  0
VERTEX
  5
E713
  8
ALPHA
 10
45.987932
 20
22.6121
 30
0.0
  0
VERTEX
  5
E714
  8
ALPHA
 10
46.024898
 20
22.565775
 30
0.0
  0
VERTEX
  5
E715
  8
ALPHA
 10
46.065962
 20
22.510749
 30
0.0
  0
VERTEX
  5
E716
  8
ALPHA
 10
46.110786
 20
22.447332
 30
0.0
  0
VERTEX
  5
E717
  8
ALPHA
 10
46.158303
 20
22.376601
 30
0.0
  0
SEQEND
  5
E718
  8
ALPHA
  0
LINE
  5
E3D8
  8
ALPHA
 10
47.315015
 20
25.426568
 30
0.0
 11
47.315015
 21
21.576568
 31
0.0
  0
LINE
  5
E3D9
  8
ALPHA
 10
47.115015
 20
25.170399
 30
0.0
 11
47.115015
 21
21.576568
 31
0.0
  0
LINE
  5
E3DA
  8
ALPHA
 10
46.963672
 20
24.976568
 30
0.0
 11
46.963672
 21
21.576568
 31
0.0
  0
LINE
  5
E3DB
  8
ALPHA
 10
46.158303
 20
22.376601
 30
0.0
 11
46.158303
 21
24.476568
 31
0.0
  0
LINE
  5
E3DC
  8
ALPHA
 10
42.515015
 20
25.426568
 30
0.0
 11
42.515015
 21
22.575715
 31
0.0
  0
POLYLINE
  5
E3DD
  8
ALPHA
 66
     1
 10
0.0
 20
0.0
 30
0.0
  0
VERTEX
  5
E719
  8
ALPHA
 10
45.821803
 20
22.576568
 30
0.0
  0
VERTEX
  5
E71A
  8
ALPHA
 10
45.870666
 20
22.589963
 30
0.0
  0
VERTEX
  5
E71B
  8
ALPHA
 10
45.906442
 20
22.626562
 30
0.0
  0
SEQEND
  5
E71C
  8
ALPHA
  0
LINE
  5
E3DE
  8
ALPHA
 10
42.3328
 20
25.426568
 30
0.0
 11
42.3328
 21
22.376568
 31
0.0
  0
LINE
  5
E3DF
  8
ALPHA
 10
39.665015
 20
23.576568
 30
0.0
 11
39.665015
 21
21.576568
 31
0.0
  0
LINE
  5
E3E0
  8
ALPHA
 10
38.715015
 20
23.576568
 30
0.0
 11
38.715015
 21
21.766506
 31
0.0
  0
LINE
  5
E3E1
  8
ALPHA
 10
42.715015
 20
22.776568
 30
0.0
 11
42.515015
 21
22.576568
 31
0.0
  0
LINE
  5
E3E2
  8
ALPHA
 10
45.821803
 20
22.576568
 30
0.0
 11
42.515015
 21
22.576568
 31
0.0
  0
LINE
  5
E3E3
  8
ALPHA
 10
42.3328
 20
22.376568
 30
0.0
 11
46.158303
 21
22.376568
 31
0.0
  0
LINE
  5
E3E4
  8
ALPHA
 10
47.315015
 20
21.576568
 30
0.0
 11
35.859634
 21
21.576568
 31
0.0
  0
LINE
  5
E3E5
  8
ALPHA
 10
37.654375
 20
16.959709
 30
0.0
 11
46.215015
 21
16.959709
 31
0.0
  0
LINE
  5
E3E6
  8
ALPHA
 10
39.644974
 20
7.376568
 30
0.0
 11
46.565015
 21
7.376568
 31
0.0
  0
LINE
  5
E3E7
  8
ALPHA
 10
39.644974
 20
4.576568
 30
0.0
 11
39.644974
 21
7.376568
 31
0.0
  0
LINE
  5
E3E8
  8
ALPHA
 10
39.8775
 20
2.576568
 30
0.0
 11
39.8775
 21
4.576568
 31
0.0
  0
LINE
  5
E3E9
  8
ALPHA
 10
39.644974
 20
1.226568
 30
0.0
 11
39.644974
 21
2.576568
 31
0.0
  0
LINE
  5
E3EA
  8
ALPHA
 10
37.602611
 20
18.276568
 30
0.0
 11
37.602611
 21
15.882676
 31
0.0
  0
POLYLINE
  5
E3EB
  8
ALPHA
 66
     1
 10
0.0
 20
0.0
 30
0.0
  0
VERTEX
  5
E71D
  8
ALPHA
 10
37.602611
 20
15.882676
 30
0.0
  0
VERTEX
  5
E71E
  8
ALPHA
 10
37.631211
 20
16.232397
 30
0.0
  0
VERTEX
  5
E71F
  8
ALPHA
 10
37.648561
 20
16.593299
 30
0.0
  0
VERTEX
  5
E720
  8
ALPHA
 10
37.654375
 20
16.959709
 30
0.0
  0
SEQEND
  5
E721
  8
ALPHA
  0
ARC
  5
E3EC
  8
ALPHA
 10
36.865015
 20
21.376568
 30
0.0
 40
0.3
 50
270.0
 51
0.0
  0
LINE
  5
E3ED
  8
ALPHA
 10
35.792004
 20
22.048413
 30
0.0
 11
38.715015
 21
22.048413
 31
0.0
  0
LINE
  5
E3EE
  8
ALPHA
 10
35.619298
 20
21.766506
 30
0.0
 11
38.715015
 21
21.766506
 31
0.0
  0
POLYLINE
  5
E3EF
  8
ALPHA
 66
     1
 10
0.0
 20
0.0
 30
0.0
  0
VERTEX
  5
E722
  8
ALPHA
 10
35.809634
 20
21.583383
 30
0.0
  0
VERTEX
  5
E723
  8
ALPHA
 10
35.827251
 20
21.579609
 30
0.0
  0
VERTEX
  5
E724
  8
ALPHA
 10
35.845163
 20
21.57733
 30
0.0
  0
VERTEX
  5
E725
  8
ALPHA
 10
35.863224
 20
21.576568
 30
0.0
  0
SEQEND
  5
E726
  8
ALPHA
  0
POLYLINE
  5
E3F0
  8
ALPHA
 66
     1
 10
0.0
 20
0.0
 30
0.0
  0
VERTEX
  5
E727
  8
ALPHA
 10
35.56848
 20
21.576568
 30
0.0
  0
VERTEX
  5
E728
  8
ALPHA
 10
35.526278
 20
21.584279
 30
0.0
  0
VERTEX
  5
E729
  8
ALPHA
 10
35.485559
 20
21.608277
 30
0.0
  0
VERTEX
  5
E72A
  8
ALPHA
 10
35.450255
 20
21.649048
 30
0.0
  0
VERTEX
  5
E72B
  8
ALPHA
 10
35.424879
 20
21.706019
 30
0.0
  0
VERTEX
  5
E72C
  8
ALPHA
 10
35.415015
 20
21.776568
 30
0.0
  0
SEQEND
  5
E72D
  8
ALPHA
  0
POLYLINE
  5
E3F1
  8
ALPHA
 66
     1
 10
0.0
 20
0.0
 30
0.0
  0
VERTEX
  5
E72E
  8
ALPHA
 10
35.792004
 20
22.048413
 30
0.0
  0
VERTEX
  5
E72F
  8
ALPHA
 10
35.721772
 20
22.02961
 30
0.0
  0
VERTEX
  5
E730
  8
ALPHA
 10
35.661073
 20
21.987849
 30
0.0
  0
VERTEX
  5
E731
  8
ALPHA
 10
35.618147
 20
21.928799
 30
0.0
  0
VERTEX
  5
E732
  8
ALPHA
 10
35.598819
 20
21.860475
 30
0.0
  0
SEQEND
  5
E733
  8
ALPHA
  0
LINE
  5
E3F2
  8
ALPHA
 10
35.56848
 20
22.352038
 30
0.0
 11
35.792004
 21
22.048413
 31
0.0
  0
LINE
  5
E3F3
  8
ALPHA
 10
35.415015
 20
22.110146
 30
0.0
 11
35.598819
 21
21.860475
 31
0.0
  0
POLYLINE
  5
E3F4
  8
ALPHA
 66
     1
 10
0.0
 20
0.0
 30
0.0
  0
VERTEX
  5
E734
  8
ALPHA
 10
35.598819
 20
21.860475
 30
0.0
  0
VERTEX
  5
E735
  8
ALPHA
 10
35.60416
 20
21.850586
 30
0.0
  0
VERTEX
  5
E736
  8
ALPHA
 10
35.608958
 20
21.835856
 30
0.0
  0
VERTEX
  5
E737
  8
ALPHA
 10
35.612734
 20
21.817307
 30
0.0
  0
VERTEX
  5
E738
  8
ALPHA
 10
35.61519
 20
21.796797
 30
0.0
  0
VERTEX
  5
E739
  8
ALPHA
 10
35.616313
 20
21.776568
 30
0.0
  0
SEQEND
  5
E73A
  8
ALPHA
  0
POLYLINE
  5
E3F5
  8
ALPHA
 66
     1
 10
0.0
 20
0.0
 30
0.0
  0
VERTEX
  5
E73B
  8
ALPHA
 10
35.619298
 20
21.766506
 30
0.0
  0
VERTEX
  5
E73C
  8
ALPHA
 10
35.629707
 20
21.738785
 30
0.0
  0
VERTEX
  5
E73D
  8
ALPHA
 10
35.643747
 20
21.71159
 30
0.0
  0
VERTEX
  5
E73E
  8
ALPHA
 10
35.66149
 20
21.685126
 30
0.0
  0
VERTEX
  5
E73F
  8
ALPHA
 10
35.683083
 20
21.659729
 30
0.0
  0
VERTEX
  5
E740
  8
ALPHA
 10
35.708786
 20
21.635841
 30
0.0
  0
VERTEX
  5
E741
  8
ALPHA
 10
35.73862
 20
21.614351
 30
0.0
  0
VERTEX
  5
E742
  8
ALPHA
 10
35.772554
 20
21.596329
 30
0.0
  0
VERTEX
  5
E743
  8
ALPHA
 10
35.809634
 20
21.583383
 30
0.0
  0
SEQEND
  5
E744
  8
ALPHA
  0
POLYLINE
  5
E3F6
  8
ALPHA
 66
     1
 10
0.0
 20
0.0
 30
0.0
  0
VERTEX
  5
E745
  8
ALPHA
 10
35.792004
 20
22.048413
 30
0.0
  0
VERTEX
  5
E746
  8
ALPHA
 10
35.797865
 20
22.01488
 30
0.0
  0
VERTEX
  5
E747
  8
ALPHA
 10
35.803018
 20
21.963899
 30
0.0
  0
VERTEX
  5
E748
  8
ALPHA
 10
35.806831
 20
21.900133
 30
0.0
  0
VERTEX
  5
E749
  8
ALPHA
 10
35.808998
 20
21.831545
 30
0.0
  0
VERTEX
  5
E74A
  8
ALPHA
 10
35.809634
 20
21.766506
 30
0.0
  0
SEQEND
  5
E74B
  8
ALPHA
  0
LINE
  5
E3F7
  8
ALPHA
 10
35.619298
 20
21.766506
 30
0.0
 11
35.616313
 21
21.776568
 31
0.0
  0
LINE
  5
E3F8
  8
ALPHA
 10
36.923681
 20
21.376568
 30
0.0
 11
36.923681
 21
21.576568
 31
0.0
  0
LINE
  5
E3F9
  8
ALPHA
 10
35.809634
 20
21.766506
 30
0.0
 11
35.809634
 21
21.583383
 31
0.0
  0
LINE
  5
E3FA
  8
ALPHA
 10
35.415015
 20
21.776568
 30
0.0
 11
35.415015
 21
22.110146
 31
0.0
  0
POLYLINE
  5
E3FB
  8
ALPHA
 66
     1
 10
0.0
 20
0.0
 30
0.0
  0
VERTEX
  5
E74C
  8
ALPHA
 10
35.421997
 20
22.1641
 30
0.0
  0
VERTEX
  5
E74D
  8
ALPHA
 10
35.418158
 20
22.146663
 30
0.0
  0
VERTEX
  5
E74E
  8
ALPHA
 10
35.41581
 20
22.128637
 30
0.0
  0
VERTEX
  5
E74F
  8
ALPHA
 10
35.415015
 20
22.110146
 30
0.0
  0
SEQEND
  5
E750
  8
ALPHA
  0
POLYLINE
  5
E3FC
  8
ALPHA
 66
     1
 10
0.0
 20
0.0
 30
0.0
  0
VERTEX
  5
E751
  8
ALPHA
 10
35.421997
 20
22.1641
 30
0.0
  0
VERTEX
  5
E752
  8
ALPHA
 10
35.447833
 20
22.230169
 30
0.0
  0
VERTEX
  5
E753
  8
ALPHA
 10
35.483661
 20
22.284563
 30
0.0
  0
VERTEX
  5
E754
  8
ALPHA
 10
35.525018
 20
22.325514
 30
0.0
  0
VERTEX
  5
E755
  8
ALPHA
 10
35.56848
 20
22.352038
 30
0.0
  0
SEQEND
  5
E756
  8
ALPHA
  0
POLYLINE
  5
E3FD
  8
ALPHA
 66
     1
 10
0.0
 20
0.0
 30
0.0
  0
VERTEX
  5
E757
  8
ALPHA
 10
36.865015
 20
21.076568
 30
0.0
  0
VERTEX
  5
E758
  8
ALPHA
 10
36.883144
 20
21.091251
 30
0.0
  0
VERTEX
  5
E759
  8
ALPHA
 10
36.899498
 20
21.133863
 30
0.0
  0
VERTEX
  5
E75A
  8
ALPHA
 10
36.912477
 20
21.200232
 30
0.0
  0
VERTEX
  5
E75B
  8
ALPHA
 10
36.92081
 20
21.283863
 30
0.0
  0
VERTEX
  5
E75C
  8
ALPHA
 10
36.923681
 20
21.376568
 30
0.0
  0
SEQEND
  5
E75D
  8
ALPHA
  0
LINE
  5
E3FE
  8
ALPHA
 10
37.654375
 20
16.959709
 30
0.0
 11
37.654375
 21
18.276568
 31
0.0
  0
LINE
  5
E3FF
  8
ALPHA
 10
37.165015
 20
21.376568
 30
0.0
 11
37.165015
 21
21.576568
 31
0.0
  0
POLYLINE
  5
E400
  8
ALPHA
 66
     1
 10
0.0
 20
0.0
 30
0.0
  0
VERTEX
  5
E75E
  8
ALPHA
 10
42.515015
 20
22.575715
 30
0.0
  0
VERTEX
  5
E75F
  8
ALPHA
 10
42.502175
 20
22.556454
 30
0.0
  0
VERTEX
  5
E760
  8
ALPHA
 10
42.471249
 20
22.520746
 30
0.0
  0
VERTEX
  5
E761
  8
ALPHA
 10
42.429744
 20
22.475986
 30
0.0
  0
VERTEX
  5
E762
  8
ALPHA
 10
42.382292
 20
22.426667
 30
0.0
  0
VERTEX
  5
E763
  8
ALPHA
 10
42.3328
 20
22.376568
 30
0.0
  0
SEQEND
  5
E764
  8
ALPHA
  0
ARC
  5
E401
  8
ALPHA
 10
55.365015
 20
13.911106
 30
0.0
 40
10.0
 50
180.0
 51
203.794273
  0
LINE
  5
E402
  8
ALPHA
 10
46.565015
 20
1.226568
 30
0.0
 11
47.565015
 21
1.226568
 31
0.0
  0
LINE
  5
E403
  8
ALPHA
 10
46.565015
 20
1.226568
 30
0.0
 11
46.565015
 21
8.376568
 31
0.0
  0
LINE
  5
E404
  8
ALPHA
 10
46.215015
 20
8.726568
 30
0.0
 11
46.215015
 21
9.876568
 31
0.0
  0
LINE
  5
E405
  8
ALPHA
 10
46.565039
 20
8.376544
 30
0.0
 11
46.215015
 21
8.726568
 31
0.0
  0
ARC
  5
E406
  8
ALPHA
 10
43.215015
 20
16.959709
 30
0.0
 40
3.0
 50
338.0
 51
0.0
  0
ARC
  5
E407
  8
ALPHA
 10
46.365015
 20
14.078364
 30
0.0
 40
1.0
 50
158.0
 51
180.0
  0
LINE
  5
E408
  8
ALPHA
 10
45.365015
 20
13.911106
 30
0.0
 11
45.365015
 21
14.078364
 31
0.0
  0
LINE
  5
E409
  8
ALPHA
 10
45.437831
 20
14.45297
 30
0.0
 11
45.996566
 21
15.835889
 31
0.0
  0
ARC
  5
E40A
  8
ALPHA
 10
45.215015
 20
19.776568
 30
0.0
 40
1.3
 50
270.0
 51
90.0
  0
ARC
  5
E40B
  8
ALPHA
 10
45.065015
 20
20.976568
 30
0.0
 40
0.6
 50
90.0
 51
170.340742
  0
ARC
  5
E40C
  8
ALPHA
 10
44.865015
 20
18.676568
 30
0.0
 40
0.4
 50
210.331727
 51
270.0
  0
POLYLINE
  5
E40D
  8
ALPHA
 66
     1
 10
0.0
 20
0.0
 30
0.0
  0
VERTEX
  5
E765
  8
ALPHA
 10
45.911448
 20
22.533582
 30
0.0
  0
VERTEX
  5
E766
  8
ALPHA
 10
45.963519
 20
22.502706
 30
0.0
  0
VERTEX
  5
E767
  8
ALPHA
 10
46.02247
 20
22.466023
 30
0.0
  0
VERTEX
  5
E768
  8
ALPHA
 10
46.087864
 20
22.423745
 30
0.0
  0
VERTEX
  5
E769
  8
ALPHA
 10
46.158271
 20
22.376568
 30
0.0
  0
SEQEND
  5
E76A
  8
ALPHA
  0
POLYLINE
  5
E40E
  8
ALPHA
 66
     1
 10
0.0
 20
0.0
 30
0.0
  0
VERTEX
  5
E76B
  8
ALPHA
 10
45.83802
 20
22.571838
 30
0.0
  0
VERTEX
  5
E76C
  8
ALPHA
 10
45.868558
 20
22.557224
 30
0.0
  0
VERTEX
  5
E76D
  8
ALPHA
 10
45.911448
 20
22.533582
 30
0.0
  0
SEQEND
  5
E76E
  8
ALPHA
  0
LINE
  5
E40F
  8
ALPHA
 10
45.821803
 20
22.576568
 30
0.0
 11
45.83802
 21
22.571838
 31
0.0
  0
LINE
  5
E410
  8
ALPHA
 10
46.215015
 20
16.959709
 30
0.0
 11
46.215015
 21
18.276568
 31
0.0
  0
LINE
  5
E411
  8
ALPHA
 10
41.165015
 20
25.426568
 30
0.0
 11
47.315015
 21
25.426568
 31
0.0
  0
LINE
  5
E412
  8
ALPHA
 10
45.515015
 20
22.776568
 30
0.0
 11
42.715015
 21
22.776568
 31
0.0
  0
LINE
  5
E413
  8
ALPHA
 10
41.165015
 20
23.576568
 30
0.0
 11
38.715015
 21
23.576568
 31
0.0
  0
LINE
  5
E414
  8
ALPHA
 10
41.165015
 20
25.426568
 30
0.0
 11
41.165015
 21
23.576568
 31
0.0
  0
LINE
  5
E415
  8
ALPHA
 10
42.715015
 20
22.776568
 30
0.0
 11
42.715015
 21
25.426568
 31
0.0
  0
LINE
  5
E416
  8
ALPHA
 10
47.115015
 20
25.176568
 30
0.0
 11
44.615015
 21
25.176568
 31
0.0
  0
LINE
  5
E417
  8
ALPHA
 10
44.849578
 20
24.976568
 30
0.0
 11
46.963672
 21
24.976568
 31
0.0
  0
LINE
  5
E418
  8
ALPHA
 10
46.158303
 20
24.476568
 30
0.0
 11
44.849578
 21
24.476568
 31
0.0
  0
LINE
  5
E419
  8
ALPHA
 10
44.615015
 20
24.276568
 30
0.0
 11
45.919611
 21
24.276568
 31
0.0
  0
LINE
  5
E41A
  8
ALPHA
 10
44.415015
 20
24.076568
 30
0.0
 11
45.715015
 21
24.076568
 31
0.0
  0
LINE
  5
E41B
  8
ALPHA
 10
44.415015
 20
25.376568
 30
0.0
 11
44.615015
 21
25.176568
 31
0.0
  0
POLYLINE
  5
E41C
  8
ALPHA
 66
     1
 10
0.0
 20
0.0
 30
0.0
  0
VERTEX
  5
E76F
  8
ALPHA
 10
44.617909
 20
25.176568
 30
0.0
  0
VERTEX
  5
E770
  8
ALPHA
 10
44.639246
 20
25.165979
 30
0.0
  0
VERTEX
  5
E771
  8
ALPHA
 10
44.67365
 20
25.13994
 30
0.0
  0
VERTEX
  5
E772
  8
ALPHA
 10
44.715135
 20
25.10456
 30
0.0
  0
VERTEX
  5
E773
  8
ALPHA
 10
44.760064
 20
25.063663
 30
0.0
  0
VERTEX
  5
E774
  8
ALPHA
 10
44.805754
 20
25.020073
 30
0.0
  0
VERTEX
  5
E775
  8
ALPHA
 10
44.849578
 20
24.976568
 30
0.0
  0
SEQEND
  5
E776
  8
ALPHA
  0
LINE
  5
E41D
  8
ALPHA
 10
44.849578
 20
24.476568
 30
0.0
 11
44.849578
 21
24.976568
 31
0.0
  0
LINE
  5
E41E
  8
ALPHA
 10
44.615015
 20
24.276568
 30
0.0
 11
44.615015
 21
25.176568
 31
0.0
  0
LINE
  5
E41F
  8
ALPHA
 10
44.415015
 20
25.426568
 30
0.0
 11
44.415015
 21
24.076568
 31
0.0
  0
LINE
  5
E420
  8
ALPHA
 10
43.740891
 20
22.776568
 30
0.0
 11
43.740891
 21
25.426568
 31
0.0
  0
LINE
  5
E421
  8
ALPHA
 10
44.415015
 20
24.076568
 30
0.0
 11
44.615015
 21
24.276568
 31
0.0
  0
POLYLINE
  5
E422
  8
ALPHA
 66
     1
 10
0.0
 20
0.0
 30
0.0
  0
VERTEX
  5
E777
  8
ALPHA
 10
44.617909
 20
24.276568
 30
0.0
  0
VERTEX
  5
E778
  8
ALPHA
 10
44.639246
 20
24.287156
 30
0.0
  0
VERTEX
  5
E779
  8
ALPHA
 10
44.67365
 20
24.313196
 30
0.0
  0
VERTEX
  5
E77A
  8
ALPHA
 10
44.715135
 20
24.348575
 30
0.0
  0
VERTEX
  5
E77B
  8
ALPHA
 10
44.760064
 20
24.389473
 30
0.0
  0
VERTEX
  5
E77C
  8
ALPHA
 10
44.805754
 20
24.433062
 30
0.0
  0
VERTEX
  5
E77D
  8
ALPHA
 10
44.849578
 20
24.476568
 30
0.0
  0
SEQEND
  5
E77E
  8
ALPHA
  0
ARC
  5
E423
  8
ALPHA
 10
45.515015
 20
22.976568
 30
0.0
 40
0.2
 50
270.0
 51
0.0
  0
LINE
  5
E424
  8
ALPHA
 10
45.915015
 20
22.717989
 30
0.0
 11
45.7082
 21
22.924804
 31
0.0
  0
LINE
  5
E425
  8
ALPHA
 10
45.915015
 20
22.676568
 30
0.0
 11
45.91954
 21
22.676568
 31
0.0
  0
LINE
  5
E426
  8
ALPHA
 10
45.915015
 20
22.676568
 30
0.0
 11
45.915015
 21
24.276568
 31
0.0
  0
LINE
  5
E427
  8
ALPHA
 10
45.715015
 20
24.076568
 30
0.0
 11
45.715015
 21
22.976568
 31
0.0
  0
LINE
  5
E428
  8
ALPHA
 10
45.906442
 20
22.626562
 30
0.0
 11
45.91954
 21
22.676568
 31
0.0
  0
LINE
  5
E429
  8
ALPHA
 10
47.115015
 20
25.170399
 30
0.0
 11
47.100286
 21
25.137626
 31
0.0
  0
POLYLINE
  5
E42A
  8
ALPHA
 66
     1
 10
0.0
 20
0.0
 30
0.0
  0
VERTEX
  5
E77F
  8
ALPHA
 10
47.100286
 20
25.137626
 30
0.0
  0
VERTEX
  5
E780
  8
ALPHA
 10
47.065025
 20
25.089577
 30
0.0
  0
VERTEX
  5
E781
  8
ALPHA
 10
47.017669
 20
25.034193
 30
0.0
  0
VERTEX
  5
E782
  8
ALPHA
 10
46.963672
 20
24.976568
 30
0.0
  0
SEQEND
  5
E783
  8
ALPHA
  0
LINE
  5
E42B
  8
ALPHA
 10
47.315015
 20
25.376568
 30
0.0
 11
47.115015
 21
25.176568
 31
0.0
  0
LINE
  5
E42C
  8
ALPHA
 10
45.715015
 20
24.076568
 30
0.0
 11
45.915015
 21
24.276568
 31
0.0
  0
POLYLINE
  5
E42D
  8
ALPHA
 66
     1
 10
0.0
 20
0.0
 30
0.0
  0
VERTEX
  5
E784
  8
ALPHA
 10
45.919611
 20
24.276568
 30
0.0
  0
VERTEX
  5
E785
  8
ALPHA
 10
45.943663
 20
24.287156
 30
0.0
  0
VERTEX
  5
E786
  8
ALPHA
 10
45.980081
 20
24.313196
 30
0.0
  0
VERTEX
  5
E787
  8
ALPHA
 10
46.022938
 20
24.348575
 30
0.0
  0
VERTEX
  5
E788
  8
ALPHA
 10
46.068669
 20
24.389473
 30
0.0
  0
VERTEX
  5
E789
  8
ALPHA
 10
46.114647
 20
24.433062
 30
0.0
  0
VERTEX
  5
E78A
  8
ALPHA
 10
46.158303
 20
24.476568
 30
0.0
  0
SEQEND
  5
E78B
  8
ALPHA
  0
VIEWPORT
  5
494D
 67
     1
  8
0
 10
4.995325
 20
6.556512
 30
0.0
 40
22.70986
 41
13.988421
 68
    -1
 69
     1
1001
ACAD
1000
MVIEW
1002
{
1070
    16
1010
0.0
1020
0.0
1030
0.0
1010
0.0
1020
0.0
1030
1.0
1040
0.0
1040
13.988421
1040
4.995325
1040
6.556512
1040
50.0
1040
0.0
1040
0.0
1070
     0
1070
   100
1070
     1
1070
     1
1070
     0
1070
     0
1070
     0
1070
     0
1040
0.0
1040
0.0
1040
0.0
1040
10.0
1040
10.0
1040
10.0
1040
10.0
1070
     0
1002
{
1002
}
1002
}
  0
ENDSEC
  0
EOF
