  0
SECTION
  2
HEADER
  9
$ACADVER
  1
AC1009
  9
$INSBASE
 10
402.590624
 20
-1.041018
 30
0.0
  9
$EXTMIN
 10
20.633007
 20
29.228457
 30
0.0
  9
$EXTMAX
 10
117.781088
 20
174.876716
 30
0.0
  9
$LIMMIN
 10
-407.970438
 20
-367.832444
  9
$LIMMAX
 10
429.804077
 20
234.370848
  9
$ORTHOMODE
 70
     1
  9
$REGENMODE
 70
     1
  9
$FILLMODE
 70
     1
  9
$QTEXTMODE
 70
     0
  9
$MIRRTEXT
 70
     1
  9
$DRAGMODE
 70
     2
  9
$LTSCALE
 40
10.0
  9
$OSMODE
 70
    33
  9
$ATTMODE
 70
     1
  9
$TEXTSIZE
 40
6.0
  9
$TRACEWID
 40
1.0
  9
$TEXTSTYLE
  7
ROMANS
  9
$CLAYER
  8
ALPHA
  9
$CELTYPE
  6
BYLAYER
  9
$CECOLOR
 62
   256
  9
$DIMSCALE
 40
1.0
  9
$DIMASZ
 40
5.0
  9
$DIMEXO
 40
2.0
  9
$DIMDLI
 40
0.38
  9
$DIMRND
 40
0.0
  9
$DIMDLE
 40
0.0
  9
$DIMEXE
 40
2.5
  9
$DIMTP
 40
0.0
  9
$DIMTM
 40
0.0
  9
$DIMTXT
 40
2.5
  9
$DIMCEN
 40
0.0
  9
$DIMTSZ
 40
0.0
  9
$DIMTOL
 70
     0
  9
$DIMLIM
 70
     0
  9
$DIMTIH
 70
     1
  9
$DIMTOH
 70
     1
  9
$DIMSE1
 70
     0
  9
$DIMSE2
 70
     0
  9
$DIMTAD
 70
     1
  9
$DIMZIN
 70
    12
  9
$DIMBLK
  1
OPEN30
  9
$DIMASO
 70
     1
  9
$DIMSHO
 70
     1
  9
$DIMPOST
  1

  9
$DIMAPOST
  1

  9
$DIMALT
 70
     0
  9
$DIMALTD
 70
     2
  9
$DIMALTF
 40
25.4
  9
$DIMLFAC
 40
1.0
  9
$DIMTOFL
 70
     0
  9
$DIMTVP
 40
0.0
  9
$DIMTIX
 70
     0
  9
$DIMSOXD
 70
     0
  9
$DIMSAH
 70
     0
  9
$DIMBLK1
  1

  9
$DIMBLK2
  1

  9
$DIMSTYLE
  2
SC_DEFAUT
  9
$DIMCLRD
 70
     0
  9
$DIMCLRE
 70
     0
  9
$DIMCLRT
 70
     0
  9
$DIMTFAC
 40
1.0
  9
$DIMGAP
 40
2.0
  9
$LUNITS
 70
     2
  9
$LUPREC
 70
     1
  9
$SKETCHINC
 40
0.1
  9
$FILLETRAD
 40
0.0
  9
$AUNITS
 70
     0
  9
$AUPREC
 70
     0
  9
$MENU
  1
acad
  9
$ELEVATION
 40
0.0
  9
$PELEVATION
 40
0.0
  9
$THICKNESS
 40
0.0
  9
$LIMCHECK
 70
     0
  9
$BLIPMODE
 70
     0
  9
$CHAMFERA
 40
0.0
  9
$CHAMFERB
 40
0.0
  9
$SKPOLY
 70
     0
  9
$TDCREATE
 40
2450373.687919
  9
$TDUPDATE
 40
2452836.451673
  9
$TDINDWG
 40
1.588427
  9
$TDUSRTIMER
 40
1.588427
  9
$USRTIMER
 70
     1
  9
$ANGBASE
 50
0.0
  9
$ANGDIR
 70
     0
  9
$PDMODE
 70
    32
  9
$PDSIZE
 40
0.0
  9
$PLINEWID
 40
0.0
  9
$COORDS
 70
     1
  9
$SPLFRAME
 70
     0
  9
$SPLINETYPE
 70
     6
  9
$SPLINESEGS
 70
     8
  9
$ATTDIA
 70
     0
  9
$ATTREQ
 70
     1
  9
$HANDLING
 70
     1
  9
$HANDSEED
  5
10DF1
  9
$SURFTAB1
 70
     6
  9
$SURFTAB2
 70
     6
  9
$SURFTYPE
 70
     6
  9
$SURFU
 70
     6
  9
$SURFV
 70
     6
  9
$UCSNAME
  2

  9
$UCSORG
 10
0.0
 20
0.0
 30
0.0
  9
$UCSXDIR
 10
1.0
 20
0.0
 30
0.0
  9
$UCSYDIR
 10
0.0
 20
1.0
 30
0.0
  9
$PUCSNAME
  2

  9
$PUCSORG
 10
0.0
 20
0.0
 30
0.0
  9
$PUCSXDIR
 10
1.0
 20
0.0
 30
0.0
  9
$PUCSYDIR
 10
0.0
 20
1.0
 30
0.0
  9
$USERI1
 70
     0
  9
$USERI2
 70
     0
  9
$USERI3
 70
     0
  9
$USERI4
 70
     0
  9
$USERI5
 70
     0
  9
$USERR1
 40
0.0
  9
$USERR2
 40
0.0
  9
$USERR3
 40
0.0
  9
$USERR4
 40
0.0
  9
$USERR5
 40
0.0
  9
$WORLDVIEW
 70
     1
  9
$SHADEDGE
 70
     3
  9
$SHADEDIF
 70
    70
  9
$TILEMODE
 70
     1
  9
$MAXACTVP
 70
    16
  9
$PLIMCHECK
 70
     0
  9
$PEXTMIN
 10
-1.452248
 20
-0.437698
 30
0.0
  9
$PEXTMAX
 10
12.749749
 20
8.310198
 30
0.0
  9
$PLIMMIN
 10
0.0
 20
0.0
  9
$PLIMMAX
 10
12.0
 20
9.0
  9
$UNITMODE
 70
     0
  9
$VISRETAIN
 70
     0
  9
$PLINEGEN
 70
     0
  9
$PSLTSCALE
 70
     0
  0
ENDSEC
  0
SECTION
  2
TABLES
  0
TABLE
  2
VPORT
 70
     2
  0
VPORT
  2
*ACTIVE
 70
     0
 10
0.0
 20
0.0
 11
1.0
 21
1.0
 12
69.209238
 22
102.046196
 13
0.0
 23
0.0
 14
1.0
 24
1.0
 15
10.0
 25
10.0
 16
0.0
 26
0.0
 36
1.0
 17
0.0
 27
0.0
 37
0.0
 40
146.936887
 41
1.56
 42
50.0
 43
0.0
 44
0.0
 50
0.0
 51
0.0
 71
     0
 72
   100
 73
     1
 74
     0
 75
     0
 76
     0
 77
     0
 78
     0
  0
ENDTAB
  0
TABLE
  2
LTYPE
 70
     3
  0
LTYPE
  2
CONTINUOUS
 70
     0
  3
Solid line
 72
    65
 73
     0
 40
0.0
  0
LTYPE
  2
AXES2
 70
     0
  3
___ _ ___ _ ___ _ ___ _ ___ _ ___ _ ___ _ ___ _
 72
    65
 73
     4
 40
1.125
 49
0.75
 49
-0.125
 49
0.125
 49
-0.125
  0
LTYPE
  2
CACHE2
 70
     0
  3
Caché (x.5) _ _ _ _ _ _ _ _ _ _ _ _ _ _ _ _ _
 72
    65
 73
     2
 40
0.1875
 49
0.125
 49
-0.0625
  0
ENDTAB
  0
TABLE
  2
LAYER
 70
     6
  0
LAYER
  2
0
 70
     0
 62
   255
  6
CONTINUOUS
  0
LAYER
  2
COTATION1
 70
     0
 62
     2
  6
CONTINUOUS
  0
LAYER
  2
AXE
 70
     0
 62
    80
  6
AXES2
  0
LAYER
  2
DEFPOINTS
 70
     0
 62
     7
  6
CONTINUOUS
  0
LAYER
  2
ALPHA
 70
     0
 62
   254
  6
CONTINUOUS
  0
LAYER
  2
POINTILLE_COURT
 70
     0
 62
    41
  6
CACHE2
  0
ENDTAB
  0
TABLE
  2
STYLE
 70
     2
  0
STYLE
  2
ROMANS
 70
     0
 40
0.0
 41
1.0
 50
0.0
 71
     0
 42
6.0
  3
romans
  4

  0
STYLE
  2
STANDARD
 70
     0
 40
0.2
 41
1.0
 50
0.0
 71
     0
 42
0.2
  3
txt
  4

  0
ENDTAB
  0
TABLE
  2
VIEW
 70
     0
  0
ENDTAB
  0
TABLE
  2
UCS
 70
     0
  0
ENDTAB
  0
TABLE
  2
APPID
 70
     1
  0
APPID
  2
ACAD
 70
     0
  0
ENDTAB
  0
TABLE
  2
DIMSTYLE
 70
     1
  0
DIMSTYLE
  2
SC_DEFAUT
 70
     0
  3

  4

  5
OPEN30
  6

  7

 40
1.0
 41
5.0
 42
2.0
 43
0.38
 44
2.5
 45
0.0
 46
0.0
 47
0.0
 48
0.0
140
2.5
141
0.0
142
0.0
143
25.4
144
1.0
145
0.0
146
1.0
147
2.0
 71
     0
 72
     0
 73
     1
 74
     1
 75
     0
 76
     0
 77
     1
 78
    12
170
     0
171
     2
172
     0
173
     0
174
     0
175
     0
176
     0
177
     0
178
     0
  0
ENDTAB
  0
ENDSEC
  0
SECTION
  2
BLOCKS
  0
BLOCK
  8
0
  2
$MODEL_SPACE
 70
     0
 10
0.0
 20
0.0
 30
0.0
  3
$MODEL_SPACE
  1

  0
ENDBLK
  5
10D89
  8
0
  0
BLOCK
 67
     1
  8
0
  2
$PAPER_SPACE
 70
     0
 10
0.0
 20
0.0
 30
0.0
  3
$PAPER_SPACE
  1

  0
ENDBLK
  5
10D87
 67
     1
  8
0
  0
BLOCK
  8
0
  2
COTE
 70
     0
 10
0.0
 20
0.0
 30
0.0
  3
COTE
  1

  0
ENDBLK
  5
F
  8
0
  0
BLOCK
  8
0
  2
FOND
 70
     0
 10
0.0
 20
0.0
 30
0.0
  3
FOND
  1

  0
ENDBLK
  5
75
  8
0
  0
BLOCK
  8
0
  2
_OPEN30
 70
     0
 10
0.0
 20
0.0
 30
0.0
  3
_OPEN30
  1

  0
LINE
  5
4B05
  8
COTATION1
 62
     0
 10
-1.0
 20
0.267949
 30
0.0
 11
0.0
 21
0.0
 31
0.0
1001
ACAD
1000
RTLwPs
1070
   158
  0
LINE
  5
4B06
  8
COTATION1
 62
     0
 10
0.0
 20
0.0
 30
0.0
 11
-1.0
 21
-0.267949
 31
0.0
1001
ACAD
1000
RTLwPs
1070
   158
  0
LINE
  5
4B07
  8
COTATION1
 62
     0
 10
0.0
 20
0.0
 30
0.0
 11
-1.0
 21
0.0
 31
0.0
1001
ACAD
1000
RTLwPs
1070
   158
  0
ENDBLK
  5
4B09
  8
0
  0
BLOCK
  8
0
  2
*D3
 70
     1
 10
0.0
 20
0.0
 30
0.0
  3
*D3
  1

  0
LINE
  5
F48B
  8
COTATION1
 62
     0
 10
45.281088
 20
65.728457
 30
0.0
 11
45.281088
 21
29.228457
 31
0.0
1001
ACAD
1000
RTLwPs
1070
   158
  0
LINE
  5
F48C
  8
COTATION1
 62
     0
 10
75.281088
 20
70.728457
 30
0.0
 11
75.281088
 21
29.228457
 31
0.0
1001
ACAD
1000
RTLwPs
1070
   158
  0
LINE
  5
F48D
  8
COTATION1
 62
     0
 10
50.281088
 20
31.728457
 30
0.0
 11
70.281088
 21
31.728457
 31
0.0
1001
ACAD
1000
RTLwPs
1070
   158
  0
INSERT
  5
F48E
  8
COTATION1
 62
     0
  2
_OPEN30
 10
45.281088
 20
31.728457
 30
0.0
 41
5.0
 42
5.0
 43
5.0
 50
180.0
1001
ACAD
1000
RTLwPs
1070
   158
  0
INSERT
  5
F48F
  8
COTATION1
 62
     0
  2
_OPEN30
 10
75.281088
 20
31.728457
 30
0.0
 41
5.0
 42
5.0
 43
5.0
1001
ACAD
1000
RTLwPs
1070
   158
  0
TEXT
  5
F490
  8
COTATION1
 62
     0
 10
57.900136
 20
33.728457
 30
0.0
 40
2.5
  1
30
1001
ACAD
1000
MTEXTBEGIN
1070
    73
1070
     1
1070
    44
1040
1.0
1070
    74
1070
     0
1000
MTEXTEND
1000
MTEXTBEGIN
1070
    73
1070
     1
1070
    44
1040
1.0
1070
    74
1070
     0
1000
MTEXTEND
1000
MTEXTBEGIN
1070
    73
1070
     1
1070
    44
1040
1.0
1070
    74
1070
     0
1000
MTEXTEND
1000
MTEXTBEGIN
1070
    73
1070
     1
1070
    44
1040
1.0
1070
    74
1070
     0
1000
MTEXTEND
1000
MTEXTBEGIN
1070
    73
1070
     1
1070
    44
1040
1.0
1070
    74
1070
     0
1000
MTEXTEND
  0
POINT
  5
F491
  8
DEFPOINTS
 62
     0
 10
45.281088
 20
67.728457
 30
0.0
  0
POINT
  5
F492
  8
DEFPOINTS
 62
     0
 10
75.281088
 20
72.728457
 30
0.0
  0
POINT
  5
F493
  8
DEFPOINTS
 62
     0
 10
75.281088
 20
31.728457
 30
0.0
  0
ENDBLK
  5
F451
  8
0
  0
BLOCK
  8
0
  2
*D4
 70
     1
 10
0.0
 20
0.0
 30
0.0
  3
*D4
  1

  0
LINE
  5
F479
  8
COTATION1
 62
     0
 10
50.160757
 20
101.228457
 30
0.0
 11
50.160757
 21
39.228457
 31
0.0
1001
ACAD
1000
RTLwPs
1070
   158
  0
LINE
  5
F47A
  8
COTATION1
 62
     0
 10
70.160757
 20
101.228457
 30
0.0
 11
70.160757
 21
39.228457
 31
0.0
1001
ACAD
1000
RTLwPs
1070
   158
  0
LINE
  5
F47B
  8
COTATION1
 62
     0
 10
55.160757
 20
41.728457
 30
0.0
 11
65.160757
 21
41.728457
 31
0.0
1001
ACAD
1000
RTLwPs
1070
   158
  0
INSERT
  5
F47C
  8
COTATION1
 62
     0
  2
_OPEN30
 10
50.160757
 20
41.728457
 30
0.0
 41
5.0
 42
5.0
 43
5.0
 50
180.0
1001
ACAD
1000
RTLwPs
1070
   158
  0
INSERT
  5
F47D
  8
COTATION1
 62
     0
  2
_OPEN30
 10
70.160757
 20
41.728457
 30
0.0
 41
5.0
 42
5.0
 43
5.0
1001
ACAD
1000
RTLwPs
1070
   158
  0
TEXT
  5
F47E
  8
COTATION1
 62
     0
 10
57.779805
 20
43.728457
 30
0.0
 40
2.5
  1
20
1001
ACAD
1000
MTEXTBEGIN
1070
    73
1070
     1
1070
    44
1040
1.0
1070
    74
1070
     0
1000
MTEXTEND
1000
MTEXTBEGIN
1070
    73
1070
     1
1070
    44
1040
1.0
1070
    74
1070
     0
1000
MTEXTEND
1000
MTEXTBEGIN
1070
    73
1070
     1
1070
    44
1040
1.0
1070
    74
1070
     0
1000
MTEXTEND
1000
MTEXTBEGIN
1070
    73
1070
     1
1070
    44
1040
1.0
1070
    74
1070
     0
1000
MTEXTEND
1000
MTEXTBEGIN
1070
    73
1070
     1
1070
    44
1040
1.0
1070
    74
1070
     0
1000
MTEXTEND
  0
POINT
  5
F47F
  8
DEFPOINTS
 62
     0
 10
50.160757
 20
103.228457
 30
0.0
  0
POINT
  5
F480
  8
DEFPOINTS
 62
     0
 10
70.160757
 20
103.228457
 30
0.0
  0
POINT
  5
F481
  8
DEFPOINTS
 62
     0
 10
70.160757
 20
41.728457
 30
0.0
  0
ENDBLK
  5
F45D
  8
0
  0
BLOCK
  8
0
  2
*D5
 70
     1
 10
0.0
 20
0.0
 30
0.0
  3
*D5
  1

  0
LINE
  5
F681
  8
COTATION1
 62
     0
 10
62.160757
 20
117.728457
 30
0.0
 11
107.781088
 21
117.728457
 31
0.0
1001
ACAD
1000
RTLwPs
1070
   158
  0
LINE
  5
F682
  8
COTATION1
 62
     0
 10
72.281088
 20
67.728457
 30
0.0
 11
107.781088
 21
67.728457
 31
0.0
1001
ACAD
1000
RTLwPs
1070
   158
  0
LINE
  5
F683
  8
COTATION1
 62
     0
 10
105.281088
 20
112.728457
 30
0.0
 11
105.281088
 21
95.978457
 31
0.0
1001
ACAD
1000
RTLwPs
1070
   158
  0
LINE
  5
F684
  8
COTATION1
 62
     0
 10
105.281088
 20
72.728457
 30
0.0
 11
105.281088
 21
89.478457
 31
0.0
1001
ACAD
1000
RTLwPs
1070
   158
  0
INSERT
  5
F685
  8
COTATION1
 62
     0
  2
_OPEN30
 10
105.281088
 20
117.728457
 30
0.0
 41
5.0
 42
5.0
 43
5.0
 50
90.0
1001
ACAD
1000
RTLwPs
1070
   158
  0
INSERT
  5
F686
  8
COTATION1
 62
     0
  2
_OPEN30
 10
105.281088
 20
67.728457
 30
0.0
 41
5.0
 42
5.0
 43
5.0
 50
270.0
1001
ACAD
1000
RTLwPs
1070
   158
  0
TEXT
  5
F687
  8
COTATION1
 62
     0
 10
102.900136
 20
91.478457
 30
0.0
 40
2.5
  1
50
1001
ACAD
1000
MTEXTBEGIN
1070
    73
1070
     1
1070
    44
1040
1.0
1070
    74
1070
     0
1000
MTEXTEND
1000
MTEXTBEGIN
1070
    73
1070
     1
1070
    44
1040
1.0
1070
    74
1070
     0
1000
MTEXTEND
1000
MTEXTBEGIN
1070
    73
1070
     1
1070
    44
1040
1.0
1070
    74
1070
     0
1000
MTEXTEND
1000
MTEXTBEGIN
1070
    73
1070
     1
1070
    44
1040
1.0
1070
    74
1070
     0
1000
MTEXTEND
1000
MTEXTBEGIN
1070
    73
1070
     1
1070
    44
1040
1.0
1070
    74
1070
     0
1000
MTEXTEND
  0
POINT
  5
F688
  8
DEFPOINTS
 62
     0
 10
60.160757
 20
117.728457
 30
0.0
  0
POINT
  5
F689
  8
DEFPOINTS
 62
     0
 10
70.281088
 20
67.728457
 30
0.0
  0
POINT
  5
F68A
  8
DEFPOINTS
 62
     0
 10
105.281088
 20
67.728457
 30
0.0
  0
ENDBLK
  5
F4A4
  8
0
  0
BLOCK
  8
0
  2
*D6
 70
     1
 10
0.0
 20
0.0
 30
0.0
  3
*D6
  1

  0
LINE
  5
F65F
  8
COTATION1
 62
     0
 10
76.660757
 20
107.728457
 30
0.0
 11
97.781088
 21
107.728457
 31
0.0
1001
ACAD
1000
RTLwPs
1070
   158
  0
LINE
  5
F660
  8
COTATION1
 62
     0
 10
72.281088
 20
67.728457
 30
0.0
 11
97.781088
 21
67.728457
 31
0.0
1001
ACAD
1000
RTLwPs
1070
   158
  0
LINE
  5
F661
  8
COTATION1
 62
     0
 10
95.281088
 20
102.728457
 30
0.0
 11
95.281088
 21
90.978457
 31
0.0
1001
ACAD
1000
RTLwPs
1070
   158
  0
LINE
  5
F662
  8
COTATION1
 62
     0
 10
95.281088
 20
72.728457
 30
0.0
 11
95.281088
 21
84.478457
 31
0.0
1001
ACAD
1000
RTLwPs
1070
   158
  0
INSERT
  5
F663
  8
COTATION1
 62
     0
  2
_OPEN30
 10
95.281088
 20
107.728457
 30
0.0
 41
5.0
 42
5.0
 43
5.0
 50
90.0
1001
ACAD
1000
RTLwPs
1070
   158
  0
INSERT
  5
F664
  8
COTATION1
 62
     0
  2
_OPEN30
 10
95.281088
 20
67.728457
 30
0.0
 41
5.0
 42
5.0
 43
5.0
 50
270.0
1001
ACAD
1000
RTLwPs
1070
   158
  0
TEXT
  5
F665
  8
COTATION1
 62
     0
 10
92.900136
 20
86.478457
 30
0.0
 40
2.5
  1
40
1001
ACAD
1000
MTEXTBEGIN
1070
    73
1070
     1
1070
    44
1040
1.0
1070
    74
1070
     0
1000
MTEXTEND
1000
MTEXTBEGIN
1070
    73
1070
     1
1070
    44
1040
1.0
1070
    74
1070
     0
1000
MTEXTEND
1000
MTEXTBEGIN
1070
    73
1070
     1
1070
    44
1040
1.0
1070
    74
1070
     0
1000
MTEXTEND
1000
MTEXTBEGIN
1070
    73
1070
     1
1070
    44
1040
1.0
1070
    74
1070
     0
1000
MTEXTEND
1000
MTEXTBEGIN
1070
    73
1070
     1
1070
    44
1040
1.0
1070
    74
1070
     0
1000
MTEXTEND
  0
POINT
  5
F666
  8
DEFPOINTS
 62
     0
 10
74.660757
 20
107.728457
 30
0.0
  0
POINT
  5
F667
  8
DEFPOINTS
 62
     0
 10
70.281088
 20
67.728457
 30
0.0
  0
POINT
  5
F668
  8
DEFPOINTS
 62
     0
 10
95.281088
 20
67.728457
 30
0.0
  0
ENDBLK
  5
F4B1
  8
0
  0
BLOCK
  8
0
  2
*D7
 70
     1
 10
0.0
 20
0.0
 30
0.0
  3
*D7
  1

  0
LINE
  5
F559
  8
COTATION1
 62
     0
 10
32.267009
 20
115.461517
 30
0.0
 11
38.314628
 21
115.461517
 31
0.0
1001
ACAD
1000
RTLwPs
1070
   158
  0
LINE
  5
F55A
  8
COTATION1
 62
     0
 10
38.314628
 20
115.461517
 30
0.0
 11
44.299141
 21
111.554873
 31
0.0
1001
ACAD
1000
RTLwPs
1070
   158
  0
TEXT
  5
F55B
  8
COTATION1
 62
     0
 10
32.028913
 20
117.461517
 30
0.0
 40
2.5
  1
%%c4
1001
ACAD
1000
MTEXTBEGIN
1070
    73
1070
     1
1070
    44
1040
1.0
1070
    74
1070
     0
1000
MTEXTEND
1000
MTEXTBEGIN
1070
    73
1070
     1
1070
    44
1040
1.0
1070
    74
1070
     0
1000
MTEXTEND
1000
MTEXTBEGIN
1070
    73
1070
     1
1070
    44
1040
1.0
1070
    74
1070
     0
1000
MTEXTEND
1000
MTEXTBEGIN
1070
    73
1070
     1
1070
    44
1040
1.0
1070
    74
1070
     0
1000
MTEXTEND
1000
MTEXTBEGIN
1070
    73
1070
     1
1070
    44
1040
1.0
1070
    74
1070
     0
1000
MTEXTEND
  0
INSERT
  5
F55C
  8
COTATION1
 62
     0
  2
_OPEN30
 10
48.48601
 20
108.821719
 30
0.0
 41
5.0
 42
5.0
 43
5.0
 50
326.863815
1001
ACAD
1000
RTLwPs
1070
   158
  0
POINT
  5
F55D
  8
DEFPOINTS
 62
     0
 10
48.48601
 20
108.821719
 30
0.0
  0
POINT
  5
F55E
  8
DEFPOINTS
 62
     0
 10
51.835504
 20
106.635195
 30
0.0
  0
ENDBLK
  5
F558
  8
0
  0
BLOCK
  8
0
  2
*D8
 70
     1
 10
0.0
 20
0.0
 30
0.0
  3
*D8
  1

  0
LINE
  5
10BDB
  8
COTATION1
 62
     0
 10
58.160757
 20
161.728457
 30
0.0
 11
20.633007
 21
161.728457
 31
0.0
1001
ACAD
1000
RTLwPs
1070
   158
  0
LINE
  5
10BDC
  8
COTATION1
 62
     0
 10
43.660757
 20
107.728457
 30
0.0
 11
20.633007
 21
107.728457
 31
0.0
1001
ACAD
1000
RTLwPs
1070
   158
  0
LINE
  5
10BDD
  8
COTATION1
 62
     0
 10
23.133007
 20
156.728457
 30
0.0
 11
23.133007
 21
137.978457
 31
0.0
1001
ACAD
1000
RTLwPs
1070
   158
  0
LINE
  5
10BDE
  8
COTATION1
 62
     0
 10
23.133007
 20
112.728457
 30
0.0
 11
23.133007
 21
131.478457
 31
0.0
1001
ACAD
1000
RTLwPs
1070
   158
  0
INSERT
  5
10BDF
  8
COTATION1
 62
     0
  2
_OPEN30
 10
23.133007
 20
161.728457
 30
0.0
 41
5.0
 42
5.0
 43
5.0
 50
90.0
1001
ACAD
1000
RTLwPs
1070
   158
  0
INSERT
  5
10BE0
  8
COTATION1
 62
     0
  2
_OPEN30
 10
23.133007
 20
107.728457
 30
0.0
 41
5.0
 42
5.0
 43
5.0
 50
270.0
1001
ACAD
1000
RTLwPs
1070
   158
  0
TEXT
  5
10BE1
  8
COTATION1
 62
     0
 10
20.692531
 20
133.478457
 30
0.0
 40
2.5
  1
54
1001
ACAD
1000
MTEXTBEGIN
1070
    73
1070
     1
1070
    44
1040
1.0
1070
    74
1070
     0
1000
MTEXTEND
  0
POINT
  5
10BE2
  8
DEFPOINTS
 62
     0
 10
60.160757
 20
161.728457
 30
0.0
  0
POINT
  5
10BE3
  8
DEFPOINTS
 62
     0
 10
45.660757
 20
107.728457
 30
0.0
  0
POINT
  5
10BE4
  8
DEFPOINTS
 62
     0
 10
23.133007
 20
107.728457
 30
0.0
  0
ENDBLK
  5
F635
  8
0
  0
BLOCK
  8
0
  2
*D9
 70
     1
 10
0.0
 20
0.0
 30
0.0
  3
*D9
  1

  0
LINE
  5
10B20
  8
COTATION1
 62
     0
 10
62.160757
 20
161.728457
 30
0.0
 11
117.781088
 21
161.728457
 31
0.0
1001
ACAD
1000
RTLwPs
1070
   158
  0
LINE
  5
10B21
  8
COTATION1
 62
     0
 10
72.281088
 20
67.728457
 30
0.0
 11
117.781088
 21
67.728457
 31
0.0
1001
ACAD
1000
RTLwPs
1070
   158
  0
LINE
  5
10B22
  8
COTATION1
 62
     0
 10
115.281088
 20
156.728457
 30
0.0
 11
115.281088
 21
117.978457
 31
0.0
1001
ACAD
1000
RTLwPs
1070
   158
  0
LINE
  5
10B23
  8
COTATION1
 62
     0
 10
115.281088
 20
72.728457
 30
0.0
 11
115.281088
 21
111.478457
 31
0.0
1001
ACAD
1000
RTLwPs
1070
   158
  0
INSERT
  5
10B24
  8
COTATION1
 62
     0
  2
_OPEN30
 10
115.281088
 20
161.728457
 30
0.0
 41
5.0
 42
5.0
 43
5.0
 50
90.0
1001
ACAD
1000
RTLwPs
1070
   158
  0
INSERT
  5
10B25
  8
COTATION1
 62
     0
  2
_OPEN30
 10
115.281088
 20
67.728457
 30
0.0
 41
5.0
 42
5.0
 43
5.0
 50
270.0
1001
ACAD
1000
RTLwPs
1070
   158
  0
TEXT
  5
10B26
  8
COTATION1
 62
     0
 10
112.840612
 20
113.478457
 30
0.0
 40
2.5
  1
94
1001
ACAD
1000
MTEXTBEGIN
1070
    73
1070
     1
1070
    44
1040
1.0
1070
    74
1070
     0
1000
MTEXTEND
  0
POINT
  5
10B27
  8
DEFPOINTS
 62
     0
 10
60.160757
 20
161.728457
 30
0.0
  0
POINT
  5
10B28
  8
DEFPOINTS
 62
     0
 10
70.281088
 20
67.728457
 30
0.0
  0
POINT
  5
10B29
  8
DEFPOINTS
 62
     0
 10
115.281088
 20
67.728457
 30
0.0
  0
ENDBLK
  5
F676
  8
0
  0
BLOCK
  8
0
  2
*D10
 70
     1
 10
0.0
 20
0.0
 30
0.0
  3
*D10
  1

  0
LINE
  5
10B3E
  8
COTATION1
 62
     0
 10
82.08375
 20
170.376716
 30
0.0
 11
73.774226
 21
170.376716
 31
0.0
1001
ACAD
1000
RTLwPs
1070
   158
  0
LINE
  5
10B3F
  8
COTATION1
 62
     0
 10
73.774226
 20
170.376716
 30
0.0
 11
68.390011
 21
163.792223
 31
0.0
1001
ACAD
1000
RTLwPs
1070
   158
  0
TEXT
  5
10B40
  8
COTATION1
 62
     0
 10
75.536131
 20
172.376716
 30
0.0
 40
2.5
  1
%%c16
1001
ACAD
1000
MTEXTBEGIN
1070
    73
1070
     1
1070
    44
1040
1.0
1070
    74
1070
     0
1000
MTEXTEND
  0
INSERT
  5
10B41
  8
COTATION1
 62
     0
  2
_OPEN30
 10
65.224913
 20
159.921544
 30
0.0
 41
5.0
 42
5.0
 43
5.0
 50
230.726747
1001
ACAD
1000
RTLwPs
1070
   158
  0
POINT
  5
10B42
  8
DEFPOINTS
 62
     0
 10
65.224913
 20
159.921544
 30
0.0
  0
POINT
  5
10B43
  8
DEFPOINTS
 62
     0
 10
55.096601
 20
147.535371
 30
0.0
  0
ENDBLK
  5
10B3D
  8
0
  0
BLOCK
  8
0
  2
*D11
 70
     1
 10
0.0
 20
0.0
 30
0.0
  3
*D11
  1

  0
LINE
  5
10BBC
  8
COTATION1
 62
     0
 10
62.160757
 20
161.728457
 30
0.0
 11
97.781088
 21
161.728457
 31
0.0
1001
ACAD
1000
RTLwPs
1070
   158
  0
LINE
  5
10BBD
  8
COTATION1
 62
     0
 10
72.668235
 20
127.328457
 30
0.0
 11
97.781088
 21
127.328457
 31
0.0
1001
ACAD
1000
RTLwPs
1070
   158
  0
LINE
  5
10BBE
  8
COTATION1
 62
     0
 10
95.281088
 20
156.728457
 30
0.0
 11
95.281088
 21
147.778457
 31
0.0
1001
ACAD
1000
RTLwPs
1070
   158
  0
LINE
  5
10BBF
  8
COTATION1
 62
     0
 10
95.281088
 20
132.328457
 30
0.0
 11
95.281088
 21
141.278457
 31
0.0
1001
ACAD
1000
RTLwPs
1070
   158
  0
INSERT
  5
10BC0
  8
COTATION1
 62
     0
  2
_OPEN30
 10
95.281088
 20
161.728457
 30
0.0
 41
5.0
 42
5.0
 43
5.0
 50
90.0
1001
ACAD
1000
RTLwPs
1070
   158
  0
INSERT
  5
10BC1
  8
COTATION1
 62
     0
  2
_OPEN30
 10
95.281088
 20
127.328457
 30
0.0
 41
5.0
 42
5.0
 43
5.0
 50
270.0
1001
ACAD
1000
RTLwPs
1070
   158
  0
TEXT
  5
10BC2
  8
COTATION1
 62
     0
 10
91.054898
 20
143.278457
 30
0.0
 40
2.5
  1
34.4
1001
ACAD
1000
MTEXTBEGIN
1070
    73
1070
     1
1070
    44
1040
1.0
1070
    74
1070
     0
1000
MTEXTEND
  0
POINT
  5
10BC3
  8
DEFPOINTS
 62
     0
 10
60.160757
 20
161.728457
 30
0.0
  0
POINT
  5
10BC4
  8
DEFPOINTS
 62
     0
 10
70.668235
 20
127.328457
 30
0.0
  0
POINT
  5
10BC5
  8
DEFPOINTS
 62
     0
 10
95.281088
 20
127.328457
 30
0.0
  0
ENDBLK
  5
10BA7
  8
0
  0
ENDSEC
  0
SECTION
  2
ENTITIES
  0
INSERT
  5
A
  8
0
  2
COTE
 10
0.0
 20
0.0
 30
0.0
  0
INSERT
  5
17
  8
0
  2
COTE
 10
284.010391
 20
6.373258
 30
0.0
  0
INSERT
  5
72
  8
0
  2
FOND
 10
0.0
 20
0.0
 30
0.0
  0
LINE
  5
F22C
  8
ALPHA
 10
45.281088
 20
67.728457
 30
0.0
 11
70.281088
 21
67.728457
 31
0.0
  0
LINE
  5
F264
  8
ALPHA
 10
45.281088
 20
67.728457
 30
0.0
 11
45.281088
 21
115.728457
 31
0.0
  0
LINE
  5
F265
  8
ALPHA
 10
75.281088
 20
72.728457
 30
0.0
 11
75.281088
 21
115.728457
 31
0.0
  0
LINE
  5
F266
  8
ALPHA
 10
45.281088
 20
100.728457
 30
0.0
 11
75.281088
 21
100.728457
 31
0.0
  0
ARC
  5
F2D2
  8
ALPHA
 10
60.281088
 20
60.482077
 30
0.0
 40
57.246507
 50
74.809764
 51
105.190236
  0
LINE
  5
F2D5
  8
ALPHA
 10
48.848969
 20
114.13195
 30
0.0
 11
48.718742
 21
113.400431
 31
0.0
  0
LINE
  5
F2D6
  8
ALPHA
 10
47.662588
 20
113.394199
 30
0.0
 11
47.54233
 21
114.123851
 31
0.0
  0
LINE
  5
F2D7
  8
ALPHA
 10
47.54233
 20
114.123851
 30
0.0
 11
48.193468
 21
113.783013
 31
0.0
  0
CIRCLE
  5
F2D8
  8
ALPHA
 10
48.160757
 20
113.228457
 30
0.0
 40
1.549961
  0
LINE
  5
F2D9
  8
ALPHA
 10
48.193468
 20
113.783013
 30
0.0
 11
48.848969
 21
114.13195
 31
0.0
  0
LINE
  5
F2DA
  8
ALPHA
 10
49.245882
 20
112.886375
 30
0.0
 11
48.513742
 21
112.773594
 31
0.0
  0
LINE
  5
F2DB
  8
ALPHA
 10
48.182877
 20
112.108124
 30
0.0
 11
47.858863
 21
112.769854
 31
0.0
  0
LINE
  5
F2DC
  8
ALPHA
 10
47.858863
 20
112.769854
 30
0.0
 11
47.129215
 21
112.872043
 31
0.0
  0
LINE
  5
F2DD
  8
ALPHA
 10
47.129215
 20
112.872043
 30
0.0
 11
47.662588
 21
113.394199
 31
0.0
  0
LINE
  5
F2DE
  8
ALPHA
 10
48.513742
 20
112.773594
 30
0.0
 11
48.182877
 21
112.108124
 31
0.0
  0
LINE
  5
F2DF
  8
ALPHA
 10
48.718742
 20
113.400431
 30
0.0
 11
49.245882
 21
112.886375
 31
0.0
  0
CIRCLE
  5
F2E1
  8
POINTILLE_COURT
 10
50.160757
 20
107.728457
 30
0.0
 40
2.0
  0
LINE
  5
F2E2
  8
AXE
 10
50.160757
 20
103.228457
 30
0.0
 11
50.160757
 21
112.228457
 31
0.0
  0
LINE
  5
F2E3
  8
AXE
 10
45.660757
 20
107.728457
 30
0.0
 11
54.660757
 21
107.728457
 31
0.0
  0
LINE
  5
F2F7
  8
ALPHA
 10
56.660757
 20
70.028457
 30
0.0
 11
60.160757
 21
70.028457
 31
0.0
  0
LINE
  5
F2F8
  8
ALPHA
 10
56.660757
 20
72.028457
 30
0.0
 11
60.160757
 21
72.028457
 31
0.0
  0
ARC
  5
F2FA
  8
ALPHA
 10
56.660757
 20
71.028457
 30
0.0
 40
1.0
 50
90.0
 51
270.0
  0
LINE
  5
F2FB
  8
ALPHA
 10
63.660757
 20
70.028457
 30
0.0
 11
60.160757
 21
70.028457
 31
0.0
  0
LINE
  5
F2FC
  8
ALPHA
 10
63.660757
 20
72.028457
 30
0.0
 11
60.160757
 21
72.028457
 31
0.0
  0
ARC
  5
F2FD
  8
ALPHA
 10
63.660757
 20
71.028457
 30
0.0
 40
1.0
 50
270.0
 51
90.0
  0
CIRCLE
  5
F362
  8
POINTILLE_COURT
 10
70.160757
 20
107.728457
 30
0.0
 40
2.0
  0
LINE
  5
F363
  8
AXE
 10
70.160757
 20
103.228457
 30
0.0
 11
70.160757
 21
112.228457
 31
0.0
  0
LINE
  5
F364
  8
AXE
 10
74.660757
 20
107.728457
 30
0.0
 11
65.660757
 21
107.728457
 31
0.0
  0
LINE
  5
F365
  8
ALPHA
 10
71.602772
 20
113.400431
 30
0.0
 11
71.075632
 21
112.886375
 31
0.0
  0
LINE
  5
F366
  8
ALPHA
 10
71.807772
 20
112.773594
 30
0.0
 11
72.138637
 21
112.108124
 31
0.0
  0
LINE
  5
F367
  8
ALPHA
 10
73.192299
 20
112.872043
 30
0.0
 11
72.658926
 21
113.394199
 31
0.0
  0
LINE
  5
F368
  8
ALPHA
 10
72.462651
 20
112.769854
 30
0.0
 11
73.192299
 21
112.872043
 31
0.0
  0
LINE
  5
F369
  8
ALPHA
 10
72.138637
 20
112.108124
 30
0.0
 11
72.462651
 21
112.769854
 31
0.0
  0
LINE
  5
F36A
  8
ALPHA
 10
71.075632
 20
112.886375
 30
0.0
 11
71.807772
 21
112.773594
 31
0.0
  0
LINE
  5
F36B
  8
ALPHA
 10
72.128046
 20
113.783013
 30
0.0
 11
71.472545
 21
114.13195
 31
0.0
  0
CIRCLE
  5
F36C
  8
ALPHA
 10
72.160757
 20
113.228457
 30
0.0
 40
1.549961
  0
LINE
  5
F36D
  8
ALPHA
 10
72.779184
 20
114.123851
 30
0.0
 11
72.128046
 21
113.783013
 31
0.0
  0
LINE
  5
F36E
  8
ALPHA
 10
72.658926
 20
113.394199
 30
0.0
 11
72.779184
 21
114.123851
 31
0.0
  0
LINE
  5
F36F
  8
ALPHA
 10
71.472545
 20
114.13195
 30
0.0
 11
71.602772
 21
113.400431
 31
0.0
  0
ARC
  5
F3D4
  8
ALPHA
 10
70.281088
 20
72.728457
 30
0.0
 40
5.0
 50
270.0
 51
0.0
  0
LINE
  5
F3D6
  8
AXE
 10
83.034136
 20
62.803836
 30
0.0
 11
75.963069
 21
55.732768
 31
0.0
  0
ARC
  5
F3D7
  8
ALPHA
 10
51.943649
 20
48.960437
 30
0.0
 40
26.27482
 50
17.344588
 51
45.586396
  0
ARC
  5
F3D8
  8
ALPHA
 10
56.893396
 20
53.910184
 30
0.0
 40
26.27482
 50
17.344588
 51
45.588038
  0
LINE
  5
F43E
  8
AXE
 10
60.160757
 20
166.728457
 30
0.0
 11
60.160757
 21
51.728457
 31
0.0
  0
TEXT
  5
F43F
  8
AXE
 10
52.684567
 20
51.728457
 30
0.0
 40
8.0
  1
Y
 72
     2
 11
59.160757
 21
51.728457
 31
0.0
  0
LINE
  5
F441
  8
AXE
 10
40.281088
 20
92.728457
 30
0.0
 11
87.781088
 21
92.728457
 31
0.0
  0
TEXT
  5
F442
  8
AXE
 10
81.304898
 20
93.728457
 30
0.0
 40
8.0
  1
X
 72
     2
 11
87.781088
 21
93.728457
 31
0.0
  0
DIMENSION
  5
F444
  8
COTATION1
  2
*D4
 10
70.160757
 20
41.728457
 30
0.0
 11
60.160757
 21
44.978457
 31
0.0
 13
50.160757
 23
103.228457
 33
0.0
 14
70.160757
 24
103.228457
 34
0.0
  0
DIMENSION
  5
F445
  8
COTATION1
  2
*D3
 10
75.281088
 20
31.728457
 30
0.0
 11
60.281088
 21
34.978457
 31
0.0
 13
45.281088
 23
67.728457
 33
0.0
 14
75.281088
 24
72.728457
 34
0.0
  0
DIMENSION
  5
F494
  8
COTATION1
  2
*D6
 10
95.281088
 20
67.728457
 30
0.0
 11
95.281088
 21
87.728457
 31
0.0
 13
74.660757
 23
107.728457
 33
0.0
 14
70.281088
 24
67.728457
 34
0.0
 50
90.0
  0
DIMENSION
  5
F495
  8
COTATION1
  2
*D5
 10
105.281088
 20
67.728457
 30
0.0
 11
105.281088
 21
92.728457
 31
0.0
 13
60.160757
 23
117.728457
 33
0.0
 14
70.281088
 24
67.728457
 34
0.0
 50
90.0
  0
DIMENSION
  5
F54F
  8
COTATION1
  2
*D7
 10
51.835504
 20
106.635195
 30
0.0
 11
34.290818
 21
115.461517
 31
0.0
 70
   131
 15
48.48601
 25
108.821719
 35
0.0
 40
0.0
  0
DIMENSION
  5
F628
  8
COTATION1
  2
*D8
 10
23.133007
 20
107.728457
 30
0.0
 11
23.133007
 21
134.728457
 31
0.0
 70
   128
 13
60.160757
 23
161.728457
 33
0.0
 14
45.660757
 24
107.728457
 34
0.0
 50
90.0
  0
DIMENSION
  5
F669
  8
COTATION1
  2
*D9
 10
115.281088
 20
67.728457
 30
0.0
 11
115.281088
 21
114.728457
 31
0.0
 13
60.160757
 23
161.728457
 33
0.0
 14
70.281088
 24
67.728457
 34
0.0
 50
90.0
  0
POLYLINE
  5
10873
  8
ALPHA
 66
     1
 10
0.0
 20
0.0
 30
0.0
 70
   128
  0
VERTEX
  5
10D8F
  8
ALPHA
 10
68.16761
 20
132.977679
 30
0.0
  0
VERTEX
  5
10D90
  8
ALPHA
 10
68.16761
 20
132.800294
 30
0.0
  0
VERTEX
  5
10D91
  8
ALPHA
 10
68.16761
 20
132.29899
 30
0.0
  0
VERTEX
  5
10D92
  8
ALPHA
 10
68.16761
 20
131.52004
 30
0.0
  0
VERTEX
  5
10D93
  8
ALPHA
 10
68.16761
 20
130.50972
 30
0.0
  0
VERTEX
  5
10D94
  8
ALPHA
 10
68.16761
 20
127.980062
 30
0.0
  0
VERTEX
  5
10D95
  8
ALPHA
 10
68.16761
 20
125.08021
 30
0.0
  0
VERTEX
  5
10D96
  8
ALPHA
 10
68.16761
 20
122.180358
 30
0.0
  0
VERTEX
  5
10D97
  8
ALPHA
 10
68.16761
 20
119.6507
 30
0.0
  0
VERTEX
  5
10D98
  8
ALPHA
 10
68.16761
 20
118.640379
 30
0.0
  0
VERTEX
  5
10D99
  8
ALPHA
 10
68.16761
 20
117.86143
 30
0.0
  0
VERTEX
  5
10D9A
  8
ALPHA
 10
68.16761
 20
117.360125
 30
0.0
  0
VERTEX
  5
10D9B
  8
ALPHA
 10
68.16761
 20
117.182741
 30
0.0
  0
SEQEND
  5
10D9C
  8
ALPHA
  0
POLYLINE
  5
10874
  8
ALPHA
 66
     1
 10
0.0
 20
0.0
 30
0.0
 70
   129
  0
VERTEX
  5
10D9D
  8
ALPHA
 10
60.163249
 20
126.899797
 30
0.0
  0
VERTEX
  5
10D9E
  8
ALPHA
 10
60.243384
 20
126.908009
 30
0.0
  0
VERTEX
  5
10D9F
  8
ALPHA
 10
60.320532
 20
126.931418
 30
0.0
  0
VERTEX
  5
10DA0
  8
ALPHA
 10
60.391906
 20
126.969177
 30
0.0
  0
VERTEX
  5
10DA1
  8
ALPHA
 10
60.454926
 20
127.019921
 30
0.0
  0
VERTEX
  5
10DA2
  8
ALPHA
 10
60.507313
 20
127.081816
 30
0.0
  0
VERTEX
  5
10DA3
  8
ALPHA
 10
60.547175
 20
127.152626
 30
0.0
  0
VERTEX
  5
10DA4
  8
ALPHA
 10
60.573071
 20
127.22979
 30
0.0
  0
VERTEX
  5
10DA5
  8
ALPHA
 10
60.584064
 20
127.310521
 30
0.0
  0
VERTEX
  5
10DA6
  8
ALPHA
 10
60.579759
 20
127.3919
 30
0.0
  0
VERTEX
  5
10DA7
  8
ALPHA
 10
60.560309
 20
127.470986
 30
0.0
  0
VERTEX
  5
10DA8
  8
ALPHA
 10
60.526419
 20
127.544921
 30
0.0
  0
VERTEX
  5
10DA9
  8
ALPHA
 10
60.479312
 20
127.611032
 30
0.0
  0
VERTEX
  5
10DAA
  8
ALPHA
 10
60.420693
 20
127.66693
 30
0.0
  0
VERTEX
  5
10DAB
  8
ALPHA
 10
60.352678
 20
127.710594
 30
0.0
  0
VERTEX
  5
10DAC
  8
ALPHA
 10
60.277727
 20
127.740448
 30
0.0
  0
VERTEX
  5
10DAD
  8
ALPHA
 10
60.198548
 20
127.755411
 30
0.0
  0
VERTEX
  5
10DAE
  8
ALPHA
 10
60.118004
 20
127.754942
 30
0.0
  0
VERTEX
  5
10DAF
  8
ALPHA
 10
60.039004
 20
127.73906
 30
0.0
  0
VERTEX
  5
10DB0
  8
ALPHA
 10
59.964406
 20
127.708337
 30
0.0
  0
VERTEX
  5
10DB1
  8
ALPHA
 10
59.896903
 20
127.663884
 30
0.0
  0
VERTEX
  5
10DB2
  8
ALPHA
 10
59.838937
 20
127.607309
 30
0.0
  0
VERTEX
  5
10DB3
  8
ALPHA
 10
59.792603
 20
127.540654
 30
0.0
  0
VERTEX
  5
10DB4
  8
ALPHA
 10
59.759575
 20
127.466331
 30
0.0
  0
VERTEX
  5
10DB5
  8
ALPHA
 10
59.741046
 20
127.387024
 30
0.0
  0
VERTEX
  5
10DB6
  8
ALPHA
 10
59.737687
 20
127.3056
 30
0.0
  0
VERTEX
  5
10DB7
  8
ALPHA
 10
59.749618
 20
127.225003
 30
0.0
  0
VERTEX
  5
10DB8
  8
ALPHA
 10
59.77641
 20
127.148145
 30
0.0
  0
VERTEX
  5
10DB9
  8
ALPHA
 10
59.817092
 20
127.077803
 30
0.0
  0
VERTEX
  5
10DBA
  8
ALPHA
 10
59.870196
 20
127.016521
 30
0.0
  0
VERTEX
  5
10DBB
  8
ALPHA
 10
59.933801
 20
126.966513
 30
0.0
  0
VERTEX
  5
10DBC
  8
ALPHA
 10
60.005609
 20
126.929587
 30
0.0
  0
VERTEX
  5
10DBD
  8
ALPHA
 10
60.083024
 20
126.907077
 30
0.0
  0
SEQEND
  5
10DBE
  8
ALPHA
  0
POLYLINE
  5
10875
  8
ALPHA
 66
     1
 10
0.0
 20
0.0
 30
0.0
 70
   128
  0
VERTEX
  5
10DBF
  8
ALPHA
 10
52.168854
 20
117.150888
 30
0.0
  0
VERTEX
  5
10DC0
  8
ALPHA
 10
52.168854
 20
117.328631
 30
0.0
  0
VERTEX
  5
10DC1
  8
ALPHA
 10
52.168854
 20
117.830946
 30
0.0
  0
VERTEX
  5
10DC2
  8
ALPHA
 10
52.168854
 20
118.611466
 30
0.0
  0
VERTEX
  5
10DC3
  8
ALPHA
 10
52.168854
 20
119.623824
 30
0.0
  0
VERTEX
  5
10DC4
  8
ALPHA
 10
52.168854
 20
122.158584
 30
0.0
  0
VERTEX
  5
10DC5
  8
ALPHA
 10
52.168854
 20
125.064283
 30
0.0
  0
VERTEX
  5
10DC6
  8
ALPHA
 10
52.168854
 20
127.969983
 30
0.0
  0
VERTEX
  5
10DC7
  8
ALPHA
 10
52.168854
 20
130.504743
 30
0.0
  0
VERTEX
  5
10DC8
  8
ALPHA
 10
52.168854
 20
131.517101
 30
0.0
  0
VERTEX
  5
10DC9
  8
ALPHA
 10
52.168854
 20
132.297621
 30
0.0
  0
VERTEX
  5
10DCA
  8
ALPHA
 10
52.168854
 20
132.799936
 30
0.0
  0
VERTEX
  5
10DCB
  8
ALPHA
 10
52.168854
 20
132.977679
 30
0.0
  0
SEQEND
  5
10DCC
  8
ALPHA
  0
LINE
  5
10877
  8
ALPHA
 10
52.168854
 20
132.977679
 30
0.0
 11
52.559911
 21
134.171602
 31
0.0
  0
POLYLINE
  5
10879
  8
ALPHA
 66
     1
 10
0.0
 20
0.0
 30
0.0
 70
   128
  0
VERTEX
  5
10DCD
  8
ALPHA
 10
66.904239
 20
149.424337
 30
0.0
  0
VERTEX
  5
10DCE
  8
ALPHA
 10
67.066258
 20
146.578068
 30
0.0
  0
VERTEX
  5
10DCF
  8
ALPHA
 10
67.249415
 20
143.360437
 30
0.0
  0
VERTEX
  5
10DD0
  8
ALPHA
 10
67.633469
 20
136.613556
 30
0.0
  0
VERTEX
  5
10DD1
  8
ALPHA
 10
67.811526
 20
133.485537
 30
0.0
  0
VERTEX
  5
10DD2
  8
ALPHA
 10
67.965043
 20
130.788621
 30
0.0
  0
VERTEX
  5
10DD3
  8
ALPHA
 10
68.082601
 20
128.723424
 30
0.0
  0
VERTEX
  5
10DD4
  8
ALPHA
 10
68.124326
 20
127.990412
 30
0.0
  0
VERTEX
  5
10DD5
  8
ALPHA
 10
68.152779
 20
127.490561
 30
0.0
  0
VERTEX
  5
10DD6
  8
ALPHA
 10
68.166533
 20
127.248948
 30
0.0
  0
VERTEX
  5
10DD7
  8
ALPHA
 10
68.159617
 20
126.869237
 30
0.0
  0
VERTEX
  5
10DD8
  8
ALPHA
 10
68.034044
 20
125.766756
 30
0.0
  0
VERTEX
  5
10DD9
  8
ALPHA
 10
67.360165
 20
123.723959
 30
0.0
  0
VERTEX
  5
10DDA
  8
ALPHA
 10
66.191949
 20
121.966688
 30
0.0
  0
VERTEX
  5
10DDB
  8
ALPHA
 10
64.612567
 20
120.578114
 30
0.0
  0
VERTEX
  5
10DDC
  8
ALPHA
 10
62.705186
 20
119.641404
 30
0.0
  0
VERTEX
  5
10DDD
  8
ALPHA
 10
60.552976
 20
119.239728
 30
0.0
  0
VERTEX
  5
10DDE
  8
ALPHA
 10
58.340275
 20
119.440416
 30
0.0
  0
VERTEX
  5
10DDF
  8
ALPHA
 10
56.340046
 20
120.204315
 30
0.0
  0
VERTEX
  5
10DE0
  8
ALPHA
 10
54.639733
 20
121.448393
 30
0.0
  0
VERTEX
  5
10DE1
  8
ALPHA
 10
53.322393
 20
123.089482
 30
0.0
  0
VERTEX
  5
10DE2
  8
ALPHA
 10
52.471082
 20
125.044411
 30
0.0
  0
VERTEX
  5
10DE3
  8
ALPHA
 10
52.168854
 20
127.230013
 30
0.0
  0
SEQEND
  5
10DE4
  8
ALPHA
  0
POLYLINE
  5
1087A
  8
ALPHA
 66
     1
 10
0.0
 20
0.0
 30
0.0
 70
   128
  0
VERTEX
  5
10DE5
  8
ALPHA
 10
52.168854
 20
127.230013
 30
0.0
  0
VERTEX
  5
10DE6
  8
ALPHA
 10
52.178249
 20
127.39677
 30
0.0
  0
VERTEX
  5
10DE7
  8
ALPHA
 10
52.205229
 20
127.87569
 30
0.0
  0
VERTEX
  5
10DE8
  8
ALPHA
 10
52.24799
 20
128.634745
 30
0.0
  0
VERTEX
  5
10DE9
  8
ALPHA
 10
52.304729
 20
129.641904
 30
0.0
  0
VERTEX
  5
10DEA
  8
ALPHA
 10
52.452921
 20
132.272424
 30
0.0
  0
VERTEX
  5
10DEB
  8
ALPHA
 10
52.635368
 20
135.511022
 30
0.0
  0
VERTEX
  5
10DEC
  8
ALPHA
 10
53.045293
 20
142.787531
 30
0.0
  0
VERTEX
  5
10DED
  8
ALPHA
 10
53.243901
 20
146.312983
 30
0.0
  0
VERTEX
  5
10DEE
  8
ALPHA
 10
53.419026
 20
149.421595
 30
0.0
  0
SEQEND
  5
10DEF
  8
ALPHA
  0
CIRCLE
  5
1087C
  8
ALPHA
 10
60.168233
 20
127.328457
 30
0.0
 40
6.500001
  0
LINE
  5
1087F
  8
AXE
 10
49.668232
 20
127.328457
 30
0.0
 11
70.668235
 21
127.328457
 31
0.0
  0
CIRCLE
  5
10881
  8
ALPHA
 10
60.168233
 20
127.328457
 30
0.0
 40
4.000313
  0
LINE
  5
10883
  8
ALPHA
 10
62.49222
 20
128.074878
 30
0.0
 11
61.6025
 21
125.335311
 31
0.0
  0
LINE
  5
10884
  8
ALPHA
 10
58.725243
 20
125.335311
 30
0.0
 11
57.83303
 21
128.074878
 31
0.0
  0
LINE
  5
10885
  8
ALPHA
 10
57.83303
 20
128.074878
 30
0.0
 11
60.163249
 21
129.76522
 31
0.0
  0
LINE
  5
10886
  8
ALPHA
 10
60.163249
 20
129.76522
 30
0.0
 11
62.49222
 21
128.074878
 31
0.0
  0
LINE
  5
10887
  8
ALPHA
 10
61.6025
 20
125.335311
 30
0.0
 11
58.725243
 21
125.335311
 31
0.0
  0
CIRCLE
  5
10888
  8
ALPHA
 10
60.160757
 20
153.728457
 30
0.0
 40
8.0
  0
CIRCLE
  5
10889
  8
ALPHA
 10
60.160757
 20
153.728457
 30
0.0
 40
6.669159
  0
LINE
  5
1088C
  8
ALPHA
 10
53.578823
 20
140.228768
 30
0.0
 11
66.715274
 21
140.228768
 31
0.0
  0
LINE
  5
1088D
  8
ALPHA
 10
53.134588
 20
144.727835
 30
0.0
 11
67.155772
 21
144.727835
 31
0.0
  0
CIRCLE
  5
1088E
  8
ALPHA
 10
60.160757
 20
153.728146
 30
0.0
 40
3.999691
  0
LINE
  5
109A4
  8
ALPHA
 10
67.77213
 20
134.177625
 30
0.0
 11
68.16761
 21
132.977679
 31
0.0
  0
LINE
  5
109A7
  8
ALPHA
 10
52.168854
 20
118.529078
 30
0.0
 11
68.16761
 21
118.529078
 31
0.0
  0
DIMENSION
  5
10B34
  8
COTATION1
  2
*D10
 10
55.096601
 20
147.535371
 30
0.0
 11
78.928988
 21
170.376716
 31
0.0
 70
   131
 15
65.224913
 25
159.921544
 35
0.0
 40
0.0
  0
DIMENSION
  5
10B9A
  8
COTATION1
  2
*D11
 10
95.281088
 20
127.328457
 30
0.0
 11
95.281088
 21
144.528457
 31
0.0
 13
60.160757
 23
161.728457
 33
0.0
 14
70.668235
 24
127.328457
 34
0.0
 50
90.0
  0
VIEWPORT
  5
494D
 67
     1
  8
0
 10
4.995325
 20
6.556512
 30
0.0
 40
22.70986
 41
13.988421
 68
    -1
 69
     1
1001
ACAD
1000
MVIEW
1002
{
1070
    16
1010
0.0
1020
0.0
1030
0.0
1010
0.0
1020
0.0
1030
1.0
1040
0.0
1040
13.988421
1040
4.995325
1040
6.556512
1040
50.0
1040
0.0
1040
0.0
1070
     0
1070
   100
1070
     1
1070
     1
1070
     0
1070
     0
1070
     0
1070
     0
1040
0.0
1040
0.0
1040
0.0
1040
10.0
1040
10.0
1040
10.0
1040
10.0
1070
     0
1002
{
1002
}
1002
}
  0
ENDSEC
  0
EOF
