  0
SECTION
  2
HEADER
  9
$ACADVER
  1
AC1009
  9
$INSBASE
 10
402.590624
 20
-1.041018
 30
0.0
  9
$EXTMIN
 10
28.397405
 20
-1.667221
 30
0.0
  9
$EXTMAX
 10
147.457455
 20
172.332779
 30
0.0
  9
$LIMMIN
 10
-407.970438
 20
-367.832444
  9
$LIMMAX
 10
429.804077
 20
234.370848
  9
$ORTHOMODE
 70
     1
  9
$REGENMODE
 70
     1
  9
$FILLMODE
 70
     1
  9
$QTEXTMODE
 70
     0
  9
$MIRRTEXT
 70
     1
  9
$DRAGMODE
 70
     2
  9
$LTSCALE
 40
10.0
  9
$OSMODE
 70
    37
  9
$ATTMODE
 70
     1
  9
$TEXTSIZE
 40
6.0
  9
$TRACEWID
 40
1.0
  9
$TEXTSTYLE
  7
ROMANS
  9
$CLAYER
  8
ALPHA
  9
$CELTYPE
  6
BYLAYER
  9
$CECOLOR
 62
   256
  9
$DIMSCALE
 40
1.0
  9
$DIMASZ
 40
5.0
  9
$DIMEXO
 40
2.0
  9
$DIMDLI
 40
0.38
  9
$DIMRND
 40
0.0
  9
$DIMDLE
 40
0.0
  9
$DIMEXE
 40
2.5
  9
$DIMTP
 40
0.0
  9
$DIMTM
 40
0.0
  9
$DIMTXT
 40
2.5
  9
$DIMCEN
 40
0.0
  9
$DIMTSZ
 40
0.0
  9
$DIMTOL
 70
     0
  9
$DIMLIM
 70
     0
  9
$DIMTIH
 70
     1
  9
$DIMTOH
 70
     1
  9
$DIMSE1
 70
     0
  9
$DIMSE2
 70
     0
  9
$DIMTAD
 70
     1
  9
$DIMZIN
 70
    12
  9
$DIMBLK
  1
OPEN30
  9
$DIMASO
 70
     1
  9
$DIMSHO
 70
     1
  9
$DIMPOST
  1

  9
$DIMAPOST
  1

  9
$DIMALT
 70
     0
  9
$DIMALTD
 70
     2
  9
$DIMALTF
 40
25.4
  9
$DIMLFAC
 40
1.0
  9
$DIMTOFL
 70
     0
  9
$DIMTVP
 40
0.0
  9
$DIMTIX
 70
     0
  9
$DIMSOXD
 70
     0
  9
$DIMSAH
 70
     0
  9
$DIMBLK1
  1

  9
$DIMBLK2
  1

  9
$DIMSTYLE
  2
SC_DEFAUT
  9
$DIMCLRD
 70
     0
  9
$DIMCLRE
 70
     0
  9
$DIMCLRT
 70
     0
  9
$DIMTFAC
 40
1.0
  9
$DIMGAP
 40
2.0
  9
$LUNITS
 70
     2
  9
$LUPREC
 70
     1
  9
$SKETCHINC
 40
0.1
  9
$FILLETRAD
 40
5.0
  9
$AUNITS
 70
     0
  9
$AUPREC
 70
     0
  9
$MENU
  1
acad
  9
$ELEVATION
 40
0.0
  9
$PELEVATION
 40
0.0
  9
$THICKNESS
 40
0.0
  9
$LIMCHECK
 70
     0
  9
$BLIPMODE
 70
     0
  9
$CHAMFERA
 40
0.0
  9
$CHAMFERB
 40
0.0
  9
$SKPOLY
 70
     0
  9
$TDCREATE
 40
2450373.687919
  9
$TDUPDATE
 40
2452852.574044
  9
$TDINDWG
 40
1.585777
  9
$TDUSRTIMER
 40
1.585777
  9
$USRTIMER
 70
     1
  9
$ANGBASE
 50
0.0
  9
$ANGDIR
 70
     0
  9
$PDMODE
 70
    32
  9
$PDSIZE
 40
0.0
  9
$PLINEWID
 40
0.0
  9
$COORDS
 70
     1
  9
$SPLFRAME
 70
     0
  9
$SPLINETYPE
 70
     6
  9
$SPLINESEGS
 70
     8
  9
$ATTDIA
 70
     0
  9
$ATTREQ
 70
     1
  9
$HANDLING
 70
     1
  9
$HANDSEED
  5
11DCA
  9
$SURFTAB1
 70
     6
  9
$SURFTAB2
 70
     6
  9
$SURFTYPE
 70
     6
  9
$SURFU
 70
     6
  9
$SURFV
 70
     6
  9
$UCSNAME
  2

  9
$UCSORG
 10
0.0
 20
0.0
 30
0.0
  9
$UCSXDIR
 10
1.0
 20
0.0
 30
0.0
  9
$UCSYDIR
 10
0.0
 20
1.0
 30
0.0
  9
$PUCSNAME
  2

  9
$PUCSORG
 10
0.0
 20
0.0
 30
0.0
  9
$PUCSXDIR
 10
1.0
 20
0.0
 30
0.0
  9
$PUCSYDIR
 10
0.0
 20
1.0
 30
0.0
  9
$USERI1
 70
     0
  9
$USERI2
 70
     0
  9
$USERI3
 70
     0
  9
$USERI4
 70
     0
  9
$USERI5
 70
     0
  9
$USERR1
 40
0.0
  9
$USERR2
 40
0.0
  9
$USERR3
 40
0.0
  9
$USERR4
 40
0.0
  9
$USERR5
 40
0.0
  9
$WORLDVIEW
 70
     1
  9
$SHADEDGE
 70
     3
  9
$SHADEDIF
 70
    70
  9
$TILEMODE
 70
     1
  9
$MAXACTVP
 70
    16
  9
$PLIMCHECK
 70
     0
  9
$PEXTMIN
 10
-1.452248
 20
-0.437698
 30
0.0
  9
$PEXTMAX
 10
12.749749
 20
8.310198
 30
0.0
  9
$PLIMMIN
 10
0.0
 20
0.0
  9
$PLIMMAX
 10
12.0
 20
9.0
  9
$UNITMODE
 70
     0
  9
$VISRETAIN
 70
     0
  9
$PLINEGEN
 70
     0
  9
$PSLTSCALE
 70
     0
  0
ENDSEC
  0
SECTION
  2
TABLES
  0
TABLE
  2
VPORT
 70
     2
  0
VPORT
  2
*ACTIVE
 70
     0
 10
0.0
 20
0.0
 11
1.0
 21
1.0
 12
87.936955
 22
85.345383
 13
0.0
 23
0.0
 14
1.0
 24
1.0
 15
10.0
 25
10.0
 16
0.0
 26
0.0
 36
1.0
 17
0.0
 27
0.0
 37
0.0
 40
175.527256
 41
1.56
 42
50.0
 43
0.0
 44
0.0
 50
0.0
 51
0.0
 71
     0
 72
   100
 73
     1
 74
     0
 75
     0
 76
     0
 77
     0
 78
     0
  0
ENDTAB
  0
TABLE
  2
LTYPE
 70
     3
  0
LTYPE
  2
CONTINUOUS
 70
     0
  3
Solid line
 72
    65
 73
     0
 40
0.0
  0
LTYPE
  2
AXES2
 70
     0
  3
___ _ ___ _ ___ _ ___ _ ___ _ ___ _ ___ _ ___ _
 72
    65
 73
     4
 40
1.125
 49
0.75
 49
-0.125
 49
0.125
 49
-0.125
  0
LTYPE
  2
CACHE2
 70
     0
  3
Caché (x.5) _ _ _ _ _ _ _ _ _ _ _ _ _ _ _ _ _
 72
    65
 73
     2
 40
0.1875
 49
0.125
 49
-0.0625
  0
ENDTAB
  0
TABLE
  2
LAYER
 70
     7
  0
LAYER
  2
0
 70
     0
 62
   255
  6
CONTINUOUS
  0
LAYER
  2
COTATION1
 70
     0
 62
     2
  6
CONTINUOUS
  0
LAYER
  2
AXE
 70
     0
 62
    80
  6
AXES2
  0
LAYER
  2
DEFPOINTS
 70
     0
 62
     7
  6
CONTINUOUS
  0
LAYER
  2
ALPHA
 70
     0
 62
   254
  6
CONTINUOUS
  0
LAYER
  2
ALPHA_FIN
 70
     0
 62
   255
  6
CONTINUOUS
  0
LAYER
  2
POINTILLE_COURT
 70
     0
 62
    41
  6
CACHE2
  0
ENDTAB
  0
TABLE
  2
STYLE
 70
     2
  0
STYLE
  2
ROMANS
 70
     0
 40
0.0
 41
1.0
 50
0.0
 71
     0
 42
6.0
  3
romans
  4

  0
STYLE
  2
STANDARD
 70
     0
 40
0.2
 41
1.0
 50
0.0
 71
     0
 42
0.2
  3
txt
  4

  0
ENDTAB
  0
TABLE
  2
VIEW
 70
     0
  0
ENDTAB
  0
TABLE
  2
UCS
 70
     0
  0
ENDTAB
  0
TABLE
  2
APPID
 70
     1
  0
APPID
  2
ACAD
 70
     0
  0
ENDTAB
  0
TABLE
  2
DIMSTYLE
 70
     1
  0
DIMSTYLE
  2
SC_DEFAUT
 70
     0
  3

  4

  5
OPEN30
  6

  7

 40
1.0
 41
5.0
 42
2.0
 43
0.38
 44
2.5
 45
0.0
 46
0.0
 47
0.0
 48
0.0
140
2.5
141
0.0
142
0.0
143
25.4
144
1.0
145
0.0
146
1.0
147
2.0
 71
     0
 72
     0
 73
     1
 74
     1
 75
     0
 76
     0
 77
     1
 78
    12
170
     0
171
     2
172
     0
173
     0
174
     0
175
     0
176
     0
177
     0
178
     0
  0
ENDTAB
  0
ENDSEC
  0
SECTION
  2
BLOCKS
  0
BLOCK
  8
0
  2
$MODEL_SPACE
 70
     0
 10
0.0
 20
0.0
 30
0.0
  3
$MODEL_SPACE
  1

  0
ENDBLK
  5
11DB7
  8
0
  0
BLOCK
 67
     1
  8
0
  2
$PAPER_SPACE
 70
     0
 10
0.0
 20
0.0
 30
0.0
  3
$PAPER_SPACE
  1

  0
ENDBLK
  5
11DB5
 67
     1
  8
0
  0
BLOCK
  8
0
  2
COTE
 70
     0
 10
0.0
 20
0.0
 30
0.0
  3
COTE
  1

  0
ENDBLK
  5
F
  8
0
  0
BLOCK
  8
0
  2
FOND
 70
     0
 10
0.0
 20
0.0
 30
0.0
  3
FOND
  1

  0
ENDBLK
  5
75
  8
0
  0
BLOCK
  8
0
  2
_OPEN30
 70
     0
 10
0.0
 20
0.0
 30
0.0
  3
_OPEN30
  1

  0
LINE
  5
4B05
  8
COTATION1
 62
     0
 10
-1.0
 20
0.267949
 30
0.0
 11
0.0
 21
0.0
 31
0.0
1001
ACAD
1000
RTLwPs
1070
   158
  0
LINE
  5
4B06
  8
COTATION1
 62
     0
 10
0.0
 20
0.0
 30
0.0
 11
-1.0
 21
-0.267949
 31
0.0
1001
ACAD
1000
RTLwPs
1070
   158
  0
LINE
  5
4B07
  8
COTATION1
 62
     0
 10
0.0
 20
0.0
 30
0.0
 11
-1.0
 21
0.0
 31
0.0
1001
ACAD
1000
RTLwPs
1070
   158
  0
ENDBLK
  5
4B09
  8
0
  0
BLOCK
  8
0
  2
*D3
 70
     1
 10
0.0
 20
0.0
 30
0.0
  3
*D3
  1

  0
LINE
  5
11CF0
  8
COTATION1
 62
     0
 10
71.837124
 20
142.832779
 30
0.0
 11
147.457455
 21
142.832779
 31
0.0
1001
ACAD
1000
RTLwPs
1070
   158
  0
LINE
  5
11CF1
  8
COTATION1
 62
     0
 10
84.225404
 20
44.832779
 30
0.0
 11
147.457455
 21
44.832779
 31
0.0
1001
ACAD
1000
RTLwPs
1070
   158
  0
LINE
  5
11CF2
  8
COTATION1
 62
     0
 10
144.957455
 20
137.832779
 30
0.0
 11
144.957455
 21
97.082779
 31
0.0
1001
ACAD
1000
RTLwPs
1070
   158
  0
LINE
  5
11CF3
  8
COTATION1
 62
     0
 10
144.957455
 20
49.832779
 30
0.0
 11
144.957455
 21
90.582779
 31
0.0
1001
ACAD
1000
RTLwPs
1070
   158
  0
INSERT
  5
11CF4
  8
COTATION1
 62
     0
  2
_OPEN30
 10
144.957455
 20
142.832779
 30
0.0
 41
5.0
 42
5.0
 43
5.0
 50
90.0
1001
ACAD
1000
RTLwPs
1070
   158
  0
INSERT
  5
11CF5
  8
COTATION1
 62
     0
  2
_OPEN30
 10
144.957455
 20
44.832779
 30
0.0
 41
5.0
 42
5.0
 43
5.0
 50
270.0
1001
ACAD
1000
RTLwPs
1070
   158
  0
TEXT
  5
11CF6
  8
COTATION1
 62
     0
 10
142.576502
 20
92.582779
 30
0.0
 40
2.5
  1
98
1001
ACAD
1000
MTEXTBEGIN
1070
    73
1070
     1
1070
    44
1040
1.0
1070
    74
1070
     0
1000
MTEXTEND
  0
POINT
  5
11CF7
  8
DEFPOINTS
 62
     0
 10
69.837124
 20
142.832779
 30
0.0
  0
POINT
  5
11CF8
  8
DEFPOINTS
 62
     0
 10
82.225404
 20
44.832779
 30
0.0
  0
POINT
  5
11CF9
  8
DEFPOINTS
 62
     0
 10
144.957455
 20
44.832779
 30
0.0
  0
ENDBLK
  5
11273
  8
0
  0
BLOCK
  8
0
  2
*D4
 70
     1
 10
0.0
 20
0.0
 30
0.0
  3
*D4
  1

  0
LINE
  5
11382
  8
COTATION1
 62
     0
 10
54.957455
 20
64.832779
 30
0.0
 11
54.957455
 21
-1.667221
 31
0.0
1001
ACAD
1000
RTLwPs
1070
   158
  0
LINE
  5
11383
  8
COTATION1
 62
     0
 10
106.957455
 20
67.56483
 30
0.0
 11
106.957455
 21
-1.667221
 31
0.0
1001
ACAD
1000
RTLwPs
1070
   158
  0
LINE
  5
11384
  8
COTATION1
 62
     0
 10
59.957455
 20
0.832779
 30
0.0
 11
101.957455
 21
0.832779
 31
0.0
1001
ACAD
1000
RTLwPs
1070
   158
  0
INSERT
  5
11385
  8
COTATION1
 62
     0
  2
_OPEN30
 10
54.957455
 20
0.832779
 30
0.0
 41
5.0
 42
5.0
 43
5.0
 50
180.0
1001
ACAD
1000
RTLwPs
1070
   158
  0
INSERT
  5
11386
  8
COTATION1
 62
     0
  2
_OPEN30
 10
106.957455
 20
0.832779
 30
0.0
 41
5.0
 42
5.0
 43
5.0
1001
ACAD
1000
RTLwPs
1070
   158
  0
TEXT
  5
11387
  8
COTATION1
 62
     0
 10
78.576502
 20
2.832779
 30
0.0
 40
2.5
  1
52
1001
ACAD
1000
MTEXTBEGIN
1070
    73
1070
     1
1070
    44
1040
1.0
1070
    74
1070
     0
1000
MTEXTEND
1000
MTEXTBEGIN
1070
    73
1070
     1
1070
    44
1040
1.0
1070
    74
1070
     0
1000
MTEXTEND
1000
MTEXTBEGIN
1070
    73
1070
     1
1070
    44
1040
1.0
1070
    74
1070
     0
1000
MTEXTEND
  0
POINT
  5
11388
  8
DEFPOINTS
 62
     0
 10
54.957455
 20
66.832779
 30
0.0
  0
POINT
  5
11389
  8
DEFPOINTS
 62
     0
 10
106.957455
 20
69.56483
 30
0.0
  0
POINT
  5
1138A
  8
DEFPOINTS
 62
     0
 10
106.957455
 20
0.832779
 30
0.0
  0
ENDBLK
  5
1127F
  8
0
  0
BLOCK
  8
0
  2
*D5
 70
     1
 10
0.0
 20
0.0
 30
0.0
  3
*D5
  1

  0
LINE
  5
1139D
  8
COTATION1
 62
     0
 10
71.957455
 20
43.832779
 30
0.0
 11
71.957455
 21
28.332779
 31
0.0
1001
ACAD
1000
RTLwPs
1070
   158
  0
LINE
  5
1139E
  8
COTATION1
 62
     0
 10
83.957455
 20
43.832779
 30
0.0
 11
83.957455
 21
28.332779
 31
0.0
1001
ACAD
1000
RTLwPs
1070
   158
  0
LINE
  5
1139F
  8
COTATION1
 62
     0
 10
66.957455
 20
30.832779
 30
0.0
 11
61.957455
 21
30.832779
 31
0.0
1001
ACAD
1000
RTLwPs
1070
   158
  0
LINE
  5
113A0
  8
COTATION1
 62
     0
 10
88.957455
 20
30.832779
 30
0.0
 11
104.975851
 21
30.832779
 31
0.0
1001
ACAD
1000
RTLwPs
1070
   158
  0
INSERT
  5
113A1
  8
COTATION1
 62
     0
  2
_OPEN30
 10
71.957455
 20
30.832779
 30
0.0
 41
5.0
 42
5.0
 43
5.0
1001
ACAD
1000
RTLwPs
1070
   158
  0
INSERT
  5
113A2
  8
COTATION1
 62
     0
  2
_OPEN30
 10
83.957455
 20
30.832779
 30
0.0
 41
5.0
 42
5.0
 43
5.0
 50
180.0
1001
ACAD
1000
RTLwPs
1070
   158
  0
TEXT
  5
113A3
  8
COTATION1
 62
     0
 10
95.713946
 20
32.832779
 30
0.0
 40
2.5
  1
M12
1001
ACAD
1000
MTEXTBEGIN
1070
    73
1070
     1
1070
    44
1040
1.0
1070
    74
1070
     0
1000
MTEXTEND
1000
MTEXTBEGIN
1070
    73
1070
     1
1070
    44
1040
1.0
1070
    74
1070
     0
1000
MTEXTEND
1000
MTEXTBEGIN
1070
    73
1070
     1
1070
    44
1040
1.0
1070
    74
1070
     0
1000
MTEXTEND
  0
POINT
  5
113A4
  8
DEFPOINTS
 62
     0
 10
71.957455
 20
45.832779
 30
0.0
  0
POINT
  5
113A5
  8
DEFPOINTS
 62
     0
 10
83.957455
 20
45.832779
 30
0.0
  0
POINT
  5
113A6
  8
DEFPOINTS
 62
     0
 10
83.957455
 20
30.832779
 30
0.0
  0
ENDBLK
  5
1128C
  8
0
  0
BLOCK
  8
0
  2
*D6
 70
     1
 10
0.0
 20
0.0
 30
0.0
  3
*D6
  1

  0
LINE
  5
1135A
  8
COTATION1
 62
     0
 10
88.337124
 20
106.832779
 30
0.0
 11
117.457455
 21
106.832779
 31
0.0
1001
ACAD
1000
RTLwPs
1070
   158
  0
LINE
  5
1135B
  8
COTATION1
 62
     0
 10
95.957455
 20
66.832779
 30
0.0
 11
117.457455
 21
66.832779
 31
0.0
1001
ACAD
1000
RTLwPs
1070
   158
  0
LINE
  5
1135C
  8
COTATION1
 62
     0
 10
114.957455
 20
101.832779
 30
0.0
 11
114.957455
 21
90.082779
 31
0.0
1001
ACAD
1000
RTLwPs
1070
   158
  0
LINE
  5
1135D
  8
COTATION1
 62
     0
 10
114.957455
 20
71.832779
 30
0.0
 11
114.957455
 21
83.582779
 31
0.0
1001
ACAD
1000
RTLwPs
1070
   158
  0
INSERT
  5
1135E
  8
COTATION1
 62
     0
  2
_OPEN30
 10
114.957455
 20
106.832779
 30
0.0
 41
5.0
 42
5.0
 43
5.0
 50
90.0
1001
ACAD
1000
RTLwPs
1070
   158
  0
INSERT
  5
1135F
  8
COTATION1
 62
     0
  2
_OPEN30
 10
114.957455
 20
66.832779
 30
0.0
 41
5.0
 42
5.0
 43
5.0
 50
270.0
1001
ACAD
1000
RTLwPs
1070
   158
  0
TEXT
  5
11360
  8
COTATION1
 62
     0
 10
112.576502
 20
85.582779
 30
0.0
 40
2.5
  1
40
1001
ACAD
1000
MTEXTBEGIN
1070
    73
1070
     1
1070
    44
1040
1.0
1070
    74
1070
     0
1000
MTEXTEND
1000
MTEXTBEGIN
1070
    73
1070
     1
1070
    44
1040
1.0
1070
    74
1070
     0
1000
MTEXTEND
1000
MTEXTBEGIN
1070
    73
1070
     1
1070
    44
1040
1.0
1070
    74
1070
     0
1000
MTEXTEND
  0
POINT
  5
11361
  8
DEFPOINTS
 62
     0
 10
86.337124
 20
106.832779
 30
0.0
  0
POINT
  5
11362
  8
DEFPOINTS
 62
     0
 10
93.957455
 20
66.832779
 30
0.0
  0
POINT
  5
11363
  8
DEFPOINTS
 62
     0
 10
114.957455
 20
66.832779
 30
0.0
  0
ENDBLK
  5
11299
  8
0
  0
BLOCK
  8
0
  2
*D7
 70
     1
 10
0.0
 20
0.0
 30
0.0
  3
*D7
  1

  0
LINE
  5
11394
  8
COTATION1
 62
     0
 10
54.957455
 20
64.832779
 30
0.0
 11
54.957455
 21
8.332779
 31
0.0
1001
ACAD
1000
RTLwPs
1070
   158
  0
LINE
  5
11395
  8
COTATION1
 62
     0
 10
84.957455
 20
55.832779
 30
0.0
 11
84.957455
 21
8.332779
 31
0.0
1001
ACAD
1000
RTLwPs
1070
   158
  0
LINE
  5
11396
  8
COTATION1
 62
     0
 10
59.957455
 20
10.832779
 30
0.0
 11
79.957455
 21
10.832779
 31
0.0
1001
ACAD
1000
RTLwPs
1070
   158
  0
INSERT
  5
11397
  8
COTATION1
 62
     0
  2
_OPEN30
 10
54.957455
 20
10.832779
 30
0.0
 41
5.0
 42
5.0
 43
5.0
 50
180.0
1001
ACAD
1000
RTLwPs
1070
   158
  0
INSERT
  5
11398
  8
COTATION1
 62
     0
  2
_OPEN30
 10
84.957455
 20
10.832779
 30
0.0
 41
5.0
 42
5.0
 43
5.0
1001
ACAD
1000
RTLwPs
1070
   158
  0
TEXT
  5
11399
  8
COTATION1
 62
     0
 10
67.576502
 20
12.832779
 30
0.0
 40
2.5
  1
30
1001
ACAD
1000
MTEXTBEGIN
1070
    73
1070
     1
1070
    44
1040
1.0
1070
    74
1070
     0
1000
MTEXTEND
1000
MTEXTBEGIN
1070
    73
1070
     1
1070
    44
1040
1.0
1070
    74
1070
     0
1000
MTEXTEND
1000
MTEXTBEGIN
1070
    73
1070
     1
1070
    44
1040
1.0
1070
    74
1070
     0
1000
MTEXTEND
  0
POINT
  5
1139A
  8
DEFPOINTS
 62
     0
 10
54.957455
 20
66.832779
 30
0.0
  0
POINT
  5
1139B
  8
DEFPOINTS
 62
     0
 10
84.957455
 20
57.832779
 30
0.0
  0
POINT
  5
1139C
  8
DEFPOINTS
 62
     0
 10
84.957455
 20
10.832779
 30
0.0
  0
ENDBLK
  5
112A5
  8
0
  0
BLOCK
  8
0
  2
*D8
 70
     1
 10
0.0
 20
0.0
 30
0.0
  3
*D8
  1

  0
LINE
  5
1138B
  8
COTATION1
 62
     0
 10
59.837124
 20
98.332779
 30
0.0
 11
59.837124
 21
18.332779
 31
0.0
1001
ACAD
1000
RTLwPs
1070
   158
  0
LINE
  5
1138C
  8
COTATION1
 62
     0
 10
79.837124
 20
98.332779
 30
0.0
 11
79.837124
 21
18.332779
 31
0.0
1001
ACAD
1000
RTLwPs
1070
   158
  0
LINE
  5
1138D
  8
COTATION1
 62
     0
 10
64.837124
 20
20.832779
 30
0.0
 11
74.837124
 21
20.832779
 31
0.0
1001
ACAD
1000
RTLwPs
1070
   158
  0
INSERT
  5
1138E
  8
COTATION1
 62
     0
  2
_OPEN30
 10
59.837124
 20
20.832779
 30
0.0
 41
5.0
 42
5.0
 43
5.0
 50
180.0
1001
ACAD
1000
RTLwPs
1070
   158
  0
INSERT
  5
1138F
  8
COTATION1
 62
     0
  2
_OPEN30
 10
79.837124
 20
20.832779
 30
0.0
 41
5.0
 42
5.0
 43
5.0
1001
ACAD
1000
RTLwPs
1070
   158
  0
TEXT
  5
11390
  8
COTATION1
 62
     0
 10
67.456171
 20
22.832779
 30
0.0
 40
2.5
  1
20
1001
ACAD
1000
MTEXTBEGIN
1070
    73
1070
     1
1070
    44
1040
1.0
1070
    74
1070
     0
1000
MTEXTEND
1000
MTEXTBEGIN
1070
    73
1070
     1
1070
    44
1040
1.0
1070
    74
1070
     0
1000
MTEXTEND
1000
MTEXTBEGIN
1070
    73
1070
     1
1070
    44
1040
1.0
1070
    74
1070
     0
1000
MTEXTEND
  0
POINT
  5
11391
  8
DEFPOINTS
 62
     0
 10
59.837124
 20
100.332779
 30
0.0
  0
POINT
  5
11392
  8
DEFPOINTS
 62
     0
 10
79.837124
 20
100.332779
 30
0.0
  0
POINT
  5
11393
  8
DEFPOINTS
 62
     0
 10
79.837124
 20
20.832779
 30
0.0
  0
ENDBLK
  5
112B1
  8
0
  0
BLOCK
  8
0
  2
*D9
 70
     1
 10
0.0
 20
0.0
 30
0.0
  3
*D9
  1

  0
LINE
  5
11354
  8
COTATION1
 62
     0
 10
31.812262
 20
93.482114
 30
0.0
 11
37.740834
 21
93.482114
 31
0.0
1001
ACAD
1000
RTLwPs
1070
   158
  0
LINE
  5
11355
  8
COTATION1
 62
     0
 10
37.740834
 20
93.482114
 30
0.0
 11
52.134011
 21
102.178528
 31
0.0
1001
ACAD
1000
RTLwPs
1070
   158
  0
TEXT
  5
11356
  8
COTATION1
 62
     0
 10
31.574167
 20
95.482114
 30
0.0
 40
2.5
  1
%%c8
1001
ACAD
1000
MTEXTBEGIN
1070
    73
1070
     1
1070
    44
1040
1.0
1070
    74
1070
     0
1000
MTEXTEND
1000
MTEXTBEGIN
1070
    73
1070
     1
1070
    44
1040
1.0
1070
    74
1070
     0
1000
MTEXTEND
1000
MTEXTBEGIN
1070
    73
1070
     1
1070
    44
1040
1.0
1070
    74
1070
     0
1000
MTEXTEND
  0
INSERT
  5
11357
  8
COTATION1
 62
     0
  2
_OPEN30
 10
56.413518
 20
104.764223
 30
0.0
 41
5.0
 42
5.0
 43
5.0
 50
31.140535
1001
ACAD
1000
RTLwPs
1070
   158
  0
POINT
  5
11358
  8
DEFPOINTS
 62
     0
 10
56.413518
 20
104.764223
 30
0.0
  0
POINT
  5
11359
  8
DEFPOINTS
 62
     0
 10
63.260729
 20
108.901335
 30
0.0
  0
ENDBLK
  5
112BA
  8
0
  0
BLOCK
  8
0
  2
*D10
 70
     1
 10
0.0
 20
0.0
 30
0.0
  3
*D10
  1

  0
LINE
  5
11CE6
  8
COTATION1
 62
     0
 10
71.837124
 20
142.832779
 30
0.0
 11
137.457455
 21
142.832779
 31
0.0
1001
ACAD
1000
RTLwPs
1070
   158
  0
LINE
  5
11CE7
  8
COTATION1
 62
     0
 10
79.087124
 20
118.832779
 30
0.0
 11
137.457455
 21
118.832779
 31
0.0
1001
ACAD
1000
RTLwPs
1070
   158
  0
LINE
  5
11CE8
  8
COTATION1
 62
     0
 10
134.957455
 20
137.832779
 30
0.0
 11
134.957455
 21
134.082779
 31
0.0
1001
ACAD
1000
RTLwPs
1070
   158
  0
LINE
  5
11CE9
  8
COTATION1
 62
     0
 10
134.957455
 20
123.832779
 30
0.0
 11
134.957455
 21
127.582779
 31
0.0
1001
ACAD
1000
RTLwPs
1070
   158
  0
INSERT
  5
11CEA
  8
COTATION1
 62
     0
  2
_OPEN30
 10
134.957455
 20
142.832779
 30
0.0
 41
5.0
 42
5.0
 43
5.0
 50
90.0
1001
ACAD
1000
RTLwPs
1070
   158
  0
INSERT
  5
11CEB
  8
COTATION1
 62
     0
  2
_OPEN30
 10
134.957455
 20
118.832779
 30
0.0
 41
5.0
 42
5.0
 43
5.0
 50
270.0
1001
ACAD
1000
RTLwPs
1070
   158
  0
TEXT
  5
11CEC
  8
COTATION1
 62
     0
 10
132.516979
 20
129.582779
 30
0.0
 40
2.5
  1
24
1001
ACAD
1000
MTEXTBEGIN
1070
    73
1070
     1
1070
    44
1040
1.0
1070
    74
1070
     0
1000
MTEXTEND
  0
POINT
  5
11CED
  8
DEFPOINTS
 62
     0
 10
69.837124
 20
142.832779
 30
0.0
  0
POINT
  5
11CEE
  8
DEFPOINTS
 62
     0
 10
77.087124
 20
118.832779
 30
0.0
  0
POINT
  5
11CEF
  8
DEFPOINTS
 62
     0
 10
134.957455
 20
118.832779
 30
0.0
  0
ENDBLK
  5
11B60
  8
0
  0
BLOCK
  8
0
  2
*D11
 70
     1
 10
0.0
 20
0.0
 30
0.0
  3
*D11
  1

  0
LINE
  5
11CFA
  8
COTATION1
 62
     0
 10
79.087124
 20
118.832779
 30
0.0
 11
137.457455
 21
118.832779
 31
0.0
1001
ACAD
1000
RTLwPs
1070
   158
  0
LINE
  5
11CFB
  8
COTATION1
 62
     0
 10
81.957455
 20
66.832779
 30
0.0
 11
137.457455
 21
66.832779
 31
0.0
1001
ACAD
1000
RTLwPs
1070
   158
  0
LINE
  5
11CFC
  8
COTATION1
 62
     0
 10
134.957455
 20
113.832779
 30
0.0
 11
134.957455
 21
96.082779
 31
0.0
1001
ACAD
1000
RTLwPs
1070
   158
  0
LINE
  5
11CFD
  8
COTATION1
 62
     0
 10
134.957455
 20
71.832779
 30
0.0
 11
134.957455
 21
89.582779
 31
0.0
1001
ACAD
1000
RTLwPs
1070
   158
  0
INSERT
  5
11CFE
  8
COTATION1
 62
     0
  2
_OPEN30
 10
134.957455
 20
118.832779
 30
0.0
 41
5.0
 42
5.0
 43
5.0
 50
90.0
1001
ACAD
1000
RTLwPs
1070
   158
  0
INSERT
  5
11CFF
  8
COTATION1
 62
     0
  2
_OPEN30
 10
134.957455
 20
66.832779
 30
0.0
 41
5.0
 42
5.0
 43
5.0
 50
270.0
1001
ACAD
1000
RTLwPs
1070
   158
  0
TEXT
  5
11D00
  8
COTATION1
 62
     0
 10
132.576502
 20
91.582779
 30
0.0
 40
2.5
  1
52
1001
ACAD
1000
MTEXTBEGIN
1070
    73
1070
     1
1070
    44
1040
1.0
1070
    74
1070
     0
1000
MTEXTEND
  0
POINT
  5
11D01
  8
DEFPOINTS
 62
     0
 10
77.087124
 20
118.832779
 30
0.0
  0
POINT
  5
11D02
  8
DEFPOINTS
 62
     0
 10
79.957455
 20
66.832779
 30
0.0
  0
POINT
  5
11D03
  8
DEFPOINTS
 62
     0
 10
134.957455
 20
66.832779
 30
0.0
  0
ENDBLK
  5
11B6D
  8
0
  0
BLOCK
  8
0
  2
*D12
 70
     1
 10
0.0
 20
0.0
 30
0.0
  3
*D12
  1

  0
LINE
  5
11D60
  8
COTATION1
 62
     0
 10
78.362116
 20
135.332779
 30
0.0
 11
117.457455
 21
135.332779
 31
0.0
  0
LINE
  5
11D61
  8
COTATION1
 62
     0
 10
78.362116
 20
131.832779
 30
0.0
 11
117.457455
 21
131.832779
 31
0.0
  0
LINE
  5
11D62
  8
COTATION1
 62
     0
 10
114.957455
 20
140.332779
 30
0.0
 11
114.957455
 21
145.332779
 31
0.0
  0
LINE
  5
11D63
  8
COTATION1
 62
     0
 10
114.957455
 20
126.832779
 30
0.0
 11
114.957455
 21
121.832779
 31
0.0
  0
TEXT
  5
11D64
  8
COTATION1
 62
     0
 10
107.362217
 20
122.665837
 30
0.0
 40
2.5
  1
3.5
  0
INSERT
  5
11D65
  8
COTATION1
 62
     0
  2
_OPEN30
 10
114.957455
 20
135.332779
 30
0.0
 41
5.0
 42
5.0
 43
5.0
 50
270.0
  0
INSERT
  5
11D66
  8
COTATION1
 62
     0
  2
_OPEN30
 10
114.957455
 20
131.832779
 30
0.0
 41
5.0
 42
5.0
 43
5.0
 50
90.0
  0
POINT
  5
11D67
  8
DEFPOINTS
 62
     0
 10
76.362116
 20
135.332779
 30
0.0
  0
POINT
  5
11D68
  8
DEFPOINTS
 62
     0
 10
76.362116
 20
131.832779
 30
0.0
  0
POINT
  5
11D69
  8
DEFPOINTS
 62
     0
 10
114.957455
 20
131.832779
 30
0.0
  0
ENDBLK
  5
11B7A
  8
0
  0
BLOCK
  8
0
  2
*D13
 70
     1
 10
0.0
 20
0.0
 30
0.0
  3
*D13
  1

  0
LINE
  5
11BB3
  8
COTATION1
 62
     0
 10
63.837124
 20
138.466753
 30
0.0
 11
63.837124
 21
170.332779
 31
0.0
1001
ACAD
1000
RTLwPs
1070
   158
  0
LINE
  5
11BB4
  8
COTATION1
 62
     0
 10
75.837124
 20
138.466753
 30
0.0
 11
75.837124
 21
170.332779
 31
0.0
1001
ACAD
1000
RTLwPs
1070
   158
  0
LINE
  5
11BB5
  8
COTATION1
 62
     0
 10
80.837124
 20
167.832779
 30
0.0
 11
85.837124
 21
167.832779
 31
0.0
1001
ACAD
1000
RTLwPs
1070
   158
  0
LINE
  5
11BB6
  8
COTATION1
 62
     0
 10
58.837124
 20
167.832779
 30
0.0
 11
39.360933
 21
167.832779
 31
0.0
1001
ACAD
1000
RTLwPs
1070
   158
  0
INSERT
  5
11BB7
  8
COTATION1
 62
     0
  2
_OPEN30
 10
75.837124
 20
167.832779
 30
0.0
 41
5.0
 42
5.0
 43
5.0
 50
180.0
1001
ACAD
1000
RTLwPs
1070
   158
  0
INSERT
  5
11BB8
  8
COTATION1
 62
     0
  2
_OPEN30
 10
63.837124
 20
167.832779
 30
0.0
 41
5.0
 42
5.0
 43
5.0
1001
ACAD
1000
RTLwPs
1070
   158
  0
TEXT
  5
11BB9
  8
COTATION1
 62
     0
 10
40.884743
 20
169.832779
 30
0.0
 40
2.5
  1
M12x1
1001
ACAD
1000
MTEXTBEGIN
1070
    73
1070
     1
1070
    44
1040
1.0
1070
    74
1070
     0
1000
MTEXTEND
1000
MTEXTBEGIN
1070
    73
1070
     1
1070
    44
1040
1.0
1070
    74
1070
     0
1000
MTEXTEND
  0
POINT
  5
11BBA
  8
DEFPOINTS
 62
     0
 10
63.837124
 20
136.466753
 30
0.0
  0
POINT
  5
11BBB
  8
DEFPOINTS
 62
     0
 10
75.837124
 20
136.466753
 30
0.0
  0
POINT
  5
11BBC
  8
DEFPOINTS
 62
     0
 10
75.837124
 20
167.832779
 30
0.0
  0
ENDBLK
  5
11B87
  8
0
  0
BLOCK
  8
0
  2
*D14
 70
     1
 10
0.0
 20
0.0
 30
0.0
  3
*D14
  1

  0
LINE
  5
11BBD
  8
COTATION1
 62
     0
 10
66.337124
 20
143.832779
 30
0.0
 11
66.337124
 21
160.332779
 31
0.0
1001
ACAD
1000
RTLwPs
1070
   158
  0
LINE
  5
11BBE
  8
COTATION1
 62
     0
 10
73.337124
 20
143.832779
 30
0.0
 11
73.337124
 21
160.332779
 31
0.0
1001
ACAD
1000
RTLwPs
1070
   158
  0
LINE
  5
11BBF
  8
COTATION1
 62
     0
 10
61.337124
 20
157.832779
 30
0.0
 11
56.337124
 21
157.832779
 31
0.0
1001
ACAD
1000
RTLwPs
1070
   158
  0
LINE
  5
11BC0
  8
COTATION1
 62
     0
 10
78.337124
 20
157.832779
 30
0.0
 11
83.337124
 21
157.832779
 31
0.0
1001
ACAD
1000
RTLwPs
1070
   158
  0
INSERT
  5
11BC1
  8
COTATION1
 62
     0
  2
_OPEN30
 10
66.337124
 20
157.832779
 30
0.0
 41
5.0
 42
5.0
 43
5.0
1001
ACAD
1000
RTLwPs
1070
   158
  0
INSERT
  5
11BC2
  8
COTATION1
 62
     0
  2
_OPEN30
 10
73.337124
 20
157.832779
 30
0.0
 41
5.0
 42
5.0
 43
5.0
 50
180.0
1001
ACAD
1000
RTLwPs
1070
   158
  0
TEXT
  5
11BC3
  8
COTATION1
 62
     0
 10
67.634743
 20
159.832779
 30
0.0
 40
2.5
  1
%%c
1001
ACAD
1000
MTEXTBEGIN
1070
    73
1070
     1
1070
    44
1040
1.0
1070
    74
1070
     0
1000
MTEXTEND
1000
MTEXTBEGIN
1070
    73
1070
     1
1070
    44
1040
1.0
1070
    74
1070
     0
1000
MTEXTEND
  0
TEXT
  5
11D79
  8
COTATION1
 62
     0
 10
69.896648
 20
159.832779
 30
0.0
 40
2.5
  1
7
1001
ACAD
1000
R13OBJECT
1002
{
1005
11BC3
1002
}
  0
POINT
  5
11BC4
  8
DEFPOINTS
 62
     0
 10
66.337124
 20
141.832779
 30
0.0
  0
POINT
  5
11BC5
  8
DEFPOINTS
 62
     0
 10
73.337124
 20
141.832779
 30
0.0
  0
POINT
  5
11BC6
  8
DEFPOINTS
 62
     0
 10
73.337124
 20
157.832779
 30
0.0
  0
ENDBLK
  5
11B94
  8
0
  0
BLOCK
  8
0
  2
*D15
 70
     1
 10
0.0
 20
0.0
 30
0.0
  3
*D15
  1

  0
LINE
  5
11C07
  8
COTATION1
 62
     0
 10
61.312131
 20
131.832779
 30
0.0
 11
32.445025
 21
131.832779
 31
0.0
1001
ACAD
1000
RTLwPs
1070
   158
  0
LINE
  5
11C08
  8
COTATION1
 62
     0
 10
61.312131
 20
123.832779
 30
0.0
 11
32.445025
 21
123.832779
 31
0.0
1001
ACAD
1000
RTLwPs
1070
   158
  0
LINE
  5
11C09
  8
COTATION1
 62
     0
 10
34.945025
 20
136.832779
 30
0.0
 11
34.945025
 21
141.832779
 31
0.0
1001
ACAD
1000
RTLwPs
1070
   158
  0
LINE
  5
11C0A
  8
COTATION1
 62
     0
 10
34.945025
 20
118.832779
 30
0.0
 11
34.945025
 21
113.832779
 31
0.0
1001
ACAD
1000
RTLwPs
1070
   158
  0
INSERT
  5
11C0B
  8
COTATION1
 62
     0
  2
_OPEN30
 10
34.945025
 20
131.832779
 30
0.0
 41
5.0
 42
5.0
 43
5.0
 50
270.0
1001
ACAD
1000
RTLwPs
1070
   158
  0
INSERT
  5
11C0C
  8
COTATION1
 62
     0
  2
_OPEN30
 10
34.945025
 20
123.832779
 30
0.0
 41
5.0
 42
5.0
 43
5.0
 50
90.0
1001
ACAD
1000
RTLwPs
1070
   158
  0
TEXT
  5
11C0D
  8
COTATION1
 62
     0
 10
28.040263
 20
126.582779
 30
0.0
 40
2.5
  1
8 max.
1001
ACAD
1000
MTEXTBEGIN
1070
    73
1070
     1
1070
    44
1040
1.0
1070
    74
1070
     0
1000
MTEXTEND
1000
MTEXTBEGIN
1070
    73
1070
     1
1070
    44
1040
1.0
1070
    74
1070
     0
1000
MTEXTEND
  0
POINT
  5
11C0E
  8
DEFPOINTS
 62
     0
 10
63.312131
 20
131.832779
 30
0.0
  0
POINT
  5
11C0F
  8
DEFPOINTS
 62
     0
 10
63.312131
 20
123.832779
 30
0.0
  0
POINT
  5
11C10
  8
DEFPOINTS
 62
     0
 10
34.945025
 20
123.832779
 30
0.0
  0
ENDBLK
  5
11BFD
  8
0
  0
BLOCK
  8
0
  2
*D16
 70
     1
 10
0.0
 20
0.0
 30
0.0
  3
*D16
  1

  0
LINE
  5
11C11
  8
COTATION1
 62
     0
 10
41.548723
 20
116.592548
 30
0.0
 11
51.048723
 21
116.592548
 31
0.0
1001
ACAD
1000
RTLwPs
1070
   158
  0
LINE
  5
11C12
  8
COTATION1
 62
     0
 10
51.048723
 20
116.592548
 30
0.0
 11
55.086098
 21
112.108928
 31
0.0
1001
ACAD
1000
RTLwPs
1070
   158
  0
TEXT
  5
11C13
  8
COTATION1
 62
     0
 10
41.310627
 20
118.592548
 30
0.0
 40
2.5
  1
%%c4.2
1001
ACAD
1000
MTEXTBEGIN
1070
    73
1070
     1
1070
    44
1040
1.0
1070
    74
1070
     0
1000
MTEXTEND
1000
MTEXTBEGIN
1070
    73
1070
     1
1070
    44
1040
1.0
1070
    74
1070
     0
1000
MTEXTEND
  0
INSERT
  5
11C14
  8
COTATION1
 62
     0
  2
_OPEN30
 10
58.431891
 20
108.39333
 30
0.0
 41
5.0
 42
5.0
 43
5.0
 50
312.002156
1001
ACAD
1000
RTLwPs
1070
   158
  0
POINT
  5
11C15
  8
DEFPOINTS
 62
     0
 10
58.431891
 20
108.39333
 30
0.0
  0
POINT
  5
11C16
  8
DEFPOINTS
 62
     0
 10
61.242357
 20
105.272227
 30
0.0
  0
ENDBLK
  5
11C06
  8
0
  0
BLOCK
  8
0
  2
*D17
 70
     1
 10
0.0
 20
0.0
 30
0.0
  3
*D17
  1

  0
LINE
  5
11D1C
  8
COTATION1
 62
     0
 10
71.837124
 20
116.832779
 30
0.0
 11
127.457455
 21
116.832779
 31
0.0
1001
ACAD
1000
RTLwPs
1070
   158
  0
LINE
  5
11D1D
  8
COTATION1
 62
     0
 10
105.957455
 20
66.832779
 30
0.0
 11
127.457455
 21
66.832779
 31
0.0
1001
ACAD
1000
RTLwPs
1070
   158
  0
LINE
  5
11D1E
  8
COTATION1
 62
     0
 10
124.957455
 20
111.832779
 30
0.0
 11
124.957455
 21
95.082779
 31
0.0
1001
ACAD
1000
RTLwPs
1070
   158
  0
LINE
  5
11D1F
  8
COTATION1
 62
     0
 10
124.957455
 20
71.832779
 30
0.0
 11
124.957455
 21
88.582779
 31
0.0
1001
ACAD
1000
RTLwPs
1070
   158
  0
INSERT
  5
11D20
  8
COTATION1
 62
     0
  2
_OPEN30
 10
124.957455
 20
116.832779
 30
0.0
 41
5.0
 42
5.0
 43
5.0
 50
90.0
1001
ACAD
1000
RTLwPs
1070
   158
  0
INSERT
  5
11D21
  8
COTATION1
 62
     0
  2
_OPEN30
 10
124.957455
 20
66.832779
 30
0.0
 41
5.0
 42
5.0
 43
5.0
 50
270.0
1001
ACAD
1000
RTLwPs
1070
   158
  0
TEXT
  5
11D22
  8
COTATION1
 62
     0
 10
122.576502
 20
90.582779
 30
0.0
 40
2.5
  1
50
1001
ACAD
1000
MTEXTBEGIN
1070
    73
1070
     1
1070
    44
1040
1.0
1070
    74
1070
     0
1000
MTEXTEND
  0
POINT
  5
11D23
  8
DEFPOINTS
 62
     0
 10
69.837124
 20
116.832779
 30
0.0
  0
POINT
  5
11D24
  8
DEFPOINTS
 62
     0
 10
103.957455
 20
66.832779
 30
0.0
  0
POINT
  5
11D25
  8
DEFPOINTS
 62
     0
 10
124.957455
 20
66.832779
 30
0.0
  0
ENDBLK
  5
11D11
  8
0
  0
ENDSEC
  0
SECTION
  2
ENTITIES
  0
INSERT
  5
A
  8
0
  2
COTE
 10
0.0
 20
0.0
 30
0.0
  0
INSERT
  5
17
  8
0
  2
COTE
 10
284.010391
 20
6.373258
 30
0.0
  0
INSERT
  5
72
  8
0
  2
FOND
 10
0.0
 20
0.0
 30
0.0
  0
POLYLINE
  5
111B4
  8
ALPHA
 66
     1
 10
0.0
 20
0.0
 30
0.0
 70
   128
210
0.0
220
0.0
230
-1.0
  0
VERTEX
  5
11DBD
  8
ALPHA
 10
-73.282969
 20
111.949789
 30
0.0
  0
VERTEX
  5
11DBE
  8
ALPHA
 10
-72.693462
 20
109.586374
 30
0.0
  0
VERTEX
  5
11DBF
  8
ALPHA
 10
-71.919152
 20
107.017873
 30
0.0
  0
VERTEX
  5
11DC0
  8
ALPHA
 10
-70.964634
 20
104.955335
 30
0.0
  0
VERTEX
  5
11DC1
  8
ALPHA
 10
-70.421231
 20
104.336006
 30
0.0
  0
VERTEX
  5
11DC2
  8
ALPHA
 10
-69.834499
 20
104.109812
 30
0.0
  0
VERTEX
  5
11DC3
  8
ALPHA
 10
-69.247767
 20
104.336006
 30
0.0
  0
VERTEX
  5
11DC4
  8
ALPHA
 10
-68.704373
 20
104.955335
 30
0.0
  0
VERTEX
  5
11DC5
  8
ALPHA
 10
-67.749918
 20
107.017873
 30
0.0
  0
VERTEX
  5
11DC6
  8
ALPHA
 10
-66.975782
 20
109.586374
 30
0.0
  0
VERTEX
  5
11DC7
  8
ALPHA
 10
-66.386612
 20
111.949789
 30
0.0
  0
SEQEND
  5
11DC8
  8
ALPHA
  0
LINE
  5
111BD
  8
AXE
 10
69.837124
 20
147.832779
 30
0.0
 11
69.837124
 21
40.832779
 31
0.0
  0
DIMENSION
  5
111BE
  8
COTATION1
  2
*D3
 10
144.957455
 20
44.832779
 30
0.0
 11
144.957455
 21
93.832779
 31
0.0
 13
69.837124
 23
142.832779
 33
0.0
 14
82.225404
 24
44.832779
 34
0.0
 50
90.0
  0
DIMENSION
  5
111BF
  8
COTATION1
  2
*D4
 10
106.957455
 20
0.832779
 30
0.0
 11
80.957455
 21
4.082779
 31
0.0
 13
54.957455
 23
66.832779
 33
0.0
 14
106.957455
 24
69.56483
 34
0.0
  0
DIMENSION
  5
111C0
  8
COTATION1
  2
*D5
 10
83.957455
 20
30.832779
 30
0.0
 11
99.582994
 21
30.832779
 31
0.0
 70
   128
  1
M<>
 13
71.957455
 23
45.832779
 33
0.0
 14
83.957455
 24
45.832779
 34
0.0
  0
LINE
  5
111C1
  8
POINTILLE_COURT
 10
94.957455
 20
78.75927
 30
0.0
 11
106.577246
 21
78.75927
 31
0.0
  0
LINE
  5
111C2
  8
POINTILLE_COURT
 10
105.957455
 20
79.832779
 30
0.0
 11
94.957455
 21
79.832779
 31
0.0
  0
LINE
  5
111C3
  8
POINTILLE_COURT
 10
94.957455
 20
68.906288
 30
0.0
 11
106.577246
 21
68.906288
 31
0.0
  0
LINE
  5
111C4
  8
POINTILLE_COURT
 10
105.957455
 20
67.832779
 30
0.0
 11
94.957455
 21
67.832779
 31
0.0
  0
TEXT
  5
111C5
  8
AXE
 10
90.981264
 20
92.832779
 30
0.0
 40
8.0
  1
X
 72
     2
 11
97.457455
 21
92.832779
 31
0.0
  0
LINE
  5
111C6
  8
AXE
 10
49.957455
 20
91.832779
 30
0.0
 11
97.457455
 21
91.832779
 31
0.0
  0
DIMENSION
  5
111C7
  8
COTATION1
  2
*D6
 10
114.957455
 20
66.832779
 30
0.0
 11
114.957455
 21
86.832779
 31
0.0
 13
86.337124
 23
106.832779
 33
0.0
 14
93.957455
 24
66.832779
 34
0.0
 50
90.0
  0
DIMENSION
  5
111C8
  8
COTATION1
  2
*D7
 10
84.957455
 20
10.832779
 30
0.0
 11
69.957455
 21
14.082779
 31
0.0
 13
54.957455
 23
66.832779
 33
0.0
 14
84.957455
 24
57.832779
 34
0.0
  0
DIMENSION
  5
111C9
  8
COTATION1
  2
*D8
 10
79.837124
 20
20.832779
 30
0.0
 11
69.837124
 21
24.082779
 31
0.0
 13
59.837124
 23
100.332779
 33
0.0
 14
79.837124
 24
100.332779
 34
0.0
  0
LINE
  5
111CA
  8
ALPHA
 10
84.957455
 20
80.832779
 30
0.0
 11
70.957455
 21
66.832779
 31
0.0
  0
LINE
  5
111CB
  8
POINTILLE_COURT
 10
93.957455
 20
80.832779
 30
0.0
 11
93.957455
 21
73.832779
 31
0.0
  0
LINE
  5
111CC
  8
POINTILLE_COURT
 10
94.957455
 20
79.832779
 30
0.0
 11
94.957455
 21
73.832779
 31
0.0
  0
LINE
  5
111CD
  8
ALPHA
 10
54.957455
 20
66.832779
 30
0.0
 11
54.957455
 21
114.832779
 31
0.0
  0
LINE
  5
111CE
  8
ALPHA
 10
84.957455
 20
57.832779
 30
0.0
 11
84.957455
 21
114.832779
 31
0.0
  0
LINE
  5
111CF
  8
ALPHA
 10
54.957455
 20
68.832779
 30
0.0
 11
72.957455
 21
68.832779
 31
0.0
  0
TEXT
  5
111D0
  8
AXE
 10
62.360933
 20
40.832779
 30
0.0
 40
8.0
  1
Y
 72
     2
 11
68.837124
 21
40.832779
 31
0.0
  0
LINE
  5
111D1
  8
ALPHA
 10
54.957455
 20
66.832779
 30
0.0
 11
84.957455
 21
66.832779
 31
0.0
  0
LINE
  5
111D2
  8
ALPHA
 10
71.957455
 20
45.832779
 30
0.0
 11
71.957455
 21
56.832779
 31
0.0
  0
LINE
  5
111D3
  8
ALPHA_FIN
 10
73.030964
 20
56.832779
 30
0.0
 11
73.030964
 21
45.212988
 31
0.0
  0
LINE
  5
111D4
  8
ALPHA
 10
83.957455
 20
45.832779
 30
0.0
 11
83.957455
 21
56.832779
 31
0.0
  0
LINE
  5
111D5
  8
ALPHA_FIN
 10
82.883946
 20
56.832779
 30
0.0
 11
82.883946
 21
45.212988
 31
0.0
  0
LINE
  5
111D6
  8
ALPHA
 10
77.957455
 20
45.832779
 30
0.0
 11
83.957455
 21
45.832779
 31
0.0
  0
LINE
  5
111D7
  8
ALPHA
 10
77.957455
 20
44.832779
 30
0.0
 11
82.225404
 21
44.832779
 31
0.0
  0
LINE
  5
111D8
  8
ALPHA
 10
71.957455
 20
45.832779
 30
0.0
 11
73.689506
 21
44.832779
 31
0.0
  0
LINE
  5
111D9
  8
ALPHA
 10
77.957455
 20
45.832779
 30
0.0
 11
71.957455
 21
45.832779
 31
0.0
  0
LINE
  5
111DA
  8
ALPHA
 10
77.957455
 20
44.832779
 30
0.0
 11
73.689506
 21
44.832779
 31
0.0
  0
LINE
  5
111DB
  8
ALPHA
 10
83.957455
 20
45.832779
 30
0.0
 11
82.225404
 21
44.832779
 31
0.0
  0
LINE
  5
111DC
  8
ALPHA
 10
83.957455
 20
56.832779
 30
0.0
 11
77.957455
 21
56.832779
 31
0.0
  0
LINE
  5
111DD
  8
ALPHA
 10
84.957455
 20
57.832779
 30
0.0
 11
77.957455
 21
57.832779
 31
0.0
  0
LINE
  5
111DE
  8
ALPHA
 10
70.957455
 20
66.832779
 30
0.0
 11
70.957455
 21
57.832779
 31
0.0
  0
LINE
  5
111DF
  8
ALPHA
 10
71.957455
 20
56.832779
 30
0.0
 11
70.957455
 21
57.832779
 31
0.0
  0
LINE
  5
111E0
  8
ALPHA
 10
70.957455
 20
57.832779
 30
0.0
 11
77.957455
 21
57.832779
 31
0.0
  0
LINE
  5
111E1
  8
ALPHA
 10
71.957455
 20
56.832779
 30
0.0
 11
77.957455
 21
56.832779
 31
0.0
  0
LINE
  5
111E2
  8
ALPHA
 10
83.957455
 20
56.832779
 30
0.0
 11
84.957455
 21
57.832779
 31
0.0
  0
LINE
  5
111E3
  8
POINTILLE_COURT
 10
84.957455
 20
66.832779
 30
0.0
 11
93.957455
 21
66.832779
 31
0.0
  0
LINE
  5
111E4
  8
POINTILLE_COURT
 10
94.957455
 20
67.832779
 30
0.0
 11
94.957455
 21
73.832779
 31
0.0
  0
LINE
  5
111E5
  8
POINTILLE_COURT
 10
93.957455
 20
66.832779
 30
0.0
 11
93.957455
 21
73.832779
 31
0.0
  0
LINE
  5
111E6
  8
POINTILLE_COURT
 10
94.957455
 20
67.832779
 30
0.0
 11
93.957455
 21
66.832779
 31
0.0
  0
LINE
  5
111E7
  8
ALPHA
 10
60.475283
 20
111.94979
 30
0.0
 11
69.342859
 21
111.94979
 31
0.0
  0
LINE
  5
111E8
  8
ALPHA
 10
79.194881
 20
114.116382
 30
0.0
 11
60.475283
 21
114.116382
 31
0.0
  0
DIMENSION
  5
111E9
  8
COTATION1
  2
*D9
 10
63.260729
 20
108.901335
 30
0.0
 11
33.776548
 21
93.482114
 31
0.0
 70
   131
 15
56.413518
 25
104.764223
 35
0.0
 40
0.0
  0
LINE
  5
111EA
  8
AXE
 10
53.337124
 20
106.832779
 30
0.0
 11
66.337124
 21
106.832779
 31
0.0
  0
CIRCLE
  5
111EB
  8
ALPHA
 10
59.837124
 20
106.832779
 30
0.0
 40
4.0
  0
ARC
  5
111EC
  8
ALPHA
 10
69.957455
 20
59.586399
 30
0.0
 40
57.246507
 50
74.809764
 51
105.190236
  0
LINE
  5
111F0
  8
AXE
 10
59.837124
 20
100.332779
 30
0.0
 11
59.837124
 21
113.332779
 31
0.0
  0
CIRCLE
  5
111F1
  8
ALPHA
 10
59.837124
 20
106.832779
 30
0.0
 40
2.1
  0
LINE
  5
111F2
  8
ALPHA
 10
60.475283
 20
114.116382
 30
0.0
 11
60.475283
 21
111.94979
 31
0.0
  0
LINE
  5
111F5
  8
POINTILLE_COURT
 10
93.957455
 20
80.832779
 30
0.0
 11
84.957455
 21
80.832779
 31
0.0
  0
LINE
  5
111F6
  8
POINTILLE_COURT
 10
94.957455
 20
79.832779
 30
0.0
 11
93.957455
 21
80.832779
 31
0.0
  0
LINE
  5
111F7
  8
AXE
 10
86.337124
 20
106.832779
 30
0.0
 11
73.337124
 21
106.832779
 31
0.0
  0
CIRCLE
  5
111F8
  8
ALPHA
 10
79.837124
 20
106.832779
 30
0.0
 40
2.1
  0
CIRCLE
  5
111F9
  8
ALPHA
 10
79.837124
 20
106.832779
 30
0.0
 40
4.0
  0
LINE
  5
111FA
  8
ALPHA
 10
70.327888
 20
111.94979
 30
0.0
 11
79.194881
 21
111.94979
 31
0.0
  0
LINE
  5
111FE
  8
ALPHA
 10
70.327888
 20
112.934817
 30
0.0
 11
70.327888
 21
111.94979
 31
0.0
  0
LINE
  5
111FF
  8
ALPHA
 10
69.342859
 20
112.934817
 30
0.0
 11
70.327888
 21
112.934817
 31
0.0
  0
LINE
  5
11200
  8
ALPHA
 10
69.342859
 20
111.94979
 30
0.0
 11
69.342859
 21
112.934817
 31
0.0
  0
LINE
  5
11203
  8
ALPHA
 10
79.194881
 20
111.94979
 30
0.0
 11
79.194881
 21
114.116382
 31
0.0
  0
LINE
  5
11207
  8
AXE
 10
79.837124
 20
100.332779
 30
0.0
 11
79.837124
 21
113.332779
 31
0.0
  0
LINE
  5
1120A
  8
POINTILLE_COURT
 10
106.957455
 20
73.832779
 30
0.0
 11
106.957455
 21
78.100728
 31
0.0
  0
LINE
  5
1120B
  8
POINTILLE_COURT
 10
105.957455
 20
73.832779
 30
0.0
 11
105.957455
 21
79.832779
 31
0.0
  0
LINE
  5
1120C
  8
POINTILLE_COURT
 10
106.957455
 20
73.832779
 30
0.0
 11
106.957455
 21
69.56483
 31
0.0
  0
LINE
  5
1120D
  8
POINTILLE_COURT
 10
105.957455
 20
73.832779
 30
0.0
 11
105.957455
 21
67.832779
 31
0.0
  0
LINE
  5
1120E
  8
POINTILLE_COURT
 10
105.957455
 20
67.832779
 30
0.0
 11
106.957455
 21
69.56483
 31
0.0
  0
LINE
  5
1120F
  8
POINTILLE_COURT
 10
105.957455
 20
79.832779
 30
0.0
 11
106.957455
 21
78.100728
 31
0.0
  0
LINE
  5
11B18
  8
ALPHA
 10
65.487116
 20
121.079131
 30
0.0
 11
65.487116
 21
123.086426
 31
0.0
  0
LINE
  5
11B19
  8
ALPHA
 10
78.537133
 20
121.079131
 30
0.0
 11
78.537133
 21
123.086426
 31
0.0
  0
LINE
  5
11B1A
  8
ALPHA
 10
74.187131
 20
121.079131
 30
0.0
 11
74.187131
 21
123.086426
 31
0.0
  0
LINE
  5
11B1B
  8
ALPHA
 10
61.137115
 20
121.079131
 30
0.0
 11
61.137115
 21
123.086426
 31
0.0
  0
ARC
  5
11B1C
  8
ALPHA
 10
69.837124
 20
133.38265
 30
0.0
 40
13.04987
 50
250.528552
 51
289.471449
  0
LINE
  5
11B1D
  8
ALPHA
 10
63.312131
 20
120.332779
 30
0.0
 11
76.362116
 21
120.332779
 31
0.0
  0
LINE
  5
11B1E
  8
ALPHA
 10
77.087124
 20
118.832779
 30
0.0
 11
69.837124
 21
118.832779
 31
0.0
  0
LINE
  5
11B1F
  8
ALPHA
 10
77.587124
 20
118.332779
 30
0.0
 11
69.837124
 21
118.332779
 31
0.0
  0
LINE
  5
11B20
  8
ALPHA
 10
62.087124
 20
118.332779
 30
0.0
 11
69.837124
 21
118.332779
 31
0.0
  0
LINE
  5
11B21
  8
ALPHA
 10
62.587124
 20
118.832779
 30
0.0
 11
69.837124
 21
118.832779
 31
0.0
  0
ARC
  5
11B22
  8
ALPHA
 10
63.312116
 20
123.875119
 30
0.0
 40
3.54234
 50
232.120619
 51
307.879383
  0
LINE
  5
11B23
  8
ALPHA
 10
63.837124
 20
120.332779
 30
0.0
 11
63.837124
 21
118.832779
 31
0.0
  0
LINE
  5
11B24
  8
ALPHA
 10
62.087124
 20
118.332779
 30
0.0
 11
62.587124
 21
118.832779
 31
0.0
  0
LINE
  5
11B25
  8
ALPHA
 10
62.087124
 20
118.332779
 30
0.0
 11
62.087124
 21
116.289312
 31
0.0
  0
LINE
  5
11B26
  8
ALPHA_FIN
 10
64.857224
 20
118.832779
 30
0.0
 11
64.857224
 21
120.332779
 31
0.0
  0
ARC
  5
11B27
  8
ALPHA
 10
76.362132
 20
123.875119
 30
0.0
 40
3.54234
 50
232.120619
 51
307.879383
  0
LINE
  5
11B28
  8
ALPHA_FIN
 10
74.817023
 20
118.832779
 30
0.0
 11
74.817023
 21
120.332779
 31
0.0
  0
LINE
  5
11B29
  8
ALPHA
 10
75.837124
 20
120.332779
 30
0.0
 11
75.837124
 21
118.832779
 31
0.0
  0
LINE
  5
11B2A
  8
ALPHA
 10
77.587124
 20
118.332779
 30
0.0
 11
77.087124
 21
118.832779
 31
0.0
  0
LINE
  5
11B2B
  8
ALPHA
 10
77.587124
 20
118.332779
 30
0.0
 11
77.587124
 21
116.322196
 31
0.0
  0
DIMENSION
  5
11B2C
  8
COTATION1
  2
*D13
 10
75.837124
 20
167.832779
 30
0.0
 11
46.599028
 21
167.832779
 31
0.0
 70
   128
  1
M<>x1
 13
63.837124
 23
136.466753
 33
0.0
 14
75.837124
 24
136.466753
 34
0.0
  0
DIMENSION
  5
11B2D
  8
COTATION1
  2
*D14
 10
73.337124
 20
157.832779
 30
0.0
 11
69.837124
 21
157.832779
 31
0.0
 70
   128
  1
%%c<>
 13
66.337124
 23
141.832779
 33
0.0
 14
73.337124
 24
141.832779
 34
0.0
  0
LINE
  5
11B2E
  8
ALPHA
 10
76.362116
 20
135.332779
 30
0.0
 11
63.312131
 21
135.332779
 31
0.0
  0
ARC
  5
11B2F
  8
ALPHA
 10
69.837124
 20
122.282907
 30
0.0
 40
13.04987
 50
70.52854
 51
109.471458
  0
LINE
  5
11B30
  8
ALPHA
 10
69.837124
 20
136.466753
 30
0.0
 11
75.837124
 21
136.466753
 31
0.0
  0
LINE
  5
11B31
  8
ALPHA
 10
74.337124
 20
137.332779
 30
0.0
 11
69.837124
 21
137.332779
 31
0.0
  0
ARC
  5
11B32
  8
ALPHA
 10
69.837124
 20
136.207779
 30
0.0
 40
6.625
 50
58.109208
 51
121.890792
  0
LINE
  5
11B33
  8
ALPHA
 10
73.337124
 20
141.832779
 30
0.0
 11
69.837124
 21
141.832779
 31
0.0
  0
LINE
  5
11B34
  8
ALPHA
 10
76.362116
 20
123.832779
 30
0.0
 11
63.312131
 21
123.832779
 31
0.0
  0
ARC
  5
11B35
  8
ALPHA
 10
69.837124
 20
110.782907
 30
0.0
 40
13.04987
 50
70.52854
 51
109.471458
  0
LINE
  5
11B36
  8
ALPHA
 10
63.312131
 20
131.832779
 30
0.0
 11
76.362116
 21
131.832779
 31
0.0
  0
ARC
  5
11B37
  8
ALPHA
 10
69.837124
 20
144.88265
 30
0.0
 40
13.04987
 50
250.528552
 51
289.471449
  0
LINE
  5
11B38
  8
ALPHA
 10
65.487116
 20
132.579131
 30
0.0
 11
65.487116
 21
134.586426
 31
0.0
  0
LINE
  5
11B39
  8
ALPHA
 10
61.137115
 20
132.579131
 30
0.0
 11
61.137115
 21
134.586426
 31
0.0
  0
ARC
  5
11B3A
  8
ALPHA
 10
63.312116
 20
135.375119
 30
0.0
 40
3.54234
 50
232.120619
 51
307.879383
  0
ARC
  5
11B3B
  8
ALPHA
 10
63.312116
 20
120.290438
 30
0.0
 40
3.54234
 50
52.120631
 51
127.879364
  0
LINE
  5
11B3C
  8
ALPHA
 10
63.837124
 20
131.832779
 30
0.0
 11
63.837124
 21
123.832779
 31
0.0
  0
LINE
  5
11B3D
  8
ALPHA_FIN
 10
64.857224
 20
123.832779
 30
0.0
 11
64.857224
 21
131.832779
 31
0.0
  0
LINE
  5
11B3E
  8
ALPHA
 10
69.837124
 20
136.466753
 30
0.0
 11
63.837124
 21
136.466753
 31
0.0
  0
LINE
  5
11B3F
  8
ALPHA
 10
63.837124
 20
136.466753
 30
0.0
 11
65.337124
 21
137.332779
 31
0.0
  0
ARC
  5
11B40
  8
ALPHA
 10
63.312116
 20
131.790438
 30
0.0
 40
3.54234
 50
52.120631
 51
127.879364
  0
LINE
  5
11B41
  8
ALPHA
 10
63.837124
 20
136.466753
 30
0.0
 11
63.837124
 21
135.332779
 31
0.0
  0
LINE
  5
11B42
  8
ALPHA
 10
66.337124
 20
141.832779
 30
0.0
 11
66.337124
 21
137.332779
 31
0.0
  0
LINE
  5
11B43
  8
ALPHA
 10
65.337124
 20
137.332779
 30
0.0
 11
69.837124
 21
137.332779
 31
0.0
  0
LINE
  5
11B44
  8
ALPHA_FIN
 10
64.857224
 20
135.332779
 30
0.0
 11
64.857224
 21
137.055709
 31
0.0
  0
LINE
  5
11B45
  8
ALPHA
 10
66.337124
 20
141.832779
 30
0.0
 11
69.837124
 21
141.832779
 31
0.0
  0
LINE
  5
11B46
  8
ALPHA
 10
78.537133
 20
132.579131
 30
0.0
 11
78.537133
 21
134.586426
 31
0.0
  0
LINE
  5
11B47
  8
ALPHA
 10
74.187131
 20
132.579131
 30
0.0
 11
74.187131
 21
134.586426
 31
0.0
  0
LINE
  5
11B48
  8
ALPHA_FIN
 10
74.817023
 20
123.832779
 30
0.0
 11
74.817023
 21
131.832779
 31
0.0
  0
LINE
  5
11B49
  8
ALPHA
 10
75.837124
 20
131.832779
 30
0.0
 11
75.837124
 21
123.832779
 31
0.0
  0
ARC
  5
11B4A
  8
ALPHA
 10
76.362132
 20
120.290438
 30
0.0
 40
3.54234
 50
52.120631
 51
127.879364
  0
ARC
  5
11B4B
  8
ALPHA
 10
76.362132
 20
135.375119
 30
0.0
 40
3.54234
 50
232.120619
 51
307.879383
  0
LINE
  5
11B4C
  8
ALPHA
 10
73.337124
 20
141.832779
 30
0.0
 11
73.337124
 21
137.332779
 31
0.0
  0
ARC
  5
11B4D
  8
ALPHA
 10
76.362132
 20
131.790438
 30
0.0
 40
3.54234
 50
52.120631
 51
127.879364
  0
LINE
  5
11B4E
  8
ALPHA
 10
75.837124
 20
136.466753
 30
0.0
 11
74.337124
 21
137.332779
 31
0.0
  0
LINE
  5
11B4F
  8
ALPHA_FIN
 10
74.817023
 20
135.332779
 30
0.0
 11
74.817023
 21
137.055709
 31
0.0
  0
LINE
  5
11B50
  8
ALPHA
 10
75.837124
 20
136.466753
 30
0.0
 11
75.837124
 21
135.332779
 31
0.0
  0
DIMENSION
  5
11B51
  8
COTATION1
  2
*D10
 10
134.957455
 20
118.832779
 30
0.0
 11
134.957455
 21
130.832779
 31
0.0
 70
   128
 13
69.837124
 23
142.832779
 33
0.0
 14
77.087124
 24
118.832779
 34
0.0
 50
90.0
  0
DIMENSION
  5
11B52
  8
COTATION1
  2
*D12
 10
114.957455
 20
131.832779
 30
0.0
 11
110.338407
 21
123.915837
 31
0.0
 70
   128
 13
76.362116
 23
135.332779
 33
0.0
 14
76.362116
 24
131.832779
 34
0.0
 50
90.0
1001
ACAD
1000
DSTYLE
1002
{
1070
   287
1070
     5
1070
   287
1070
     5
1070
   287
1070
     5
1070
   287
1070
     5
1070
   287
1070
     5
1070
   287
1070
     5
1070
   287
1070
     5
1070
   279
1070
     2
1002
}
  0
DIMENSION
  5
11B53
  8
COTATION1
  2
*D11
 10
134.957455
 20
66.832779
 30
0.0
 11
134.957455
 21
92.832779
 31
0.0
 13
77.087124
 23
118.832779
 33
0.0
 14
79.957455
 24
66.832779
 34
0.0
 50
90.0
  0
DIMENSION
  5
11BEF
  8
COTATION1
  2
*D15
 10
34.945025
 20
123.832779
 30
0.0
 11
34.945025
 21
127.832779
 31
0.0
 70
   128
  1
<> max.
 13
63.312131
 23
131.832779
 33
0.0
 14
63.312131
 24
123.832779
 34
0.0
 50
90.0
  0
DIMENSION
  5
11BF0
  8
COTATION1
  2
*D16
 10
61.242357
 20
105.272227
 30
0.0
 11
45.298723
 21
116.592548
 31
0.0
 70
   131
 15
58.431891
 25
108.39333
 35
0.0
 40
0.0
  0
DIMENSION
  5
11D04
  8
COTATION1
  2
*D17
 10
124.957455
 20
66.832779
 30
0.0
 11
124.957455
 21
91.832779
 31
0.0
 13
69.837124
 23
116.832779
 33
0.0
 14
103.957455
 24
66.832779
 34
0.0
 50
90.0
  0
VIEWPORT
  5
494D
 67
     1
  8
0
 10
4.995325
 20
6.556512
 30
0.0
 40
22.70986
 41
13.988421
 68
    -1
 69
     1
1001
ACAD
1000
MVIEW
1002
{
1070
    16
1010
0.0
1020
0.0
1030
0.0
1010
0.0
1020
0.0
1030
1.0
1040
0.0
1040
13.988421
1040
4.995325
1040
6.556512
1040
50.0
1040
0.0
1040
0.0
1070
     0
1070
   100
1070
     1
1070
     1
1070
     0
1070
     0
1070
     0
1070
     0
1040
0.0
1040
0.0
1040
0.0
1040
10.0
1040
10.0
1040
10.0
1040
10.0
1070
     0
1002
{
1002
}
1002
}
  0
ENDSEC
  0
EOF
