  0
SECTION
  2
HEADER
  9
$ACADVER
  1
AC1009
  9
$INSBASE
 10
402.590624
 20
-1.041018
 30
0.0
  9
$EXTMIN
 10
157.436678
 20
17.332779
 30
0.0
  9
$EXTMAX
 10
200.936678
 20
162.332779
 30
0.0
  9
$LIMMIN
 10
-407.970438
 20
-367.832444
  9
$LIMMAX
 10
429.804077
 20
234.370848
  9
$ORTHOMODE
 70
     1
  9
$REGENMODE
 70
     1
  9
$FILLMODE
 70
     1
  9
$QTEXTMODE
 70
     0
  9
$MIRRTEXT
 70
     1
  9
$DRAGMODE
 70
     2
  9
$LTSCALE
 40
10.0
  9
$OSMODE
 70
    37
  9
$ATTMODE
 70
     1
  9
$TEXTSIZE
 40
6.0
  9
$TRACEWID
 40
1.0
  9
$TEXTSTYLE
  7
ROMANS
  9
$CLAYER
  8
ALPHA
  9
$CELTYPE
  6
BYLAYER
  9
$CECOLOR
 62
   256
  9
$DIMSCALE
 40
1.0
  9
$DIMASZ
 40
5.0
  9
$DIMEXO
 40
2.0
  9
$DIMDLI
 40
0.38
  9
$DIMRND
 40
0.0
  9
$DIMDLE
 40
0.0
  9
$DIMEXE
 40
2.5
  9
$DIMTP
 40
0.0
  9
$DIMTM
 40
0.0
  9
$DIMTXT
 40
2.5
  9
$DIMCEN
 40
0.0
  9
$DIMTSZ
 40
0.0
  9
$DIMTOL
 70
     0
  9
$DIMLIM
 70
     0
  9
$DIMTIH
 70
     1
  9
$DIMTOH
 70
     1
  9
$DIMSE1
 70
     0
  9
$DIMSE2
 70
     0
  9
$DIMTAD
 70
     1
  9
$DIMZIN
 70
    12
  9
$DIMBLK
  1
OPEN30
  9
$DIMASO
 70
     1
  9
$DIMSHO
 70
     1
  9
$DIMPOST
  1

  9
$DIMAPOST
  1

  9
$DIMALT
 70
     0
  9
$DIMALTD
 70
     2
  9
$DIMALTF
 40
25.4
  9
$DIMLFAC
 40
1.0
  9
$DIMTOFL
 70
     0
  9
$DIMTVP
 40
0.0
  9
$DIMTIX
 70
     0
  9
$DIMSOXD
 70
     0
  9
$DIMSAH
 70
     0
  9
$DIMBLK1
  1

  9
$DIMBLK2
  1

  9
$DIMSTYLE
  2
SC_DEFAUT
  9
$DIMCLRD
 70
     0
  9
$DIMCLRE
 70
     0
  9
$DIMCLRT
 70
     0
  9
$DIMTFAC
 40
1.0
  9
$DIMGAP
 40
2.0
  9
$LUNITS
 70
     2
  9
$LUPREC
 70
     1
  9
$SKETCHINC
 40
0.1
  9
$FILLETRAD
 40
5.0
  9
$AUNITS
 70
     0
  9
$AUPREC
 70
     0
  9
$MENU
  1
acad
  9
$ELEVATION
 40
0.0
  9
$PELEVATION
 40
0.0
  9
$THICKNESS
 40
0.0
  9
$LIMCHECK
 70
     0
  9
$BLIPMODE
 70
     0
  9
$CHAMFERA
 40
0.0
  9
$CHAMFERB
 40
0.0
  9
$SKPOLY
 70
     0
  9
$TDCREATE
 40
2450373.687919
  9
$TDUPDATE
 40
2452850.650889
  9
$TDINDWG
 40
1.585191
  9
$TDUSRTIMER
 40
1.585191
  9
$USRTIMER
 70
     1
  9
$ANGBASE
 50
0.0
  9
$ANGDIR
 70
     0
  9
$PDMODE
 70
    32
  9
$PDSIZE
 40
0.0
  9
$PLINEWID
 40
0.0
  9
$COORDS
 70
     1
  9
$SPLFRAME
 70
     0
  9
$SPLINETYPE
 70
     6
  9
$SPLINESEGS
 70
     8
  9
$ATTDIA
 70
     0
  9
$ATTREQ
 70
     1
  9
$HANDLING
 70
     1
  9
$HANDSEED
  5
11CD2
  9
$SURFTAB1
 70
     6
  9
$SURFTAB2
 70
     6
  9
$SURFTYPE
 70
     6
  9
$SURFU
 70
     6
  9
$SURFV
 70
     6
  9
$UCSNAME
  2

  9
$UCSORG
 10
0.0
 20
0.0
 30
0.0
  9
$UCSXDIR
 10
1.0
 20
0.0
 30
0.0
  9
$UCSYDIR
 10
0.0
 20
1.0
 30
0.0
  9
$PUCSNAME
  2

  9
$PUCSORG
 10
0.0
 20
0.0
 30
0.0
  9
$PUCSXDIR
 10
1.0
 20
0.0
 30
0.0
  9
$PUCSYDIR
 10
0.0
 20
1.0
 30
0.0
  9
$USERI1
 70
     0
  9
$USERI2
 70
     0
  9
$USERI3
 70
     0
  9
$USERI4
 70
     0
  9
$USERI5
 70
     0
  9
$USERR1
 40
0.0
  9
$USERR2
 40
0.0
  9
$USERR3
 40
0.0
  9
$USERR4
 40
0.0
  9
$USERR5
 40
0.0
  9
$WORLDVIEW
 70
     1
  9
$SHADEDGE
 70
     3
  9
$SHADEDIF
 70
    70
  9
$TILEMODE
 70
     1
  9
$MAXACTVP
 70
    16
  9
$PLIMCHECK
 70
     0
  9
$PEXTMIN
 10
-1.452248
 20
-0.437698
 30
0.0
  9
$PEXTMAX
 10
12.749749
 20
8.310198
 30
0.0
  9
$PLIMMIN
 10
0.0
 20
0.0
  9
$PLIMMAX
 10
12.0
 20
9.0
  9
$UNITMODE
 70
     0
  9
$VISRETAIN
 70
     0
  9
$PLINEGEN
 70
     0
  9
$PSLTSCALE
 70
     0
  0
ENDSEC
  0
SECTION
  2
TABLES
  0
TABLE
  2
VPORT
 70
     2
  0
VPORT
  2
*ACTIVE
 70
     0
 10
0.0
 20
0.0
 11
1.0
 21
1.0
 12
179.178648
 22
89.824968
 13
0.0
 23
0.0
 14
1.0
 24
1.0
 15
10.0
 25
10.0
 16
0.0
 26
0.0
 36
1.0
 17
0.0
 27
0.0
 37
0.0
 40
146.288159
 41
1.56
 42
50.0
 43
0.0
 44
0.0
 50
0.0
 51
0.0
 71
     0
 72
   100
 73
     1
 74
     0
 75
     0
 76
     0
 77
     0
 78
     0
  0
ENDTAB
  0
TABLE
  2
LTYPE
 70
     3
  0
LTYPE
  2
CONTINUOUS
 70
     0
  3
Solid line
 72
    65
 73
     0
 40
0.0
  0
LTYPE
  2
AXES2
 70
     0
  3
___ _ ___ _ ___ _ ___ _ ___ _ ___ _ ___ _ ___ _
 72
    65
 73
     4
 40
1.125
 49
0.75
 49
-0.125
 49
0.125
 49
-0.125
  0
LTYPE
  2
CACHE2
 70
     0
  3
Caché (x.5) _ _ _ _ _ _ _ _ _ _ _ _ _ _ _ _ _
 72
    65
 73
     2
 40
0.1875
 49
0.125
 49
-0.0625
  0
ENDTAB
  0
TABLE
  2
LAYER
 70
     6
  0
LAYER
  2
0
 70
     0
 62
   255
  6
CONTINUOUS
  0
LAYER
  2
COTATION1
 70
     0
 62
     2
  6
CONTINUOUS
  0
LAYER
  2
AXE
 70
     0
 62
    80
  6
AXES2
  0
LAYER
  2
DEFPOINTS
 70
     0
 62
     7
  6
CONTINUOUS
  0
LAYER
  2
ALPHA
 70
     0
 62
   254
  6
CONTINUOUS
  0
LAYER
  2
ALPHA_FIN
 70
     0
 62
   255
  6
CONTINUOUS
  0
ENDTAB
  0
TABLE
  2
STYLE
 70
     2
  0
STYLE
  2
ROMANS
 70
     0
 40
0.0
 41
1.0
 50
0.0
 71
     0
 42
6.0
  3
romans
  4

  0
STYLE
  2
STANDARD
 70
     0
 40
0.2
 41
1.0
 50
0.0
 71
     0
 42
0.2
  3
txt
  4

  0
ENDTAB
  0
TABLE
  2
VIEW
 70
     0
  0
ENDTAB
  0
TABLE
  2
UCS
 70
     0
  0
ENDTAB
  0
TABLE
  2
APPID
 70
     1
  0
APPID
  2
ACAD
 70
     0
  0
ENDTAB
  0
TABLE
  2
DIMSTYLE
 70
     1
  0
DIMSTYLE
  2
SC_DEFAUT
 70
     0
  3

  4

  5
OPEN30
  6

  7

 40
1.0
 41
5.0
 42
2.0
 43
0.38
 44
2.5
 45
0.0
 46
0.0
 47
0.0
 48
0.0
140
2.5
141
0.0
142
0.0
143
25.4
144
1.0
145
0.0
146
1.0
147
2.0
 71
     0
 72
     0
 73
     1
 74
     1
 75
     0
 76
     0
 77
     1
 78
    12
170
     0
171
     2
172
     0
173
     0
174
     0
175
     0
176
     0
177
     0
178
     0
  0
ENDTAB
  0
ENDSEC
  0
SECTION
  2
BLOCKS
  0
BLOCK
  8
0
  2
$MODEL_SPACE
 70
     0
 10
0.0
 20
0.0
 30
0.0
  3
$MODEL_SPACE
  1

  0
ENDBLK
  5
11CCB
  8
0
  0
BLOCK
 67
     1
  8
0
  2
$PAPER_SPACE
 70
     0
 10
0.0
 20
0.0
 30
0.0
  3
$PAPER_SPACE
  1

  0
ENDBLK
  5
11CC9
 67
     1
  8
0
  0
BLOCK
  8
0
  2
COTE
 70
     0
 10
0.0
 20
0.0
 30
0.0
  3
COTE
  1

  0
ENDBLK
  5
F
  8
0
  0
BLOCK
  8
0
  2
FOND
 70
     0
 10
0.0
 20
0.0
 30
0.0
  3
FOND
  1

  0
ENDBLK
  5
75
  8
0
  0
BLOCK
  8
0
  2
_OPEN30
 70
     0
 10
0.0
 20
0.0
 30
0.0
  3
_OPEN30
  1

  0
LINE
  5
4B05
  8
COTATION1
 62
     0
 10
-1.0
 20
0.267949
 30
0.0
 11
0.0
 21
0.0
 31
0.0
1001
ACAD
1000
RTLwPs
1070
   158
  0
LINE
  5
4B06
  8
COTATION1
 62
     0
 10
0.0
 20
0.0
 30
0.0
 11
-1.0
 21
-0.267949
 31
0.0
1001
ACAD
1000
RTLwPs
1070
   158
  0
LINE
  5
4B07
  8
COTATION1
 62
     0
 10
0.0
 20
0.0
 30
0.0
 11
-1.0
 21
0.0
 31
0.0
1001
ACAD
1000
RTLwPs
1070
   158
  0
ENDBLK
  5
4B09
  8
0
  0
BLOCK
  8
0
  2
*D3
 70
     1
 10
0.0
 20
0.0
 30
0.0
  3
*D3
  1

  0
LINE
  5
11B0E
  8
COTATION1
 62
     0
 10
172.436678
 20
142.832779
 30
0.0
 11
200.936678
 21
142.832779
 31
0.0
1001
ACAD
1000
RTLwPs
1070
   158
  0
LINE
  5
11B0F
  8
COTATION1
 62
     0
 10
176.704627
 20
44.832779
 30
0.0
 11
200.936678
 21
44.832779
 31
0.0
1001
ACAD
1000
RTLwPs
1070
   158
  0
LINE
  5
11B10
  8
COTATION1
 62
     0
 10
198.436678
 20
137.832779
 30
0.0
 11
198.436678
 21
97.082779
 31
0.0
1001
ACAD
1000
RTLwPs
1070
   158
  0
LINE
  5
11B11
  8
COTATION1
 62
     0
 10
198.436678
 20
49.832779
 30
0.0
 11
198.436678
 21
90.582779
 31
0.0
1001
ACAD
1000
RTLwPs
1070
   158
  0
INSERT
  5
11B12
  8
COTATION1
 62
     0
  2
_OPEN30
 10
198.436678
 20
142.832779
 30
0.0
 41
5.0
 42
5.0
 43
5.0
 50
90.0
1001
ACAD
1000
RTLwPs
1070
   158
  0
INSERT
  5
11B13
  8
COTATION1
 62
     0
  2
_OPEN30
 10
198.436678
 20
44.832779
 30
0.0
 41
5.0
 42
5.0
 43
5.0
 50
270.0
1001
ACAD
1000
RTLwPs
1070
   158
  0
TEXT
  5
11B14
  8
COTATION1
 62
     0
 10
196.055725
 20
92.582779
 30
0.0
 40
2.5
  1
98
1001
ACAD
1000
MTEXTBEGIN
1070
    73
1070
     1
1070
    44
1040
1.0
1070
    74
1070
     0
1000
MTEXTEND
1000
MTEXTBEGIN
1070
    73
1070
     1
1070
    44
1040
1.0
1070
    74
1070
     0
1000
MTEXTEND
  0
POINT
  5
11B15
  8
DEFPOINTS
 62
     0
 10
170.436678
 20
142.832779
 30
0.0
  0
POINT
  5
11B16
  8
DEFPOINTS
 62
     0
 10
174.704627
 20
44.832779
 30
0.0
  0
POINT
  5
11B17
  8
DEFPOINTS
 62
     0
 10
198.436678
 20
44.832779
 30
0.0
  0
ENDBLK
  5
11259
  8
0
  0
BLOCK
  8
0
  2
*D4
 70
     1
 10
0.0
 20
0.0
 30
0.0
  3
*D4
  1

  0
LINE
  5
113A7
  8
COTATION1
 62
     0
 10
162.436678
 20
64.832779
 30
0.0
 11
162.436678
 21
17.332779
 31
0.0
1001
ACAD
1000
RTLwPs
1070
   158
  0
LINE
  5
113A8
  8
COTATION1
 62
     0
 10
178.436678
 20
64.832779
 30
0.0
 11
178.436678
 21
17.332779
 31
0.0
1001
ACAD
1000
RTLwPs
1070
   158
  0
LINE
  5
113A9
  8
COTATION1
 62
     0
 10
167.436678
 20
19.832779
 30
0.0
 11
173.436678
 21
19.832779
 31
0.0
1001
ACAD
1000
RTLwPs
1070
   158
  0
INSERT
  5
113AA
  8
COTATION1
 62
     0
  2
_OPEN30
 10
162.436678
 20
19.832779
 30
0.0
 41
5.0
 42
5.0
 43
5.0
 50
180.0
1001
ACAD
1000
RTLwPs
1070
   158
  0
INSERT
  5
113AB
  8
COTATION1
 62
     0
  2
_OPEN30
 10
178.436678
 20
19.832779
 30
0.0
 41
5.0
 42
5.0
 43
5.0
1001
ACAD
1000
RTLwPs
1070
   158
  0
TEXT
  5
113AC
  8
COTATION1
 62
     0
 10
167.877154
 20
21.832779
 30
0.0
 40
2.5
  1
16
1001
ACAD
1000
MTEXTBEGIN
1070
    73
1070
     1
1070
    44
1040
1.0
1070
    74
1070
     0
1000
MTEXTEND
1000
MTEXTBEGIN
1070
    73
1070
     1
1070
    44
1040
1.0
1070
    74
1070
     0
1000
MTEXTEND
1000
MTEXTBEGIN
1070
    73
1070
     1
1070
    44
1040
1.0
1070
    74
1070
     0
1000
MTEXTEND
  0
POINT
  5
113AD
  8
DEFPOINTS
 62
     0
 10
162.436678
 20
66.832779
 30
0.0
  0
POINT
  5
113AE
  8
DEFPOINTS
 62
     0
 10
178.436678
 20
66.832779
 30
0.0
  0
POINT
  5
113AF
  8
DEFPOINTS
 62
     0
 10
178.436678
 20
19.832779
 30
0.0
  0
ENDBLK
  5
112CF
  8
0
  0
BLOCK
  8
0
  2
*D5
 70
     1
 10
0.0
 20
0.0
 30
0.0
  3
*D5
  1

  0
LINE
  5
11B05
  8
COTATION1
 62
     0
 10
161.736669
 20
136.586426
 30
0.0
 11
161.736669
 21
160.332779
 31
0.0
1001
ACAD
1000
RTLwPs
1070
   158
  0
LINE
  5
11B06
  8
COTATION1
 62
     0
 10
179.136687
 20
136.586426
 30
0.0
 11
179.136687
 21
160.332779
 31
0.0
1001
ACAD
1000
RTLwPs
1070
   158
  0
LINE
  5
11B07
  8
COTATION1
 62
     0
 10
166.736669
 20
157.832779
 30
0.0
 11
174.136687
 21
157.832779
 31
0.0
1001
ACAD
1000
RTLwPs
1070
   158
  0
INSERT
  5
11B08
  8
COTATION1
 62
     0
  2
_OPEN30
 10
161.736669
 20
157.832779
 30
0.0
 41
5.0
 42
5.0
 43
5.0
 50
180.0
1001
ACAD
1000
RTLwPs
1070
   158
  0
INSERT
  5
11B09
  8
COTATION1
 62
     0
  2
_OPEN30
 10
179.136687
 20
157.832779
 30
0.0
 41
5.0
 42
5.0
 43
5.0
1001
ACAD
1000
RTLwPs
1070
   158
  0
TEXT
  5
11B0A
  8
COTATION1
 62
     0
 10
166.031916
 20
159.832779
 30
0.0
 40
2.5
  1
17.4
1001
ACAD
1000
MTEXTBEGIN
1070
    73
1070
     1
1070
    44
1040
1.0
1070
    74
1070
     0
1000
MTEXTEND
1000
MTEXTBEGIN
1070
    73
1070
     1
1070
    44
1040
1.0
1070
    74
1070
     0
1000
MTEXTEND
  0
POINT
  5
11B0B
  8
DEFPOINTS
 62
     0
 10
161.736669
 20
134.586426
 30
0.0
  0
POINT
  5
11B0C
  8
DEFPOINTS
 62
     0
 10
179.136687
 20
134.586426
 30
0.0
  0
POINT
  5
11B0D
  8
DEFPOINTS
 62
     0
 10
179.136687
 20
157.832779
 30
0.0
  0
ENDBLK
  5
11B04
  8
0
  0
ENDSEC
  0
SECTION
  2
ENTITIES
  0
INSERT
  5
A
  8
0
  2
COTE
 10
0.0
 20
0.0
 30
0.0
  0
INSERT
  5
17
  8
0
  2
COTE
 10
284.010391
 20
6.373258
 30
0.0
  0
INSERT
  5
72
  8
0
  2
FOND
 10
0.0
 20
0.0
 30
0.0
  0
LINE
  5
111B8
  8
AXE
 10
170.436678
 20
147.832779
 30
0.0
 11
170.436678
 21
29.832779
 31
0.0
  0
DIMENSION
  5
111BB
  8
COTATION1
  2
*D3
 10
198.436678
 20
44.832779
 30
0.0
 11
198.436678
 21
93.832779
 31
0.0
 13
170.436678
 23
142.832779
 33
0.0
 14
174.704627
 24
44.832779
 34
0.0
 50
90.0
  0
DIMENSION
  5
11208
  8
COTATION1
  2
*D4
 10
178.436678
 20
19.832779
 30
0.0
 11
170.436678
 21
23.082779
 31
0.0
 13
162.436678
 23
66.832779
 33
0.0
 14
178.436678
 24
66.832779
 34
0.0
  0
LINE
  5
11209
  8
AXE
 10
157.436678
 20
91.832779
 30
0.0
 11
190.936678
 21
91.832779
 31
0.0
  0
LINE
  5
11210
  8
ALPHA
 10
178.436678
 20
66.832779
 30
0.0
 11
178.436678
 21
116.832779
 31
0.0
  0
LINE
  5
11211
  8
ALPHA
 10
162.436678
 20
66.832779
 30
0.0
 11
162.436678
 21
116.832779
 31
0.0
  0
LINE
  5
11212
  8
ALPHA_FIN
 10
175.363169
 20
56.832779
 30
0.0
 11
175.363169
 21
45.212988
 31
0.0
  0
LINE
  5
11213
  8
ALPHA
 10
176.436678
 20
45.832779
 30
0.0
 11
176.436678
 21
56.832779
 31
0.0
  0
LINE
  5
11214
  8
ALPHA_FIN
 10
165.510187
 20
56.832779
 30
0.0
 11
165.510187
 21
45.212988
 31
0.0
  0
LINE
  5
11215
  8
ALPHA
 10
164.436678
 20
45.832779
 30
0.0
 11
164.436678
 21
56.832779
 31
0.0
  0
TEXT
  5
11216
  8
AXE
 10
162.960487
 20
29.948358
 30
0.0
 40
8.0
  1
Y
 72
     2
 11
169.436678
 21
29.948358
 31
0.0
  0
LINE
  5
11217
  8
ALPHA
 10
170.436678
 20
44.832779
 30
0.0
 11
166.168729
 21
44.832779
 31
0.0
  0
LINE
  5
11218
  8
ALPHA
 10
170.436678
 20
45.832779
 30
0.0
 11
164.436678
 21
45.832779
 31
0.0
  0
LINE
  5
11219
  8
ALPHA
 10
164.436678
 20
45.832779
 30
0.0
 11
166.168729
 21
44.832779
 31
0.0
  0
LINE
  5
1121A
  8
ALPHA
 10
176.436678
 20
45.832779
 30
0.0
 11
174.704627
 21
44.832779
 31
0.0
  0
LINE
  5
1121B
  8
ALPHA
 10
170.436678
 20
44.832779
 30
0.0
 11
174.704627
 21
44.832779
 31
0.0
  0
LINE
  5
1121C
  8
ALPHA
 10
170.436678
 20
45.832779
 30
0.0
 11
176.436678
 21
45.832779
 31
0.0
  0
LINE
  5
1121D
  8
ALPHA
 10
162.436678
 20
68.832779
 30
0.0
 11
178.436678
 21
68.832779
 31
0.0
  0
LINE
  5
1121E
  8
ALPHA
 10
162.436678
 20
66.832779
 30
0.0
 11
178.436678
 21
66.832779
 31
0.0
  0
LINE
  5
1121F
  8
ALPHA
 10
177.436678
 20
66.832779
 30
0.0
 11
177.436678
 21
57.832779
 31
0.0
  0
LINE
  5
11220
  8
ALPHA
 10
163.436678
 20
66.832779
 30
0.0
 11
163.436678
 21
57.832779
 31
0.0
  0
LINE
  5
11221
  8
ALPHA
 10
163.436678
 20
57.832779
 30
0.0
 11
170.436678
 21
57.832779
 31
0.0
  0
LINE
  5
11222
  8
ALPHA
 10
164.436678
 20
56.832779
 30
0.0
 11
170.436678
 21
56.832779
 31
0.0
  0
LINE
  5
11223
  8
ALPHA
 10
164.436678
 20
56.832779
 30
0.0
 11
163.436678
 21
57.832779
 31
0.0
  0
LINE
  5
11224
  8
ALPHA
 10
176.436678
 20
56.832779
 30
0.0
 11
177.436678
 21
57.832779
 31
0.0
  0
LINE
  5
11225
  8
ALPHA
 10
177.436678
 20
57.832779
 30
0.0
 11
170.436678
 21
57.832779
 31
0.0
  0
LINE
  5
11226
  8
ALPHA
 10
176.436678
 20
56.832779
 30
0.0
 11
170.436678
 21
56.832779
 31
0.0
  0
TEXT
  5
11227
  8
AXE
 10
184.460487
 20
92.832779
 30
0.0
 40
8.0
  1
Z
 72
     2
 11
190.936678
 21
92.832779
 31
0.0
  0
LINE
  5
11228
  8
ALPHA
 10
162.436678
 20
80.832779
 30
0.0
 11
178.436678
 21
80.832779
 31
0.0
  0
LINE
  5
11ABB
  8
ALPHA
 10
166.08667
 20
121.079131
 30
0.0
 11
166.08667
 21
123.086426
 31
0.0
  0
LINE
  5
11ABC
  8
ALPHA
 10
161.736669
 20
121.079131
 30
0.0
 11
161.736669
 21
123.086426
 31
0.0
  0
LINE
  5
11ABD
  8
ALPHA
 10
174.786685
 20
121.079131
 30
0.0
 11
174.786685
 21
123.086426
 31
0.0
  0
LINE
  5
11ABE
  8
ALPHA
 10
179.136687
 20
121.079131
 30
0.0
 11
179.136687
 21
123.086426
 31
0.0
  0
LINE
  5
11ABF
  8
ALPHA
 10
163.911685
 20
120.332779
 30
0.0
 11
176.96167
 21
120.332779
 31
0.0
  0
LINE
  5
11AC0
  8
ALPHA
 10
162.436678
 20
114.832779
 30
0.0
 11
178.436678
 21
114.832779
 31
0.0
  0
LINE
  5
11AC1
  8
ALPHA
 10
162.686678
 20
116.289312
 30
0.0
 11
178.186678
 21
116.289312
 31
0.0
  0
LINE
  5
11AC2
  8
ALPHA
 10
177.686678
 20
118.832779
 30
0.0
 11
170.436678
 21
118.832779
 31
0.0
  0
LINE
  5
11AC3
  8
ALPHA
 10
178.186678
 20
118.332779
 30
0.0
 11
170.436678
 21
118.332779
 31
0.0
  0
ARC
  5
11AC4
  8
ALPHA
 10
176.961686
 20
123.875119
 30
0.0
 40
3.54234
 50
232.120618
 51
307.879383
  0
LINE
  5
11AC5
  8
ALPHA
 10
162.686678
 20
118.332779
 30
0.0
 11
170.436678
 21
118.332779
 31
0.0
  0
LINE
  5
11AC6
  8
ALPHA
 10
163.186678
 20
118.832779
 30
0.0
 11
170.436678
 21
118.832779
 31
0.0
  0
ARC
  5
11AC7
  8
ALPHA
 10
170.436678
 20
133.38265
 30
0.0
 40
13.04987
 50
250.528552
 51
289.471449
  0
ARC
  5
11AC8
  8
ALPHA
 10
163.91167
 20
123.875119
 30
0.0
 40
3.54234
 50
232.120618
 51
307.879383
  0
LINE
  5
11AC9
  8
ALPHA
 10
164.436678
 20
120.332779
 30
0.0
 11
164.436678
 21
118.832779
 31
0.0
  0
LINE
  5
11ACA
  8
ALPHA
 10
162.686678
 20
118.332779
 30
0.0
 11
163.186678
 21
118.832779
 31
0.0
  0
LINE
  5
11ACB
  8
ALPHA
 10
162.686678
 20
118.332779
 30
0.0
 11
162.686678
 21
116.289312
 31
0.0
  0
LINE
  5
11ACC
  8
ALPHA
 10
162.686678
 20
117.732779
 30
0.0
 11
162.686678
 21
116.289312
 31
0.0
  0
LINE
  5
11ACD
  8
ALPHA
 10
162.436678
 20
116.832779
 30
0.0
 11
162.686678
 21
116.832779
 31
0.0
  0
LINE
  5
11ACE
  8
ALPHA_FIN
 10
165.456778
 20
118.832779
 30
0.0
 11
165.456778
 21
120.332779
 31
0.0
  0
LINE
  5
11ACF
  8
ALPHA_FIN
 10
175.416577
 20
118.832779
 30
0.0
 11
175.416577
 21
120.332779
 31
0.0
  0
LINE
  5
11AD0
  8
ALPHA
 10
178.186678
 20
118.332779
 30
0.0
 11
177.686678
 21
118.832779
 31
0.0
  0
LINE
  5
11AD1
  8
ALPHA
 10
178.186678
 20
118.332779
 30
0.0
 11
178.186678
 21
116.322196
 31
0.0
  0
LINE
  5
11AD2
  8
ALPHA
 10
178.186678
 20
117.732779
 30
0.0
 11
178.186678
 21
116.322196
 31
0.0
  0
LINE
  5
11AD3
  8
ALPHA
 10
178.186678
 20
116.832779
 30
0.0
 11
178.436678
 21
116.832779
 31
0.0
  0
LINE
  5
11AD4
  8
ALPHA
 10
176.436678
 20
120.332779
 30
0.0
 11
176.436678
 21
118.832779
 31
0.0
  0
LINE
  5
11AD5
  8
ALPHA
 10
170.436678
 20
136.466753
 30
0.0
 11
176.436678
 21
136.466753
 31
0.0
  0
LINE
  5
11AD6
  8
ALPHA
 10
176.436678
 20
136.466753
 30
0.0
 11
174.936678
 21
137.332779
 31
0.0
  0
LINE
  5
11AD7
  8
ALPHA
 10
176.96167
 20
135.332779
 30
0.0
 11
163.911685
 21
135.332779
 31
0.0
  0
LINE
  5
11AD8
  8
ALPHA
 10
176.96167
 20
123.832779
 30
0.0
 11
163.911685
 21
123.832779
 31
0.0
  0
LINE
  5
11AD9
  8
ALPHA
 10
163.911685
 20
131.832779
 30
0.0
 11
176.96167
 21
131.832779
 31
0.0
  0
ARC
  5
11ADA
  8
ALPHA
 10
176.961686
 20
135.375119
 30
0.0
 40
3.54234
 50
232.120618
 51
307.879383
  0
ARC
  5
11ADB
  8
ALPHA
 10
176.961686
 20
120.290438
 30
0.0
 40
3.54234
 50
52.120631
 51
127.879364
  0
ARC
  5
11ADC
  8
ALPHA
 10
176.961686
 20
131.790438
 30
0.0
 40
3.54234
 50
52.120631
 51
127.879364
  0
DIMENSION
  5
11ADD
  8
COTATION1
  2
*D5
 10
179.136687
 20
157.832779
 30
0.0
 11
170.436678
 21
161.082779
 31
0.0
 13
161.736669
 23
134.586426
 33
0.0
 14
179.136687
 24
134.586426
 34
0.0
  0
LINE
  5
11ADE
  8
ALPHA
 10
161.736669
 20
132.579131
 30
0.0
 11
161.736669
 21
134.586426
 31
0.0
  0
LINE
  5
11ADF
  8
ALPHA
 10
166.08667
 20
132.579131
 30
0.0
 11
166.08667
 21
134.586426
 31
0.0
  0
LINE
  5
11AE0
  8
ALPHA
 10
174.786685
 20
132.579131
 30
0.0
 11
174.786685
 21
134.586426
 31
0.0
  0
ARC
  5
11AE1
  8
ALPHA
 10
170.436678
 20
110.782907
 30
0.0
 40
13.04987
 50
70.52854
 51
109.471458
  0
ARC
  5
11AE2
  8
ALPHA
 10
170.436678
 20
144.88265
 30
0.0
 40
13.04987
 50
250.528552
 51
289.471449
  0
LINE
  5
11AE3
  8
ALPHA
 10
164.436678
 20
131.832779
 30
0.0
 11
164.436678
 21
123.832779
 31
0.0
  0
LINE
  5
11AE4
  8
ALPHA_FIN
 10
165.456778
 20
123.832779
 30
0.0
 11
165.456778
 21
131.832779
 31
0.0
  0
ARC
  5
11AE5
  8
ALPHA
 10
163.91167
 20
120.290438
 30
0.0
 40
3.54234
 50
52.120631
 51
127.879364
  0
ARC
  5
11AE6
  8
ALPHA
 10
163.91167
 20
135.375119
 30
0.0
 40
3.54234
 50
232.120618
 51
307.879383
  0
LINE
  5
11AE7
  8
ALPHA_FIN
 10
175.416577
 20
123.832779
 30
0.0
 11
175.416577
 21
131.832779
 31
0.0
  0
LINE
  5
11AE8
  8
ALPHA
 10
170.436678
 20
136.466753
 30
0.0
 11
164.436678
 21
136.466753
 31
0.0
  0
ARC
  5
11AE9
  8
ALPHA
 10
170.436678
 20
122.282907
 30
0.0
 40
13.04987
 50
70.52854
 51
109.471458
  0
LINE
  5
11AEA
  8
ALPHA
 10
165.936678
 20
137.332779
 30
0.0
 11
170.436678
 21
137.332779
 31
0.0
  0
ARC
  5
11AEB
  8
ALPHA
 10
170.436678
 20
136.207779
 30
0.0
 40
6.625
 50
58.109208
 51
121.890792
  0
LINE
  5
11AEC
  8
ALPHA
 10
166.936678
 20
141.832779
 30
0.0
 11
170.436678
 21
141.832779
 31
0.0
  0
LINE
  5
11AED
  8
ALPHA
 10
166.936678
 20
141.832779
 30
0.0
 11
166.936678
 21
137.332779
 31
0.0
  0
ARC
  5
11AEE
  8
ALPHA
 10
163.91167
 20
131.790438
 30
0.0
 40
3.54234
 50
52.120631
 51
127.879364
  0
LINE
  5
11AEF
  8
ALPHA
 10
164.436678
 20
136.466753
 30
0.0
 11
165.936678
 21
137.332779
 31
0.0
  0
LINE
  5
11AF0
  8
ALPHA
 10
164.436678
 20
136.466753
 30
0.0
 11
164.436678
 21
135.332779
 31
0.0
  0
LINE
  5
11AF1
  8
ALPHA_FIN
 10
165.456778
 20
135.332779
 30
0.0
 11
165.456778
 21
137.055709
 31
0.0
  0
LINE
  5
11AF2
  8
ALPHA
 10
173.936678
 20
141.832779
 30
0.0
 11
173.936678
 21
137.332779
 31
0.0
  0
LINE
  5
11AF3
  8
ALPHA
 10
174.936678
 20
137.332779
 30
0.0
 11
170.436678
 21
137.332779
 31
0.0
  0
LINE
  5
11AF4
  8
ALPHA_FIN
 10
175.416577
 20
135.332779
 30
0.0
 11
175.416577
 21
137.055709
 31
0.0
  0
LINE
  5
11AF5
  8
ALPHA
 10
173.936678
 20
141.832779
 30
0.0
 11
170.436678
 21
141.832779
 31
0.0
  0
LINE
  5
11AF6
  8
ALPHA
 10
179.136687
 20
132.579131
 30
0.0
 11
179.136687
 21
134.586426
 31
0.0
  0
LINE
  5
11AF7
  8
ALPHA
 10
176.436678
 20
131.832779
 30
0.0
 11
176.436678
 21
123.832779
 31
0.0
  0
LINE
  5
11AF8
  8
ALPHA
 10
176.436678
 20
136.466753
 30
0.0
 11
176.436678
 21
135.332779
 31
0.0
  0
VIEWPORT
  5
494D
 67
     1
  8
0
 10
4.995325
 20
6.556512
 30
0.0
 40
22.70986
 41
13.988421
 68
    -1
 69
     1
1001
ACAD
1000
MVIEW
1002
{
1070
    16
1010
0.0
1020
0.0
1030
0.0
1010
0.0
1020
0.0
1030
1.0
1040
0.0
1040
13.988421
1040
4.995325
1040
6.556512
1040
50.0
1040
0.0
1040
0.0
1070
     0
1070
   100
1070
     1
1070
     1
1070
     0
1070
     0
1070
     0
1070
     0
1040
0.0
1040
0.0
1040
0.0
1040
10.0
1040
10.0
1040
10.0
1040
10.0
1070
     0
1002
{
1002
}
1002
}
  0
ENDSEC
  0
EOF
