  0
SECTION
  2
HEADER
  9
$ACADVER
  1
AC1009
  9
$INSBASE
 10
402.590624
 20
-1.041018
 30
0.0
  9
$EXTMIN
 10
1085.231944
 20
-3.612993
 30
0.0
  9
$EXTMAX
 10
1170.779563
 20
215.728457
 30
0.0
  9
$LIMMIN
 10
-407.970438
 20
-367.832444
  9
$LIMMAX
 10
429.804077
 20
234.370848
  9
$ORTHOMODE
 70
     1
  9
$REGENMODE
 70
     1
  9
$FILLMODE
 70
     1
  9
$QTEXTMODE
 70
     0
  9
$MIRRTEXT
 70
     1
  9
$DRAGMODE
 70
     2
  9
$LTSCALE
 40
10.0
  9
$OSMODE
 70
   161
  9
$ATTMODE
 70
     1
  9
$TEXTSIZE
 40
6.0
  9
$TRACEWID
 40
1.0
  9
$TEXTSTYLE
  7
ROMANS
  9
$CLAYER
  8
ALPHA
  9
$CELTYPE
  6
BYLAYER
  9
$CECOLOR
 62
   256
  9
$DIMSCALE
 40
1.0
  9
$DIMASZ
 40
5.0
  9
$DIMEXO
 40
2.0
  9
$DIMDLI
 40
0.38
  9
$DIMRND
 40
0.0
  9
$DIMDLE
 40
0.0
  9
$DIMEXE
 40
2.5
  9
$DIMTP
 40
0.0
  9
$DIMTM
 40
0.0
  9
$DIMTXT
 40
2.5
  9
$DIMCEN
 40
0.0
  9
$DIMTSZ
 40
0.0
  9
$DIMTOL
 70
     0
  9
$DIMLIM
 70
     0
  9
$DIMTIH
 70
     1
  9
$DIMTOH
 70
     1
  9
$DIMSE1
 70
     0
  9
$DIMSE2
 70
     0
  9
$DIMTAD
 70
     1
  9
$DIMZIN
 70
    12
  9
$DIMBLK
  1
OPEN30
  9
$DIMASO
 70
     1
  9
$DIMSHO
 70
     1
  9
$DIMPOST
  1

  9
$DIMAPOST
  1

  9
$DIMALT
 70
     0
  9
$DIMALTD
 70
     2
  9
$DIMALTF
 40
25.4
  9
$DIMLFAC
 40
1.0
  9
$DIMTOFL
 70
     0
  9
$DIMTVP
 40
0.0
  9
$DIMTIX
 70
     0
  9
$DIMSOXD
 70
     0
  9
$DIMSAH
 70
     0
  9
$DIMBLK1
  1

  9
$DIMBLK2
  1

  9
$DIMSTYLE
  2
SC_DEFAUT
  9
$DIMCLRD
 70
     0
  9
$DIMCLRE
 70
     0
  9
$DIMCLRT
 70
     0
  9
$DIMTFAC
 40
1.0
  9
$DIMGAP
 40
2.0
  9
$LUNITS
 70
     2
  9
$LUPREC
 70
     1
  9
$SKETCHINC
 40
0.1
  9
$FILLETRAD
 40
0.0
  9
$AUNITS
 70
     0
  9
$AUPREC
 70
     0
  9
$MENU
  1
acad
  9
$ELEVATION
 40
0.0
  9
$PELEVATION
 40
0.0
  9
$THICKNESS
 40
0.0
  9
$LIMCHECK
 70
     0
  9
$BLIPMODE
 70
     0
  9
$CHAMFERA
 40
0.0
  9
$CHAMFERB
 40
0.0
  9
$SKPOLY
 70
     0
  9
$TDCREATE
 40
2450373.687919
  9
$TDUPDATE
 40
2452831.584437
  9
$TDINDWG
 40
0.814785
  9
$TDUSRTIMER
 40
0.814785
  9
$USRTIMER
 70
     1
  9
$ANGBASE
 50
0.0
  9
$ANGDIR
 70
     0
  9
$PDMODE
 70
    32
  9
$PDSIZE
 40
0.0
  9
$PLINEWID
 40
0.0
  9
$COORDS
 70
     1
  9
$SPLFRAME
 70
     0
  9
$SPLINETYPE
 70
     6
  9
$SPLINESEGS
 70
     8
  9
$ATTDIA
 70
     0
  9
$ATTREQ
 70
     1
  9
$HANDLING
 70
     1
  9
$HANDSEED
  5
7650
  9
$SURFTAB1
 70
     6
  9
$SURFTAB2
 70
     6
  9
$SURFTYPE
 70
     6
  9
$SURFU
 70
     6
  9
$SURFV
 70
     6
  9
$UCSNAME
  2

  9
$UCSORG
 10
0.0
 20
0.0
 30
0.0
  9
$UCSXDIR
 10
1.0
 20
0.0
 30
0.0
  9
$UCSYDIR
 10
0.0
 20
1.0
 30
0.0
  9
$PUCSNAME
  2

  9
$PUCSORG
 10
0.0
 20
0.0
 30
0.0
  9
$PUCSXDIR
 10
1.0
 20
0.0
 30
0.0
  9
$PUCSYDIR
 10
0.0
 20
1.0
 30
0.0
  9
$USERI1
 70
     0
  9
$USERI2
 70
     0
  9
$USERI3
 70
     0
  9
$USERI4
 70
     0
  9
$USERI5
 70
     0
  9
$USERR1
 40
0.0
  9
$USERR2
 40
0.0
  9
$USERR3
 40
0.0
  9
$USERR4
 40
0.0
  9
$USERR5
 40
0.0
  9
$WORLDVIEW
 70
     1
  9
$SHADEDGE
 70
     3
  9
$SHADEDIF
 70
    70
  9
$TILEMODE
 70
     1
  9
$MAXACTVP
 70
    16
  9
$PLIMCHECK
 70
     0
  9
$PEXTMIN
 10
-1.452248
 20
-0.437698
 30
0.0
  9
$PEXTMAX
 10
12.749749
 20
8.310198
 30
0.0
  9
$PLIMMIN
 10
0.0
 20
0.0
  9
$PLIMMAX
 10
12.0
 20
9.0
  9
$UNITMODE
 70
     0
  9
$VISRETAIN
 70
     0
  9
$PLINEGEN
 70
     0
  9
$PSLTSCALE
 70
     0
  0
ENDSEC
  0
SECTION
  2
TABLES
  0
TABLE
  2
VPORT
 70
     2
  0
VPORT
  2
*ACTIVE
 70
     0
 10
0.0
 20
0.0
 11
1.0
 21
1.0
 12
1127.994755
 22
106.043364
 13
0.0
 23
0.0
 14
1.0
 24
1.0
 15
10.0
 25
10.0
 16
0.0
 26
0.0
 36
1.0
 17
0.0
 27
0.0
 37
0.0
 40
221.262579
 41
1.56
 42
50.0
 43
0.0
 44
0.0
 50
0.0
 51
0.0
 71
     0
 72
   100
 73
     1
 74
     0
 75
     0
 76
     0
 77
     0
 78
     0
  0
ENDTAB
  0
TABLE
  2
LTYPE
 70
     3
  0
LTYPE
  2
CONTINUOUS
 70
     0
  3
Solid line
 72
    65
 73
     0
 40
0.0
  0
LTYPE
  2
AXES2
 70
     0
  3
___ _ ___ _ ___ _ ___ _ ___ _ ___ _ ___ _ ___ _
 72
    65
 73
     4
 40
1.125
 49
0.75
 49
-0.125
 49
0.125
 49
-0.125
  0
LTYPE
  2
CACHE2
 70
     0
  3
Caché (x.5) _ _ _ _ _ _ _ _ _ _ _ _ _ _ _ _ _
 72
    65
 73
     2
 40
0.1875
 49
0.125
 49
-0.0625
  0
ENDTAB
  0
TABLE
  2
LAYER
 70
     7
  0
LAYER
  2
0
 70
     0
 62
   255
  6
CONTINUOUS
  0
LAYER
  2
COTATION1
 70
     0
 62
     2
  6
CONTINUOUS
  0
LAYER
  2
AXE
 70
     0
 62
    80
  6
AXES2
  0
LAYER
  2
DEFPOINTS
 70
     0
 62
     7
  6
CONTINUOUS
  0
LAYER
  2
ALPHA
 70
     0
 62
   254
  6
CONTINUOUS
  0
LAYER
  2
POINTILLE_COURT
 70
     0
 62
    41
  6
CACHE2
  0
LAYER
  2
ALPHA_FIN
 70
     0
 62
   255
  6
CONTINUOUS
  0
ENDTAB
  0
TABLE
  2
STYLE
 70
     2
  0
STYLE
  2
ROMANS
 70
     0
 40
0.0
 41
1.0
 50
0.0
 71
     0
 42
6.0
  3
romans
  4

  0
STYLE
  2
STANDARD
 70
     0
 40
0.2
 41
1.0
 50
0.0
 71
     0
 42
0.2
  3
txt
  4

  0
ENDTAB
  0
TABLE
  2
VIEW
 70
     0
  0
ENDTAB
  0
TABLE
  2
UCS
 70
     0
  0
ENDTAB
  0
TABLE
  2
APPID
 70
     1
  0
APPID
  2
ACAD
 70
     0
  0
ENDTAB
  0
TABLE
  2
DIMSTYLE
 70
     1
  0
DIMSTYLE
  2
SC_DEFAUT
 70
     0
  3

  4

  5
OPEN30
  6

  7

 40
1.0
 41
5.0
 42
2.0
 43
0.38
 44
2.5
 45
0.0
 46
0.0
 47
0.0
 48
0.0
140
2.5
141
0.0
142
0.0
143
25.4
144
1.0
145
0.0
146
1.0
147
2.0
 71
     0
 72
     0
 73
     1
 74
     1
 75
     0
 76
     0
 77
     1
 78
    12
170
     0
171
     2
172
     0
173
     0
174
     0
175
     0
176
     0
177
     0
178
     0
  0
ENDTAB
  0
ENDSEC
  0
SECTION
  2
BLOCKS
  0
BLOCK
  8
0
  2
$MODEL_SPACE
 70
     0
 10
0.0
 20
0.0
 30
0.0
  3
$MODEL_SPACE
  1

  0
ENDBLK
  5
75E1
  8
0
  0
BLOCK
 67
     1
  8
0
  2
$PAPER_SPACE
 70
     0
 10
0.0
 20
0.0
 30
0.0
  3
$PAPER_SPACE
  1

  0
ENDBLK
  5
75DF
 67
     1
  8
0
  0
BLOCK
  8
0
  2
COTE
 70
     0
 10
0.0
 20
0.0
 30
0.0
  3
COTE
  1

  0
ENDBLK
  5
F
  8
0
  0
BLOCK
  8
0
  2
FOND
 70
     0
 10
0.0
 20
0.0
 30
0.0
  3
FOND
  1

  0
ENDBLK
  5
75
  8
0
  0
BLOCK
  8
0
  2
_OPEN30
 70
     0
 10
0.0
 20
0.0
 30
0.0
  3
_OPEN30
  1

  0
LINE
  5
4B05
  8
COTATION1
 62
     0
 10
-1.0
 20
0.267949
 30
0.0
 11
0.0
 21
0.0
 31
0.0
1001
ACAD
1000
RTLwPs
1070
   158
  0
LINE
  5
4B06
  8
COTATION1
 62
     0
 10
0.0
 20
0.0
 30
0.0
 11
-1.0
 21
-0.267949
 31
0.0
1001
ACAD
1000
RTLwPs
1070
   158
  0
LINE
  5
4B07
  8
COTATION1
 62
     0
 10
0.0
 20
0.0
 30
0.0
 11
-1.0
 21
0.0
 31
0.0
1001
ACAD
1000
RTLwPs
1070
   158
  0
ENDBLK
  5
4B09
  8
0
  0
BLOCK
  8
0
  2
*D3
 70
     1
 10
0.0
 20
0.0
 30
0.0
  3
*D3
  1

  0
LINE
  5
7284
  8
COTATION1
 62
     0
 10
1108.100991
 20
57.045918
 30
0.0
 11
1108.100991
 21
-3.612993
 31
0.0
1001
ACAD
1000
RTLwPs
1070
   158
  0
LINE
  5
7285
  8
COTATION1
 62
     0
 10
1138.100991
 20
51.728457
 30
0.0
 11
1138.100991
 21
-3.612993
 31
0.0
1001
ACAD
1000
RTLwPs
1070
   158
  0
LINE
  5
7286
  8
COTATION1
 62
     0
 10
1113.100991
 20
-1.112993
 30
0.0
 11
1133.100991
 21
-1.112993
 31
0.0
1001
ACAD
1000
RTLwPs
1070
   158
  0
INSERT
  5
7287
  8
COTATION1
 62
     0
  2
_OPEN30
 10
1108.100991
 20
-1.112993
 30
0.0
 41
5.0
 42
5.0
 43
5.0
 50
180.0
1001
ACAD
1000
RTLwPs
1070
   158
  0
INSERT
  5
7288
  8
COTATION1
 62
     0
  2
_OPEN30
 10
1138.100991
 20
-1.112993
 30
0.0
 41
5.0
 42
5.0
 43
5.0
1001
ACAD
1000
RTLwPs
1070
   158
  0
TEXT
  5
7289
  8
COTATION1
 62
     0
 10
1120.720039
 20
0.887007
 30
0.0
 40
2.5
  1
30
1001
ACAD
1000
MTEXTBEGIN
1070
    73
1070
     1
1070
    44
1040
1.0
1070
    74
1070
     0
1000
MTEXTEND
  0
POINT
  5
728A
  8
DEFPOINTS
 62
     0
 10
1108.100991
 20
59.045918
 30
0.0
  0
POINT
  5
728B
  8
DEFPOINTS
 62
     0
 10
1138.100991
 20
53.728457
 30
0.0
  0
POINT
  5
728C
  8
DEFPOINTS
 62
     0
 10
1138.100991
 20
-1.112993
 30
0.0
  0
ENDBLK
  5
6706
  8
0
  0
BLOCK
  8
0
  2
*D4
 70
     1
 10
0.0
 20
0.0
 30
0.0
  3
*D4
  1

  0
LINE
  5
70F6
  8
COTATION1
 62
     0
 10
1125.600991
 20
143.390128
 30
0.0
 11
1125.600991
 21
203.728457
 31
0.0
1001
ACAD
1000
RTLwPs
1070
   158
  0
LINE
  5
70F7
  8
COTATION1
 62
     0
 10
1138.100991
 20
120.728457
 30
0.0
 11
1138.100991
 21
203.728457
 31
0.0
1001
ACAD
1000
RTLwPs
1070
   158
  0
LINE
  5
70F8
  8
COTATION1
 62
     0
 10
1120.600991
 20
201.228457
 30
0.0
 11
1115.600991
 21
201.228457
 31
0.0
1001
ACAD
1000
RTLwPs
1070
   158
  0
LINE
  5
70F9
  8
COTATION1
 62
     0
 10
1143.100991
 20
201.228457
 30
0.0
 11
1148.100991
 21
201.228457
 31
0.0
1001
ACAD
1000
RTLwPs
1070
   158
  0
INSERT
  5
70FA
  8
COTATION1
 62
     0
  2
_OPEN30
 10
1125.600991
 20
201.228457
 30
0.0
 41
5.0
 42
5.0
 43
5.0
1001
ACAD
1000
RTLwPs
1070
   158
  0
INSERT
  5
70FB
  8
COTATION1
 62
     0
  2
_OPEN30
 10
1138.100991
 20
201.228457
 30
0.0
 41
5.0
 42
5.0
 43
5.0
 50
180.0
1001
ACAD
1000
RTLwPs
1070
   158
  0
TEXT
  5
70FC
  8
COTATION1
 62
     0
 10
1127.505753
 20
203.228457
 30
0.0
 40
2.5
  1
12.5
1001
ACAD
1000
MTEXTBEGIN
1070
    73
1070
     1
1070
    44
1040
1.0
1070
    74
1070
     0
1000
MTEXTEND
1000
MTEXTBEGIN
1070
    73
1070
     1
1070
    44
1040
1.0
1070
    74
1070
     0
1000
MTEXTEND
  0
POINT
  5
70FD
  8
DEFPOINTS
 62
     0
 10
1125.600991
 20
141.390128
 30
0.0
  0
POINT
  5
70FE
  8
DEFPOINTS
 62
     0
 10
1138.100991
 20
118.728457
 30
0.0
  0
POINT
  5
70FF
  8
DEFPOINTS
 62
     0
 10
1138.100991
 20
201.228457
 30
0.0
  0
ENDBLK
  5
70A1
  8
0
  0
BLOCK
  8
0
  2
*D5
 70
     1
 10
0.0
 20
0.0
 30
0.0
  3
*D5
  1

  0
LINE
  5
7100
  8
COTATION1
 62
     0
 10
1100.600991
 20
191.228457
 30
0.0
 11
1100.600991
 21
213.728457
 31
0.0
1001
ACAD
1000
RTLwPs
1070
   158
  0
LINE
  5
7101
  8
COTATION1
 62
     0
 10
1138.100991
 20
120.728457
 30
0.0
 11
1138.100991
 21
213.728457
 31
0.0
1001
ACAD
1000
RTLwPs
1070
   158
  0
LINE
  5
7102
  8
COTATION1
 62
     0
 10
1105.600991
 20
211.228457
 30
0.0
 11
1133.100991
 21
211.228457
 31
0.0
1001
ACAD
1000
RTLwPs
1070
   158
  0
INSERT
  5
7103
  8
COTATION1
 62
     0
  2
_OPEN30
 10
1100.600991
 20
211.228457
 30
0.0
 41
5.0
 42
5.0
 43
5.0
 50
180.0
1001
ACAD
1000
RTLwPs
1070
   158
  0
INSERT
  5
7104
  8
COTATION1
 62
     0
  2
_OPEN30
 10
1138.100991
 20
211.228457
 30
0.0
 41
5.0
 42
5.0
 43
5.0
1001
ACAD
1000
RTLwPs
1070
   158
  0
TEXT
  5
7105
  8
COTATION1
 62
     0
 10
1115.184325
 20
213.228457
 30
0.0
 40
2.5
  1
37.5
1001
ACAD
1000
MTEXTBEGIN
1070
    73
1070
     1
1070
    44
1040
1.0
1070
    74
1070
     0
1000
MTEXTEND
1000
MTEXTBEGIN
1070
    73
1070
     1
1070
    44
1040
1.0
1070
    74
1070
     0
1000
MTEXTEND
  0
POINT
  5
7106
  8
DEFPOINTS
 62
     0
 10
1100.600991
 20
189.228457
 30
0.0
  0
POINT
  5
7107
  8
DEFPOINTS
 62
     0
 10
1138.100991
 20
118.728457
 30
0.0
  0
POINT
  5
7108
  8
DEFPOINTS
 62
     0
 10
1138.100991
 20
211.228457
 30
0.0
  0
ENDBLK
  5
70AD
  8
0
  0
BLOCK
  8
0
  2
*D6
 70
     1
 10
0.0
 20
0.0
 30
0.0
  3
*D6
  1

  0
LINE
  5
7109
  8
COTATION1
 62
     0
 10
1097.850991
 20
188.228457
 30
0.0
 11
1097.850991
 21
203.728457
 31
0.0
1001
ACAD
1000
RTLwPs
1070
   158
  0
LINE
  5
710A
  8
COTATION1
 62
     0
 10
1103.350991
 20
188.228457
 30
0.0
 11
1103.350991
 21
203.728457
 31
0.0
1001
ACAD
1000
RTLwPs
1070
   158
  0
LINE
  5
710B
  8
COTATION1
 62
     0
 10
1092.850991
 20
201.228457
 30
0.0
 11
1087.850991
 21
201.228457
 31
0.0
1001
ACAD
1000
RTLwPs
1070
   158
  0
LINE
  5
710C
  8
COTATION1
 62
     0
 10
1108.350991
 20
201.228457
 30
0.0
 11
1113.350991
 21
201.228457
 31
0.0
1001
ACAD
1000
RTLwPs
1070
   158
  0
TEXT
  5
710D
  8
COTATION1
 62
     0
 10
1084.874801
 20
203.228457
 30
0.0
 40
2.5
  1
5.5
1001
ACAD
1000
MTEXTBEGIN
1070
    73
1070
     1
1070
    44
1040
1.0
1070
    74
1070
     0
1000
MTEXTEND
1000
MTEXTBEGIN
1070
    73
1070
     1
1070
    44
1040
1.0
1070
    74
1070
     0
1000
MTEXTEND
  0
INSERT
  5
710E
  8
COTATION1
 62
     0
  2
_OPEN30
 10
1097.850991
 20
201.228457
 30
0.0
 41
5.0
 42
5.0
 43
5.0
1001
ACAD
1000
RTLwPs
1070
   158
  0
INSERT
  5
710F
  8
COTATION1
 62
     0
  2
_OPEN30
 10
1103.350991
 20
201.228457
 30
0.0
 41
5.0
 42
5.0
 43
5.0
 50
180.0
1001
ACAD
1000
RTLwPs
1070
   158
  0
POINT
  5
7110
  8
DEFPOINTS
 62
     0
 10
1097.850991
 20
186.228457
 30
0.0
  0
POINT
  5
7111
  8
DEFPOINTS
 62
     0
 10
1103.350991
 20
186.228457
 30
0.0
  0
POINT
  5
7112
  8
DEFPOINTS
 62
     0
 10
1103.350991
 20
201.228457
 30
0.0
  0
ENDBLK
  5
70BA
  8
0
  0
BLOCK
  8
0
  2
*D7
 70
     1
 10
0.0
 20
0.0
 30
0.0
  3
*D7
  1

  0
LINE
  5
72D4
  8
COTATION1
 62
     0
 10
1119.600991
 20
40.728457
 30
0.0
 11
1119.600991
 21
26.228457
 31
0.0
1001
ACAD
1000
RTLwPs
1070
   158
  0
LINE
  5
72D5
  8
COTATION1
 62
     0
 10
1131.600991
 20
40.728457
 30
0.0
 11
1131.600991
 21
26.228457
 31
0.0
1001
ACAD
1000
RTLwPs
1070
   158
  0
LINE
  5
72D6
  8
COTATION1
 62
     0
 10
1114.600991
 20
28.728457
 30
0.0
 11
1109.600991
 21
28.728457
 31
0.0
1001
ACAD
1000
RTLwPs
1070
   158
  0
LINE
  5
72D7
  8
COTATION1
 62
     0
 10
1136.600991
 20
28.728457
 30
0.0
 11
1141.600991
 21
28.728457
 31
0.0
1001
ACAD
1000
RTLwPs
1070
   158
  0
LINE
  5
72D8
  8
COTATION1
 62
     0
 10
1152.619387
 20
28.728457
 30
0.0
 11
1131.600991
 21
28.728457
 31
0.0
1001
ACAD
1000
RTLwPs
1070
   158
  0
TEXT
  5
72D9
  8
COTATION1
 62
     0
 10
1143.357483
 20
30.728457
 30
0.0
 40
2.5
  1
M12
1001
ACAD
1000
MTEXTBEGIN
1070
    73
1070
     1
1070
    44
1040
1.0
1070
    74
1070
     0
1000
MTEXTEND
  0
LINE
  5
72DA
  8
COTATION1
 62
     0
 10
1119.600991
 20
28.728457
 30
0.0
 11
1131.600991
 21
28.728457
 31
0.0
1001
ACAD
1000
RTLwPs
1070
   158
  0
INSERT
  5
72DB
  8
COTATION1
 62
     0
  2
_OPEN30
 10
1119.600991
 20
28.728457
 30
0.0
 41
5.0
 42
5.0
 43
5.0
1001
ACAD
1000
RTLwPs
1070
   158
  0
INSERT
  5
72DC
  8
COTATION1
 62
     0
  2
_OPEN30
 10
1131.600991
 20
28.728457
 30
0.0
 41
5.0
 42
5.0
 43
5.0
 50
180.0
1001
ACAD
1000
RTLwPs
1070
   158
  0
POINT
  5
72DD
  8
DEFPOINTS
 62
     0
 10
1119.600991
 20
42.728457
 30
0.0
  0
POINT
  5
72DE
  8
DEFPOINTS
 62
     0
 10
1131.600991
 20
42.728457
 30
0.0
  0
POINT
  5
72DF
  8
DEFPOINTS
 62
     0
 10
1131.600991
 20
28.728457
 30
0.0
  0
ENDBLK
  5
72C7
  8
0
  0
BLOCK
  8
0
  2
*D8
 70
     1
 10
0.0
 20
0.0
 30
0.0
  3
*D8
  1

  0
LINE
  5
740C
  8
COTATION1
 62
     0
 10
1134.100991
 20
59.728457
 30
0.0
 11
1134.100991
 21
74.087159
 31
0.0
1001
ACAD
1000
RTLwPs
1070
   158
  0
LINE
  5
740D
  8
COTATION1
 62
     0
 10
1138.100991
 20
61.728457
 30
0.0
 11
1138.100991
 21
74.087159
 31
0.0
1001
ACAD
1000
RTLwPs
1070
   158
  0
LINE
  5
740E
  8
COTATION1
 62
     0
 10
1129.100991
 20
71.587159
 30
0.0
 11
1124.100991
 21
71.587159
 31
0.0
1001
ACAD
1000
RTLwPs
1070
   158
  0
LINE
  5
740F
  8
COTATION1
 62
     0
 10
1143.100991
 20
71.587159
 30
0.0
 11
1148.100991
 21
71.587159
 31
0.0
1001
ACAD
1000
RTLwPs
1070
   158
  0
TEXT
  5
7410
  8
COTATION1
 62
     0
 10
1145.610505
 20
72.574117
 30
0.0
 40
2.5
  1
4
1001
ACAD
1000
MTEXTBEGIN
1070
    73
1070
     1
1070
    44
1040
1.0
1070
    74
1070
     0
1000
MTEXTEND
1000
MTEXTBEGIN
1070
    73
1070
     1
1070
    44
1040
1.0
1070
    74
1070
     0
1000
MTEXTEND
1000
MTEXTBEGIN
1070
    73
1070
     1
1070
    44
1040
1.0
1070
    74
1070
     0
1000
MTEXTEND
1000
MTEXTBEGIN
1070
    73
1070
     1
1070
    44
1040
1.0
1070
    74
1070
     0
1000
MTEXTEND
  0
INSERT
  5
7411
  8
COTATION1
 62
     0
  2
_OPEN30
 10
1134.100991
 20
71.587159
 30
0.0
 41
5.0
 42
5.0
 43
5.0
1001
ACAD
1000
RTLwPs
1070
   158
  0
INSERT
  5
7412
  8
COTATION1
 62
     0
  2
_OPEN30
 10
1138.100991
 20
71.587159
 30
0.0
 41
5.0
 42
5.0
 43
5.0
 50
180.0
1001
ACAD
1000
RTLwPs
1070
   158
  0
POINT
  5
7413
  8
DEFPOINTS
 62
     0
 10
1134.100991
 20
57.728457
 30
0.0
  0
POINT
  5
7414
  8
DEFPOINTS
 62
     0
 10
1138.100991
 20
59.728457
 30
0.0
  0
POINT
  5
7415
  8
DEFPOINTS
 62
     0
 10
1138.100991
 20
71.587159
 30
0.0
  0
ENDBLK
  5
7401
  8
0
  0
BLOCK
  8
0
  2
*D9
 70
     1
 10
0.0
 20
0.0
 30
0.0
  3
*D9
  1

  0
LINE
  5
74A6
  8
COTATION1
 62
     0
 10
1105.350991
 20
186.228457
 30
0.0
 11
1163.100991
 21
186.228457
 31
0.0
1001
ACAD
1000
RTLwPs
1070
   158
  0
LINE
  5
74A7
  8
COTATION1
 62
     0
 10
1131.86894
 20
41.728457
 30
0.0
 11
1163.100991
 21
41.728457
 31
0.0
1001
ACAD
1000
RTLwPs
1070
   158
  0
LINE
  5
74A8
  8
COTATION1
 62
     0
 10
1160.600991
 20
181.228457
 30
0.0
 11
1160.600991
 21
117.228457
 31
0.0
1001
ACAD
1000
RTLwPs
1070
   158
  0
LINE
  5
74A9
  8
COTATION1
 62
     0
 10
1160.600991
 20
46.728457
 30
0.0
 11
1160.600991
 21
110.728457
 31
0.0
1001
ACAD
1000
RTLwPs
1070
   158
  0
INSERT
  5
74AA
  8
COTATION1
 62
     0
  2
_OPEN30
 10
1160.600991
 20
186.228457
 30
0.0
 41
5.0
 42
5.0
 43
5.0
 50
90.0
1001
ACAD
1000
RTLwPs
1070
   158
  0
INSERT
  5
74AB
  8
COTATION1
 62
     0
  2
_OPEN30
 10
1160.600991
 20
41.728457
 30
0.0
 41
5.0
 42
5.0
 43
5.0
 50
270.0
1001
ACAD
1000
RTLwPs
1070
   158
  0
TEXT
  5
74AC
  8
COTATION1
 62
     0
 10
1149.708134
 20
112.728457
 30
0.0
 40
2.5
  1
119.5...170
1001
ACAD
1000
MTEXTBEGIN
1070
    73
1070
     1
1070
    44
1040
1.0
1070
    74
1070
     0
1000
MTEXTEND
1000
MTEXTBEGIN
1070
    73
1070
     1
1070
    44
1040
1.0
1070
    74
1070
     0
1000
MTEXTEND
  0
POINT
  5
74AD
  8
DEFPOINTS
 62
     0
 10
1103.350991
 20
186.228457
 30
0.0
  0
POINT
  5
74AE
  8
DEFPOINTS
 62
     0
 10
1129.86894
 20
41.728457
 30
0.0
  0
POINT
  5
74AF
  8
DEFPOINTS
 62
     0
 10
1160.600991
 20
41.728457
 30
0.0
  0
ENDBLK
  5
746B
  8
0
  0
ENDSEC
  0
SECTION
  2
ENTITIES
  0
INSERT
  5
A
  8
0
  2
COTE
 10
0.0
 20
0.0
 30
0.0
  0
INSERT
  5
17
  8
0
  2
COTE
 10
284.010391
 20
6.373258
 30
0.0
  0
INSERT
  5
72
  8
0
  2
FOND
 10
0.0
 20
0.0
 30
0.0
  0
POLYLINE
  5
662C
  8
ALPHA
 66
     1
 10
0.0
 20
0.0
 30
0.0
 70
   128
210
0.0
220
0.0
230
-1.0
  0
VERTEX
  5
75E7
  8
ALPHA
 10
-1126.147734
 20
58.413808
 30
0.0
  0
VERTEX
  5
75E8
  8
ALPHA
 10
-1127.337529
 20
58.282761
 30
0.0
  0
VERTEX
  5
75E9
  8
ALPHA
 10
-1127.730024
 20
57.699099
 30
0.0
  0
VERTEX
  5
75EA
  8
ALPHA
 10
-1128.12566
 20
56.893738
 30
0.0
  0
VERTEX
  5
75EB
  8
ALPHA
 10
-1128.340684
 20
56.440208
 30
0.0
  0
SEQEND
  5
75EC
  8
ALPHA
  0
POLYLINE
  5
662D
  8
ALPHA
 66
     1
 10
0.0
 20
0.0
 30
0.0
 70
   128
210
0.0
220
0.0
230
-1.0
  0
VERTEX
  5
75ED
  8
ALPHA
 10
-1120.923893
 20
54.728457
 30
0.0
  0
VERTEX
  5
75EE
  8
ALPHA
 10
-1117.323207
 20
55.250769
 30
0.0
  0
VERTEX
  5
75EF
  8
ALPHA
 10
-1113.340514
 20
56.356367
 30
0.0
  0
VERTEX
  5
75F0
  8
ALPHA
 10
-1110.024324
 20
57.521728
 30
0.0
  0
VERTEX
  5
75F1
  8
ALPHA
 10
-1108.943826
 20
57.963219
 30
0.0
  0
VERTEX
  5
75F2
  8
ALPHA
 10
-1108.423144
 20
58.22333
 30
0.0
  0
SEQEND
  5
75F3
  8
ALPHA
  0
LINE
  5
662E
  8
ALPHA
 10
1108.423144
 20
58.22333
 30
0.0
 11
1108.100991
 21
58.780776
 31
0.0
  0
POLYLINE
  5
662F
  8
ALPHA
 66
     1
 10
0.0
 20
0.0
 30
0.0
 70
   128
  0
VERTEX
  5
75F4
  8
ALPHA
 10
1122.585142
 20
56.728457
 30
0.0
  0
VERTEX
  5
75F5
  8
ALPHA
 10
1121.779375
 20
69.214045
 30
0.0
  0
VERTEX
  5
75F6
  8
ALPHA
 10
1120.150045
 20
81.073691
 30
0.0
  0
VERTEX
  5
75F7
  8
ALPHA
 10
1117.940614
 20
92.082127
 30
0.0
  0
VERTEX
  5
75F8
  8
ALPHA
 10
1115.394545
 20
102.014089
 30
0.0
  0
SEQEND
  5
75F9
  8
ALPHA
  0
LINE
  5
6630
  8
ALPHA
 10
1125.490234
 20
57.976207
 30
0.0
 11
1126.147734
 21
58.413808
 31
0.0
  0
POLYLINE
  5
6631
  8
ALPHA
 66
     1
 10
0.0
 20
0.0
 30
0.0
 70
   128
210
0.0
220
0.0
230
-1.0
  0
VERTEX
  5
75FA
  8
ALPHA
 10
-1128.340684
 20
56.440208
 30
0.0
  0
VERTEX
  5
75FB
  8
ALPHA
 10
-1128.570362
 20
55.94747
 30
0.0
  0
VERTEX
  5
75FC
  8
ALPHA
 10
-1128.648426
 20
55.37562
 30
0.0
  0
VERTEX
  5
75FD
  8
ALPHA
 10
-1128.331238
 20
54.728457
 30
0.0
  0
SEQEND
  5
75FE
  8
ALPHA
  0
DIMENSION
  5
6642
  8
COTATION1
  2
*D3
 10
1138.100991
 20
-1.112993
 30
0.0
 11
1123.100991
 21
2.137007
 31
0.0
 13
1108.100991
 23
59.045918
 33
0.0
 14
1138.100991
 24
53.728457
 34
0.0
  0
LINE
  5
6651
  8
AXE
 10
1095.227667
 20
86.228457
 30
0.0
 11
1153.100991
 21
86.228457
 31
0.0
  0
LINE
  5
6654
  8
ALPHA
 10
1113.100991
 20
116.028457
 30
0.0
 11
1138.100991
 21
116.028457
 31
0.0
  0
LINE
  5
6655
  8
ALPHA
 10
1114.100991
 20
53.728457
 30
0.0
 11
1138.100991
 21
53.728457
 31
0.0
  0
ARC
  5
6656
  8
ALPHA
 10
963.75876
 20
55.387689
 30
0.0
 40
156.451664
 50
0.857269
 51
18.449068
  0
LINE
  5
6657
  8
ALPHA
 10
1108.100991
 20
102.228457
 30
0.0
 11
1108.100991
 21
58.780776
 31
0.0
  0
LINE
  5
6658
  8
ALPHA
 10
1113.450516
 20
56.331078
 30
0.0
 11
1114.100991
 21
53.728457
 31
0.0
  0
ARC
  5
6659
  8
ALPHA
 10
1141.770578
 20
106.515651
 30
0.0
 40
33.671021
 50
166.958519
 51
180.528913
  0
LINE
  5
665A
  8
ALPHA
 10
1113.100991
 20
118.728457
 30
0.0
 11
1113.100991
 21
102.014089
 31
0.0
  0
LINE
  5
665B
  8
ALPHA
 10
1113.100991
 20
104.898623
 30
0.0
 11
1112.169644
 21
104.898623
 31
0.0
  0
LINE
  5
665C
  8
ALPHA
 10
1113.100991
 20
102.014089
 30
0.0
 11
1115.394545
 21
102.014089
 31
0.0
  0
LINE
  5
665D
  8
ALPHA
 10
1108.100991
 20
103.014089
 30
0.0
 11
1112.785097
 21
103.014089
 31
0.0
  0
LINE
  5
665E
  8
ALPHA
 10
1108.100991
 20
102.228457
 30
0.0
 11
1108.100991
 21
106.204829
 31
0.0
  0
ARC
  5
665F
  8
ALPHA
 10
1110.437819
 20
113.814173
 30
0.0
 40
1.5
 50
90.0
 51
168.480193
  0
LINE
  5
6660
  8
ALPHA
 10
1110.437819
 20
115.314173
 30
0.0
 11
1113.100991
 21
115.314173
 31
0.0
  0
DIMENSION
  5
6661
  8
COTATION1
  2
*D9
 10
1160.600991
 20
41.728457
 30
0.0
 11
1160.600991
 21
113.978457
 31
0.0
  1
119.5...170
 13
1103.350991
 23
186.228457
 33
0.0
 14
1129.86894
 24
41.728457
 34
0.0
 50
90.0
  0
LINE
  5
6663
  8
ALPHA
 10
1138.100991
 20
118.728457
 30
0.0
 11
1138.100991
 21
53.728457
 31
0.0
  0
TEXT
  5
6665
  8
AXE
 10
1118.124801
 20
13.728457
 30
0.0
 40
8.0
  1
Y
 72
     2
 11
1124.600991
 21
13.728457
 31
0.0
  0
LINE
  5
6666
  8
ALPHA
 10
1126.074747
 20
59.728457
 30
0.0
 11
1138.100991
 21
59.728457
 31
0.0
  0
LINE
  5
6667
  8
ALPHA
 10
1120.923893
 20
54.728457
 30
0.0
 11
1138.100991
 21
54.728457
 31
0.0
  0
LINE
  5
6668
  8
ALPHA
 10
1122.585142
 20
56.728457
 30
0.0
 11
1125.074011
 21
56.728457
 31
0.0
  0
LINE
  5
6669
  8
ALPHA
 10
1120.192912
 20
57.728457
 30
0.0
 11
1122.55724
 21
57.728457
 31
0.0
  0
LINE
  5
666A
  8
ALPHA
 10
1126.074747
 20
59.728457
 30
0.0
 11
1125.074011
 21
56.728457
 31
0.0
  0
TEXT
  5
667F
  8
AXE
 10
1146.624801
 20
87.228457
 30
0.0
 40
8.0
  1
Z
 72
     2
 11
1153.100991
 21
87.228457
 31
0.0
  0
LINE
  5
704F
  8
ALPHA
 10
1101.038331
 20
132.111213
 30
0.0
 11
1102.847561
 21
132.228457
 31
0.0
  0
POLYLINE
  5
7050
  8
ALPHA
 66
     1
 10
0.0
 20
0.0
 30
0.0
 70
   128
210
0.0
220
0.0
230
-1.0
  0
VERTEX
  5
75FF
  8
ALPHA
 10
-1101.038331
 20
124.300848
 30
0.0
  0
VERTEX
  5
7600
  8
ALPHA
 10
-1100.89991
 20
124.515689
 30
0.0
  0
VERTEX
  5
7601
  8
ALPHA
 10
-1100.586509
 20
125.157329
 30
0.0
  0
VERTEX
  5
7602
  8
ALPHA
 10
-1100.250916
 20
126.221445
 30
0.0
  0
VERTEX
  5
7603
  8
ALPHA
 10
-1100.045921
 20
127.703713
 30
0.0
  0
SEQEND
  5
7604
  8
ALPHA
  0
LINE
  5
7051
  8
ALPHA
 10
1100.045921
 20
127.703713
 30
0.0
 11
1100.956648
 21
127.703713
 31
0.0
  0
LINE
  5
7052
  8
ALPHA
 10
1100.956648
 20
127.703713
 30
0.0
 11
1100.956648
 21
128.709459
 31
0.0
  0
LINE
  5
7053
  8
ALPHA
 10
1102.847561
 20
124.184715
 30
0.0
 11
1101.038331
 21
124.300848
 31
0.0
  0
LINE
  5
7054
  8
ALPHA
 10
1100.956648
 20
128.709459
 30
0.0
 11
1100.045921
 21
128.709459
 31
0.0
  0
POLYLINE
  5
7055
  8
ALPHA
 66
     1
 10
0.0
 20
0.0
 30
0.0
 70
   128
210
0.0
220
0.0
230
-1.0
  0
VERTEX
  5
7605
  8
ALPHA
 10
-1100.045921
 20
128.709459
 30
0.0
  0
VERTEX
  5
7606
  8
ALPHA
 10
-1100.250916
 20
130.191553
 30
0.0
  0
VERTEX
  5
7607
  8
ALPHA
 10
-1100.586509
 20
131.255287
 30
0.0
  0
VERTEX
  5
7608
  8
ALPHA
 10
-1100.89991
 20
131.896545
 30
0.0
  0
VERTEX
  5
7609
  8
ALPHA
 10
-1101.038331
 20
132.111213
 30
0.0
  0
SEQEND
  5
760A
  8
ALPHA
  0
POLYLINE
  5
7056
  8
ALPHA
 66
     1
 10
0.0
 20
0.0
 30
0.0
 70
   128
  0
VERTEX
  5
760B
  8
ALPHA
 10
1107.603576
 20
119.097416
 30
0.0
  0
VERTEX
  5
760C
  8
ALPHA
 10
1107.603588
 20
119.291621
 30
0.0
  0
VERTEX
  5
760D
  8
ALPHA
 10
1107.603623
 20
119.840462
 30
0.0
  0
VERTEX
  5
760E
  8
ALPHA
 10
1107.603749
 20
121.799402
 30
0.0
  0
VERTEX
  5
760F
  8
ALPHA
 10
1107.603927
 20
124.568938
 30
0.0
  0
VERTEX
  5
7610
  8
ALPHA
 10
1107.604131
 20
127.743772
 30
0.0
  0
VERTEX
  5
7611
  8
ALPHA
 10
1107.604335
 20
130.918606
 30
0.0
  0
VERTEX
  5
7612
  8
ALPHA
 10
1107.604513
 20
133.688142
 30
0.0
  0
VERTEX
  5
7613
  8
ALPHA
 10
1107.604639
 20
135.647082
 30
0.0
  0
VERTEX
  5
7614
  8
ALPHA
 10
1107.604674
 20
136.195923
 30
0.0
  0
VERTEX
  5
7615
  8
ALPHA
 10
1107.604687
 20
136.390128
 30
0.0
  0
SEQEND
  5
7616
  8
ALPHA
  0
POLYLINE
  5
7057
  8
ALPHA
 66
     1
 10
0.0
 20
0.0
 30
0.0
 70
   128
  0
VERTEX
  5
7617
  8
ALPHA
 10
1117.557698
 20
119.097416
 30
0.0
  0
VERTEX
  5
7618
  8
ALPHA
 10
1117.129982
 20
119.097416
 30
0.0
  0
VERTEX
  5
7619
  8
ALPHA
 10
1116.002366
 20
119.097416
 30
0.0
  0
VERTEX
  5
761A
  8
ALPHA
 10
1112.580637
 20
119.097416
 30
0.0
  0
VERTEX
  5
761B
  8
ALPHA
 10
1109.158907
 20
119.097416
 30
0.0
  0
VERTEX
  5
761C
  8
ALPHA
 10
1108.031292
 20
119.097416
 30
0.0
  0
VERTEX
  5
761D
  8
ALPHA
 10
1107.603576
 20
119.097416
 30
0.0
  0
SEQEND
  5
761E
  8
ALPHA
  0
POLYLINE
  5
7058
  8
ALPHA
 66
     1
 10
0.0
 20
0.0
 30
0.0
 70
   128
  0
VERTEX
  5
761F
  8
ALPHA
 10
1107.604687
 20
136.390128
 30
0.0
  0
VERTEX
  5
7620
  8
ALPHA
 10
1107.874531
 20
136.390128
 30
0.0
  0
VERTEX
  5
7621
  8
ALPHA
 10
1108.637135
 20
136.390128
 30
0.0
  0
VERTEX
  5
7622
  8
ALPHA
 10
1109.822105
 20
136.390128
 30
0.0
  0
VERTEX
  5
7623
  8
ALPHA
 10
1111.359045
 20
136.390128
 30
0.0
  0
VERTEX
  5
7624
  8
ALPHA
 10
1115.207262
 20
136.390128
 30
0.0
  0
VERTEX
  5
7625
  8
ALPHA
 10
1119.618633
 20
136.390128
 30
0.0
  0
VERTEX
  5
7626
  8
ALPHA
 10
1124.030004
 20
136.390128
 30
0.0
  0
VERTEX
  5
7627
  8
ALPHA
 10
1127.878222
 20
136.390128
 30
0.0
  0
VERTEX
  5
7628
  8
ALPHA
 10
1129.415162
 20
136.390128
 30
0.0
  0
VERTEX
  5
7629
  8
ALPHA
 10
1130.600131
 20
136.390128
 30
0.0
  0
VERTEX
  5
762A
  8
ALPHA
 10
1131.362735
 20
136.390128
 30
0.0
  0
VERTEX
  5
762B
  8
ALPHA
 10
1131.63258
 20
136.390128
 30
0.0
  0
SEQEND
  5
762C
  8
ALPHA
  0
POLYLINE
  5
7059
  8
ALPHA
 66
     1
 10
0.0
 20
0.0
 30
0.0
 70
   128
  0
VERTEX
  5
762D
  8
ALPHA
 10
1133.643515
 20
134.378081
 30
0.0
  0
VERTEX
  5
762E
  8
ALPHA
 10
1133.643515
 20
133.705636
 30
0.0
  0
VERTEX
  5
762F
  8
ALPHA
 10
1133.643515
 20
131.932827
 30
0.0
  0
VERTEX
  5
7630
  8
ALPHA
 10
1133.643515
 20
129.426442
 30
0.0
  0
VERTEX
  5
7631
  8
ALPHA
 10
1133.643515
 20
126.553269
 30
0.0
  0
VERTEX
  5
7632
  8
ALPHA
 10
1133.643515
 20
123.680096
 30
0.0
  0
VERTEX
  5
7633
  8
ALPHA
 10
1133.643515
 20
121.173711
 30
0.0
  0
VERTEX
  5
7634
  8
ALPHA
 10
1133.643515
 20
119.400902
 30
0.0
  0
VERTEX
  5
7635
  8
ALPHA
 10
1133.643515
 20
118.728457
 30
0.0
  0
SEQEND
  5
7636
  8
ALPHA
  0
POLYLINE
  5
705A
  8
ALPHA
 66
     1
 10
0.0
 20
0.0
 30
0.0
 70
   128
  0
VERTEX
  5
7637
  8
ALPHA
 10
1133.643515
 20
118.728457
 30
0.0
  0
VERTEX
  5
7638
  8
ALPHA
 10
1133.462864
 20
118.728457
 30
0.0
  0
VERTEX
  5
7639
  8
ALPHA
 10
1132.952328
 20
118.728457
 30
0.0
  0
VERTEX
  5
763A
  8
ALPHA
 10
1131.130106
 20
118.728457
 30
0.0
  0
VERTEX
  5
763B
  8
ALPHA
 10
1128.553862
 20
118.728457
 30
0.0
  0
VERTEX
  5
763C
  8
ALPHA
 10
1125.600607
 20
118.728457
 30
0.0
  0
VERTEX
  5
763D
  8
ALPHA
 10
1122.647351
 20
118.728457
 30
0.0
  0
VERTEX
  5
763E
  8
ALPHA
 10
1120.071107
 20
118.728457
 30
0.0
  0
VERTEX
  5
763F
  8
ALPHA
 10
1118.248885
 20
118.728457
 30
0.0
  0
VERTEX
  5
7640
  8
ALPHA
 10
1117.738349
 20
118.728457
 30
0.0
  0
VERTEX
  5
7641
  8
ALPHA
 10
1117.557698
 20
118.728457
 30
0.0
  0
SEQEND
  5
7642
  8
ALPHA
  0
POLYLINE
  5
705B
  8
ALPHA
 66
     1
 10
0.0
 20
0.0
 30
0.0
 70
   128
  0
VERTEX
  5
7643
  8
ALPHA
 10
1125.600329
 20
124.733481
 30
0.0
  0
VERTEX
  5
7644
  8
ALPHA
 10
1124.253275
 20
124.491306
 30
0.0
  0
VERTEX
  5
7645
  8
ALPHA
 10
1122.986067
 20
123.852846
 30
0.0
  0
VERTEX
  5
7646
  8
ALPHA
 10
1120.726769
 20
121.915448
 30
0.0
  0
VERTEX
  5
7647
  8
ALPHA
 10
1118.893593
 20
119.978051
 30
0.0
  0
VERTEX
  5
7648
  8
ALPHA
 10
1118.159038
 20
119.33959
 30
0.0
  0
VERTEX
  5
7649
  8
ALPHA
 10
1117.557698
 20
119.097416
 30
0.0
  0
SEQEND
  5
764A
  8
ALPHA
  0
LINE
  5
705C
  8
ALPHA
 10
1117.557698
 20
118.728457
 30
0.0
 11
1117.557698
 21
119.097416
 31
0.0
  0
POLYLINE
  5
705D
  8
ALPHA
 66
     1
 10
0.0
 20
0.0
 30
0.0
 70
   128
210
0.0
220
0.0
230
-1.0
  0
VERTEX
  5
764B
  8
ALPHA
 10
-1131.63258
 20
136.390128
 30
0.0
  0
VERTEX
  5
764C
  8
ALPHA
 10
-1133.055001
 20
135.801058
 30
0.0
  0
VERTEX
  5
764D
  8
ALPHA
 10
-1133.643515
 20
134.378081
 30
0.0
  0
SEQEND
  5
764E
  8
ALPHA
  0
DIMENSION
  5
705E
  8
COTATION1
  2
*D4
 10
1138.100991
 20
201.228457
 30
0.0
 11
1131.850991
 21
204.478457
 31
0.0
 13
1125.600991
 23
141.390128
 33
0.0
 14
1138.100991
 24
118.728457
 34
0.0
  0
DIMENSION
  5
705F
  8
COTATION1
  2
*D5
 10
1138.100991
 20
211.228457
 30
0.0
 11
1119.350991
 21
214.478457
 31
0.0
 13
1100.600991
 23
189.228457
 33
0.0
 14
1138.100991
 24
118.728457
 34
0.0
  0
DIMENSION
  5
7060
  8
COTATION1
  2
*D6
 10
1103.350991
 20
201.228457
 30
0.0
 11
1087.850991
 21
201.228457
 31
0.0
 70
   128
 13
1097.850991
 23
186.228457
 33
0.0
 14
1103.350991
 24
186.228457
 34
0.0
  0
LINE
  5
7061
  8
ALPHA
 10
1097.850991
 20
186.228457
 30
0.0
 11
1103.350991
 21
186.228457
 31
0.0
  0
LINE
  5
7062
  8
ALPHA
 10
1097.850991
 20
170.228457
 30
0.0
 11
1103.350991
 21
170.228457
 31
0.0
  0
LINE
  5
7064
  8
ALPHA
 10
1097.850991
 20
186.228457
 30
0.0
 11
1097.850991
 21
170.228457
 31
0.0
  0
LINE
  5
7065
  8
ALPHA
 10
1105.350991
 20
184.728457
 30
0.0
 11
1105.350991
 21
82.228457
 31
0.0
  0
LINE
  5
7066
  8
ALPHA
 10
1103.350991
 20
186.228457
 30
0.0
 11
1103.350991
 21
82.228457
 31
0.0
  0
LINE
  5
706B
  8
AXE
 10
1125.600991
 20
141.390128
 30
0.0
 11
1125.600991
 21
13.728457
 31
0.0
  0
LINE
  5
706E
  8
ALPHA
 10
1105.350991
 20
82.228457
 30
0.0
 11
1103.350991
 21
82.228457
 31
0.0
  0
LINE
  5
7075
  8
ALPHA
 10
1113.100991
 20
118.728457
 30
0.0
 11
1138.100991
 21
118.728457
 31
0.0
  0
LINE
  5
7077
  8
ALPHA
 10
1106.350991
 20
138.228457
 30
0.0
 11
1106.350991
 21
118.228457
 31
0.0
  0
LINE
  5
7078
  8
ALPHA
 10
1125.600328
 20
124.733481
 30
0.0
 11
1107.733599
 21
124.733481
 31
0.0
  0
LINE
  5
7079
  8
ALPHA
 10
1106.350991
 20
118.228457
 30
0.0
 11
1105.350991
 21
118.228457
 31
0.0
  0
LINE
  5
707A
  8
ALPHA
 10
1107.604548
 20
122.228457
 30
0.0
 11
1106.350991
 21
122.228457
 31
0.0
  0
LINE
  5
707B
  8
ALPHA
 10
1107.604548
 20
134.228457
 30
0.0
 11
1106.350991
 21
134.228457
 31
0.0
  0
LINE
  5
707C
  8
ALPHA
 10
1103.350991
 20
121.728457
 30
0.0
 11
1102.847562
 21
121.728457
 31
0.0
  0
LINE
  5
707D
  8
ALPHA
 10
1102.847562
 20
134.728457
 30
0.0
 11
1102.847562
 21
121.728457
 31
0.0
  0
LINE
  5
707E
  8
ALPHA
 10
1103.350991
 20
134.728457
 30
0.0
 11
1102.847562
 21
134.728457
 31
0.0
  0
LINE
  5
707F
  8
ALPHA
 10
1107.604686
 20
133.233092
 30
0.0
 11
1105.350991
 21
133.233092
 31
0.0
  0
LINE
  5
7080
  8
ALPHA
 10
1105.350991
 20
131.467202
 30
0.0
 11
1107.604686
 21
131.467202
 31
0.0
  0
LINE
  5
7081
  8
ALPHA
 10
1105.350991
 20
132.131773
 30
0.0
 11
1107.604686
 21
132.131773
 31
0.0
  0
LINE
  5
7082
  8
ALPHA
 10
1105.350991
 20
132.774673
 30
0.0
 11
1107.604686
 21
132.774673
 31
0.0
  0
LINE
  5
7083
  8
ALPHA
 10
1105.350991
 20
123.17897
 30
0.0
 11
1107.604686
 21
123.17897
 31
0.0
  0
LINE
  5
7084
  8
ALPHA
 10
1105.350991
 20
128.763357
 30
0.0
 11
1107.604686
 21
128.763357
 31
0.0
  0
LINE
  5
7085
  8
ALPHA
 10
1105.350991
 20
129.664641
 30
0.0
 11
1107.604686
 21
129.664641
 31
0.0
  0
LINE
  5
7086
  8
ALPHA
 10
1105.350991
 20
130.565921
 30
0.0
 11
1107.604686
 21
130.565921
 31
0.0
  0
LINE
  5
7087
  8
ALPHA
 10
1105.350991
 20
127.649815
 30
0.0
 11
1107.604686
 21
127.649815
 31
0.0
  0
LINE
  5
7088
  8
ALPHA
 10
1105.350991
 20
126.748534
 30
0.0
 11
1107.604686
 21
126.748534
 31
0.0
  0
LINE
  5
7089
  8
ALPHA
 10
1105.350991
 20
125.846141
 30
0.0
 11
1107.604686
 21
125.846141
 31
0.0
  0
LINE
  5
708A
  8
ALPHA
 10
1105.350991
 20
124.94486
 30
0.0
 11
1107.604686
 21
124.94486
 31
0.0
  0
LINE
  5
708B
  8
ALPHA
 10
1105.350991
 20
124.280289
 30
0.0
 11
1107.604686
 21
124.280289
 31
0.0
  0
LINE
  5
708C
  8
ALPHA
 10
1105.350991
 20
123.637389
 30
0.0
 11
1107.604686
 21
123.637389
 31
0.0
  0
LINE
  5
708F
  8
ALPHA
 10
1103.350991
 20
121.670905
 30
0.0
 11
1103.350991
 21
134.741154
 31
0.0
  0
LINE
  5
7090
  8
ALPHA
 10
1103.350991
 20
133.233092
 30
0.0
 11
1103.350991
 21
123.17897
 31
0.0
  0
LINE
  5
7091
  8
ALPHA
 10
1107.604686
 20
123.17897
 30
0.0
 11
1107.604686
 21
133.233092
 31
0.0
  0
LINE
  5
7092
  8
ALPHA
 10
1106.350991
 20
138.228457
 30
0.0
 11
1105.350991
 21
138.228457
 31
0.0
  0
LINE
  5
7093
  8
AXE
 10
1100.600991
 20
189.228457
 30
0.0
 11
1100.600991
 21
167.228457
 31
0.0
  0
LINE
  5
7094
  8
ALPHA
 10
1103.350991
 20
184.728457
 30
0.0
 11
1105.350991
 21
184.728457
 31
0.0
  0
DIMENSION
  5
72AD
  8
COTATION1
  2
*D7
 10
1131.600991
 20
28.728457
 30
0.0
 11
1147.22653
 21
25.23954
 31
0.0
 70
   128
  1
M<>
 13
1119.600991
 23
42.728457
 33
0.0
 14
1131.600991
 24
42.728457
 34
0.0
  0
LINE
  5
72AE
  8
ALPHA
 10
1131.600991
 20
42.728457
 30
0.0
 11
1131.600991
 21
53.728457
 31
0.0
  0
LINE
  5
72AF
  8
ALPHA_FIN
 10
1130.527482
 20
53.728457
 30
0.0
 11
1130.527482
 21
42.108666
 31
0.0
  0
LINE
  5
72B0
  8
ALPHA
 10
1125.600991
 20
41.728457
 30
0.0
 11
1129.86894
 21
41.728457
 31
0.0
  0
LINE
  5
72B1
  8
ALPHA
 10
1125.600991
 20
42.728457
 30
0.0
 11
1131.600991
 21
42.728457
 31
0.0
  0
LINE
  5
72B2
  8
ALPHA
 10
1125.600991
 20
41.728457
 30
0.0
 11
1121.333042
 21
41.728457
 31
0.0
  0
LINE
  5
72B3
  8
ALPHA
 10
1119.600991
 20
42.728457
 30
0.0
 11
1121.333042
 21
41.728457
 31
0.0
  0
LINE
  5
72B4
  8
ALPHA
 10
1125.600991
 20
42.728457
 30
0.0
 11
1119.600991
 21
42.728457
 31
0.0
  0
LINE
  5
72B5
  8
ALPHA
 10
1131.600991
 20
42.728457
 30
0.0
 11
1129.86894
 21
41.728457
 31
0.0
  0
LINE
  5
72B6
  8
ALPHA_FIN
 10
1120.674501
 20
53.728457
 30
0.0
 11
1120.674501
 21
42.108666
 31
0.0
  0
LINE
  5
72B7
  8
ALPHA
 10
1119.600991
 20
42.728457
 30
0.0
 11
1119.600991
 21
53.728457
 31
0.0
  0
DIMENSION
  5
73F0
  8
COTATION1
  2
*D8
 10
1138.100991
 20
71.587159
 30
0.0
 11
1146.860505
 21
73.824117
 31
0.0
 70
   128
 13
1134.100991
 23
57.728457
 33
0.0
 14
1138.100991
 24
59.728457
 34
0.0
  0
LINE
  5
73F1
  8
POINTILLE_COURT
 10
1138.100991
 20
59.228457
 30
0.0
 11
1135.600991
 21
59.228457
 31
0.0
  0
LINE
  5
73F2
  8
POINTILLE_COURT
 10
1138.100991
 20
56.228457
 30
0.0
 11
1135.600991
 21
56.228457
 31
0.0
  0
ARC
  5
73F3
  8
POINTILLE_COURT
 10
1135.600991
 20
57.728457
 30
0.0
 40
1.5
 50
90.0
 51
270.0
  0
VIEWPORT
  5
494D
 67
     1
  8
0
 10
4.995325
 20
6.556512
 30
0.0
 40
22.70986
 41
13.988421
 68
    -1
 69
     1
1001
ACAD
1000
MVIEW
1002
{
1070
    16
1010
0.0
1020
0.0
1030
0.0
1010
0.0
1020
0.0
1030
1.0
1040
0.0
1040
13.988421
1040
4.995325
1040
6.556512
1040
50.0
1040
0.0
1040
0.0
1070
     0
1070
   100
1070
     1
1070
     1
1070
     0
1070
     0
1070
     0
1070
     0
1040
0.0
1040
0.0
1040
0.0
1040
10.0
1040
10.0
1040
10.0
1040
10.0
1070
     0
1002
{
1002
}
1002
}
  0
ENDSEC
  0
EOF
