  0
SECTION
  2
HEADER
  9
$ACADVER
  1
AC1009
  9
$INSBASE
 10
402.590624
 20
-1.041018
 30
0.0
  9
$EXTMIN
 10
1179.855096
 20
1.228457
 30
0.0
  9
$EXTMAX
 10
1317.6093
 20
226.228457
 30
0.0
  9
$LIMMIN
 10
-407.970438
 20
-367.832444
  9
$LIMMAX
 10
429.804077
 20
234.370848
  9
$ORTHOMODE
 70
     1
  9
$REGENMODE
 70
     1
  9
$FILLMODE
 70
     1
  9
$QTEXTMODE
 70
     0
  9
$MIRRTEXT
 70
     1
  9
$DRAGMODE
 70
     2
  9
$LTSCALE
 40
10.0
  9
$OSMODE
 70
   161
  9
$ATTMODE
 70
     1
  9
$TEXTSIZE
 40
6.0
  9
$TRACEWID
 40
1.0
  9
$TEXTSTYLE
  7
ROMANS
  9
$CLAYER
  8
ALPHA
  9
$CELTYPE
  6
BYLAYER
  9
$CECOLOR
 62
   256
  9
$DIMSCALE
 40
1.0
  9
$DIMASZ
 40
5.0
  9
$DIMEXO
 40
2.0
  9
$DIMDLI
 40
0.38
  9
$DIMRND
 40
0.0
  9
$DIMDLE
 40
0.0
  9
$DIMEXE
 40
2.5
  9
$DIMTP
 40
0.0
  9
$DIMTM
 40
0.0
  9
$DIMTXT
 40
2.5
  9
$DIMCEN
 40
0.0
  9
$DIMTSZ
 40
0.0
  9
$DIMTOL
 70
     0
  9
$DIMLIM
 70
     0
  9
$DIMTIH
 70
     1
  9
$DIMTOH
 70
     1
  9
$DIMSE1
 70
     0
  9
$DIMSE2
 70
     0
  9
$DIMTAD
 70
     1
  9
$DIMZIN
 70
    12
  9
$DIMBLK
  1
OPEN30
  9
$DIMASO
 70
     1
  9
$DIMSHO
 70
     1
  9
$DIMPOST
  1

  9
$DIMAPOST
  1

  9
$DIMALT
 70
     0
  9
$DIMALTD
 70
     2
  9
$DIMALTF
 40
25.4
  9
$DIMLFAC
 40
1.0
  9
$DIMTOFL
 70
     0
  9
$DIMTVP
 40
0.0
  9
$DIMTIX
 70
     0
  9
$DIMSOXD
 70
     0
  9
$DIMSAH
 70
     0
  9
$DIMBLK1
  1

  9
$DIMBLK2
  1

  9
$DIMSTYLE
  2
SC_DEFAUT
  9
$DIMCLRD
 70
     0
  9
$DIMCLRE
 70
     0
  9
$DIMCLRT
 70
     0
  9
$DIMTFAC
 40
1.0
  9
$DIMGAP
 40
2.0
  9
$LUNITS
 70
     2
  9
$LUPREC
 70
     1
  9
$SKETCHINC
 40
0.1
  9
$FILLETRAD
 40
0.0
  9
$AUNITS
 70
     0
  9
$AUPREC
 70
     0
  9
$MENU
  1
acad
  9
$ELEVATION
 40
0.0
  9
$PELEVATION
 40
0.0
  9
$THICKNESS
 40
0.0
  9
$LIMCHECK
 70
     0
  9
$BLIPMODE
 70
     0
  9
$CHAMFERA
 40
0.0
  9
$CHAMFERB
 40
0.0
  9
$SKPOLY
 70
     0
  9
$TDCREATE
 40
2450373.687919
  9
$TDUPDATE
 40
2452831.585387
  9
$TDINDWG
 40
0.854258
  9
$TDUSRTIMER
 40
0.854258
  9
$USRTIMER
 70
     1
  9
$ANGBASE
 50
0.0
  9
$ANGDIR
 70
     0
  9
$PDMODE
 70
    32
  9
$PDSIZE
 40
0.0
  9
$PLINEWID
 40
0.0
  9
$COORDS
 70
     1
  9
$SPLFRAME
 70
     0
  9
$SPLINETYPE
 70
     6
  9
$SPLINESEGS
 70
     8
  9
$ATTDIA
 70
     0
  9
$ATTREQ
 70
     1
  9
$HANDLING
 70
     1
  9
$HANDSEED
  5
7BE5
  9
$SURFTAB1
 70
     6
  9
$SURFTAB2
 70
     6
  9
$SURFTYPE
 70
     6
  9
$SURFU
 70
     6
  9
$SURFV
 70
     6
  9
$UCSNAME
  2

  9
$UCSORG
 10
0.0
 20
0.0
 30
0.0
  9
$UCSXDIR
 10
1.0
 20
0.0
 30
0.0
  9
$UCSYDIR
 10
0.0
 20
1.0
 30
0.0
  9
$PUCSNAME
  2

  9
$PUCSORG
 10
0.0
 20
0.0
 30
0.0
  9
$PUCSXDIR
 10
1.0
 20
0.0
 30
0.0
  9
$PUCSYDIR
 10
0.0
 20
1.0
 30
0.0
  9
$USERI1
 70
     0
  9
$USERI2
 70
     0
  9
$USERI3
 70
     0
  9
$USERI4
 70
     0
  9
$USERI5
 70
     0
  9
$USERR1
 40
0.0
  9
$USERR2
 40
0.0
  9
$USERR3
 40
0.0
  9
$USERR4
 40
0.0
  9
$USERR5
 40
0.0
  9
$WORLDVIEW
 70
     1
  9
$SHADEDGE
 70
     3
  9
$SHADEDIF
 70
    70
  9
$TILEMODE
 70
     1
  9
$MAXACTVP
 70
    16
  9
$PLIMCHECK
 70
     0
  9
$PEXTMIN
 10
-1.452248
 20
-0.437698
 30
0.0
  9
$PEXTMAX
 10
12.749749
 20
8.310198
 30
0.0
  9
$PLIMMIN
 10
0.0
 20
0.0
  9
$PLIMMAX
 10
12.0
 20
9.0
  9
$UNITMODE
 70
     0
  9
$VISRETAIN
 70
     0
  9
$PLINEGEN
 70
     0
  9
$PSLTSCALE
 70
     0
  0
ENDSEC
  0
SECTION
  2
TABLES
  0
TABLE
  2
VPORT
 70
     2
  0
VPORT
  2
*ACTIVE
 70
     0
 10
0.0
 20
0.0
 11
1.0
 21
1.0
 12
1248.743133
 22
113.739062
 13
0.0
 23
0.0
 14
1.0
 24
1.0
 15
10.0
 25
10.0
 16
0.0
 26
0.0
 36
1.0
 17
0.0
 27
0.0
 37
0.0
 40
226.962118
 41
1.56
 42
50.0
 43
0.0
 44
0.0
 50
0.0
 51
0.0
 71
     0
 72
   100
 73
     1
 74
     0
 75
     0
 76
     0
 77
     0
 78
     0
  0
ENDTAB
  0
TABLE
  2
LTYPE
 70
     3
  0
LTYPE
  2
CONTINUOUS
 70
     0
  3
Solid line
 72
    65
 73
     0
 40
0.0
  0
LTYPE
  2
AXES2
 70
     0
  3
___ _ ___ _ ___ _ ___ _ ___ _ ___ _ ___ _ ___ _
 72
    65
 73
     4
 40
1.125
 49
0.75
 49
-0.125
 49
0.125
 49
-0.125
  0
LTYPE
  2
CACHE2
 70
     0
  3
Caché (x.5) _ _ _ _ _ _ _ _ _ _ _ _ _ _ _ _ _
 72
    65
 73
     2
 40
0.1875
 49
0.125
 49
-0.0625
  0
ENDTAB
  0
TABLE
  2
LAYER
 70
     7
  0
LAYER
  2
0
 70
     0
 62
   255
  6
CONTINUOUS
  0
LAYER
  2
COTATION1
 70
     0
 62
     2
  6
CONTINUOUS
  0
LAYER
  2
AXE
 70
     0
 62
    80
  6
AXES2
  0
LAYER
  2
DEFPOINTS
 70
     0
 62
     7
  6
CONTINUOUS
  0
LAYER
  2
ALPHA
 70
     0
 62
   254
  6
CONTINUOUS
  0
LAYER
  2
POINTILLE_COURT
 70
     0
 62
    41
  6
CACHE2
  0
LAYER
  2
ALPHA_FIN
 70
     0
 62
   255
  6
CONTINUOUS
  0
ENDTAB
  0
TABLE
  2
STYLE
 70
     2
  0
STYLE
  2
ROMANS
 70
     0
 40
0.0
 41
1.0
 50
0.0
 71
     0
 42
6.0
  3
romans
  4

  0
STYLE
  2
STANDARD
 70
     0
 40
0.2
 41
1.0
 50
0.0
 71
     0
 42
0.2
  3
txt
  4

  0
ENDTAB
  0
TABLE
  2
VIEW
 70
     0
  0
ENDTAB
  0
TABLE
  2
UCS
 70
     0
  0
ENDTAB
  0
TABLE
  2
APPID
 70
     1
  0
APPID
  2
ACAD
 70
     0
  0
ENDTAB
  0
TABLE
  2
DIMSTYLE
 70
     1
  0
DIMSTYLE
  2
SC_DEFAUT
 70
     0
  3

  4

  5
OPEN30
  6

  7

 40
1.0
 41
5.0
 42
2.0
 43
0.38
 44
2.5
 45
0.0
 46
0.0
 47
0.0
 48
0.0
140
2.5
141
0.0
142
0.0
143
25.4
144
1.0
145
0.0
146
1.0
147
2.0
 71
     0
 72
     0
 73
     1
 74
     1
 75
     0
 76
     0
 77
     1
 78
    12
170
     0
171
     2
172
     0
173
     0
174
     0
175
     0
176
     0
177
     0
178
     0
  0
ENDTAB
  0
ENDSEC
  0
SECTION
  2
BLOCKS
  0
BLOCK
  8
0
  2
$MODEL_SPACE
 70
     0
 10
0.0
 20
0.0
 30
0.0
  3
$MODEL_SPACE
  1

  0
ENDBLK
  5
7BB7
  8
0
  0
BLOCK
 67
     1
  8
0
  2
$PAPER_SPACE
 70
     0
 10
0.0
 20
0.0
 30
0.0
  3
$PAPER_SPACE
  1

  0
ENDBLK
  5
7BB5
 67
     1
  8
0
  0
BLOCK
  8
0
  2
COTE
 70
     0
 10
0.0
 20
0.0
 30
0.0
  3
COTE
  1

  0
ENDBLK
  5
F
  8
0
  0
BLOCK
  8
0
  2
FOND
 70
     0
 10
0.0
 20
0.0
 30
0.0
  3
FOND
  1

  0
ENDBLK
  5
75
  8
0
  0
BLOCK
  8
0
  2
_OPEN30
 70
     0
 10
0.0
 20
0.0
 30
0.0
  3
_OPEN30
  1

  0
LINE
  5
4B05
  8
COTATION1
 62
     0
 10
-1.0
 20
0.267949
 30
0.0
 11
0.0
 21
0.0
 31
0.0
1001
ACAD
1000
RTLwPs
1070
   158
  0
LINE
  5
4B06
  8
COTATION1
 62
     0
 10
0.0
 20
0.0
 30
0.0
 11
-1.0
 21
-0.267949
 31
0.0
1001
ACAD
1000
RTLwPs
1070
   158
  0
LINE
  5
4B07
  8
COTATION1
 62
     0
 10
0.0
 20
0.0
 30
0.0
 11
-1.0
 21
0.0
 31
0.0
1001
ACAD
1000
RTLwPs
1070
   158
  0
ENDBLK
  5
4B09
  8
0
  0
BLOCK
  8
0
  2
*D3
 70
     1
 10
0.0
 20
0.0
 30
0.0
  3
*D3
  1

  0
LINE
  5
7A68
  8
COTATION1
 62
     0
 10
1225.930729
 20
116.878457
 30
0.0
 11
1225.930729
 21
224.228457
 31
0.0
1001
ACAD
1000
RTLwPs
1070
   158
  0
LINE
  5
7A69
  8
COTATION1
 62
     0
 10
1247.930729
 20
116.878457
 30
0.0
 11
1247.930729
 21
224.228457
 31
0.0
1001
ACAD
1000
RTLwPs
1070
   158
  0
LINE
  5
7A6A
  8
COTATION1
 62
     0
 10
1230.930729
 20
221.728457
 30
0.0
 11
1242.930729
 21
221.728457
 31
0.0
1001
ACAD
1000
RTLwPs
1070
   158
  0
INSERT
  5
7A6B
  8
COTATION1
 62
     0
  2
_OPEN30
 10
1225.930729
 20
221.728457
 30
0.0
 41
5.0
 42
5.0
 43
5.0
 50
180.0
1001
ACAD
1000
RTLwPs
1070
   158
  0
INSERT
  5
7A6C
  8
COTATION1
 62
     0
  2
_OPEN30
 10
1247.930729
 20
221.728457
 30
0.0
 41
5.0
 42
5.0
 43
5.0
1001
ACAD
1000
RTLwPs
1070
   158
  0
TEXT
  5
7A6D
  8
COTATION1
 62
     0
 10
1234.549776
 20
223.728457
 30
0.0
 40
2.5
  1
22
1001
ACAD
1000
MTEXTBEGIN
1070
    73
1070
     1
1070
    44
1040
1.0
1070
    74
1070
     0
1000
MTEXTEND
1000
MTEXTBEGIN
1070
    73
1070
     1
1070
    44
1040
1.0
1070
    74
1070
     0
1000
MTEXTEND
  0
POINT
  5
7A6E
  8
DEFPOINTS
 62
     0
 10
1225.930729
 20
114.878457
 30
0.0
  0
POINT
  5
7A6F
  8
DEFPOINTS
 62
     0
 10
1247.930729
 20
114.878457
 30
0.0
  0
POINT
  5
7A70
  8
DEFPOINTS
 62
     0
 10
1247.930729
 20
221.728457
 30
0.0
  0
ENDBLK
  5
7544
  8
0
  0
BLOCK
  8
0
  2
*D4
 70
     1
 10
0.0
 20
0.0
 30
0.0
  3
*D4
  1

  0
LINE
  5
7A5F
  8
COTATION1
 62
     0
 10
1226.930729
 20
114.878457
 30
0.0
 11
1226.930729
 21
214.228457
 31
0.0
1001
ACAD
1000
RTLwPs
1070
   158
  0
LINE
  5
7A60
  8
COTATION1
 62
     0
 10
1246.930729
 20
114.878457
 30
0.0
 11
1246.930729
 21
214.228457
 31
0.0
1001
ACAD
1000
RTLwPs
1070
   158
  0
LINE
  5
7A61
  8
COTATION1
 62
     0
 10
1231.930729
 20
211.728457
 30
0.0
 11
1241.930729
 21
211.728457
 31
0.0
1001
ACAD
1000
RTLwPs
1070
   158
  0
INSERT
  5
7A62
  8
COTATION1
 62
     0
  2
_OPEN30
 10
1226.930729
 20
211.728457
 30
0.0
 41
5.0
 42
5.0
 43
5.0
 50
180.0
1001
ACAD
1000
RTLwPs
1070
   158
  0
INSERT
  5
7A63
  8
COTATION1
 62
     0
  2
_OPEN30
 10
1246.930729
 20
211.728457
 30
0.0
 41
5.0
 42
5.0
 43
5.0
1001
ACAD
1000
RTLwPs
1070
   158
  0
TEXT
  5
7A64
  8
COTATION1
 62
     0
 10
1234.549776
 20
213.728457
 30
0.0
 40
2.5
  1
20
1001
ACAD
1000
MTEXTBEGIN
1070
    73
1070
     1
1070
    44
1040
1.0
1070
    74
1070
     0
1000
MTEXTEND
1000
MTEXTBEGIN
1070
    73
1070
     1
1070
    44
1040
1.0
1070
    74
1070
     0
1000
MTEXTEND
  0
POINT
  5
7A65
  8
DEFPOINTS
 62
     0
 10
1226.930729
 20
112.878457
 30
0.0
  0
POINT
  5
7A66
  8
DEFPOINTS
 62
     0
 10
1246.930729
 20
112.878457
 30
0.0
  0
POINT
  5
7A67
  8
DEFPOINTS
 62
     0
 10
1246.930729
 20
211.728457
 30
0.0
  0
ENDBLK
  5
7550
  8
0
  0
BLOCK
  8
0
  2
*D5
 70
     1
 10
0.0
 20
0.0
 30
0.0
  3
*D5
  1

  0
LINE
  5
7A59
  8
COTATION1
 62
     0
 10
1251.918564
 20
116.663074
 30
0.0
 11
1261.252795
 21
130.55409
 31
0.0
1001
ACAD
1000
RTLwPs
1070
   158
  0
LINE
  5
7A5A
  8
COTATION1
 62
     0
 10
1261.252795
 20
130.55409
 30
0.0
 11
1283.133747
 21
130.55409
 31
0.0
1001
ACAD
1000
RTLwPs
1070
   158
  0
INSERT
  5
7A5B
  8
COTATION1
 62
     0
  2
_OPEN30
 10
1249.129868
 20
112.512992
 30
0.0
 41
5.0
 42
5.0
 43
5.0
 50
236.10041
1001
ACAD
1000
RTLwPs
1070
   158
  0
TEXT
  5
7A5C
  8
COTATION1
 62
     0
 10
1262.895652
 20
132.55409
 30
0.0
 40
2.5
  1
2x%%c4.3x6.3
1001
ACAD
1000
MTEXTBEGIN
1070
    73
1070
     1
1070
    44
1040
1.0
1070
    74
1070
     0
1000
MTEXTEND
1000
MTEXTBEGIN
1070
    73
1070
     1
1070
    44
1040
1.0
1070
    74
1070
     0
1000
MTEXTEND
  0
POINT
  5
7A5D
  8
DEFPOINTS
 62
     0
 10
1249.129868
 20
112.512992
 30
0.0
  0
POINT
  5
7A5E
  8
DEFPOINTS
 62
     0
 10
1246.731589
 20
108.943922
 30
0.0
  0
ENDBLK
  5
7771
  8
0
  0
BLOCK
  8
0
  2
*D6
 70
     1
 10
0.0
 20
0.0
 30
0.0
  3
*D6
  1

  0
LINE
  5
7B3B
  8
COTATION1
 62
     0
 10
1238.930729
 20
118.728457
 30
0.0
 11
1289.930729
 21
118.728457
 31
0.0
  0
LINE
  5
7B3C
  8
COTATION1
 62
     0
 10
1253.080729
 20
108.728457
 30
0.0
 11
1289.930729
 21
108.728457
 31
0.0
  0
LINE
  5
7B3D
  8
COTATION1
 62
     0
 10
1287.430729
 20
123.728457
 30
0.0
 11
1287.430729
 21
128.728457
 31
0.0
  0
LINE
  5
7B3E
  8
COTATION1
 62
     0
 10
1287.430729
 20
103.728457
 30
0.0
 11
1287.430729
 21
98.728457
 31
0.0
  0
TEXT
  5
7B3F
  8
COTATION1
 62
     0
 10
1284.871205
 20
112.478457
 30
0.0
 40
2.5
  1
10
  0
INSERT
  5
7B40
  8
COTATION1
 62
     0
  2
_OPEN30
 10
1287.430729
 20
118.728457
 30
0.0
 41
5.0
 42
5.0
 43
5.0
 50
270.0
  0
INSERT
  5
7B41
  8
COTATION1
 62
     0
  2
_OPEN30
 10
1287.430729
 20
108.728457
 30
0.0
 41
5.0
 42
5.0
 43
5.0
 50
90.0
  0
POINT
  5
7B42
  8
DEFPOINTS
 62
     0
 10
1236.930729
 20
118.728457
 30
0.0
  0
POINT
  5
7B43
  8
DEFPOINTS
 62
     0
 10
1251.080729
 20
108.728457
 30
0.0
  0
POINT
  5
7B44
  8
DEFPOINTS
 62
     0
 10
1287.430729
 20
108.728457
 30
0.0
  0
ENDBLK
  5
777E
  8
0
  0
BLOCK
  8
0
  2
*D7
 70
     1
 10
0.0
 20
0.0
 30
0.0
  3
*D7
  1

  0
LINE
  5
7957
  8
COTATION1
 62
     0
 10
1221.430729
 20
51.728457
 30
0.0
 11
1221.430729
 21
1.228457
 31
0.0
1001
ACAD
1000
RTLwPs
1070
   158
  0
LINE
  5
7958
  8
COTATION1
 62
     0
 10
1252.430729
 20
51.728457
 30
0.0
 11
1252.430729
 21
1.228457
 31
0.0
1001
ACAD
1000
RTLwPs
1070
   158
  0
LINE
  5
7959
  8
COTATION1
 62
     0
 10
1226.430729
 20
3.728457
 30
0.0
 11
1247.430729
 21
3.728457
 31
0.0
1001
ACAD
1000
RTLwPs
1070
   158
  0
INSERT
  5
795A
  8
COTATION1
 62
     0
  2
_OPEN30
 10
1221.430729
 20
3.728457
 30
0.0
 41
5.0
 42
5.0
 43
5.0
 50
180.0
1001
ACAD
1000
RTLwPs
1070
   158
  0
INSERT
  5
795B
  8
COTATION1
 62
     0
  2
_OPEN30
 10
1252.430729
 20
3.728457
 30
0.0
 41
5.0
 42
5.0
 43
5.0
1001
ACAD
1000
RTLwPs
1070
   158
  0
TEXT
  5
795C
  8
COTATION1
 62
     0
 10
1234.906919
 20
5.728457
 30
0.0
 40
2.5
  1
31
1001
ACAD
1000
MTEXTBEGIN
1070
    73
1070
     1
1070
    44
1040
1.0
1070
    74
1070
     0
1000
MTEXTEND
1000
MTEXTBEGIN
1070
    73
1070
     1
1070
    44
1040
1.0
1070
    74
1070
     0
1000
MTEXTEND
1000
MTEXTBEGIN
1070
    73
1070
     1
1070
    44
1040
1.0
1070
    74
1070
     0
1000
MTEXTEND
1000
MTEXTBEGIN
1070
    73
1070
     1
1070
    44
1040
1.0
1070
    74
1070
     0
1000
MTEXTEND
  0
POINT
  5
795D
  8
DEFPOINTS
 62
     0
 10
1221.430729
 20
53.728457
 30
0.0
  0
POINT
  5
795E
  8
DEFPOINTS
 62
     0
 10
1252.430729
 20
53.728457
 30
0.0
  0
POINT
  5
795F
  8
DEFPOINTS
 62
     0
 10
1252.430729
 20
3.728457
 30
0.0
  0
ENDBLK
  5
7797
  8
0
  0
BLOCK
  8
0
  2
*D8
 70
     1
 10
0.0
 20
0.0
 30
0.0
  3
*D8
  1

  0
LINE
  5
7960
  8
COTATION1
 62
     0
 10
1227.430729
 20
51.228457
 30
0.0
 11
1227.430729
 21
11.228457
 31
0.0
1001
ACAD
1000
RTLwPs
1070
   158
  0
LINE
  5
7961
  8
COTATION1
 62
     0
 10
1246.430729
 20
51.228457
 30
0.0
 11
1246.430729
 21
11.228457
 31
0.0
1001
ACAD
1000
RTLwPs
1070
   158
  0
LINE
  5
7962
  8
COTATION1
 62
     0
 10
1232.430729
 20
13.728457
 30
0.0
 11
1241.430729
 21
13.728457
 31
0.0
1001
ACAD
1000
RTLwPs
1070
   158
  0
INSERT
  5
7963
  8
COTATION1
 62
     0
  2
_OPEN30
 10
1227.430729
 20
13.728457
 30
0.0
 41
5.0
 42
5.0
 43
5.0
 50
180.0
1001
ACAD
1000
RTLwPs
1070
   158
  0
INSERT
  5
7964
  8
COTATION1
 62
     0
  2
_OPEN30
 10
1246.430729
 20
13.728457
 30
0.0
 41
5.0
 42
5.0
 43
5.0
1001
ACAD
1000
RTLwPs
1070
   158
  0
TEXT
  5
7965
  8
COTATION1
 62
     0
 10
1234.430729
 20
15.728457
 30
0.0
 40
2.5
  1
19
1001
ACAD
1000
MTEXTBEGIN
1070
    73
1070
     1
1070
    44
1040
1.0
1070
    74
1070
     0
1000
MTEXTEND
1000
MTEXTBEGIN
1070
    73
1070
     1
1070
    44
1040
1.0
1070
    74
1070
     0
1000
MTEXTEND
1000
MTEXTBEGIN
1070
    73
1070
     1
1070
    44
1040
1.0
1070
    74
1070
     0
1000
MTEXTEND
1000
MTEXTBEGIN
1070
    73
1070
     1
1070
    44
1040
1.0
1070
    74
1070
     0
1000
MTEXTEND
  0
POINT
  5
7966
  8
DEFPOINTS
 62
     0
 10
1227.430729
 20
53.228457
 30
0.0
  0
POINT
  5
7967
  8
DEFPOINTS
 62
     0
 10
1246.430729
 20
53.228457
 30
0.0
  0
POINT
  5
7968
  8
DEFPOINTS
 62
     0
 10
1246.430729
 20
13.728457
 30
0.0
  0
ENDBLK
  5
77A3
  8
0
  0
BLOCK
  8
0
  2
*D9
 70
     1
 10
0.0
 20
0.0
 30
0.0
  3
*D9
  1

  0
LINE
  5
7939
  8
COTATION1
 62
     0
 10
1253.080729
 20
108.728457
 30
0.0
 11
1289.930729
 21
108.728457
 31
0.0
1001
ACAD
1000
RTLwPs
1070
   158
  0
LINE
  5
793A
  8
COTATION1
 62
     0
 10
1252.930729
 20
57.728457
 30
0.0
 11
1289.930729
 21
57.728457
 31
0.0
1001
ACAD
1000
RTLwPs
1070
   158
  0
LINE
  5
793B
  8
COTATION1
 62
     0
 10
1287.430729
 20
103.728457
 30
0.0
 11
1287.430729
 21
86.478457
 31
0.0
1001
ACAD
1000
RTLwPs
1070
   158
  0
LINE
  5
793C
  8
COTATION1
 62
     0
 10
1287.430729
 20
62.728457
 30
0.0
 11
1287.430729
 21
79.978457
 31
0.0
1001
ACAD
1000
RTLwPs
1070
   158
  0
INSERT
  5
793D
  8
COTATION1
 62
     0
  2
_OPEN30
 10
1287.430729
 20
108.728457
 30
0.0
 41
5.0
 42
5.0
 43
5.0
 50
90.0
1001
ACAD
1000
RTLwPs
1070
   158
  0
INSERT
  5
793E
  8
COTATION1
 62
     0
  2
_OPEN30
 10
1287.430729
 20
57.728457
 30
0.0
 41
5.0
 42
5.0
 43
5.0
 50
270.0
1001
ACAD
1000
RTLwPs
1070
   158
  0
TEXT
  5
793F
  8
COTATION1
 62
     0
 10
1285.406919
 20
81.978457
 30
0.0
 40
2.5
  1
51
1001
ACAD
1000
MTEXTBEGIN
1070
    73
1070
     1
1070
    44
1040
1.0
1070
    74
1070
     0
1000
MTEXTEND
1000
MTEXTBEGIN
1070
    73
1070
     1
1070
    44
1040
1.0
1070
    74
1070
     0
1000
MTEXTEND
1000
MTEXTBEGIN
1070
    73
1070
     1
1070
    44
1040
1.0
1070
    74
1070
     0
1000
MTEXTEND
1000
MTEXTBEGIN
1070
    73
1070
     1
1070
    44
1040
1.0
1070
    74
1070
     0
1000
MTEXTEND
  0
POINT
  5
7940
  8
DEFPOINTS
 62
     0
 10
1251.080729
 20
108.728457
 30
0.0
  0
POINT
  5
7941
  8
DEFPOINTS
 62
     0
 10
1250.930729
 20
57.728457
 30
0.0
  0
POINT
  5
7942
  8
DEFPOINTS
 62
     0
 10
1287.430729
 20
57.728457
 30
0.0
  0
ENDBLK
  5
77B0
  8
0
  0
BLOCK
  8
0
  2
*D10
 70
     1
 10
0.0
 20
0.0
 30
0.0
  3
*D10
  1

  0
LINE
  5
7B45
  8
COTATION1
 62
     0
 10
1254.080729
 20
110.728457
 30
0.0
 11
1279.930729
 21
110.728457
 31
0.0
  0
LINE
  5
7B46
  8
COTATION1
 62
     0
 10
1253.080729
 20
108.728457
 30
0.0
 11
1279.930729
 21
108.728457
 31
0.0
  0
LINE
  5
7B47
  8
COTATION1
 62
     0
 10
1277.430729
 20
115.728457
 30
0.0
 11
1277.430729
 21
120.728457
 31
0.0
  0
LINE
  5
7B48
  8
COTATION1
 62
     0
 10
1277.430729
 20
103.728457
 30
0.0
 11
1277.430729
 21
98.728457
 31
0.0
  0
TEXT
  5
7B49
  8
COTATION1
 62
     0
 10
1273.406919
 20
99.080197
 30
0.0
 40
2.5
  1
2
  0
INSERT
  5
7B4A
  8
COTATION1
 62
     0
  2
_OPEN30
 10
1277.430729
 20
110.728457
 30
0.0
 41
5.0
 42
5.0
 43
5.0
 50
270.0
  0
INSERT
  5
7B4B
  8
COTATION1
 62
     0
  2
_OPEN30
 10
1277.430729
 20
108.728457
 30
0.0
 41
5.0
 42
5.0
 43
5.0
 50
90.0
  0
POINT
  5
7B4C
  8
DEFPOINTS
 62
     0
 10
1252.080729
 20
110.728457
 30
0.0
  0
POINT
  5
7B4D
  8
DEFPOINTS
 62
     0
 10
1251.080729
 20
108.728457
 30
0.0
  0
POINT
  5
7B4E
  8
DEFPOINTS
 62
     0
 10
1277.430729
 20
108.728457
 30
0.0
  0
ENDBLK
  5
77BD
  8
0
  0
BLOCK
  8
0
  2
*D11
 70
     1
 10
0.0
 20
0.0
 30
0.0
  3
*D11
  1

  0
LINE
  5
79D3
  8
COTATION1
 62
     0
 10
1222.028943
 20
61.343801
 30
0.0
 11
1201.695481
 21
74.952719
 31
0.0
1001
ACAD
1000
RTLwPs
1070
   158
  0
LINE
  5
79D4
  8
COTATION1
 62
     0
 10
1201.695481
 20
74.952719
 30
0.0
 11
1191.362148
 21
74.952719
 31
0.0
1001
ACAD
1000
RTLwPs
1070
   158
  0
INSERT
  5
79D5
  8
COTATION1
 62
     0
  2
_OPEN30
 10
1226.184163
 20
58.562767
 30
0.0
 41
5.0
 42
5.0
 43
5.0
 50
326.206126
1001
ACAD
1000
RTLwPs
1070
   158
  0
TEXT
  5
79D6
  8
COTATION1
 62
     0
 10
1191.005005
 20
76.952719
 30
0.0
 40
2.5
  1
2x%%c3
1001
ACAD
1000
MTEXTBEGIN
1070
    73
1070
     1
1070
    44
1040
1.0
1070
    74
1070
     0
1000
MTEXTEND
1000
MTEXTBEGIN
1070
    73
1070
     1
1070
    44
1040
1.0
1070
    74
1070
     0
1000
MTEXTEND
1000
MTEXTBEGIN
1070
    73
1070
     1
1070
    44
1040
1.0
1070
    74
1070
     0
1000
MTEXTEND
  0
POINT
  5
79D7
  8
DEFPOINTS
 62
     0
 10
1226.184163
 20
58.562767
 30
0.0
  0
POINT
  5
79D8
  8
DEFPOINTS
 62
     0
 10
1228.677294
 20
56.894147
 30
0.0
  0
ENDBLK
  5
77C7
  8
0
  0
BLOCK
  8
0
  2
*D12
 70
     1
 10
0.0
 20
0.0
 30
0.0
  3
*D12
  1

  0
LINE
  5
7929
  8
COTATION1
 62
     0
 10
1220.614149
 20
105.378334
 30
0.0
 11
1197.741044
 21
93.24713
 31
0.0
1001
ACAD
1000
RTLwPs
1070
   158
  0
LINE
  5
792A
  8
COTATION1
 62
     0
 10
1197.741044
 20
93.24713
 30
0.0
 11
1183.836282
 21
93.24713
 31
0.0
1001
ACAD
1000
RTLwPs
1070
   158
  0
INSERT
  5
792B
  8
COTATION1
 62
     0
  2
_OPEN30
 10
1225.031337
 20
107.721078
 30
0.0
 41
5.0
 42
5.0
 43
5.0
 50
27.940128
1001
ACAD
1000
RTLwPs
1070
   158
  0
TEXT
  5
792C
  8
COTATION1
 62
     0
 10
1183.479139
 20
95.24713
 30
0.0
 40
2.5
  1
2x%%c4.3
1001
ACAD
1000
MTEXTBEGIN
1070
    73
1070
     1
1070
    44
1040
1.0
1070
    74
1070
     0
1000
MTEXTEND
1000
MTEXTBEGIN
1070
    73
1070
     1
1070
    44
1040
1.0
1070
    74
1070
     0
1000
MTEXTEND
1000
MTEXTBEGIN
1070
    73
1070
     1
1070
    44
1040
1.0
1070
    74
1070
     0
1000
MTEXTEND
1000
MTEXTBEGIN
1070
    73
1070
     1
1070
    44
1040
1.0
1070
    74
1070
     0
1000
MTEXTEND
  0
POINT
  5
792D
  8
DEFPOINTS
 62
     0
 10
1225.031337
 20
107.721078
 30
0.0
  0
POINT
  5
792E
  8
DEFPOINTS
 62
     0
 10
1228.83012
 20
109.735837
 30
0.0
  0
ENDBLK
  5
77D1
  8
0
  0
BLOCK
  8
0
  2
*D13
 70
     1
 10
0.0
 20
0.0
 30
0.0
  3
*D13
  1

  0
LINE
  5
7AE2
  8
COTATION1
 62
     0
 10
1238.930729
 20
186.728457
 30
0.0
 11
1309.930729
 21
186.728457
 31
0.0
1001
ACAD
1000
RTLwPs
1070
   158
  0
LINE
  5
7AE3
  8
COTATION1
 62
     0
 10
1243.198678
 20
41.728457
 30
0.0
 11
1309.930729
 21
41.728457
 31
0.0
1001
ACAD
1000
RTLwPs
1070
   158
  0
LINE
  5
7AE4
  8
COTATION1
 62
     0
 10
1307.430729
 20
181.728457
 30
0.0
 11
1307.430729
 21
117.478457
 31
0.0
1001
ACAD
1000
RTLwPs
1070
   158
  0
LINE
  5
7AE5
  8
COTATION1
 62
     0
 10
1307.430729
 20
46.728457
 30
0.0
 11
1307.430729
 21
110.978457
 31
0.0
1001
ACAD
1000
RTLwPs
1070
   158
  0
INSERT
  5
7AE6
  8
COTATION1
 62
     0
  2
_OPEN30
 10
1307.430729
 20
186.728457
 30
0.0
 41
5.0
 42
5.0
 43
5.0
 50
90.0
1001
ACAD
1000
RTLwPs
1070
   158
  0
INSERT
  5
7AE7
  8
COTATION1
 62
     0
  2
_OPEN30
 10
1307.430729
 20
41.728457
 30
0.0
 41
5.0
 42
5.0
 43
5.0
 50
270.0
1001
ACAD
1000
RTLwPs
1070
   158
  0
TEXT
  5
7AE8
  8
COTATION1
 62
     0
 10
1296.537871
 20
112.978457
 30
0.0
 40
2.5
  1
119.5...170
1001
ACAD
1000
MTEXTBEGIN
1070
    73
1070
     1
1070
    44
1040
1.0
1070
    74
1070
     0
1000
MTEXTEND
  0
POINT
  5
7AE9
  8
DEFPOINTS
 62
     0
 10
1236.930729
 20
186.728457
 30
0.0
  0
POINT
  5
7AEA
  8
DEFPOINTS
 62
     0
 10
1241.198678
 20
41.728457
 30
0.0
  0
POINT
  5
7AEB
  8
DEFPOINTS
 62
     0
 10
1307.430729
 20
41.728457
 30
0.0
  0
ENDBLK
  5
7848
  8
0
  0
BLOCK
  8
0
  2
*D14
 70
     1
 10
0.0
 20
0.0
 30
0.0
  3
*D14
  1

  0
LINE
  5
7A81
  8
COTATION1
 62
     0
 10
1228.930729
 20
174.294908
 30
0.0
 11
1228.930729
 21
204.228457
 31
0.0
1001
ACAD
1000
RTLwPs
1070
   158
  0
LINE
  5
7A82
  8
COTATION1
 62
     0
 10
1244.930729
 20
174.728457
 30
0.0
 11
1244.930729
 21
204.228457
 31
0.0
1001
ACAD
1000
RTLwPs
1070
   158
  0
LINE
  5
7A83
  8
COTATION1
 62
     0
 10
1233.930729
 20
201.728457
 30
0.0
 11
1239.930729
 21
201.728457
 31
0.0
1001
ACAD
1000
RTLwPs
1070
   158
  0
INSERT
  5
7A84
  8
COTATION1
 62
     0
  2
_OPEN30
 10
1228.930729
 20
201.728457
 30
0.0
 41
5.0
 42
5.0
 43
5.0
 50
180.0
1001
ACAD
1000
RTLwPs
1070
   158
  0
INSERT
  5
7A85
  8
COTATION1
 62
     0
  2
_OPEN30
 10
1244.930729
 20
201.728457
 30
0.0
 41
5.0
 42
5.0
 43
5.0
1001
ACAD
1000
RTLwPs
1070
   158
  0
TEXT
  5
7A86
  8
COTATION1
 62
     0
 10
1234.371205
 20
203.728457
 30
0.0
 40
2.5
  1
16
1001
ACAD
1000
MTEXTBEGIN
1070
    73
1070
     1
1070
    44
1040
1.0
1070
    74
1070
     0
1000
MTEXTEND
1000
MTEXTBEGIN
1070
    73
1070
     1
1070
    44
1040
1.0
1070
    74
1070
     0
1000
MTEXTEND
  0
POINT
  5
7A87
  8
DEFPOINTS
 62
     0
 10
1228.930729
 20
172.294908
 30
0.0
  0
POINT
  5
7A88
  8
DEFPOINTS
 62
     0
 10
1244.930729
 20
172.728457
 30
0.0
  0
POINT
  5
7A89
  8
DEFPOINTS
 62
     0
 10
1244.930729
 20
201.728457
 30
0.0
  0
ENDBLK
  5
78A7
  8
0
  0
BLOCK
  8
0
  2
*D15
 70
     1
 10
0.0
 20
0.0
 30
0.0
  3
*D15
  1

  0
LINE
  5
7AD8
  8
COTATION1
 62
     0
 10
1234.930729
 20
186.728457
 30
0.0
 11
1186.521763
 21
186.728457
 31
0.0
1001
ACAD
1000
RTLwPs
1070
   158
  0
LINE
  5
7AD9
  8
COTATION1
 62
     0
 10
1220.780729
 20
108.728457
 30
0.0
 11
1186.521763
 21
108.728457
 31
0.0
1001
ACAD
1000
RTLwPs
1070
   158
  0
LINE
  5
7ADA
  8
COTATION1
 62
     0
 10
1189.021763
 20
181.728457
 30
0.0
 11
1189.021763
 21
151.228457
 31
0.0
1001
ACAD
1000
RTLwPs
1070
   158
  0
LINE
  5
7ADB
  8
COTATION1
 62
     0
 10
1189.021763
 20
113.728457
 30
0.0
 11
1189.021763
 21
144.728457
 31
0.0
1001
ACAD
1000
RTLwPs
1070
   158
  0
INSERT
  5
7ADC
  8
COTATION1
 62
     0
  2
_OPEN30
 10
1189.021763
 20
186.728457
 30
0.0
 41
5.0
 42
5.0
 43
5.0
 50
90.0
1001
ACAD
1000
RTLwPs
1070
   158
  0
INSERT
  5
7ADD
  8
COTATION1
 62
     0
  2
_OPEN30
 10
1189.021763
 20
108.728457
 30
0.0
 41
5.0
 42
5.0
 43
5.0
 50
270.0
1001
ACAD
1000
RTLwPs
1070
   158
  0
TEXT
  5
7ADE
  8
COTATION1
 62
     0
 10
1179.497954
 20
146.728457
 30
0.0
 40
2.5
  1
52.5...103
1001
ACAD
1000
MTEXTBEGIN
1070
    73
1070
     1
1070
    44
1040
1.0
1070
    74
1070
     0
1000
MTEXTEND
  0
POINT
  5
7ADF
  8
DEFPOINTS
 62
     0
 10
1236.930729
 20
186.728457
 30
0.0
  0
POINT
  5
7AE0
  8
DEFPOINTS
 62
     0
 10
1222.780729
 20
108.728457
 30
0.0
  0
POINT
  5
7AE1
  8
DEFPOINTS
 62
     0
 10
1189.021763
 20
108.728457
 30
0.0
  0
ENDBLK
  5
78B4
  8
0
  0
BLOCK
  8
0
  2
*D16
 70
     1
 10
0.0
 20
0.0
 30
0.0
  3
*D16
  1

  0
LINE
  5
7AFB
  8
COTATION1
 62
     0
 10
1234.930729
 20
186.728457
 30
0.0
 11
1198.736394
 21
186.728457
 31
0.0
1001
ACAD
1000
RTLwPs
1070
   158
  0
LINE
  5
7AFC
  8
COTATION1
 62
     0
 10
1223.930729
 20
128.228457
 30
0.0
 11
1198.736394
 21
128.228457
 31
0.0
1001
ACAD
1000
RTLwPs
1070
   158
  0
LINE
  5
7AFD
  8
COTATION1
 62
     0
 10
1201.236394
 20
181.728457
 30
0.0
 11
1201.236394
 21
164.239376
 31
0.0
1001
ACAD
1000
RTLwPs
1070
   158
  0
LINE
  5
7AFE
  8
COTATION1
 62
     0
 10
1201.236394
 20
133.228457
 30
0.0
 11
1201.236394
 21
157.739376
 31
0.0
1001
ACAD
1000
RTLwPs
1070
   158
  0
INSERT
  5
7AFF
  8
COTATION1
 62
     0
  2
_OPEN30
 10
1201.236394
 20
186.728457
 30
0.0
 41
5.0
 42
5.0
 43
5.0
 50
90.0
1001
ACAD
1000
RTLwPs
1070
   158
  0
INSERT
  5
7B00
  8
COTATION1
 62
     0
  2
_OPEN30
 10
1201.236394
 20
128.228457
 30
0.0
 41
5.0
 42
5.0
 43
5.0
 50
270.0
1001
ACAD
1000
RTLwPs
1070
   158
  0
TEXT
  5
7B01
  8
COTATION1
 62
     0
 10
1192.90306
 20
159.739376
 30
0.0
 40
2.5
  1
33...83.5
1001
ACAD
1000
MTEXTBEGIN
1070
    73
1070
     1
1070
    44
1040
1.0
1070
    74
1070
     0
1000
MTEXTEND
  0
POINT
  5
7B02
  8
DEFPOINTS
 62
     0
 10
1236.930729
 20
186.728457
 30
0.0
  0
POINT
  5
7B03
  8
DEFPOINTS
 62
     0
 10
1225.930729
 20
128.228457
 30
0.0
  0
POINT
  5
7B04
  8
DEFPOINTS
 62
     0
 10
1201.236394
 20
128.228457
 30
0.0
  0
ENDBLK
  5
78C1
  8
0
  0
BLOCK
  8
0
  2
*D17
 70
     1
 10
0.0
 20
0.0
 30
0.0
  3
*D17
  1

  0
LINE
  5
7A71
  8
COTATION1
 62
     0
 10
1246.10932
 20
169.522293
 30
0.0
 11
1257.470857
 21
158.126626
 31
0.0
1001
ACAD
1000
RTLwPs
1070
   158
  0
LINE
  5
7A72
  8
COTATION1
 62
     0
 10
1257.470857
 20
158.126626
 30
0.0
 11
1265.780381
 21
158.126626
 31
0.0
1001
ACAD
1000
RTLwPs
1070
   158
  0
INSERT
  5
7A73
  8
COTATION1
 62
     0
  2
_OPEN30
 10
1242.579093
 20
173.063125
 30
0.0
 41
5.0
 42
5.0
 43
5.0
 50
134.914071
1001
ACAD
1000
RTLwPs
1070
   158
  0
TEXT
  5
7A74
  8
COTATION1
 62
     0
 10
1259.232762
 20
160.126626
 30
0.0
 40
2.5
  1
%%c16
1001
ACAD
1000
MTEXTBEGIN
1070
    73
1070
     1
1070
    44
1040
1.0
1070
    74
1070
     0
1000
MTEXTEND
1000
MTEXTBEGIN
1070
    73
1070
     1
1070
    44
1040
1.0
1070
    74
1070
     0
1000
MTEXTEND
  0
POINT
  5
7A75
  8
DEFPOINTS
 62
     0
 10
1242.579093
 20
173.063125
 30
0.0
  0
POINT
  5
7A76
  8
DEFPOINTS
 62
     0
 10
1231.282365
 20
184.393789
 30
0.0
  0
ENDBLK
  5
78CA
  8
0
  0
ENDSEC
  0
SECTION
  2
ENTITIES
  0
INSERT
  5
A
  8
0
  2
COTE
 10
0.0
 20
0.0
 30
0.0
  0
INSERT
  5
17
  8
0
  2
COTE
 10
284.010391
 20
6.373258
 30
0.0
  0
INSERT
  5
72
  8
0
  2
FOND
 10
0.0
 20
0.0
 30
0.0
  0
DIMENSION
  5
663B
  8
COTATION1
  2
*D13
 10
1307.430729
 20
41.728457
 30
0.0
 11
1307.430729
 21
114.228457
 31
0.0
  1
119.5...170
 13
1236.930729
 23
186.728457
 33
0.0
 14
1241.198678
 24
41.728457
 34
0.0
 50
90.0
  0
LINE
  5
664C
  8
AXE
 10
1252.080729
 20
110.728457
 30
0.0
 11
1243.780729
 21
110.728457
 31
0.0
  0
LINE
  5
6662
  8
ALPHA
 10
1221.430729
 20
116.028457
 30
0.0
 11
1221.430729
 21
53.728457
 31
0.0
  0
LINE
  5
668B
  8
AXE
 10
1247.930729
 20
106.578457
 30
0.0
 11
1247.930729
 21
114.878457
 31
0.0
  0
LINE
  5
668C
  8
AXE
 10
1246.930729
 20
104.578457
 30
0.0
 11
1246.930729
 21
112.878457
 31
0.0
  0
LINE
  5
668F
  8
AXE
 10
1225.930729
 20
106.578457
 30
0.0
 11
1225.930729
 21
114.878457
 31
0.0
  0
LINE
  5
6690
  8
AXE
 10
1226.930729
 20
104.578457
 30
0.0
 11
1226.930729
 21
112.878457
 31
0.0
  0
LINE
  5
6695
  8
AXE
 10
1222.780729
 20
108.728457
 30
0.0
 11
1231.080729
 21
108.728457
 31
0.0
  0
LINE
  5
66A2
  8
AXE
 10
1251.080729
 20
108.728457
 30
0.0
 11
1242.780729
 21
108.728457
 31
0.0
  0
ARC
  5
66A7
  8
ALPHA
 10
1222.030729
 20
116.028457
 30
0.0
 40
0.6
 50
103.554708
 51
180.0
  0
LINE
  5
66AB
  8
AXE
 10
1221.780729
 20
110.728457
 30
0.0
 11
1230.080729
 21
110.728457
 31
0.0
  0
LINE
  5
66B5
  8
ALPHA
 10
1245.780729
 20
110.728457
 30
0.0
 11
1245.780729
 21
110.545047
 31
0.0
  0
LINE
  5
66BB
  8
ALPHA
 10
1252.430729
 20
116.028457
 30
0.0
 11
1252.430729
 21
53.728457
 31
0.0
  0
ARC
  5
66BD
  8
ALPHA
 10
1251.830729
 20
116.028457
 30
0.0
 40
0.6
 50
0.0
 51
76.445292
  0
LINE
  5
71A4
  8
ALPHA
 10
1244.930729
 20
116.646215
 30
0.0
 11
1245.399616
 21
116.646215
 31
0.0
  0
POLYLINE
  5
71A5
  8
ALPHA
 66
     1
 10
0.0
 20
0.0
 30
0.0
 70
   128
  0
VERTEX
  5
7BBD
  8
ALPHA
 10
1240.430729
 20
112.038512
 30
0.0
  0
VERTEX
  5
7BBE
  8
ALPHA
 10
1238.760956
 20
114.382395
 30
0.0
  0
VERTEX
  5
7BBF
  8
ALPHA
 10
1237.867313
 20
115.067071
 30
0.0
  0
VERTEX
  5
7BC0
  8
ALPHA
 10
1236.930971
 20
115.314173
 30
0.0
  0
VERTEX
  5
7BC1
  8
ALPHA
 10
1235.994448
 20
115.067314
 30
0.0
  0
VERTEX
  5
7BC2
  8
ALPHA
 10
1235.100688
 20
114.382838
 30
0.0
  0
VERTEX
  5
7BC3
  8
ALPHA
 10
1233.430729
 20
112.039226
 30
0.0
  0
SEQEND
  5
7BC4
  8
ALPHA
  0
LINE
  5
71A6
  8
ALPHA
 10
1240.430729
 20
104.802141
 30
0.0
 11
1233.430729
 21
104.802141
 31
0.0
  0
POLYLINE
  5
71A7
  8
ALPHA
 66
     1
 10
0.0
 20
0.0
 30
0.0
 70
   128
  0
VERTEX
  5
7BC5
  8
ALPHA
 10
1228.930729
 20
104.388316
 30
0.0
  0
VERTEX
  5
7BC6
  8
ALPHA
 10
1226.018825
 20
103.918818
 30
0.0
  0
VERTEX
  5
7BC7
  8
ALPHA
 10
1223.620254
 20
103.359895
 30
0.0
  0
VERTEX
  5
7BC8
  8
ALPHA
 10
1222.646476
 20
103.060125
 30
0.0
  0
VERTEX
  5
7BC9
  8
ALPHA
 10
1222.22174
 20
102.907477
 30
0.0
  0
VERTEX
  5
7BCA
  8
ALPHA
 10
1222.023408
 20
102.828763
 30
0.0
  0
VERTEX
  5
7BCB
  8
ALPHA
 10
1221.85146
 20
102.724009
 30
0.0
  0
VERTEX
  5
7BCC
  8
ALPHA
 10
1221.430729
 20
102.014089
 30
0.0
  0
SEQEND
  5
7BCD
  8
ALPHA
  0
LINE
  5
71A8
  8
ALPHA
 10
1233.430729
 20
116.646215
 30
0.0
 11
1240.430729
 21
116.646215
 31
0.0
  0
LINE
  5
71A9
  8
ALPHA
 10
1228.930729
 20
104.451257
 30
0.0
 11
1228.487679
 21
104.326884
 31
0.0
  0
LINE
  5
71AA
  8
ALPHA
 10
1228.476134
 20
116.646215
 30
0.0
 11
1228.930729
 21
116.646215
 31
0.0
  0
POLYLINE
  5
71AB
  8
ALPHA
 66
     1
 10
0.0
 20
0.0
 30
0.0
 70
   128
  0
VERTEX
  5
7BCE
  8
ALPHA
 10
1252.430729
 20
102.014089
 30
0.0
  0
VERTEX
  5
7BCF
  8
ALPHA
 10
1252.00955
 20
102.724008
 30
0.0
  0
VERTEX
  5
7BD0
  8
ALPHA
 10
1251.837541
 20
102.828763
 30
0.0
  0
VERTEX
  5
7BD1
  8
ALPHA
 10
1251.639218
 20
102.907471
 30
0.0
  0
VERTEX
  5
7BD2
  8
ALPHA
 10
1251.214558
 20
103.060118
 30
0.0
  0
VERTEX
  5
7BD3
  8
ALPHA
 10
1250.240909
 20
103.359889
 30
0.0
  0
VERTEX
  5
7BD4
  8
ALPHA
 10
1247.842525
 20
103.918811
 30
0.0
  0
VERTEX
  5
7BD5
  8
ALPHA
 10
1244.930729
 20
104.38831
 30
0.0
  0
SEQEND
  5
7BD6
  8
ALPHA
  0
LINE
  5
71AC
  8
ALPHA
 10
1245.373778
 20
104.326884
 30
0.0
 11
1244.930729
 21
104.451106
 31
0.0
  0
POLYLINE
  5
71AD
  8
ALPHA
 66
     1
 10
0.0
 20
0.0
 30
0.0
 70
   128
  0
VERTEX
  5
7BD7
  8
ALPHA
 10
1245.399616
 20
116.646215
 30
0.0
  0
VERTEX
  5
7BD8
  8
ALPHA
 10
1245.399616
 20
116.248287
 30
0.0
  0
VERTEX
  5
7BD9
  8
ALPHA
 10
1245.399616
 20
115.431495
 30
0.0
  0
VERTEX
  5
7BDA
  8
ALPHA
 10
1245.399616
 20
114.761327
 30
0.0
  0
VERTEX
  5
7BDB
  8
ALPHA
 10
1245.38587
 20
114.643272
 30
0.0
  0
VERTEX
  5
7BDC
  8
ALPHA
 10
1244.930729
 20
114.245557
 30
0.0
  0
SEQEND
  5
7BDD
  8
ALPHA
  0
LINE
  5
71AE
  8
ALPHA
 10
1228.930729
 20
114.256592
 30
0.0
 11
1228.476134
 21
114.657772
 31
0.0
  0
LINE
  5
71AF
  8
ALPHA
 10
1240.430729
 20
112.66713
 30
0.0
 11
1240.059873
 21
112.66713
 31
0.0
  0
LINE
  5
71B0
  8
ALPHA
 10
1233.801221
 20
112.66713
 30
0.0
 11
1233.430729
 21
112.66713
 31
0.0
  0
POLYLINE
  5
71B1
  8
ALPHA
 66
     1
 10
0.0
 20
0.0
 30
0.0
 70
   128
  0
VERTEX
  5
7BDE
  8
ALPHA
 10
1228.476134
 20
114.657772
 30
0.0
  0
VERTEX
  5
7BDF
  8
ALPHA
 10
1228.476134
 20
114.968467
 30
0.0
  0
VERTEX
  5
7BE0
  8
ALPHA
 10
1228.476134
 20
115.651994
 30
0.0
  0
VERTEX
  5
7BE1
  8
ALPHA
 10
1228.476134
 20
116.335521
 30
0.0
  0
VERTEX
  5
7BE2
  8
ALPHA
 10
1228.476134
 20
116.646215
 30
0.0
  0
SEQEND
  5
7BE3
  8
ALPHA
  0
DIMENSION
  5
71B2
  8
COTATION1
  2
*D14
 10
1244.930729
 20
201.728457
 30
0.0
 11
1236.930729
 21
204.978457
 31
0.0
 13
1228.930729
 23
172.294908
 33
0.0
 14
1244.930729
 24
172.728457
 34
0.0
  0
ARC
  5
71B3
  8
ALPHA
 10
1240.930729
 20
86.728457
 30
0.0
 40
4.0
 50
270.0
 51
0.0
  0
LINE
  5
71B4
  8
AXE
 10
1247.930729
 20
178.728457
 30
0.0
 11
1225.930729
 21
178.728457
 31
0.0
  0
DIMENSION
  5
71B5
  8
COTATION1
  2
*D15
 10
1189.021763
 20
108.728457
 30
0.0
 11
1189.021763
 21
147.978457
 31
0.0
 70
   128
  1
52.5...103
 13
1236.930729
 23
186.728457
 33
0.0
 14
1222.780729
 24
108.728457
 34
0.0
 50
90.0
  0
LINE
  5
71B6
  8
AXE
 10
1225.930729
 20
128.228457
 30
0.0
 11
1247.930729
 21
128.228457
 31
0.0
  0
CIRCLE
  5
71B8
  8
ALPHA
 10
1236.930729
 20
178.728457
 30
0.0
 40
8.0
  0
LINE
  5
71B9
  8
ALPHA
 10
1233.430729
 20
123.251232
 30
0.0
 11
1233.430729
 21
94.728457
 31
0.0
  0
LINE
  5
71BA
  8
ALPHA
 10
1240.430729
 20
123.251232
 30
0.0
 11
1240.430729
 21
94.728457
 31
0.0
  0
LINE
  5
71BB
  8
ALPHA
 10
1228.930729
 20
172.728457
 30
0.0
 11
1228.930729
 21
86.728457
 31
0.0
  0
LINE
  5
71BC
  8
ALPHA
 10
1221.430729
 20
116.028457
 30
0.0
 11
1221.430729
 21
100.728457
 31
0.0
  0
LINE
  5
71BD
  8
AXE
 10
1236.930729
 20
189.728457
 30
0.0
 11
1236.930729
 21
23.728457
 31
0.0
  0
ARC
  5
71BF
  8
ALPHA
 10
1236.930729
 20
94.728457
 30
0.0
 40
3.5
 50
180.0
 51
0.0
  0
LINE
  5
71C0
  8
ALPHA
 10
1240.930729
 20
82.728457
 30
0.0
 11
1232.930729
 21
82.728457
 31
0.0
  0
ARC
  5
71C1
  8
ALPHA
 10
1232.930729
 20
86.728457
 30
0.0
 40
4.0
 50
180.0
 51
270.0
  0
ARC
  5
71C2
  8
ALPHA
 10
1225.930729
 20
108.728457
 30
0.0
 40
2.15
 50
180.0
 51
270.0
  0
ARC
  5
71C3
  8
ALPHA
 10
1225.930729
 20
110.728457
 30
0.0
 40
2.15
 50
0.0
 51
180.0
  0
LINE
  5
71C4
  8
ALPHA
 10
1221.430729
 20
100.728457
 30
0.0
 11
1228.930729
 21
100.728457
 31
0.0
  0
LINE
  5
71C5
  8
ALPHA
 10
1223.780729
 20
110.728457
 30
0.0
 11
1223.780729
 21
108.728457
 31
0.0
  0
ARC
  5
71C6
  8
ALPHA
 10
1226.930729
 20
108.728457
 30
0.0
 40
2.15
 50
21.528904
 51
57.663974
  0
LINE
  5
71C7
  8
ALPHA
 10
1233.430729
 20
100.728457
 30
0.0
 11
1240.430729
 21
100.728457
 31
0.0
  0
ARC
  5
71C8
  8
ALPHA
 10
1226.930729
 20
108.728457
 30
0.0
 40
2.15
 50
270.0
 51
338.471096
  0
LINE
  5
71C9
  8
ALPHA
 10
1225.930729
 20
106.578457
 30
0.0
 11
1226.930729
 21
106.578457
 31
0.0
  0
LINE
  5
71CA
  8
ALPHA
 10
1228.080729
 20
110.728457
 30
0.0
 11
1228.080729
 21
110.545047
 31
0.0
  0
LINE
  5
71CB
  8
ALPHA
 10
1238.387564
 20
110.030533
 30
0.0
 11
1236.930729
 21
108.573698
 31
0.0
  0
LINE
  5
71CC
  8
ALPHA
 10
1237.514012
 20
106.301584
 30
0.0
 11
1236.940625
 21
106.874421
 31
0.0
  0
LINE
  5
71CD
  8
ALPHA
 10
1236.930729
 20
108.573698
 30
0.0
 11
1236.357339
 21
109.145437
 31
0.0
  0
LINE
  5
71CE
  8
ALPHA
 10
1239.241874
 20
109.175673
 30
0.0
 11
1237.785039
 21
107.717737
 31
0.0
  0
LINE
  5
71CF
  8
ALPHA
 10
1237.785039
 20
107.717737
 30
0.0
 11
1238.358429
 21
107.145998
 31
0.0
  0
LINE
  5
71D0
  8
ALPHA
 10
1238.358429
 20
107.145998
 30
0.0
 11
1237.514012
 21
106.301584
 31
0.0
  0
LINE
  5
71D1
  8
ALPHA
 10
1235.512925
 20
108.302121
 30
0.0
 11
1236.086315
 21
107.729281
 31
0.0
  0
LINE
  5
71D2
  8
ALPHA
 10
1236.086315
 20
107.729281
 30
0.0
 11
1234.62453
 21
106.266401
 31
0.0
  0
CIRCLE
  5
71D3
  8
ALPHA
 10
1236.930729
 20
107.728457
 30
0.0
 40
2.735279
  0
LINE
  5
71D4
  8
ALPHA
 10
1236.357339
 20
109.145437
 30
0.0
 11
1235.512925
 21
108.302121
 31
0.0
  0
LINE
  5
71D5
  8
ALPHA
 10
1236.940625
 20
106.874421
 30
0.0
 11
1235.478291
 21
105.41209
 31
0.0
  0
LINE
  5
71D6
  8
AXE
 10
1226.930729
 20
104.578457
 30
0.0
 11
1226.930729
 21
112.878457
 31
0.0
  0
ARC
  5
71D7
  8
ALPHA
 10
1236.930729
 20
161.728457
 30
0.0
 40
3.5
 50
0.0
 51
180.0
  0
LINE
  5
71D8
  8
ALPHA
 10
1240.430729
 20
161.728457
 30
0.0
 11
1240.430729
 21
134.205683
 31
0.0
  0
LINE
  5
71D9
  8
ALPHA
 10
1233.430729
 20
161.728457
 30
0.0
 11
1233.430729
 21
134.205683
 31
0.0
  0
ARC
  5
71DA
  8
ALPHA
 10
1236.930729
 20
64.233363
 30
0.0
 40
54.495095
 50
98.441655
 51
106.021593
  0
ARC
  5
71DB
  8
ALPHA
 10
1222.030729
 20
116.028457
 30
0.0
 40
0.6
 50
103.554708
 51
180.0
  0
ARC
  5
71DC
  8
ALPHA
 10
1236.930729
 20
64.233363
 30
0.0
 40
54.495095
 50
93.029867
 51
93.682411
  0
ARC
  5
71DD
  8
ALPHA
 10
1236.930729
 20
128.228457
 30
0.0
 40
10.0
 50
249.512685
 51
290.487315
  0
ARC
  5
71DE
  8
ALPHA
 10
1236.930729
 20
64.233363
 30
0.0
 40
54.495095
 50
86.317589
 51
86.970133
  0
LINE
  5
71DF
  8
ALPHA
 10
1228.442599
 20
116.059633
 30
0.0
 11
1226.51298
 21
116.059633
 31
0.0
  0
LINE
  5
71E0
  8
ALPHA
 10
1226.487141
 20
116.646216
 30
0.0
 11
1228.46184
 21
116.646216
 31
0.0
  0
LINE
  5
71E1
  8
ALPHA
 10
1228.46184
 20
114.656673
 30
0.0
 11
1226.487141
 21
114.656673
 31
0.0
  0
LINE
  5
71E2
  8
ALPHA
 10
1226.487141
 20
114.656673
 30
0.0
 11
1226.487141
 21
116.646216
 31
0.0
  0
LINE
  5
71E3
  8
ALPHA
 10
1228.46184
 20
116.646216
 30
0.0
 11
1228.46184
 21
114.656673
 31
0.0
  0
LINE
  5
71E4
  8
ALPHA
 10
1237.926474
 20
128.228457
 30
0.0
 11
1240.271361
 21
130.575012
 31
0.0
  0
LINE
  5
71E5
  8
ALPHA
 10
1239.02779
 20
127.127138
 30
0.0
 11
1237.926474
 21
128.228457
 31
0.0
  0
LINE
  5
71E6
  8
ALPHA
 10
1238.032048
 20
126.131393
 30
0.0
 11
1239.02779
 21
127.127138
 31
0.0
  0
LINE
  5
71E7
  8
ALPHA
 10
1235.828854
 20
130.325518
 30
0.0
 11
1234.833109
 21
129.329776
 31
0.0
  0
LINE
  5
71E8
  8
ALPHA
 10
1236.930729
 20
129.224199
 30
0.0
 11
1235.828854
 21
130.325518
 31
0.0
  0
LINE
  5
71E9
  8
ALPHA
 10
1234.585287
 20
124.88727
 30
0.0
 11
1236.930729
 21
127.233825
 31
0.0
  0
LINE
  5
71EA
  8
ALPHA
 10
1235.936096
 20
128.228457
 30
0.0
 11
1233.589541
 21
125.883012
 31
0.0
  0
LINE
  5
71EB
  8
ALPHA
 10
1234.833109
 20
129.329776
 30
0.0
 11
1235.936096
 21
128.228457
 31
0.0
  0
LINE
  5
71EC
  8
ALPHA
 10
1236.930729
 20
127.233825
 30
0.0
 11
1238.032048
 21
126.131393
 31
0.0
  0
LINE
  5
71ED
  8
ALPHA
 10
1239.277283
 20
131.569644
 30
0.0
 11
1236.930729
 21
129.224199
 31
0.0
  0
CIRCLE
  5
71EE
  8
ALPHA
 10
1236.930729
 20
128.228457
 30
0.0
 40
5.026506
  0
CIRCLE
  5
71EF
  8
ALPHA
 10
1236.930729
 20
128.228457
 30
0.0
 40
4.021871
  0
CIRCLE
  5
71F0
  8
ALPHA
 10
1236.930729
 20
128.228457
 30
0.0
 40
6.5
  0
ARC
  5
71F1
  8
ALPHA
 10
1236.930729
 20
128.228457
 30
0.0
 40
10.0
 50
69.512685
 51
110.487315
  0
CIRCLE
  5
71F3
  8
ALPHA
 10
1236.930729
 20
178.728457
 30
0.0
 40
4.0
  0
LINE
  5
71F4
  8
ALPHA
 10
1229.796825
 20
175.108039
 30
0.0
 11
1228.930729
 21
172.728457
 31
0.0
  0
LINE
  5
71F5
  8
ALPHA
 10
1244.930729
 20
172.728457
 30
0.0
 11
1244.930729
 21
86.728457
 31
0.0
  0
LINE
  5
71F7
  8
ALPHA
 10
1252.430729
 20
116.028457
 30
0.0
 11
1252.430729
 21
100.728457
 31
0.0
  0
LINE
  5
71F8
  8
ALPHA
 10
1244.930729
 20
100.728457
 30
0.0
 11
1252.430729
 21
100.728457
 31
0.0
  0
ARC
  5
71F9
  8
ALPHA
 10
1246.930729
 20
108.728457
 30
0.0
 40
2.15
 50
201.528904
 51
270.0
  0
LINE
  5
71FA
  8
ALPHA
 10
1250.080729
 20
110.728457
 30
0.0
 11
1250.080729
 21
108.728457
 31
0.0
  0
ARC
  5
71FB
  8
ALPHA
 10
1246.930729
 20
108.728457
 30
0.0
 40
2.15
 50
122.336026
 51
158.471096
  0
LINE
  5
71FC
  8
ALPHA
 10
1247.930729
 20
106.578457
 30
0.0
 11
1246.930729
 21
106.578457
 31
0.0
  0
ARC
  5
71FD
  8
ALPHA
 10
1247.930729
 20
108.728457
 30
0.0
 40
2.15
 50
270.0
 51
0.0
  0
LINE
  5
71FE
  8
ALPHA
 10
1245.780729
 20
110.728457
 30
0.0
 11
1245.780729
 21
110.545047
 31
0.0
  0
ARC
  5
71FF
  8
ALPHA
 10
1247.930729
 20
110.728457
 30
0.0
 40
2.15
 50
0.0
 51
180.0
  0
LINE
  5
7200
  8
AXE
 10
1246.930729
 20
104.578457
 30
0.0
 11
1246.930729
 21
112.878457
 31
0.0
  0
DIMENSION
  5
7201
  8
COTATION1
  2
*D16
 10
1201.236394
 20
128.228457
 30
0.0
 11
1201.236394
 21
160.989376
 31
0.0
 70
   128
  1
33...83.5
 13
1236.930729
 23
186.728457
 33
0.0
 14
1225.930729
 24
128.228457
 34
0.0
 50
90.0
  0
LINE
  5
7202
  8
ALPHA
 10
1247.374316
 20
114.657771
 30
0.0
 11
1247.374316
 21
116.647314
 31
0.0
  0
LINE
  5
7203
  8
ALPHA
 10
1245.399617
 20
116.647314
 30
0.0
 11
1245.399617
 21
114.657771
 31
0.0
  0
LINE
  5
7204
  8
ALPHA
 10
1245.417757
 20
116.059633
 30
0.0
 11
1247.348477
 21
116.059633
 31
0.0
  0
LINE
  5
7205
  8
ALPHA
 10
1245.399617
 20
114.657771
 30
0.0
 11
1247.374316
 21
114.657771
 31
0.0
  0
LINE
  5
7206
  8
ALPHA
 10
1247.374316
 20
116.647314
 30
0.0
 11
1245.399617
 21
116.647314
 31
0.0
  0
ARC
  5
7207
  8
ALPHA
 10
1251.830729
 20
116.028457
 30
0.0
 40
0.6
 50
0.0
 51
76.445292
  0
ARC
  5
7208
  8
ALPHA
 10
1236.930729
 20
64.233363
 30
0.0
 40
54.495095
 50
73.978407
 51
81.558345
  0
LINE
  5
7209
  8
ALPHA
 10
1244.064632
 20
175.108039
 30
0.0
 11
1244.930729
 21
172.728457
 31
0.0
  0
DIMENSION
  5
737A
  8
COTATION1
  2
*D17
 10
1231.282365
 20
184.393789
 30
0.0
 11
1262.625619
 21
158.126626
 31
0.0
 70
   131
 15
1242.579093
 25
173.063125
 35
0.0
 40
0.0
1001
ACAD
1000
DSTYLE
1002
{
1070
   288
1070
     1
1002
}
  0
DIMENSION
  5
7536
  8
COTATION1
  2
*D3
 10
1247.930729
 20
221.728457
 30
0.0
 11
1236.930729
 21
224.978457
 31
0.0
 13
1225.930729
 23
114.878457
 33
0.0
 14
1247.930729
 24
114.878457
 34
0.0
  0
DIMENSION
  5
7537
  8
COTATION1
  2
*D4
 10
1246.930729
 20
211.728457
 30
0.0
 11
1236.930729
 21
214.978457
 31
0.0
 13
1226.930729
 23
112.878457
 33
0.0
 14
1246.930729
 24
112.878457
 34
0.0
  0
DIMENSION
  5
76F2
  8
COTATION1
  2
*D5
 10
1246.731589
 20
108.943922
 30
0.0
 11
1273.193271
 21
130.55409
 31
0.0
 70
   131
  1
2x<>x6.3
 15
1249.129868
 25
112.512992
 35
0.0
 40
0.0
1001
ACAD
1000
DSTYLE
1002
{
1070
   288
1070
     1
1002
}
  0
DIMENSION
  5
76F3
  8
COTATION1
  2
*D6
 10
1287.430729
 20
108.728457
 30
0.0
 11
1287.430729
 21
113.728457
 31
0.0
 70
   128
 13
1236.930729
 23
118.728457
 33
0.0
 14
1251.080729
 24
108.728457
 34
0.0
 50
90.0
1001
ACAD
1000
DSTYLE
1002
{
1070
   287
1070
     5
1070
   287
1070
     5
1070
   287
1070
     5
1070
   279
1070
     2
1070
   289
1070
     3
1002
}
  0
TEXT
  5
76F5
  8
AXE
 10
1229.454538
 20
23.728457
 30
0.0
 40
8.0
  1
Y
 72
     2
 11
1235.930729
 21
23.728457
 31
0.0
  0
DIMENSION
  5
76F6
  8
COTATION1
  2
*D7
 10
1252.430729
 20
3.728457
 30
0.0
 11
1236.930729
 21
6.978457
 31
0.0
 13
1221.430729
 23
53.728457
 33
0.0
 14
1252.430729
 24
53.728457
 34
0.0
  0
DIMENSION
  5
76F7
  8
COTATION1
  2
*D8
 10
1246.430729
 20
13.728457
 30
0.0
 11
1236.930729
 21
16.978457
 31
0.0
 13
1227.430729
 23
53.228457
 33
0.0
 14
1246.430729
 24
53.228457
 34
0.0
  0
DIMENSION
  5
76F8
  8
COTATION1
  2
*D9
 10
1287.430729
 20
57.728457
 30
0.0
 11
1287.430729
 21
83.228457
 31
0.0
 13
1251.080729
 23
108.728457
 33
0.0
 14
1250.930729
 24
57.728457
 34
0.0
 50
90.0
  0
DIMENSION
  5
76F9
  8
COTATION1
  2
*D10
 10
1277.430729
 20
108.728457
 30
0.0
 11
1274.597395
 21
100.330197
 31
0.0
 70
   128
 13
1252.080729
 23
110.728457
 33
0.0
 14
1251.080729
 24
108.728457
 34
0.0
 50
90.0
1001
ACAD
1000
DSTYLE
1002
{
1070
   287
1070
     5
1070
   287
1070
     5
1070
   287
1070
     5
1070
   279
1070
     2
1070
   289
1070
     3
1002
}
  0
LINE
  5
76FA
  8
ALPHA
 10
1221.430729
 20
116.028457
 30
0.0
 11
1221.430729
 21
53.728457
 31
0.0
  0
LINE
  5
76FB
  8
ALPHA
 10
1252.430729
 20
116.028457
 30
0.0
 11
1252.430729
 21
53.728457
 31
0.0
  0
DIMENSION
  5
76FC
  8
COTATION1
  2
*D11
 10
1228.677294
 20
56.894147
 30
0.0
 11
1195.528815
 21
74.952719
 31
0.0
 70
   131
  1
2x<>
 15
1226.184163
 25
58.562767
 35
0.0
 40
0.0
  0
LINE
  5
76FD
  8
ALPHA_FIN
 10
1241.857219
 20
53.728457
 30
0.0
 11
1241.857219
 21
42.108666
 31
0.0
  0
LINE
  5
76FE
  8
ALPHA
 10
1242.930729
 20
42.728457
 30
0.0
 11
1242.930729
 21
53.728457
 31
0.0
  0
LINE
  5
76FF
  8
ALPHA_FIN
 10
1232.004238
 20
53.728457
 30
0.0
 11
1232.004238
 21
42.108666
 31
0.0
  0
LINE
  5
7700
  8
ALPHA
 10
1230.930729
 20
42.728457
 30
0.0
 11
1230.930729
 21
53.728457
 31
0.0
  0
LINE
  5
7701
  8
ALPHA
 10
1236.930729
 20
42.728457
 30
0.0
 11
1230.930729
 21
42.728457
 31
0.0
  0
LINE
  5
7702
  8
ALPHA
 10
1236.930729
 20
41.728457
 30
0.0
 11
1232.662779
 21
41.728457
 31
0.0
  0
LINE
  5
7703
  8
ALPHA
 10
1230.930729
 20
42.728457
 30
0.0
 11
1232.662779
 21
41.728457
 31
0.0
  0
LINE
  5
7704
  8
ALPHA
 10
1242.930729
 20
42.728457
 30
0.0
 11
1241.198678
 21
41.728457
 31
0.0
  0
LINE
  5
7705
  8
ALPHA
 10
1236.930729
 20
42.728457
 30
0.0
 11
1242.930729
 21
42.728457
 31
0.0
  0
LINE
  5
7706
  8
ALPHA
 10
1236.930729
 20
41.728457
 30
0.0
 11
1241.198678
 21
41.728457
 31
0.0
  0
LINE
  5
7707
  8
ALPHA
 10
1221.430729
 20
53.728457
 30
0.0
 11
1252.430729
 21
53.728457
 31
0.0
  0
LINE
  5
7708
  8
ALPHA
 10
1224.430729
 20
58.780776
 30
0.0
 11
1236.930729
 21
58.780776
 31
0.0
  0
LINE
  5
7709
  8
ALPHA
 10
1225.930729
 20
54.728457
 30
0.0
 11
1247.930729
 21
54.728457
 31
0.0
  0
LINE
  5
770A
  8
ALPHA
 10
1221.430729
 20
54.728457
 30
0.0
 11
1224.430729
 21
54.728457
 31
0.0
  0
LINE
  5
770B
  8
ALPHA
 10
1225.930729
 20
58.780776
 30
0.0
 11
1226.943529
 21
54.728457
 31
0.0
  0
LINE
  5
770C
  8
ALPHA
 10
1224.430729
 20
54.728457
 30
0.0
 11
1224.430729
 21
58.780776
 31
0.0
  0
LINE
  5
770D
  8
ALPHA
 10
1225.930729
 20
54.728457
 30
0.0
 11
1225.930729
 21
58.780776
 31
0.0
  0
LINE
  5
770E
  8
AXE
 10
1227.430729
 20
53.228457
 30
0.0
 11
1227.430729
 21
62.228457
 31
0.0
  0
LINE
  5
770F
  8
AXE
 10
1231.930729
 20
57.728457
 30
0.0
 11
1222.930729
 21
57.728457
 31
0.0
  0
CIRCLE
  5
7710
  8
POINTILLE_COURT
 10
1227.430729
 20
57.728457
 30
0.0
 40
1.5
  0
LINE
  5
7711
  8
ALPHA
 10
1249.430729
 20
54.728457
 30
0.0
 11
1252.430729
 21
54.728457
 31
0.0
  0
LINE
  5
7712
  8
ALPHA
 10
1247.930729
 20
58.780776
 30
0.0
 11
1246.917928
 21
54.728457
 31
0.0
  0
LINE
  5
7713
  8
ALPHA
 10
1247.930729
 20
54.728457
 30
0.0
 11
1247.930729
 21
58.780776
 31
0.0
  0
LINE
  5
7714
  8
ALPHA
 10
1249.430729
 20
54.728457
 30
0.0
 11
1249.430729
 21
58.780776
 31
0.0
  0
LINE
  5
7715
  8
ALPHA
 10
1249.430729
 20
58.780776
 30
0.0
 11
1236.930729
 21
58.780776
 31
0.0
  0
LINE
  5
7716
  8
AXE
 10
1246.430729
 20
53.228457
 30
0.0
 11
1246.430729
 21
62.228457
 31
0.0
  0
LINE
  5
7717
  8
AXE
 10
1241.930729
 20
57.728457
 30
0.0
 11
1250.930729
 21
57.728457
 31
0.0
  0
CIRCLE
  5
7718
  8
POINTILLE_COURT
 10
1246.430729
 20
57.728457
 30
0.0
 40
1.5
  0
DIMENSION
  5
7719
  8
COTATION1
  2
*D12
 10
1228.83012
 20
109.735837
 30
0.0
 11
1189.788663
 21
93.24713
 31
0.0
 70
   131
  1
2x<>
 15
1225.031337
 25
107.721078
 35
0.0
 40
0.0
1001
ACAD
1000
DSTYLE
1002
{
1070
   288
1070
     1
1002
}
  0
LINE
  5
771A
  8
AXE
 10
1217.430729
 20
86.228457
 30
0.0
 11
1267.430729
 21
86.228457
 31
0.0
  0
TEXT
  5
771B
  8
AXE
 10
1260.954538
 20
87.228457
 30
0.0
 40
8.0
  1
X
 72
     2
 11
1267.430729
 21
87.228457
 31
0.0
  0
VIEWPORT
  5
494D
 67
     1
  8
0
 10
4.995325
 20
6.556512
 30
0.0
 40
22.70986
 41
13.988421
 68
    -1
 69
     1
1001
ACAD
1000
MVIEW
1002
{
1070
    16
1010
0.0
1020
0.0
1030
0.0
1010
0.0
1020
0.0
1030
1.0
1040
0.0
1040
13.988421
1040
4.995325
1040
6.556512
1040
50.0
1040
0.0
1040
0.0
1070
     0
1070
   100
1070
     1
1070
     1
1070
     0
1070
     0
1070
     0
1070
     0
1040
0.0
1040
0.0
1040
0.0
1040
10.0
1040
10.0
1040
10.0
1040
10.0
1070
     0
1002
{
1002
}
1002
}
  0
ENDSEC
  0
EOF
