  0
SECTION
  2
HEADER
  9
$ACADVER
  1
AC1009
  9
$INSBASE
 10
402.590624
 20
-1.041018
 30
0.0
  9
$EXTMIN
 10
1183.836282
 20
1.228457
 30
0.0
  9
$EXTMAX
 10
1300.58549
 20
250.728457
 30
0.0
  9
$LIMMIN
 10
-407.970438
 20
-367.832444
  9
$LIMMAX
 10
429.804077
 20
234.370848
  9
$ORTHOMODE
 70
     1
  9
$REGENMODE
 70
     1
  9
$FILLMODE
 70
     1
  9
$QTEXTMODE
 70
     0
  9
$MIRRTEXT
 70
     1
  9
$DRAGMODE
 70
     2
  9
$LTSCALE
 40
10.0
  9
$OSMODE
 70
    33
  9
$ATTMODE
 70
     1
  9
$TEXTSIZE
 40
6.0
  9
$TRACEWID
 40
1.0
  9
$TEXTSTYLE
  7
ROMANS
  9
$CLAYER
  8
ALPHA
  9
$CELTYPE
  6
BYLAYER
  9
$CECOLOR
 62
   256
  9
$DIMSCALE
 40
1.0
  9
$DIMASZ
 40
5.0
  9
$DIMEXO
 40
2.0
  9
$DIMDLI
 40
0.38
  9
$DIMRND
 40
0.0
  9
$DIMDLE
 40
0.0
  9
$DIMEXE
 40
2.5
  9
$DIMTP
 40
0.0
  9
$DIMTM
 40
0.0
  9
$DIMTXT
 40
2.5
  9
$DIMCEN
 40
0.0
  9
$DIMTSZ
 40
0.0
  9
$DIMTOL
 70
     0
  9
$DIMLIM
 70
     0
  9
$DIMTIH
 70
     1
  9
$DIMTOH
 70
     1
  9
$DIMSE1
 70
     0
  9
$DIMSE2
 70
     0
  9
$DIMTAD
 70
     1
  9
$DIMZIN
 70
    12
  9
$DIMBLK
  1
OPEN30
  9
$DIMASO
 70
     1
  9
$DIMSHO
 70
     1
  9
$DIMPOST
  1

  9
$DIMAPOST
  1

  9
$DIMALT
 70
     0
  9
$DIMALTD
 70
     2
  9
$DIMALTF
 40
25.4
  9
$DIMLFAC
 40
1.0
  9
$DIMTOFL
 70
     0
  9
$DIMTVP
 40
0.0
  9
$DIMTIX
 70
     0
  9
$DIMSOXD
 70
     0
  9
$DIMSAH
 70
     0
  9
$DIMBLK1
  1

  9
$DIMBLK2
  1

  9
$DIMSTYLE
  2
SC_DEFAUT
  9
$DIMCLRD
 70
     0
  9
$DIMCLRE
 70
     0
  9
$DIMCLRT
 70
     0
  9
$DIMTFAC
 40
1.0
  9
$DIMGAP
 40
2.0
  9
$LUNITS
 70
     2
  9
$LUPREC
 70
     1
  9
$SKETCHINC
 40
0.1
  9
$FILLETRAD
 40
0.0
  9
$AUNITS
 70
     0
  9
$AUPREC
 70
     0
  9
$MENU
  1
acad
  9
$ELEVATION
 40
0.0
  9
$PELEVATION
 40
0.0
  9
$THICKNESS
 40
0.0
  9
$LIMCHECK
 70
     0
  9
$BLIPMODE
 70
     0
  9
$CHAMFERA
 40
0.0
  9
$CHAMFERB
 40
0.0
  9
$SKPOLY
 70
     0
  9
$TDCREATE
 40
2450373.687919
  9
$TDUPDATE
 40
2452823.452008
  9
$TDINDWG
 40
0.831916
  9
$TDUSRTIMER
 40
0.831916
  9
$USRTIMER
 70
     1
  9
$ANGBASE
 50
0.0
  9
$ANGDIR
 70
     0
  9
$PDMODE
 70
    32
  9
$PDSIZE
 40
0.0
  9
$PLINEWID
 40
0.0
  9
$COORDS
 70
     1
  9
$SPLFRAME
 70
     0
  9
$SPLINETYPE
 70
     6
  9
$SPLINESEGS
 70
     8
  9
$ATTDIA
 70
     0
  9
$ATTREQ
 70
     1
  9
$HANDLING
 70
     1
  9
$HANDSEED
  5
7BB9
  9
$SURFTAB1
 70
     6
  9
$SURFTAB2
 70
     6
  9
$SURFTYPE
 70
     6
  9
$SURFU
 70
     6
  9
$SURFV
 70
     6
  9
$UCSNAME
  2

  9
$UCSORG
 10
0.0
 20
0.0
 30
0.0
  9
$UCSXDIR
 10
1.0
 20
0.0
 30
0.0
  9
$UCSYDIR
 10
0.0
 20
1.0
 30
0.0
  9
$PUCSNAME
  2

  9
$PUCSORG
 10
0.0
 20
0.0
 30
0.0
  9
$PUCSXDIR
 10
1.0
 20
0.0
 30
0.0
  9
$PUCSYDIR
 10
0.0
 20
1.0
 30
0.0
  9
$USERI1
 70
     0
  9
$USERI2
 70
     0
  9
$USERI3
 70
     0
  9
$USERI4
 70
     0
  9
$USERI5
 70
     0
  9
$USERR1
 40
0.0
  9
$USERR2
 40
0.0
  9
$USERR3
 40
0.0
  9
$USERR4
 40
0.0
  9
$USERR5
 40
0.0
  9
$WORLDVIEW
 70
     1
  9
$SHADEDGE
 70
     3
  9
$SHADEDIF
 70
    70
  9
$TILEMODE
 70
     1
  9
$MAXACTVP
 70
    16
  9
$PLIMCHECK
 70
     0
  9
$PEXTMIN
 10
-1.452248
 20
-0.437698
 30
0.0
  9
$PEXTMAX
 10
12.749749
 20
8.310198
 30
0.0
  9
$PLIMMIN
 10
0.0
 20
0.0
  9
$PLIMMAX
 10
12.0
 20
9.0
  9
$UNITMODE
 70
     0
  9
$VISRETAIN
 70
     0
  9
$PLINEGEN
 70
     0
  9
$PSLTSCALE
 70
     0
  0
ENDSEC
  0
SECTION
  2
TABLES
  0
TABLE
  2
VPORT
 70
     2
  0
VPORT
  2
*ACTIVE
 70
     0
 10
0.0
 20
0.0
 11
1.0
 21
1.0
 12
1242.197867
 22
125.984065
 13
0.0
 23
0.0
 14
1.0
 24
1.0
 15
10.0
 25
10.0
 16
0.0
 26
0.0
 36
1.0
 17
0.0
 27
0.0
 37
0.0
 40
251.696581
 41
1.56
 42
50.0
 43
0.0
 44
0.0
 50
0.0
 51
0.0
 71
     0
 72
   100
 73
     1
 74
     0
 75
     0
 76
     0
 77
     0
 78
     0
  0
ENDTAB
  0
TABLE
  2
LTYPE
 70
     3
  0
LTYPE
  2
CONTINUOUS
 70
     0
  3
Solid line
 72
    65
 73
     0
 40
0.0
  0
LTYPE
  2
AXES2
 70
     0
  3
___ _ ___ _ ___ _ ___ _ ___ _ ___ _ ___ _ ___ _
 72
    65
 73
     4
 40
1.125
 49
0.75
 49
-0.125
 49
0.125
 49
-0.125
  0
LTYPE
  2
CACHE2
 70
     0
  3
Caché (x.5) _ _ _ _ _ _ _ _ _ _ _ _ _ _ _ _ _
 72
    65
 73
     2
 40
0.1875
 49
0.125
 49
-0.0625
  0
ENDTAB
  0
TABLE
  2
LAYER
 70
     7
  0
LAYER
  2
0
 70
     0
 62
   255
  6
CONTINUOUS
  0
LAYER
  2
COTATION1
 70
     0
 62
     2
  6
CONTINUOUS
  0
LAYER
  2
AXE
 70
     0
 62
    80
  6
AXES2
  0
LAYER
  2
DEFPOINTS
 70
     0
 62
     7
  6
CONTINUOUS
  0
LAYER
  2
ALPHA
 70
     0
 62
   254
  6
CONTINUOUS
  0
LAYER
  2
POINTILLE_COURT
 70
     0
 62
    41
  6
CACHE2
  0
LAYER
  2
ALPHA_FIN
 70
     0
 62
   255
  6
CONTINUOUS
  0
ENDTAB
  0
TABLE
  2
STYLE
 70
     2
  0
STYLE
  2
ROMANS
 70
     0
 40
0.0
 41
1.0
 50
0.0
 71
     0
 42
6.0
  3
romans
  4

  0
STYLE
  2
STANDARD
 70
     0
 40
0.2
 41
1.0
 50
0.0
 71
     0
 42
0.2
  3
txt
  4

  0
ENDTAB
  0
TABLE
  2
VIEW
 70
     0
  0
ENDTAB
  0
TABLE
  2
UCS
 70
     0
  0
ENDTAB
  0
TABLE
  2
APPID
 70
     1
  0
APPID
  2
ACAD
 70
     0
  0
ENDTAB
  0
TABLE
  2
DIMSTYLE
 70
     1
  0
DIMSTYLE
  2
SC_DEFAUT
 70
     0
  3

  4

  5
OPEN30
  6

  7

 40
1.0
 41
5.0
 42
2.0
 43
0.38
 44
2.5
 45
0.0
 46
0.0
 47
0.0
 48
0.0
140
2.5
141
0.0
142
0.0
143
25.4
144
1.0
145
0.0
146
1.0
147
2.0
 71
     0
 72
     0
 73
     1
 74
     1
 75
     0
 76
     0
 77
     1
 78
    12
170
     0
171
     2
172
     0
173
     0
174
     0
175
     0
176
     0
177
     0
178
     0
  0
ENDTAB
  0
ENDSEC
  0
SECTION
  2
BLOCKS
  0
BLOCK
  8
0
  2
$MODEL_SPACE
 70
     0
 10
0.0
 20
0.0
 30
0.0
  3
$MODEL_SPACE
  1

  0
ENDBLK
  5
7972
  8
0
  0
BLOCK
 67
     1
  8
0
  2
$PAPER_SPACE
 70
     0
 10
0.0
 20
0.0
 30
0.0
  3
$PAPER_SPACE
  1

  0
ENDBLK
  5
7970
 67
     1
  8
0
  0
BLOCK
  8
0
  2
COTE
 70
     0
 10
0.0
 20
0.0
 30
0.0
  3
COTE
  1

  0
ENDBLK
  5
F
  8
0
  0
BLOCK
  8
0
  2
FOND
 70
     0
 10
0.0
 20
0.0
 30
0.0
  3
FOND
  1

  0
ENDBLK
  5
75
  8
0
  0
BLOCK
  8
0
  2
_OPEN30
 70
     0
 10
0.0
 20
0.0
 30
0.0
  3
_OPEN30
  1

  0
LINE
  5
4B05
  8
COTATION1
 62
     0
 10
-1.0
 20
0.267949
 30
0.0
 11
0.0
 21
0.0
 31
0.0
1001
ACAD
1000
RTLwPs
1070
   158
  0
LINE
  5
4B06
  8
COTATION1
 62
     0
 10
0.0
 20
0.0
 30
0.0
 11
-1.0
 21
-0.267949
 31
0.0
1001
ACAD
1000
RTLwPs
1070
   158
  0
LINE
  5
4B07
  8
COTATION1
 62
     0
 10
0.0
 20
0.0
 30
0.0
 11
-1.0
 21
0.0
 31
0.0
1001
ACAD
1000
RTLwPs
1070
   158
  0
ENDBLK
  5
4B09
  8
0
  0
BLOCK
  8
0
  2
*D3
 70
     1
 10
0.0
 20
0.0
 30
0.0
  3
*D3
  1

  0
LINE
  5
76A1
  8
COTATION1
 62
     0
 10
1225.930729
 20
104.578457
 30
0.0
 11
1225.930729
 21
65.107731
 31
0.0
1001
ACAD
1000
RTLwPs
1070
   158
  0
LINE
  5
76A2
  8
COTATION1
 62
     0
 10
1247.930729
 20
104.578457
 30
0.0
 11
1247.930729
 21
65.107731
 31
0.0
1001
ACAD
1000
RTLwPs
1070
   158
  0
LINE
  5
76A3
  8
COTATION1
 62
     0
 10
1230.930729
 20
67.607731
 30
0.0
 11
1242.930729
 21
67.607731
 31
0.0
1001
ACAD
1000
RTLwPs
1070
   158
  0
INSERT
  5
76A4
  8
COTATION1
 62
     0
  2
_OPEN30
 10
1225.930729
 20
67.607731
 30
0.0
 41
5.0
 42
5.0
 43
5.0
 50
180.0
1001
ACAD
1000
RTLwPs
1070
   158
  0
INSERT
  5
76A5
  8
COTATION1
 62
     0
  2
_OPEN30
 10
1247.930729
 20
67.607731
 30
0.0
 41
5.0
 42
5.0
 43
5.0
1001
ACAD
1000
RTLwPs
1070
   158
  0
TEXT
  5
76A6
  8
COTATION1
 62
     0
 10
1234.549776
 20
69.607731
 30
0.0
 40
2.5
  1
22
1001
ACAD
1000
MTEXTBEGIN
1070
    73
1070
     1
1070
    44
1040
1.0
1070
    74
1070
     0
1000
MTEXTEND
  0
POINT
  5
76A7
  8
DEFPOINTS
 62
     0
 10
1225.930729
 20
106.578457
 30
0.0
  0
POINT
  5
76A8
  8
DEFPOINTS
 62
     0
 10
1247.930729
 20
106.578457
 30
0.0
  0
POINT
  5
76A9
  8
DEFPOINTS
 62
     0
 10
1247.930729
 20
67.607731
 30
0.0
  0
ENDBLK
  5
71F8
  8
0
  0
BLOCK
  8
0
  2
*D4
 70
     1
 10
0.0
 20
0.0
 30
0.0
  3
*D4
  1

  0
LINE
  5
7698
  8
COTATION1
 62
     0
 10
1226.930729
 20
102.578457
 30
0.0
 11
1226.930729
 21
74.609846
 31
0.0
1001
ACAD
1000
RTLwPs
1070
   158
  0
LINE
  5
7699
  8
COTATION1
 62
     0
 10
1246.930729
 20
102.578457
 30
0.0
 11
1246.930729
 21
74.609846
 31
0.0
1001
ACAD
1000
RTLwPs
1070
   158
  0
LINE
  5
769A
  8
COTATION1
 62
     0
 10
1231.930729
 20
77.109846
 30
0.0
 11
1241.930729
 21
77.109846
 31
0.0
1001
ACAD
1000
RTLwPs
1070
   158
  0
INSERT
  5
769B
  8
COTATION1
 62
     0
  2
_OPEN30
 10
1226.930729
 20
77.109846
 30
0.0
 41
5.0
 42
5.0
 43
5.0
 50
180.0
1001
ACAD
1000
RTLwPs
1070
   158
  0
INSERT
  5
769C
  8
COTATION1
 62
     0
  2
_OPEN30
 10
1246.930729
 20
77.109846
 30
0.0
 41
5.0
 42
5.0
 43
5.0
1001
ACAD
1000
RTLwPs
1070
   158
  0
TEXT
  5
769D
  8
COTATION1
 62
     0
 10
1234.549776
 20
79.109846
 30
0.0
 40
2.5
  1
20
1001
ACAD
1000
MTEXTBEGIN
1070
    73
1070
     1
1070
    44
1040
1.0
1070
    74
1070
     0
1000
MTEXTEND
  0
POINT
  5
769E
  8
DEFPOINTS
 62
     0
 10
1226.930729
 20
104.578457
 30
0.0
  0
POINT
  5
769F
  8
DEFPOINTS
 62
     0
 10
1246.930729
 20
104.578457
 30
0.0
  0
POINT
  5
76A0
  8
DEFPOINTS
 62
     0
 10
1246.930729
 20
77.109846
 30
0.0
  0
ENDBLK
  5
7204
  8
0
  0
BLOCK
  8
0
  2
*D5
 70
     1
 10
0.0
 20
0.0
 30
0.0
  3
*D5
  1

  0
LINE
  5
7518
  8
COTATION1
 62
     0
 10
1251.918564
 20
116.663074
 30
0.0
 11
1261.252795
 21
130.55409
 31
0.0
1001
ACAD
1000
RTLwPs
1070
   158
  0
LINE
  5
7519
  8
COTATION1
 62
     0
 10
1261.252795
 20
130.55409
 30
0.0
 11
1283.133747
 21
130.55409
 31
0.0
1001
ACAD
1000
RTLwPs
1070
   158
  0
INSERT
  5
751A
  8
COTATION1
 62
     0
  2
_OPEN30
 10
1249.129868
 20
112.512992
 30
0.0
 41
5.0
 42
5.0
 43
5.0
 50
236.10041
1001
ACAD
1000
RTLwPs
1070
   158
  0
TEXT
  5
751B
  8
COTATION1
 62
     0
 10
1262.895652
 20
132.55409
 30
0.0
 40
2.5
  1
2x%%c4.3x6.3
1001
ACAD
1000
MTEXTBEGIN
1070
    73
1070
     1
1070
    44
1040
1.0
1070
    74
1070
     0
1000
MTEXTEND
1000
MTEXTBEGIN
1070
    73
1070
     1
1070
    44
1040
1.0
1070
    74
1070
     0
1000
MTEXTEND
1000
MTEXTBEGIN
1070
    73
1070
     1
1070
    44
1040
1.0
1070
    74
1070
     0
1000
MTEXTEND
  0
POINT
  5
751C
  8
DEFPOINTS
 62
     0
 10
1249.129868
 20
112.512992
 30
0.0
  0
POINT
  5
751D
  8
DEFPOINTS
 62
     0
 10
1246.731589
 20
108.943922
 30
0.0
  0
ENDBLK
  5
7437
  8
0
  0
BLOCK
  8
0
  2
*D6
 70
     1
 10
0.0
 20
0.0
 30
0.0
  3
*D6
  1

  0
LINE
  5
76E0
  8
COTATION1
 62
     0
 10
1238.930729
 20
118.728457
 30
0.0
 11
1289.930729
 21
118.728457
 31
0.0
  0
LINE
  5
76E1
  8
COTATION1
 62
     0
 10
1253.080729
 20
108.728457
 30
0.0
 11
1289.930729
 21
108.728457
 31
0.0
  0
LINE
  5
76E2
  8
COTATION1
 62
     0
 10
1287.430729
 20
123.728457
 30
0.0
 11
1287.430729
 21
128.728457
 31
0.0
  0
LINE
  5
76E3
  8
COTATION1
 62
     0
 10
1287.430729
 20
103.728457
 30
0.0
 11
1287.430729
 21
98.728457
 31
0.0
  0
TEXT
  5
76E4
  8
COTATION1
 62
     0
 10
1284.871205
 20
112.478457
 30
0.0
 40
2.5
  1
10
  0
INSERT
  5
76E5
  8
COTATION1
 62
     0
  2
_OPEN30
 10
1287.430729
 20
118.728457
 30
0.0
 41
5.0
 42
5.0
 43
5.0
 50
270.0
  0
INSERT
  5
76E6
  8
COTATION1
 62
     0
  2
_OPEN30
 10
1287.430729
 20
108.728457
 30
0.0
 41
5.0
 42
5.0
 43
5.0
 50
90.0
  0
POINT
  5
76E7
  8
DEFPOINTS
 62
     0
 10
1236.930729
 20
118.728457
 30
0.0
  0
POINT
  5
76E8
  8
DEFPOINTS
 62
     0
 10
1251.080729
 20
108.728457
 30
0.0
  0
POINT
  5
76E9
  8
DEFPOINTS
 62
     0
 10
1287.430729
 20
108.728457
 30
0.0
  0
ENDBLK
  5
7444
  8
0
  0
BLOCK
  8
0
  2
*D7
 70
     1
 10
0.0
 20
0.0
 30
0.0
  3
*D7
  1

  0
LINE
  5
764B
  8
COTATION1
 62
     0
 10
1239.252458
 20
250.728457
 30
0.0
 11
1299.930729
 21
250.728457
 31
0.0
1001
ACAD
1000
RTLwPs
1070
   158
  0
LINE
  5
764C
  8
COTATION1
 62
     0
 10
1243.198678
 20
41.728457
 30
0.0
 11
1299.930729
 21
41.728457
 31
0.0
1001
ACAD
1000
RTLwPs
1070
   158
  0
LINE
  5
764D
  8
COTATION1
 62
     0
 10
1297.430729
 20
245.728457
 30
0.0
 11
1297.430729
 21
149.478457
 31
0.0
1001
ACAD
1000
RTLwPs
1070
   158
  0
LINE
  5
764E
  8
COTATION1
 62
     0
 10
1297.430729
 20
46.728457
 30
0.0
 11
1297.430729
 21
142.978457
 31
0.0
1001
ACAD
1000
RTLwPs
1070
   158
  0
INSERT
  5
764F
  8
COTATION1
 62
     0
  2
_OPEN30
 10
1297.430729
 20
250.728457
 30
0.0
 41
5.0
 42
5.0
 43
5.0
 50
90.0
1001
ACAD
1000
RTLwPs
1070
   158
  0
INSERT
  5
7650
  8
COTATION1
 62
     0
  2
_OPEN30
 10
1297.430729
 20
41.728457
 30
0.0
 41
5.0
 42
5.0
 43
5.0
 50
270.0
1001
ACAD
1000
RTLwPs
1070
   158
  0
TEXT
  5
7651
  8
COTATION1
 62
     0
 10
1293.918824
 20
144.978457
 30
0.0
 40
2.5
  1
209
1001
ACAD
1000
MTEXTBEGIN
1070
    73
1070
     1
1070
    44
1040
1.0
1070
    74
1070
     0
1000
MTEXTEND
  0
POINT
  5
7652
  8
DEFPOINTS
 62
     0
 10
1237.252458
 20
250.728457
 30
0.0
  0
POINT
  5
7653
  8
DEFPOINTS
 62
     0
 10
1241.198678
 20
41.728457
 30
0.0
  0
POINT
  5
7654
  8
DEFPOINTS
 62
     0
 10
1297.430729
 20
41.728457
 30
0.0
  0
ENDBLK
  5
7451
  8
0
  0
BLOCK
  8
0
  2
*D8
 70
     1
 10
0.0
 20
0.0
 30
0.0
  3
*D8
  1

  0
LINE
  5
7532
  8
COTATION1
 62
     0
 10
1221.430729
 20
51.728457
 30
0.0
 11
1221.430729
 21
1.228457
 31
0.0
1001
ACAD
1000
RTLwPs
1070
   158
  0
LINE
  5
7533
  8
COTATION1
 62
     0
 10
1252.430729
 20
51.728457
 30
0.0
 11
1252.430729
 21
1.228457
 31
0.0
1001
ACAD
1000
RTLwPs
1070
   158
  0
LINE
  5
7534
  8
COTATION1
 62
     0
 10
1226.430729
 20
3.728457
 30
0.0
 11
1247.430729
 21
3.728457
 31
0.0
1001
ACAD
1000
RTLwPs
1070
   158
  0
INSERT
  5
7535
  8
COTATION1
 62
     0
  2
_OPEN30
 10
1221.430729
 20
3.728457
 30
0.0
 41
5.0
 42
5.0
 43
5.0
 50
180.0
1001
ACAD
1000
RTLwPs
1070
   158
  0
INSERT
  5
7536
  8
COTATION1
 62
     0
  2
_OPEN30
 10
1252.430729
 20
3.728457
 30
0.0
 41
5.0
 42
5.0
 43
5.0
1001
ACAD
1000
RTLwPs
1070
   158
  0
TEXT
  5
7537
  8
COTATION1
 62
     0
 10
1234.906919
 20
5.728457
 30
0.0
 40
2.5
  1
31
1001
ACAD
1000
MTEXTBEGIN
1070
    73
1070
     1
1070
    44
1040
1.0
1070
    74
1070
     0
1000
MTEXTEND
1000
MTEXTBEGIN
1070
    73
1070
     1
1070
    44
1040
1.0
1070
    74
1070
     0
1000
MTEXTEND
1000
MTEXTBEGIN
1070
    73
1070
     1
1070
    44
1040
1.0
1070
    74
1070
     0
1000
MTEXTEND
  0
POINT
  5
7538
  8
DEFPOINTS
 62
     0
 10
1221.430729
 20
53.728457
 30
0.0
  0
POINT
  5
7539
  8
DEFPOINTS
 62
     0
 10
1252.430729
 20
53.728457
 30
0.0
  0
POINT
  5
753A
  8
DEFPOINTS
 62
     0
 10
1252.430729
 20
3.728457
 30
0.0
  0
ENDBLK
  5
745D
  8
0
  0
BLOCK
  8
0
  2
*D9
 70
     1
 10
0.0
 20
0.0
 30
0.0
  3
*D9
  1

  0
LINE
  5
753B
  8
COTATION1
 62
     0
 10
1227.430729
 20
51.228457
 30
0.0
 11
1227.430729
 21
11.228457
 31
0.0
1001
ACAD
1000
RTLwPs
1070
   158
  0
LINE
  5
753C
  8
COTATION1
 62
     0
 10
1246.430729
 20
51.228457
 30
0.0
 11
1246.430729
 21
11.228457
 31
0.0
1001
ACAD
1000
RTLwPs
1070
   158
  0
LINE
  5
753D
  8
COTATION1
 62
     0
 10
1232.430729
 20
13.728457
 30
0.0
 11
1241.430729
 21
13.728457
 31
0.0
1001
ACAD
1000
RTLwPs
1070
   158
  0
INSERT
  5
753E
  8
COTATION1
 62
     0
  2
_OPEN30
 10
1227.430729
 20
13.728457
 30
0.0
 41
5.0
 42
5.0
 43
5.0
 50
180.0
1001
ACAD
1000
RTLwPs
1070
   158
  0
INSERT
  5
753F
  8
COTATION1
 62
     0
  2
_OPEN30
 10
1246.430729
 20
13.728457
 30
0.0
 41
5.0
 42
5.0
 43
5.0
1001
ACAD
1000
RTLwPs
1070
   158
  0
TEXT
  5
7540
  8
COTATION1
 62
     0
 10
1234.430729
 20
15.728457
 30
0.0
 40
2.5
  1
19
1001
ACAD
1000
MTEXTBEGIN
1070
    73
1070
     1
1070
    44
1040
1.0
1070
    74
1070
     0
1000
MTEXTEND
1000
MTEXTBEGIN
1070
    73
1070
     1
1070
    44
1040
1.0
1070
    74
1070
     0
1000
MTEXTEND
1000
MTEXTBEGIN
1070
    73
1070
     1
1070
    44
1040
1.0
1070
    74
1070
     0
1000
MTEXTEND
  0
POINT
  5
7541
  8
DEFPOINTS
 62
     0
 10
1227.430729
 20
53.228457
 30
0.0
  0
POINT
  5
7542
  8
DEFPOINTS
 62
     0
 10
1246.430729
 20
53.228457
 30
0.0
  0
POINT
  5
7543
  8
DEFPOINTS
 62
     0
 10
1246.430729
 20
13.728457
 30
0.0
  0
ENDBLK
  5
7469
  8
0
  0
BLOCK
  8
0
  2
*D10
 70
     1
 10
0.0
 20
0.0
 30
0.0
  3
*D10
  1

  0
LINE
  5
7544
  8
COTATION1
 62
     0
 10
1253.080729
 20
108.728457
 30
0.0
 11
1289.930729
 21
108.728457
 31
0.0
1001
ACAD
1000
RTLwPs
1070
   158
  0
LINE
  5
7545
  8
COTATION1
 62
     0
 10
1252.930729
 20
57.728457
 30
0.0
 11
1289.930729
 21
57.728457
 31
0.0
1001
ACAD
1000
RTLwPs
1070
   158
  0
LINE
  5
7546
  8
COTATION1
 62
     0
 10
1287.430729
 20
103.728457
 30
0.0
 11
1287.430729
 21
86.478457
 31
0.0
1001
ACAD
1000
RTLwPs
1070
   158
  0
LINE
  5
7547
  8
COTATION1
 62
     0
 10
1287.430729
 20
62.728457
 30
0.0
 11
1287.430729
 21
79.978457
 31
0.0
1001
ACAD
1000
RTLwPs
1070
   158
  0
INSERT
  5
7548
  8
COTATION1
 62
     0
  2
_OPEN30
 10
1287.430729
 20
108.728457
 30
0.0
 41
5.0
 42
5.0
 43
5.0
 50
90.0
1001
ACAD
1000
RTLwPs
1070
   158
  0
INSERT
  5
7549
  8
COTATION1
 62
     0
  2
_OPEN30
 10
1287.430729
 20
57.728457
 30
0.0
 41
5.0
 42
5.0
 43
5.0
 50
270.0
1001
ACAD
1000
RTLwPs
1070
   158
  0
TEXT
  5
754A
  8
COTATION1
 62
     0
 10
1285.406919
 20
81.978457
 30
0.0
 40
2.5
  1
51
1001
ACAD
1000
MTEXTBEGIN
1070
    73
1070
     1
1070
    44
1040
1.0
1070
    74
1070
     0
1000
MTEXTEND
1000
MTEXTBEGIN
1070
    73
1070
     1
1070
    44
1040
1.0
1070
    74
1070
     0
1000
MTEXTEND
1000
MTEXTBEGIN
1070
    73
1070
     1
1070
    44
1040
1.0
1070
    74
1070
     0
1000
MTEXTEND
  0
POINT
  5
754B
  8
DEFPOINTS
 62
     0
 10
1251.080729
 20
108.728457
 30
0.0
  0
POINT
  5
754C
  8
DEFPOINTS
 62
     0
 10
1250.930729
 20
57.728457
 30
0.0
  0
POINT
  5
754D
  8
DEFPOINTS
 62
     0
 10
1287.430729
 20
57.728457
 30
0.0
  0
ENDBLK
  5
7476
  8
0
  0
BLOCK
  8
0
  2
*D11
 70
     1
 10
0.0
 20
0.0
 30
0.0
  3
*D11
  1

  0
LINE
  5
76EA
  8
COTATION1
 62
     0
 10
1254.080729
 20
110.728457
 30
0.0
 11
1279.930729
 21
110.728457
 31
0.0
  0
LINE
  5
76EB
  8
COTATION1
 62
     0
 10
1253.080729
 20
108.728457
 30
0.0
 11
1279.930729
 21
108.728457
 31
0.0
  0
LINE
  5
76EC
  8
COTATION1
 62
     0
 10
1277.430729
 20
115.728457
 30
0.0
 11
1277.430729
 21
120.728457
 31
0.0
  0
LINE
  5
76ED
  8
COTATION1
 62
     0
 10
1277.430729
 20
103.728457
 30
0.0
 11
1277.430729
 21
98.728457
 31
0.0
  0
TEXT
  5
76EE
  8
COTATION1
 62
     0
 10
1273.406919
 20
99.080197
 30
0.0
 40
2.5
  1
2
  0
INSERT
  5
76EF
  8
COTATION1
 62
     0
  2
_OPEN30
 10
1277.430729
 20
110.728457
 30
0.0
 41
5.0
 42
5.0
 43
5.0
 50
270.0
  0
INSERT
  5
76F0
  8
COTATION1
 62
     0
  2
_OPEN30
 10
1277.430729
 20
108.728457
 30
0.0
 41
5.0
 42
5.0
 43
5.0
 50
90.0
  0
POINT
  5
76F1
  8
DEFPOINTS
 62
     0
 10
1252.080729
 20
110.728457
 30
0.0
  0
POINT
  5
76F2
  8
DEFPOINTS
 62
     0
 10
1251.080729
 20
108.728457
 30
0.0
  0
POINT
  5
76F3
  8
DEFPOINTS
 62
     0
 10
1277.430729
 20
108.728457
 30
0.0
  0
ENDBLK
  5
7483
  8
0
  0
BLOCK
  8
0
  2
*D12
 70
     1
 10
0.0
 20
0.0
 30
0.0
  3
*D12
  1

  0
LINE
  5
7614
  8
COTATION1
 62
     0
 10
1222.028943
 20
61.343801
 30
0.0
 11
1201.695481
 21
74.952719
 31
0.0
1001
ACAD
1000
RTLwPs
1070
   158
  0
LINE
  5
7615
  8
COTATION1
 62
     0
 10
1201.695481
 20
74.952719
 30
0.0
 11
1191.362148
 21
74.952719
 31
0.0
1001
ACAD
1000
RTLwPs
1070
   158
  0
INSERT
  5
7616
  8
COTATION1
 62
     0
  2
_OPEN30
 10
1226.184163
 20
58.562767
 30
0.0
 41
5.0
 42
5.0
 43
5.0
 50
326.206126
1001
ACAD
1000
RTLwPs
1070
   158
  0
TEXT
  5
7617
  8
COTATION1
 62
     0
 10
1191.005005
 20
76.952719
 30
0.0
 40
2.5
  1
2x%%c3
1001
ACAD
1000
MTEXTBEGIN
1070
    73
1070
     1
1070
    44
1040
1.0
1070
    74
1070
     0
1000
MTEXTEND
  0
POINT
  5
7618
  8
DEFPOINTS
 62
     0
 10
1226.184163
 20
58.562767
 30
0.0
  0
POINT
  5
7619
  8
DEFPOINTS
 62
     0
 10
1228.677294
 20
56.894147
 30
0.0
  0
ENDBLK
  5
748D
  8
0
  0
BLOCK
  8
0
  2
*D13
 70
     1
 10
0.0
 20
0.0
 30
0.0
  3
*D13
  1

  0
LINE
  5
755E
  8
COTATION1
 62
     0
 10
1220.614149
 20
105.378334
 30
0.0
 11
1197.741044
 21
93.24713
 31
0.0
1001
ACAD
1000
RTLwPs
1070
   158
  0
LINE
  5
755F
  8
COTATION1
 62
     0
 10
1197.741044
 20
93.24713
 30
0.0
 11
1183.836282
 21
93.24713
 31
0.0
1001
ACAD
1000
RTLwPs
1070
   158
  0
INSERT
  5
7560
  8
COTATION1
 62
     0
  2
_OPEN30
 10
1225.031337
 20
107.721078
 30
0.0
 41
5.0
 42
5.0
 43
5.0
 50
27.940128
1001
ACAD
1000
RTLwPs
1070
   158
  0
TEXT
  5
7561
  8
COTATION1
 62
     0
 10
1183.479139
 20
95.24713
 30
0.0
 40
2.5
  1
2x%%c4.3
1001
ACAD
1000
MTEXTBEGIN
1070
    73
1070
     1
1070
    44
1040
1.0
1070
    74
1070
     0
1000
MTEXTEND
1000
MTEXTBEGIN
1070
    73
1070
     1
1070
    44
1040
1.0
1070
    74
1070
     0
1000
MTEXTEND
1000
MTEXTBEGIN
1070
    73
1070
     1
1070
    44
1040
1.0
1070
    74
1070
     0
1000
MTEXTEND
  0
POINT
  5
7562
  8
DEFPOINTS
 62
     0
 10
1225.031337
 20
107.721078
 30
0.0
  0
POINT
  5
7563
  8
DEFPOINTS
 62
     0
 10
1228.83012
 20
109.735837
 30
0.0
  0
ENDBLK
  5
7497
  8
0
  0
BLOCK
  8
0
  2
*D14
 70
     1
 10
0.0
 20
0.0
 30
0.0
  3
*D14
  1

  0
LINE
  5
7661
  8
COTATION1
 62
     0
 10
1235.252458
 20
250.728457
 30
0.0
 11
1198.930729
 21
250.728457
 31
0.0
1001
ACAD
1000
RTLwPs
1070
   158
  0
LINE
  5
7662
  8
COTATION1
 62
     0
 10
1220.780729
 20
108.728457
 30
0.0
 11
1198.930729
 21
108.728457
 31
0.0
1001
ACAD
1000
RTLwPs
1070
   158
  0
LINE
  5
7663
  8
COTATION1
 62
     0
 10
1201.430729
 20
245.728457
 30
0.0
 11
1201.430729
 21
182.978457
 31
0.0
1001
ACAD
1000
RTLwPs
1070
   158
  0
LINE
  5
7664
  8
COTATION1
 62
     0
 10
1201.430729
 20
113.728457
 30
0.0
 11
1201.430729
 21
176.478457
 31
0.0
1001
ACAD
1000
RTLwPs
1070
   158
  0
INSERT
  5
7665
  8
COTATION1
 62
     0
  2
_OPEN30
 10
1201.430729
 20
250.728457
 30
0.0
 41
5.0
 42
5.0
 43
5.0
 50
90.0
1001
ACAD
1000
RTLwPs
1070
   158
  0
INSERT
  5
7666
  8
COTATION1
 62
     0
  2
_OPEN30
 10
1201.430729
 20
108.728457
 30
0.0
 41
5.0
 42
5.0
 43
5.0
 50
270.0
1001
ACAD
1000
RTLwPs
1070
   158
  0
TEXT
  5
7667
  8
COTATION1
 62
     0
 10
1197.680729
 20
178.478457
 30
0.0
 40
2.5
  1
142
1001
ACAD
1000
MTEXTBEGIN
1070
    73
1070
     1
1070
    44
1040
1.0
1070
    74
1070
     0
1000
MTEXTEND
  0
POINT
  5
7668
  8
DEFPOINTS
 62
     0
 10
1237.252458
 20
250.728457
 30
0.0
  0
POINT
  5
7669
  8
DEFPOINTS
 62
     0
 10
1222.780729
 20
108.728457
 30
0.0
  0
POINT
  5
766A
  8
DEFPOINTS
 62
     0
 10
1201.430729
 20
108.728457
 30
0.0
  0
ENDBLK
  5
7505
  8
0
  0
ENDSEC
  0
SECTION
  2
ENTITIES
  0
INSERT
  5
A
  8
0
  2
COTE
 10
0.0
 20
0.0
 30
0.0
  0
INSERT
  5
17
  8
0
  2
COTE
 10
284.010391
 20
6.373258
 30
0.0
  0
INSERT
  5
72
  8
0
  2
FOND
 10
0.0
 20
0.0
 30
0.0
  0
POLYLINE
  5
6CA6
  8
ALPHA
 66
     1
 10
0.0
 20
0.0
 30
0.0
 70
   128
  0
VERTEX
  5
7978
  8
ALPHA
 10
1243.169015
 20
120.795538
 30
0.0
  0
VERTEX
  5
7979
  8
ALPHA
 10
1243.52473
 20
120.942664
 30
0.0
  0
VERTEX
  5
797A
  8
ALPHA
 10
1243.671855
 20
121.298379
 30
0.0
  0
VERTEX
  5
797B
  8
ALPHA
 10
1243.52473
 20
121.65465
 30
0.0
  0
VERTEX
  5
797C
  8
ALPHA
 10
1243.169015
 20
121.802332
 30
0.0
  0
SEQEND
  5
797D
  8
ALPHA
  0
POLYLINE
  5
6CA7
  8
ALPHA
 66
     1
 10
0.0
 20
0.0
 30
0.0
 70
   128
  0
VERTEX
  5
797E
  8
ALPHA
 10
1236.930729
 20
120.795538
 30
0.0
  0
VERTEX
  5
797F
  8
ALPHA
 10
1239.223214
 20
120.795538
 30
0.0
  0
VERTEX
  5
7980
  8
ALPHA
 10
1241.221208
 20
120.795538
 30
0.0
  0
VERTEX
  5
7981
  8
ALPHA
 10
1242.633534
 20
120.795538
 30
0.0
  0
VERTEX
  5
7982
  8
ALPHA
 10
1243.169015
 20
120.795538
 30
0.0
  0
SEQEND
  5
7983
  8
ALPHA
  0
POLYLINE
  5
6CA8
  8
ALPHA
 66
     1
 10
0.0
 20
0.0
 30
0.0
 70
   128
  0
VERTEX
  5
7984
  8
ALPHA
 10
1243.169015
 20
121.802332
 30
0.0
  0
VERTEX
  5
7985
  8
ALPHA
 10
1242.633534
 20
121.802332
 30
0.0
  0
VERTEX
  5
7986
  8
ALPHA
 10
1241.221208
 20
121.802332
 30
0.0
  0
VERTEX
  5
7987
  8
ALPHA
 10
1239.223214
 20
121.802332
 30
0.0
  0
VERTEX
  5
7988
  8
ALPHA
 10
1236.930729
 20
121.802332
 30
0.0
  0
SEQEND
  5
7989
  8
ALPHA
  0
POLYLINE
  5
6CA9
  8
ALPHA
 66
     1
 10
0.0
 20
0.0
 30
0.0
 70
   128
  0
VERTEX
  5
798A
  8
ALPHA
 10
1240.43689
 20
137.554042
 30
0.0
  0
VERTEX
  5
798B
  8
ALPHA
 10
1240.262573
 20
137.554042
 30
0.0
  0
VERTEX
  5
798C
  8
ALPHA
 10
1239.786107
 20
137.554042
 30
0.0
  0
VERTEX
  5
798D
  8
ALPHA
 10
1238.205632
 20
137.554042
 30
0.0
  0
VERTEX
  5
798E
  8
ALPHA
 10
1234.486867
 20
137.554042
 30
0.0
  0
VERTEX
  5
798F
  8
ALPHA
 10
1233.464207
 20
137.554042
 30
0.0
  0
VERTEX
  5
7990
  8
ALPHA
 10
1233.223291
 20
137.441144
 30
0.0
  0
VERTEX
  5
7991
  8
ALPHA
 10
1232.756577
 20
137.071272
 30
0.0
  0
VERTEX
  5
7992
  8
ALPHA
 10
1231.234219
 20
135.191879
 30
0.0
  0
VERTEX
  5
7993
  8
ALPHA
 10
1230.446097
 20
132.855673
 30
0.0
  0
VERTEX
  5
7994
  8
ALPHA
 10
1230.392391
 20
132.228845
 30
0.0
  0
VERTEX
  5
7995
  8
ALPHA
 10
1230.389386
 20
131.92435
 30
0.0
  0
VERTEX
  5
7996
  8
ALPHA
 10
1230.399068
 20
131.646413
 30
0.0
  0
VERTEX
  5
7997
  8
ALPHA
 10
1230.549427
 20
130.566439
 30
0.0
  0
SEQEND
  5
7998
  8
ALPHA
  0
POLYLINE
  5
6CAA
  8
ALPHA
 66
     1
 10
0.0
 20
0.0
 30
0.0
 70
   128
  0
VERTEX
  5
7999
  8
ALPHA
 10
1240.43689
 20
137.554042
 30
0.0
  0
VERTEX
  5
799A
  8
ALPHA
 10
1240.262573
 20
137.554042
 30
0.0
  0
VERTEX
  5
799B
  8
ALPHA
 10
1239.786107
 20
137.554042
 30
0.0
  0
VERTEX
  5
799C
  8
ALPHA
 10
1238.205632
 20
137.554042
 30
0.0
  0
VERTEX
  5
799D
  8
ALPHA
 10
1234.486867
 20
137.554042
 30
0.0
  0
VERTEX
  5
799E
  8
ALPHA
 10
1233.464207
 20
137.554042
 30
0.0
  0
VERTEX
  5
799F
  8
ALPHA
 10
1233.223291
 20
137.441144
 30
0.0
  0
VERTEX
  5
79A0
  8
ALPHA
 10
1232.756577
 20
137.071272
 30
0.0
  0
VERTEX
  5
79A1
  8
ALPHA
 10
1231.234219
 20
135.191879
 30
0.0
  0
VERTEX
  5
79A2
  8
ALPHA
 10
1230.446097
 20
132.855673
 30
0.0
  0
VERTEX
  5
79A3
  8
ALPHA
 10
1230.392391
 20
132.228845
 30
0.0
  0
VERTEX
  5
79A4
  8
ALPHA
 10
1230.389386
 20
131.92435
 30
0.0
  0
VERTEX
  5
79A5
  8
ALPHA
 10
1230.399068
 20
131.646413
 30
0.0
  0
VERTEX
  5
79A6
  8
ALPHA
 10
1230.549427
 20
130.566439
 30
0.0
  0
SEQEND
  5
79A7
  8
ALPHA
  0
POLYLINE
  5
6CAB
  8
ALPHA
 66
     1
 10
0.0
 20
0.0
 30
0.0
 70
   128
  0
VERTEX
  5
79A8
  8
ALPHA
 10
1236.930729
 20
120.795538
 30
0.0
  0
VERTEX
  5
79A9
  8
ALPHA
 10
1234.638243
 20
120.795538
 30
0.0
  0
VERTEX
  5
79AA
  8
ALPHA
 10
1232.640249
 20
120.795538
 30
0.0
  0
VERTEX
  5
79AB
  8
ALPHA
 10
1231.227923
 20
120.795538
 30
0.0
  0
VERTEX
  5
79AC
  8
ALPHA
 10
1230.692442
 20
120.795538
 30
0.0
  0
SEQEND
  5
79AD
  8
ALPHA
  0
POLYLINE
  5
6CAC
  8
ALPHA
 66
     1
 10
0.0
 20
0.0
 30
0.0
 70
   128
  0
VERTEX
  5
79AE
  8
ALPHA
 10
1230.692442
 20
121.802332
 30
0.0
  0
VERTEX
  5
79AF
  8
ALPHA
 10
1231.227923
 20
121.802332
 30
0.0
  0
VERTEX
  5
79B0
  8
ALPHA
 10
1232.640249
 20
121.802332
 30
0.0
  0
VERTEX
  5
79B1
  8
ALPHA
 10
1234.638243
 20
121.802332
 30
0.0
  0
VERTEX
  5
79B2
  8
ALPHA
 10
1236.930729
 20
121.802332
 30
0.0
  0
SEQEND
  5
79B3
  8
ALPHA
  0
POLYLINE
  5
6CAD
  8
ALPHA
 66
     1
 10
0.0
 20
0.0
 30
0.0
 70
   128
210
0.0
220
0.0
230
-1.0
  0
VERTEX
  5
79B4
  8
ALPHA
 10
-1230.692442
 20
120.795538
 30
0.0
  0
VERTEX
  5
79B5
  8
ALPHA
 10
-1230.336727
 20
120.942664
 30
0.0
  0
VERTEX
  5
79B6
  8
ALPHA
 10
-1230.189602
 20
121.298379
 30
0.0
  0
VERTEX
  5
79B7
  8
ALPHA
 10
-1230.336727
 20
121.65465
 30
0.0
  0
VERTEX
  5
79B8
  8
ALPHA
 10
-1230.692442
 20
121.802332
 30
0.0
  0
SEQEND
  5
79B9
  8
ALPHA
  0
POLYLINE
  5
6CAE
  8
ALPHA
 66
     1
 10
0.0
 20
0.0
 30
0.0
 70
   128
  0
VERTEX
  5
79BA
  8
ALPHA
 10
1230.549427
 20
130.566439
 30
0.0
  0
VERTEX
  5
79BB
  8
ALPHA
 10
1230.651563
 20
130.286321
 30
0.0
  0
VERTEX
  5
79BC
  8
ALPHA
 10
1230.920832
 20
129.547826
 30
0.0
  0
VERTEX
  5
79BD
  8
ALPHA
 10
1231.737925
 20
127.306876
 30
0.0
  0
VERTEX
  5
79BE
  8
ALPHA
 10
1232.555017
 20
125.065927
 30
0.0
  0
VERTEX
  5
79BF
  8
ALPHA
 10
1232.824286
 20
124.327432
 30
0.0
  0
VERTEX
  5
79C0
  8
ALPHA
 10
1232.926423
 20
124.047314
 30
0.0
  0
SEQEND
  5
79C1
  8
ALPHA
  0
POLYLINE
  5
6CAF
  8
ALPHA
 66
     1
 10
0.0
 20
0.0
 30
0.0
 70
   128
  0
VERTEX
  5
79C2
  8
ALPHA
 10
1230.549427
 20
130.566439
 30
0.0
  0
VERTEX
  5
79C3
  8
ALPHA
 10
1230.651563
 20
130.286321
 30
0.0
  0
VERTEX
  5
79C4
  8
ALPHA
 10
1230.920832
 20
129.547826
 30
0.0
  0
VERTEX
  5
79C5
  8
ALPHA
 10
1231.737925
 20
127.306876
 30
0.0
  0
VERTEX
  5
79C6
  8
ALPHA
 10
1232.555017
 20
125.065927
 30
0.0
  0
VERTEX
  5
79C7
  8
ALPHA
 10
1232.824286
 20
124.327432
 30
0.0
  0
VERTEX
  5
79C8
  8
ALPHA
 10
1232.926423
 20
124.047314
 30
0.0
  0
SEQEND
  5
79C9
  8
ALPHA
  0
POLYLINE
  5
6CB0
  8
ALPHA
 66
     1
 10
0.0
 20
0.0
 30
0.0
 70
   128
  0
VERTEX
  5
79CA
  8
ALPHA
 10
1240.935034
 20
124.047314
 30
0.0
  0
VERTEX
  5
79CB
  8
ALPHA
 10
1240.99373
 20
124.208431
 30
0.0
  0
VERTEX
  5
79CC
  8
ALPHA
 10
1241.154167
 20
124.648818
 30
0.0
  0
VERTEX
  5
79CD
  8
ALPHA
 10
1241.686348
 20
126.109615
 30
0.0
  0
VERTEX
  5
79CE
  8
ALPHA
 10
1242.938538
 20
129.546783
 30
0.0
  0
VERTEX
  5
79CF
  8
ALPHA
 10
1243.282891
 20
130.492004
 30
0.0
  0
VERTEX
  5
79D0
  8
ALPHA
 10
1243.347391
 20
130.740923
 30
0.0
  0
VERTEX
  5
79D1
  8
ALPHA
 10
1243.430849
 20
131.278889
 30
0.0
  0
VERTEX
  5
79D2
  8
ALPHA
 10
1243.468938
 20
131.830935
 30
0.0
  0
VERTEX
  5
79D3
  8
ALPHA
 10
1243.471326
 20
131.970826
 30
0.0
  0
VERTEX
  5
79D4
  8
ALPHA
 10
1243.457572
 20
132.451225
 30
0.0
  0
VERTEX
  5
79D5
  8
ALPHA
 10
1243.25546
 20
133.703127
 30
0.0
  0
VERTEX
  5
79D6
  8
ALPHA
 10
1242.203711
 20
135.907443
 30
0.0
  0
VERTEX
  5
79D7
  8
ALPHA
 10
1240.43689
 20
137.554042
 30
0.0
  0
SEQEND
  5
79D8
  8
ALPHA
  0
POLYLINE
  5
6CB1
  8
ALPHA
 66
     1
 10
0.0
 20
0.0
 30
0.0
 70
   128
  0
VERTEX
  5
79D9
  8
ALPHA
 10
1240.935034
 20
124.047314
 30
0.0
  0
VERTEX
  5
79DA
  8
ALPHA
 10
1240.99373
 20
124.208431
 30
0.0
  0
VERTEX
  5
79DB
  8
ALPHA
 10
1241.154167
 20
124.648818
 30
0.0
  0
VERTEX
  5
79DC
  8
ALPHA
 10
1241.686348
 20
126.109615
 30
0.0
  0
VERTEX
  5
79DD
  8
ALPHA
 10
1242.938538
 20
129.546783
 30
0.0
  0
VERTEX
  5
79DE
  8
ALPHA
 10
1243.282891
 20
130.492004
 30
0.0
  0
VERTEX
  5
79DF
  8
ALPHA
 10
1243.347391
 20
130.740923
 30
0.0
  0
VERTEX
  5
79E0
  8
ALPHA
 10
1243.430849
 20
131.278889
 30
0.0
  0
VERTEX
  5
79E1
  8
ALPHA
 10
1243.468938
 20
131.830935
 30
0.0
  0
VERTEX
  5
79E2
  8
ALPHA
 10
1243.471326
 20
131.970826
 30
0.0
  0
VERTEX
  5
79E3
  8
ALPHA
 10
1243.457572
 20
132.451225
 30
0.0
  0
VERTEX
  5
79E4
  8
ALPHA
 10
1243.25546
 20
133.703127
 30
0.0
  0
VERTEX
  5
79E5
  8
ALPHA
 10
1242.203711
 20
135.907443
 30
0.0
  0
VERTEX
  5
79E6
  8
ALPHA
 10
1240.43689
 20
137.554042
 30
0.0
  0
SEQEND
  5
79E7
  8
ALPHA
  0
POLYLINE
  5
6CB2
  8
ALPHA
 66
     1
 10
0.0
 20
0.0
 30
0.0
 70
   128
  0
VERTEX
  5
79E8
  8
ALPHA
 10
1239.969131
 20
161.270377
 30
0.0
  0
VERTEX
  5
79E9
  8
ALPHA
 10
1239.692355
 20
161.240418
 30
0.0
  0
VERTEX
  5
79EA
  8
ALPHA
 10
1238.966111
 20
161.161808
 30
0.0
  0
VERTEX
  5
79EB
  8
ALPHA
 10
1236.789748
 20
160.926235
 30
0.0
  0
VERTEX
  5
79EC
  8
ALPHA
 10
1234.689084
 20
160.698855
 30
0.0
  0
VERTEX
  5
79ED
  8
ALPHA
 10
1234.057466
 20
160.630488
 30
0.0
  0
VERTEX
  5
79EE
  8
ALPHA
 10
1233.863899
 20
160.612114
 30
0.0
  0
VERTEX
  5
79EF
  8
ALPHA
 10
1233.437805
 20
160.403599
 30
0.0
  0
VERTEX
  5
79F0
  8
ALPHA
 10
1233.293379
 20
159.94537
 30
0.0
  0
VERTEX
  5
79F1
  8
ALPHA
 10
1233.521741
 20
159.532169
 30
0.0
  0
VERTEX
  5
79F2
  8
ALPHA
 10
1233.802958
 20
159.395823
 30
0.0
  0
VERTEX
  5
79F3
  8
ALPHA
 10
1233.401895
 20
159.1493
 30
0.0
  0
VERTEX
  5
79F4
  8
ALPHA
 10
1233.30255
 20
158.678229
 30
0.0
  0
VERTEX
  5
79F5
  8
ALPHA
 10
1233.569156
 20
158.291067
 30
0.0
  0
VERTEX
  5
79F6
  8
ALPHA
 10
1233.795469
 20
158.204079
 30
0.0
  0
VERTEX
  5
79F7
  8
ALPHA
 10
1233.743945
 20
158.176967
 30
0.0
  0
VERTEX
  5
79F8
  8
ALPHA
 10
1233.370429
 20
157.893293
 30
0.0
  0
VERTEX
  5
79F9
  8
ALPHA
 10
1233.317463
 20
157.413326
 30
0.0
  0
VERTEX
  5
79FA
  8
ALPHA
 10
1233.619796
 20
157.053599
 30
0.0
  0
VERTEX
  5
79FB
  8
ALPHA
 10
1233.856186
 20
156.988345
 30
0.0
  0
VERTEX
  5
79FC
  8
ALPHA
 10
1233.687165
 20
156.950484
 30
0.0
  0
VERTEX
  5
79FD
  8
ALPHA
 10
1233.343713
 20
156.632216
 30
0.0
  0
VERTEX
  5
79FE
  8
ALPHA
 10
1233.337812
 20
156.148977
 30
0.0
  0
VERTEX
  5
79FF
  8
ALPHA
 10
1233.673355
 20
155.82103
 30
0.0
  0
VERTEX
  5
7A00
  8
ALPHA
 10
1233.871637
 20
155.778518
 30
0.0
  0
VERTEX
  5
7A01
  8
ALPHA
 10
1233.632924
 20
155.719511
 30
0.0
  0
VERTEX
  5
7A02
  8
ALPHA
 10
1233.322053
 20
155.368596
 30
0.0
  0
VERTEX
  5
7A03
  8
ALPHA
 10
1233.363293
 20
154.886519
 30
0.0
  0
VERTEX
  5
7A04
  8
ALPHA
 10
1233.729529
 20
154.593096
 30
0.0
  0
VERTEX
  5
7A05
  8
ALPHA
 10
1233.810476
 20
154.564281
 30
0.0
  0
VERTEX
  5
7A06
  8
ALPHA
 10
1233.581525
 20
154.48266
 30
0.0
  0
VERTEX
  5
7A07
  8
ALPHA
 10
1233.305752
 20
154.101677
 30
0.0
  0
VERTEX
  5
7A08
  8
ALPHA
 10
1233.3936
 20
153.627518
 30
0.0
  0
VERTEX
  5
7A09
  8
ALPHA
 10
1233.788012
 20
153.370127
 30
0.0
  0
VERTEX
  5
7A0A
  8
ALPHA
 10
1233.533276
 20
153.240484
 30
0.0
  0
VERTEX
  5
7A0B
  8
ALPHA
 10
1233.295117
 20
152.833405
 30
0.0
  0
VERTEX
  5
7A0C
  8
ALPHA
 10
1233.428428
 20
152.372007
 30
0.0
  0
VERTEX
  5
7A0D
  8
ALPHA
 10
1233.8485
 20
152.153599
 30
0.0
  0
VERTEX
  5
7A0E
  8
ALPHA
 10
1233.488479
 20
151.994948
 30
0.0
  0
VERTEX
  5
7A0F
  8
ALPHA
 10
1233.290451
 20
151.563355
 30
0.0
  0
VERTEX
  5
7A10
  8
ALPHA
 10
1233.467472
 20
151.120816
 30
0.0
  0
VERTEX
  5
7A11
  8
ALPHA
 10
1233.8794
 20
150.943484
 30
0.0
  0
VERTEX
  5
7A12
  8
ALPHA
 10
1233.447442
 20
150.745556
 30
0.0
  0
VERTEX
  5
7A13
  8
ALPHA
 10
1233.292019
 20
150.293112
 30
0.0
  0
VERTEX
  5
7A14
  8
ALPHA
 10
1233.510427
 20
149.873432
 30
0.0
  0
VERTEX
  5
7A15
  8
ALPHA
 10
1233.818024
 20
149.730668
 30
0.0
  0
VERTEX
  5
7A16
  8
ALPHA
 10
1233.410467
 20
149.492787
 30
0.0
  0
VERTEX
  5
7A17
  8
ALPHA
 10
1233.299707
 20
149.02518
 30
0.0
  0
VERTEX
  5
7A18
  8
ALPHA
 10
1233.556988
 20
148.631636
 30
0.0
  0
VERTEX
  5
7A19
  8
ALPHA
 10
1233.780586
 20
148.539492
 30
0.0
  0
VERTEX
  5
7A1A
  8
ALPHA
 10
1233.758501
 20
148.513215
 30
0.0
  0
VERTEX
  5
7A1B
  8
ALPHA
 10
1233.377862
 20
148.237441
 30
0.0
  0
VERTEX
  5
7A1C
  8
ALPHA
 10
1233.313213
 20
147.758605
 30
0.0
  0
VERTEX
  5
7A1D
  8
ALPHA
 10
1233.60685
 20
147.39329
 30
0.0
  0
VERTEX
  5
7A1E
  8
ALPHA
 10
1233.840839
 20
147.322947
 30
0.0
  0
VERTEX
  5
7A1F
  8
ALPHA
 10
1233.701134
 20
147.288905
 30
0.0
  0
VERTEX
  5
7A20
  8
ALPHA
 10
1233.34993
 20
146.978969
 30
0.0
  0
VERTEX
  5
7A21
  8
ALPHA
 10
1233.332232
 20
146.49551
 30
0.0
  0
VERTEX
  5
7A22
  8
ALPHA
 10
1233.659708
 20
146.159967
 30
0.0
  0
VERTEX
  5
7A23
  8
ALPHA
 10
1233.887187
 20
146.11236
 30
0.0
  0
VERTEX
  5
7A24
  8
ALPHA
 10
1233.646229
 20
146.059182
 30
0.0
  0
VERTEX
  5
7A25
  8
ALPHA
 10
1233.326977
 20
145.716669
 30
0.0
  0
VERTEX
  5
7A26
  8
ALPHA
 10
1233.356458
 20
145.23467
 30
0.0
  0
VERTEX
  5
7A27
  8
ALPHA
 10
1233.715257
 20
144.932792
 30
0.0
  0
VERTEX
  5
7A28
  8
ALPHA
 10
1233.825601
 20
144.901645
 30
0.0
  0
VERTEX
  5
7A29
  8
ALPHA
 10
1233.594092
 20
144.825417
 30
0.0
  0
VERTEX
  5
7A2A
  8
ALPHA
 10
1233.309308
 20
144.451901
 30
0.0
  0
VERTEX
  5
7A2B
  8
ALPHA
 10
1233.385587
 20
143.976385
 30
0.0
  0
VERTEX
  5
7A2C
  8
ALPHA
 10
1233.773191
 20
143.711011
 30
0.0
  0
VERTEX
  5
7A2D
  8
ALPHA
 10
1233.765829
 20
143.684922
 30
0.0
  0
VERTEX
  5
7A2E
  8
ALPHA
 10
1233.545026
 20
143.587134
 30
0.0
  0
VERTEX
  5
7A2F
  8
ALPHA
 10
1233.297228
 20
143.186071
 30
0.0
  0
VERTEX
  5
7A30
  8
ALPHA
 10
1233.419313
 20
142.721288
 30
0.0
  0
VERTEX
  5
7A31
  8
ALPHA
 10
1233.833206
 20
142.493733
 30
0.0
  0
VERTEX
  5
7A32
  8
ALPHA
 10
1233.499338
 20
142.343072
 30
0.0
  0
VERTEX
  5
7A33
  8
ALPHA
 10
1233.291041
 20
141.916978
 30
0.0
  0
VERTEX
  5
7A34
  8
ALPHA
 10
1233.457332
 20
141.469374
 30
0.0
  0
VERTEX
  5
7A35
  8
ALPHA
 10
1233.894997
 20
141.282471
 30
0.0
  0
SEQEND
  5
7A36
  8
ALPHA
  0
POLYLINE
  5
6CB3
  8
ALPHA
 66
     1
 10
0.0
 20
0.0
 30
0.0
 70
   128
  0
VERTEX
  5
7A37
  8
ALPHA
 10
1233.894997
 20
141.282471
 30
0.0
  0
VERTEX
  5
7A38
  8
ALPHA
 10
1234.171713
 20
141.3124
 30
0.0
  0
VERTEX
  5
7A39
  8
ALPHA
 10
1234.897796
 20
141.39093
 30
0.0
  0
VERTEX
  5
7A3A
  8
ALPHA
 10
1237.073682
 20
141.626264
 30
0.0
  0
VERTEX
  5
7A3B
  8
ALPHA
 10
1239.173884
 20
141.853413
 30
0.0
  0
VERTEX
  5
7A3C
  8
ALPHA
 10
1239.805364
 20
141.921711
 30
0.0
  0
VERTEX
  5
7A3D
  8
ALPHA
 10
1239.998895
 20
141.940066
 30
0.0
  0
VERTEX
  5
7A3E
  8
ALPHA
 10
1240.424988
 20
142.148145
 30
0.0
  0
VERTEX
  5
7A3F
  8
ALPHA
 10
1240.569415
 20
142.604478
 30
0.0
  0
VERTEX
  5
7A40
  8
ALPHA
 10
1240.341053
 20
143.018371
 30
0.0
  0
VERTEX
  5
7A41
  8
ALPHA
 10
1240.059836
 20
143.154371
 30
0.0
  0
VERTEX
  5
7A42
  8
ALPHA
 10
1240.460899
 20
143.40132
 30
0.0
  0
VERTEX
  5
7A43
  8
ALPHA
 10
1240.560246
 20
143.872588
 30
0.0
  0
VERTEX
  5
7A44
  8
ALPHA
 10
1240.293989
 20
144.259308
 30
0.0
  0
VERTEX
  5
7A45
  8
ALPHA
 10
1240.068292
 20
144.346118
 30
0.0
  0
VERTEX
  5
7A46
  8
ALPHA
 10
1240.11965
 20
144.373302
 30
0.0
  0
VERTEX
  5
7A47
  8
ALPHA
 10
1240.492412
 20
144.658085
 30
0.0
  0
VERTEX
  5
7A48
  8
ALPHA
 10
1240.545339
 20
145.138608
 30
0.0
  0
VERTEX
  5
7A49
  8
ALPHA
 10
1240.243462
 20
145.496478
 30
0.0
  0
VERTEX
  5
7A4A
  8
ALPHA
 10
1240.007792
 20
145.561177
 30
0.0
  0
VERTEX
  5
7A4B
  8
ALPHA
 10
1240.176265
 20
145.598959
 30
0.0
  0
VERTEX
  5
7A4C
  8
ALPHA
 10
1240.519105
 20
145.917273
 30
0.0
  0
VERTEX
  5
7A4D
  8
ALPHA
 10
1240.525002
 20
146.401097
 30
0.0
  0
VERTEX
  5
7A4E
  8
ALPHA
 10
1240.190038
 20
146.728573
 30
0.0
  0
VERTEX
  5
7A4F
  8
ALPHA
 10
1239.9924
 20
146.770993
 30
0.0
  0
VERTEX
  5
7A50
  8
ALPHA
 10
1240.230366
 20
146.829941
 30
0.0
  0
VERTEX
  5
7A51
  8
ALPHA
 10
1240.540752
 20
147.179564
 30
0.0
  0
VERTEX
  5
7A52
  8
ALPHA
 10
1240.499541
 20
147.661673
 30
0.0
  0
VERTEX
  5
7A53
  8
ALPHA
 10
1240.134023
 20
147.955737
 30
0.0
  0
VERTEX
  5
7A54
  8
ALPHA
 10
1240.053337
 20
147.984548
 30
0.0
  0
VERTEX
  5
7A55
  8
ALPHA
 10
1240.281645
 20
148.066001
 30
0.0
  0
VERTEX
  5
7A56
  8
ALPHA
 10
1240.557045
 20
148.446534
 30
0.0
  0
VERTEX
  5
7A57
  8
ALPHA
 10
1240.469264
 20
148.919438
 30
0.0
  0
VERTEX
  5
7A58
  8
ALPHA
 10
1240.075725
 20
149.17607
 30
0.0
  0
VERTEX
  5
7A59
  8
ALPHA
 10
1240.329797
 20
149.305207
 30
0.0
  0
VERTEX
  5
7A5A
  8
ALPHA
 10
1240.567677
 20
149.711456
 30
0.0
  0
VERTEX
  5
7A5B
  8
ALPHA
 10
1240.434478
 20
150.172832
 30
0.0
  0
VERTEX
  5
7A5C
  8
ALPHA
 10
1240.01545
 20
150.39124
 30
0.0
  0
VERTEX
  5
7A5D
  8
ALPHA
 10
1240.374514
 20
150.54989
 30
0.0
  0
VERTEX
  5
7A5E
  8
ALPHA
 10
1240.572342
 20
150.981484
 30
0.0
  0
VERTEX
  5
7A5F
  8
ALPHA
 10
1240.395489
 20
151.424272
 30
0.0
  0
VERTEX
  5
7A60
  8
ALPHA
 10
1239.984667
 20
151.601353
 30
0.0
  0
VERTEX
  5
7A61
  8
ALPHA
 10
1240.415489
 20
151.798487
 30
0.0
  0
VERTEX
  5
7A62
  8
ALPHA
 10
1240.570775
 20
152.25173
 30
0.0
  0
VERTEX
  5
7A63
  8
ALPHA
 10
1240.352604
 20
152.671802
 30
0.0
  0
VERTEX
  5
7A64
  8
ALPHA
 10
1240.045815
 20
152.814827
 30
0.0
  0
VERTEX
  5
7A65
  8
ALPHA
 10
1240.452415
 20
153.052571
 30
0.0
  0
VERTEX
  5
7A66
  8
ALPHA
 10
1240.563088
 20
153.521233
 30
0.0
  0
VERTEX
  5
7A67
  8
ALPHA
 10
1240.306131
 20
153.916082
 30
0.0
  0
VERTEX
  5
7A68
  8
ALPHA
 10
1240.083126
 20
154.008632
 30
0.0
  0
VERTEX
  5
7A69
  8
ALPHA
 10
1240.10514
 20
154.034959
 30
0.0
  0
VERTEX
  5
7A6A
  8
ALPHA
 10
1240.484986
 20
154.310546
 30
0.0
  0
VERTEX
  5
7A6B
  8
ALPHA
 10
1240.549587
 20
154.788955
 30
0.0
  0
VERTEX
  5
7A6C
  8
ALPHA
 10
1240.256377
 20
155.154731
 30
0.0
  0
VERTEX
  5
7A6D
  8
ALPHA
 10
1240.023082
 20
155.225223
 30
0.0
  0
VERTEX
  5
7A6E
  8
ALPHA
 10
1240.162335
 20
155.259414
 30
0.0
  0
VERTEX
  5
7A6F
  8
ALPHA
 10
1240.512893
 20
155.570285
 30
0.0
  0
VERTEX
  5
7A70
  8
ALPHA
 10
1240.530579
 20
156.054183
 30
0.0
  0
VERTEX
  5
7A71
  8
ALPHA
 10
1240.203649
 20
156.389074
 30
0.0
  0
VERTEX
  5
7A72
  8
ALPHA
 10
1239.976911
 20
156.436484
 30
0.0
  0
VERTEX
  5
7A73
  8
ALPHA
 10
1240.217093
 20
156.489985
 30
0.0
  0
VERTEX
  5
7A74
  8
ALPHA
 10
1240.53583
 20
156.833295
 30
0.0
  0
VERTEX
  5
7A75
  8
ALPHA
 10
1240.50637
 20
157.316441
 30
0.0
  0
VERTEX
  5
7A76
  8
ALPHA
 10
1240.148253
 20
157.618765
 30
0.0
  0
VERTEX
  5
7A77
  8
ALPHA
 10
1240.038265
 20
157.649867
 30
0.0
  0
VERTEX
  5
7A78
  8
ALPHA
 10
1240.269107
 20
157.726026
 30
0.0
  0
VERTEX
  5
7A79
  8
ALPHA
 10
1240.553491
 20
158.098409
 30
0.0
  0
VERTEX
  5
7A7A
  8
ALPHA
 10
1240.477268
 20
158.574503
 30
0.0
  0
VERTEX
  5
7A7B
  8
ALPHA
 10
1240.090497
 20
158.841109
 30
0.0
  0
VERTEX
  5
7A7C
  8
ALPHA
 10
1240.097835
 20
158.867226
 30
0.0
  0
VERTEX
  5
7A7D
  8
ALPHA
 10
1240.318069
 20
158.96482
 30
0.0
  0
VERTEX
  5
7A7E
  8
ALPHA
 10
1240.565567
 20
159.365459
 30
0.0
  0
VERTEX
  5
7A7F
  8
ALPHA
 10
1240.44358
 20
159.829969
 30
0.0
  0
VERTEX
  5
7A80
  8
ALPHA
 10
1240.030687
 20
160.05712
 30
0.0
  0
VERTEX
  5
7A81
  8
ALPHA
 10
1240.363674
 20
160.208286
 30
0.0
  0
VERTEX
  5
7A82
  8
ALPHA
 10
1240.571752
 20
160.634592
 30
0.0
  0
VERTEX
  5
7A83
  8
ALPHA
 10
1240.405613
 20
161.082775
 30
0.0
  0
VERTEX
  5
7A84
  8
ALPHA
 10
1239.969131
 20
161.270377
 30
0.0
  0
SEQEND
  5
7A85
  8
ALPHA
  0
POLYLINE
  5
6CB4
  8
ALPHA
 66
     1
 10
0.0
 20
0.0
 30
0.0
 70
   128
  0
VERTEX
  5
7A86
  8
ALPHA
 10
1239.969131
 20
161.270377
 30
0.0
  0
VERTEX
  5
7A87
  8
ALPHA
 10
1239.692355
 20
161.240418
 30
0.0
  0
VERTEX
  5
7A88
  8
ALPHA
 10
1238.966111
 20
161.161808
 30
0.0
  0
VERTEX
  5
7A89
  8
ALPHA
 10
1236.789748
 20
160.926235
 30
0.0
  0
VERTEX
  5
7A8A
  8
ALPHA
 10
1234.689084
 20
160.698855
 30
0.0
  0
VERTEX
  5
7A8B
  8
ALPHA
 10
1234.057466
 20
160.630488
 30
0.0
  0
VERTEX
  5
7A8C
  8
ALPHA
 10
1233.863899
 20
160.612114
 30
0.0
  0
VERTEX
  5
7A8D
  8
ALPHA
 10
1233.437805
 20
160.403599
 30
0.0
  0
VERTEX
  5
7A8E
  8
ALPHA
 10
1233.293379
 20
159.94537
 30
0.0
  0
VERTEX
  5
7A8F
  8
ALPHA
 10
1233.521741
 20
159.532169
 30
0.0
  0
VERTEX
  5
7A90
  8
ALPHA
 10
1233.802958
 20
159.395823
 30
0.0
  0
VERTEX
  5
7A91
  8
ALPHA
 10
1233.401895
 20
159.1493
 30
0.0
  0
VERTEX
  5
7A92
  8
ALPHA
 10
1233.30255
 20
158.678229
 30
0.0
  0
VERTEX
  5
7A93
  8
ALPHA
 10
1233.569156
 20
158.291067
 30
0.0
  0
VERTEX
  5
7A94
  8
ALPHA
 10
1233.795469
 20
158.204079
 30
0.0
  0
VERTEX
  5
7A95
  8
ALPHA
 10
1233.743945
 20
158.176967
 30
0.0
  0
VERTEX
  5
7A96
  8
ALPHA
 10
1233.370429
 20
157.893293
 30
0.0
  0
VERTEX
  5
7A97
  8
ALPHA
 10
1233.317463
 20
157.413326
 30
0.0
  0
VERTEX
  5
7A98
  8
ALPHA
 10
1233.619796
 20
157.053599
 30
0.0
  0
VERTEX
  5
7A99
  8
ALPHA
 10
1233.856186
 20
156.988345
 30
0.0
  0
VERTEX
  5
7A9A
  8
ALPHA
 10
1233.687165
 20
156.950484
 30
0.0
  0
VERTEX
  5
7A9B
  8
ALPHA
 10
1233.343713
 20
156.632216
 30
0.0
  0
VERTEX
  5
7A9C
  8
ALPHA
 10
1233.337812
 20
156.148977
 30
0.0
  0
VERTEX
  5
7A9D
  8
ALPHA
 10
1233.673355
 20
155.82103
 30
0.0
  0
VERTEX
  5
7A9E
  8
ALPHA
 10
1233.871637
 20
155.778518
 30
0.0
  0
VERTEX
  5
7A9F
  8
ALPHA
 10
1233.632924
 20
155.719511
 30
0.0
  0
VERTEX
  5
7AA0
  8
ALPHA
 10
1233.322053
 20
155.368596
 30
0.0
  0
VERTEX
  5
7AA1
  8
ALPHA
 10
1233.363293
 20
154.886519
 30
0.0
  0
VERTEX
  5
7AA2
  8
ALPHA
 10
1233.729529
 20
154.593096
 30
0.0
  0
VERTEX
  5
7AA3
  8
ALPHA
 10
1233.810476
 20
154.564281
 30
0.0
  0
VERTEX
  5
7AA4
  8
ALPHA
 10
1233.581525
 20
154.48266
 30
0.0
  0
VERTEX
  5
7AA5
  8
ALPHA
 10
1233.305752
 20
154.101677
 30
0.0
  0
VERTEX
  5
7AA6
  8
ALPHA
 10
1233.3936
 20
153.627518
 30
0.0
  0
VERTEX
  5
7AA7
  8
ALPHA
 10
1233.788012
 20
153.370127
 30
0.0
  0
VERTEX
  5
7AA8
  8
ALPHA
 10
1233.533276
 20
153.240484
 30
0.0
  0
VERTEX
  5
7AA9
  8
ALPHA
 10
1233.295117
 20
152.833405
 30
0.0
  0
VERTEX
  5
7AAA
  8
ALPHA
 10
1233.428428
 20
152.372007
 30
0.0
  0
VERTEX
  5
7AAB
  8
ALPHA
 10
1233.8485
 20
152.153599
 30
0.0
  0
VERTEX
  5
7AAC
  8
ALPHA
 10
1233.488479
 20
151.994948
 30
0.0
  0
VERTEX
  5
7AAD
  8
ALPHA
 10
1233.290451
 20
151.563355
 30
0.0
  0
VERTEX
  5
7AAE
  8
ALPHA
 10
1233.467472
 20
151.120816
 30
0.0
  0
VERTEX
  5
7AAF
  8
ALPHA
 10
1233.8794
 20
150.943484
 30
0.0
  0
VERTEX
  5
7AB0
  8
ALPHA
 10
1233.447442
 20
150.745556
 30
0.0
  0
VERTEX
  5
7AB1
  8
ALPHA
 10
1233.292019
 20
150.293112
 30
0.0
  0
VERTEX
  5
7AB2
  8
ALPHA
 10
1233.510427
 20
149.873432
 30
0.0
  0
VERTEX
  5
7AB3
  8
ALPHA
 10
1233.818024
 20
149.730668
 30
0.0
  0
VERTEX
  5
7AB4
  8
ALPHA
 10
1233.410467
 20
149.492787
 30
0.0
  0
VERTEX
  5
7AB5
  8
ALPHA
 10
1233.299707
 20
149.02518
 30
0.0
  0
VERTEX
  5
7AB6
  8
ALPHA
 10
1233.556988
 20
148.631636
 30
0.0
  0
VERTEX
  5
7AB7
  8
ALPHA
 10
1233.780586
 20
148.539492
 30
0.0
  0
VERTEX
  5
7AB8
  8
ALPHA
 10
1233.758501
 20
148.513215
 30
0.0
  0
VERTEX
  5
7AB9
  8
ALPHA
 10
1233.377862
 20
148.237441
 30
0.0
  0
VERTEX
  5
7ABA
  8
ALPHA
 10
1233.313213
 20
147.758605
 30
0.0
  0
VERTEX
  5
7ABB
  8
ALPHA
 10
1233.60685
 20
147.39329
 30
0.0
  0
VERTEX
  5
7ABC
  8
ALPHA
 10
1233.840839
 20
147.322947
 30
0.0
  0
VERTEX
  5
7ABD
  8
ALPHA
 10
1233.701134
 20
147.288905
 30
0.0
  0
VERTEX
  5
7ABE
  8
ALPHA
 10
1233.34993
 20
146.978969
 30
0.0
  0
VERTEX
  5
7ABF
  8
ALPHA
 10
1233.332232
 20
146.49551
 30
0.0
  0
VERTEX
  5
7AC0
  8
ALPHA
 10
1233.659708
 20
146.159967
 30
0.0
  0
VERTEX
  5
7AC1
  8
ALPHA
 10
1233.887187
 20
146.11236
 30
0.0
  0
VERTEX
  5
7AC2
  8
ALPHA
 10
1233.646229
 20
146.059182
 30
0.0
  0
VERTEX
  5
7AC3
  8
ALPHA
 10
1233.326977
 20
145.716669
 30
0.0
  0
VERTEX
  5
7AC4
  8
ALPHA
 10
1233.356458
 20
145.23467
 30
0.0
  0
VERTEX
  5
7AC5
  8
ALPHA
 10
1233.715257
 20
144.932792
 30
0.0
  0
VERTEX
  5
7AC6
  8
ALPHA
 10
1233.825601
 20
144.901645
 30
0.0
  0
VERTEX
  5
7AC7
  8
ALPHA
 10
1233.594092
 20
144.825417
 30
0.0
  0
VERTEX
  5
7AC8
  8
ALPHA
 10
1233.309308
 20
144.451901
 30
0.0
  0
VERTEX
  5
7AC9
  8
ALPHA
 10
1233.385587
 20
143.976385
 30
0.0
  0
VERTEX
  5
7ACA
  8
ALPHA
 10
1233.773191
 20
143.711011
 30
0.0
  0
VERTEX
  5
7ACB
  8
ALPHA
 10
1233.765829
 20
143.684922
 30
0.0
  0
VERTEX
  5
7ACC
  8
ALPHA
 10
1233.545026
 20
143.587134
 30
0.0
  0
VERTEX
  5
7ACD
  8
ALPHA
 10
1233.297228
 20
143.186071
 30
0.0
  0
VERTEX
  5
7ACE
  8
ALPHA
 10
1233.419313
 20
142.721288
 30
0.0
  0
VERTEX
  5
7ACF
  8
ALPHA
 10
1233.833206
 20
142.493733
 30
0.0
  0
VERTEX
  5
7AD0
  8
ALPHA
 10
1233.499338
 20
142.343072
 30
0.0
  0
VERTEX
  5
7AD1
  8
ALPHA
 10
1233.291041
 20
141.916978
 30
0.0
  0
VERTEX
  5
7AD2
  8
ALPHA
 10
1233.457332
 20
141.469374
 30
0.0
  0
VERTEX
  5
7AD3
  8
ALPHA
 10
1233.894997
 20
141.282471
 30
0.0
  0
SEQEND
  5
7AD4
  8
ALPHA
  0
POLYLINE
  5
6CB5
  8
ALPHA
 66
     1
 10
0.0
 20
0.0
 30
0.0
 70
   128
  0
VERTEX
  5
7AD5
  8
ALPHA
 10
1233.894997
 20
141.282471
 30
0.0
  0
VERTEX
  5
7AD6
  8
ALPHA
 10
1234.171713
 20
141.3124
 30
0.0
  0
VERTEX
  5
7AD7
  8
ALPHA
 10
1234.897796
 20
141.39093
 30
0.0
  0
VERTEX
  5
7AD8
  8
ALPHA
 10
1237.073682
 20
141.626264
 30
0.0
  0
VERTEX
  5
7AD9
  8
ALPHA
 10
1239.173884
 20
141.853413
 30
0.0
  0
VERTEX
  5
7ADA
  8
ALPHA
 10
1239.805364
 20
141.921711
 30
0.0
  0
VERTEX
  5
7ADB
  8
ALPHA
 10
1239.998895
 20
141.940066
 30
0.0
  0
VERTEX
  5
7ADC
  8
ALPHA
 10
1240.424988
 20
142.148145
 30
0.0
  0
VERTEX
  5
7ADD
  8
ALPHA
 10
1240.569415
 20
142.604478
 30
0.0
  0
VERTEX
  5
7ADE
  8
ALPHA
 10
1240.341053
 20
143.018371
 30
0.0
  0
VERTEX
  5
7ADF
  8
ALPHA
 10
1240.059836
 20
143.154371
 30
0.0
  0
VERTEX
  5
7AE0
  8
ALPHA
 10
1240.460899
 20
143.40132
 30
0.0
  0
VERTEX
  5
7AE1
  8
ALPHA
 10
1240.560246
 20
143.872588
 30
0.0
  0
VERTEX
  5
7AE2
  8
ALPHA
 10
1240.293989
 20
144.259308
 30
0.0
  0
VERTEX
  5
7AE3
  8
ALPHA
 10
1240.068292
 20
144.346118
 30
0.0
  0
VERTEX
  5
7AE4
  8
ALPHA
 10
1240.11965
 20
144.373302
 30
0.0
  0
VERTEX
  5
7AE5
  8
ALPHA
 10
1240.492412
 20
144.658085
 30
0.0
  0
VERTEX
  5
7AE6
  8
ALPHA
 10
1240.545339
 20
145.138608
 30
0.0
  0
VERTEX
  5
7AE7
  8
ALPHA
 10
1240.243462
 20
145.496478
 30
0.0
  0
VERTEX
  5
7AE8
  8
ALPHA
 10
1240.007792
 20
145.561177
 30
0.0
  0
VERTEX
  5
7AE9
  8
ALPHA
 10
1240.176265
 20
145.598959
 30
0.0
  0
VERTEX
  5
7AEA
  8
ALPHA
 10
1240.519105
 20
145.917273
 30
0.0
  0
VERTEX
  5
7AEB
  8
ALPHA
 10
1240.525002
 20
146.401097
 30
0.0
  0
VERTEX
  5
7AEC
  8
ALPHA
 10
1240.190038
 20
146.728573
 30
0.0
  0
VERTEX
  5
7AED
  8
ALPHA
 10
1239.9924
 20
146.770993
 30
0.0
  0
VERTEX
  5
7AEE
  8
ALPHA
 10
1240.230366
 20
146.829941
 30
0.0
  0
VERTEX
  5
7AEF
  8
ALPHA
 10
1240.540752
 20
147.179564
 30
0.0
  0
VERTEX
  5
7AF0
  8
ALPHA
 10
1240.499541
 20
147.661673
 30
0.0
  0
VERTEX
  5
7AF1
  8
ALPHA
 10
1240.134023
 20
147.955737
 30
0.0
  0
VERTEX
  5
7AF2
  8
ALPHA
 10
1240.053337
 20
147.984548
 30
0.0
  0
VERTEX
  5
7AF3
  8
ALPHA
 10
1240.281645
 20
148.066001
 30
0.0
  0
VERTEX
  5
7AF4
  8
ALPHA
 10
1240.557045
 20
148.446534
 30
0.0
  0
VERTEX
  5
7AF5
  8
ALPHA
 10
1240.469264
 20
148.919438
 30
0.0
  0
VERTEX
  5
7AF6
  8
ALPHA
 10
1240.075725
 20
149.17607
 30
0.0
  0
VERTEX
  5
7AF7
  8
ALPHA
 10
1240.329797
 20
149.305207
 30
0.0
  0
VERTEX
  5
7AF8
  8
ALPHA
 10
1240.567677
 20
149.711456
 30
0.0
  0
VERTEX
  5
7AF9
  8
ALPHA
 10
1240.434478
 20
150.172832
 30
0.0
  0
VERTEX
  5
7AFA
  8
ALPHA
 10
1240.01545
 20
150.39124
 30
0.0
  0
VERTEX
  5
7AFB
  8
ALPHA
 10
1240.374514
 20
150.54989
 30
0.0
  0
VERTEX
  5
7AFC
  8
ALPHA
 10
1240.572342
 20
150.981484
 30
0.0
  0
VERTEX
  5
7AFD
  8
ALPHA
 10
1240.395489
 20
151.424272
 30
0.0
  0
VERTEX
  5
7AFE
  8
ALPHA
 10
1239.984667
 20
151.601353
 30
0.0
  0
VERTEX
  5
7AFF
  8
ALPHA
 10
1240.415489
 20
151.798487
 30
0.0
  0
VERTEX
  5
7B00
  8
ALPHA
 10
1240.570775
 20
152.25173
 30
0.0
  0
VERTEX
  5
7B01
  8
ALPHA
 10
1240.352604
 20
152.671802
 30
0.0
  0
VERTEX
  5
7B02
  8
ALPHA
 10
1240.045815
 20
152.814827
 30
0.0
  0
VERTEX
  5
7B03
  8
ALPHA
 10
1240.452415
 20
153.052571
 30
0.0
  0
VERTEX
  5
7B04
  8
ALPHA
 10
1240.563088
 20
153.521233
 30
0.0
  0
VERTEX
  5
7B05
  8
ALPHA
 10
1240.306131
 20
153.916082
 30
0.0
  0
VERTEX
  5
7B06
  8
ALPHA
 10
1240.083126
 20
154.008632
 30
0.0
  0
VERTEX
  5
7B07
  8
ALPHA
 10
1240.10514
 20
154.034959
 30
0.0
  0
VERTEX
  5
7B08
  8
ALPHA
 10
1240.484986
 20
154.310546
 30
0.0
  0
VERTEX
  5
7B09
  8
ALPHA
 10
1240.549587
 20
154.788955
 30
0.0
  0
VERTEX
  5
7B0A
  8
ALPHA
 10
1240.256377
 20
155.154731
 30
0.0
  0
VERTEX
  5
7B0B
  8
ALPHA
 10
1240.023082
 20
155.225223
 30
0.0
  0
VERTEX
  5
7B0C
  8
ALPHA
 10
1240.162335
 20
155.259414
 30
0.0
  0
VERTEX
  5
7B0D
  8
ALPHA
 10
1240.512893
 20
155.570285
 30
0.0
  0
VERTEX
  5
7B0E
  8
ALPHA
 10
1240.530579
 20
156.054183
 30
0.0
  0
VERTEX
  5
7B0F
  8
ALPHA
 10
1240.203649
 20
156.389074
 30
0.0
  0
VERTEX
  5
7B10
  8
ALPHA
 10
1239.976911
 20
156.436484
 30
0.0
  0
VERTEX
  5
7B11
  8
ALPHA
 10
1240.217093
 20
156.489985
 30
0.0
  0
VERTEX
  5
7B12
  8
ALPHA
 10
1240.53583
 20
156.833295
 30
0.0
  0
VERTEX
  5
7B13
  8
ALPHA
 10
1240.50637
 20
157.316441
 30
0.0
  0
VERTEX
  5
7B14
  8
ALPHA
 10
1240.148253
 20
157.618765
 30
0.0
  0
VERTEX
  5
7B15
  8
ALPHA
 10
1240.038265
 20
157.649867
 30
0.0
  0
VERTEX
  5
7B16
  8
ALPHA
 10
1240.269107
 20
157.726026
 30
0.0
  0
VERTEX
  5
7B17
  8
ALPHA
 10
1240.553491
 20
158.098409
 30
0.0
  0
VERTEX
  5
7B18
  8
ALPHA
 10
1240.477268
 20
158.574503
 30
0.0
  0
VERTEX
  5
7B19
  8
ALPHA
 10
1240.090497
 20
158.841109
 30
0.0
  0
VERTEX
  5
7B1A
  8
ALPHA
 10
1240.097835
 20
158.867226
 30
0.0
  0
VERTEX
  5
7B1B
  8
ALPHA
 10
1240.318069
 20
158.96482
 30
0.0
  0
VERTEX
  5
7B1C
  8
ALPHA
 10
1240.565567
 20
159.365459
 30
0.0
  0
VERTEX
  5
7B1D
  8
ALPHA
 10
1240.44358
 20
159.829969
 30
0.0
  0
VERTEX
  5
7B1E
  8
ALPHA
 10
1240.030687
 20
160.05712
 30
0.0
  0
VERTEX
  5
7B1F
  8
ALPHA
 10
1240.363674
 20
160.208286
 30
0.0
  0
VERTEX
  5
7B20
  8
ALPHA
 10
1240.571752
 20
160.634592
 30
0.0
  0
VERTEX
  5
7B21
  8
ALPHA
 10
1240.405613
 20
161.082775
 30
0.0
  0
VERTEX
  5
7B22
  8
ALPHA
 10
1239.969131
 20
161.270377
 30
0.0
  0
SEQEND
  5
7B23
  8
ALPHA
  0
POLYLINE
  5
6CB6
  8
ALPHA
 66
     1
 10
0.0
 20
0.0
 30
0.0
 70
   128
  0
VERTEX
  5
7B24
  8
ALPHA
 10
1237.252458
 20
163.748757
 30
0.0
  0
VERTEX
  5
7B25
  8
ALPHA
 10
1237.252458
 20
164.226814
 30
0.0
  0
VERTEX
  5
7B26
  8
ALPHA
 10
1237.252458
 20
165.487144
 30
0.0
  0
VERTEX
  5
7B27
  8
ALPHA
 10
1237.252458
 20
169.311596
 30
0.0
  0
VERTEX
  5
7B28
  8
ALPHA
 10
1237.252458
 20
173.136047
 30
0.0
  0
VERTEX
  5
7B29
  8
ALPHA
 10
1237.252458
 20
174.396378
 30
0.0
  0
VERTEX
  5
7B2A
  8
ALPHA
 10
1237.252458
 20
174.874435
 30
0.0
  0
SEQEND
  5
7B2B
  8
ALPHA
  0
POLYLINE
  5
6CB7
  8
ALPHA
 66
     1
 10
0.0
 20
0.0
 30
0.0
 70
   128
  0
VERTEX
  5
7B2C
  8
ALPHA
 10
1238.451265
 20
175.350353
 30
0.0
  0
VERTEX
  5
7B2D
  8
ALPHA
 10
1238.451265
 20
174.854887
 30
0.0
  0
VERTEX
  5
7B2E
  8
ALPHA
 10
1238.451265
 20
173.548659
 30
0.0
  0
VERTEX
  5
7B2F
  8
ALPHA
 10
1238.451265
 20
169.584932
 30
0.0
  0
VERTEX
  5
7B30
  8
ALPHA
 10
1238.451265
 20
165.621205
 30
0.0
  0
VERTEX
  5
7B31
  8
ALPHA
 10
1238.451265
 20
164.314977
 30
0.0
  0
VERTEX
  5
7B32
  8
ALPHA
 10
1238.451265
 20
163.819511
 30
0.0
  0
VERTEX
  5
7B33
  8
ALPHA
 10
1238.301206
 20
162.514406
 30
0.0
  0
VERTEX
  5
7B34
  8
ALPHA
 10
1237.69834
 20
161.581259
 30
0.0
  0
VERTEX
  5
7B35
  8
ALPHA
 10
1236.828145
 20
161.02082
 30
0.0
  0
VERTEX
  5
7B36
  8
ALPHA
 10
1235.876099
 20
160.83384
 30
0.0
  0
SEQEND
  5
7B37
  8
ALPHA
  0
POLYLINE
  5
6CB8
  8
ALPHA
 66
     1
 10
0.0
 20
0.0
 30
0.0
 70
   128
  0
VERTEX
  5
7B38
  8
ALPHA
 10
1237.252458
 20
163.748757
 30
0.0
  0
VERTEX
  5
7B39
  8
ALPHA
 10
1237.252458
 20
164.226814
 30
0.0
  0
VERTEX
  5
7B3A
  8
ALPHA
 10
1237.252458
 20
165.487144
 30
0.0
  0
VERTEX
  5
7B3B
  8
ALPHA
 10
1237.252458
 20
169.311596
 30
0.0
  0
VERTEX
  5
7B3C
  8
ALPHA
 10
1237.252458
 20
173.136047
 30
0.0
  0
VERTEX
  5
7B3D
  8
ALPHA
 10
1237.252458
 20
174.396378
 30
0.0
  0
VERTEX
  5
7B3E
  8
ALPHA
 10
1237.252458
 20
174.874435
 30
0.0
  0
SEQEND
  5
7B3F
  8
ALPHA
  0
POLYLINE
  5
6CB9
  8
ALPHA
 66
     1
 10
0.0
 20
0.0
 30
0.0
 70
   128
  0
VERTEX
  5
7B40
  8
ALPHA
 10
1238.451265
 20
175.350353
 30
0.0
  0
VERTEX
  5
7B41
  8
ALPHA
 10
1238.451265
 20
174.854887
 30
0.0
  0
VERTEX
  5
7B42
  8
ALPHA
 10
1238.451265
 20
173.548659
 30
0.0
  0
VERTEX
  5
7B43
  8
ALPHA
 10
1238.451265
 20
169.584932
 30
0.0
  0
VERTEX
  5
7B44
  8
ALPHA
 10
1238.451265
 20
165.621205
 30
0.0
  0
VERTEX
  5
7B45
  8
ALPHA
 10
1238.451265
 20
164.314977
 30
0.0
  0
VERTEX
  5
7B46
  8
ALPHA
 10
1238.451265
 20
163.819511
 30
0.0
  0
VERTEX
  5
7B47
  8
ALPHA
 10
1238.301206
 20
162.514406
 30
0.0
  0
VERTEX
  5
7B48
  8
ALPHA
 10
1237.69834
 20
161.581259
 30
0.0
  0
VERTEX
  5
7B49
  8
ALPHA
 10
1236.828145
 20
161.02082
 30
0.0
  0
VERTEX
  5
7B4A
  8
ALPHA
 10
1235.876099
 20
160.83384
 30
0.0
  0
SEQEND
  5
7B4B
  8
ALPHA
  0
POLYLINE
  5
6CBA
  8
ALPHA
 66
     1
 10
0.0
 20
0.0
 30
0.0
 70
   128
  0
VERTEX
  5
7B4C
  8
ALPHA
 10
1235.876099
 20
160.83384
 30
0.0
  0
VERTEX
  5
7B4D
  8
ALPHA
 10
1235.249266
 20
160.763934
 30
0.0
  0
VERTEX
  5
7B4E
  8
ALPHA
 10
1234.204544
 20
160.647424
 30
0.0
  0
VERTEX
  5
7B4F
  8
ALPHA
 10
1233.467472
 20
160.789786
 30
0.0
  0
VERTEX
  5
7B50
  8
ALPHA
 10
1233.337812
 20
161.451881
 30
0.0
  0
VERTEX
  5
7B51
  8
ALPHA
 10
1233.894997
 20
161.821054
 30
0.0
  0
SEQEND
  5
7B52
  8
ALPHA
  0
POLYLINE
  5
6CBB
  8
ALPHA
 66
     1
 10
0.0
 20
0.0
 30
0.0
 70
   128
  0
VERTEX
  5
7B53
  8
ALPHA
 10
1235.876099
 20
160.83384
 30
0.0
  0
VERTEX
  5
7B54
  8
ALPHA
 10
1235.249266
 20
160.763934
 30
0.0
  0
VERTEX
  5
7B55
  8
ALPHA
 10
1234.204544
 20
160.647424
 30
0.0
  0
VERTEX
  5
7B56
  8
ALPHA
 10
1233.467472
 20
160.789786
 30
0.0
  0
VERTEX
  5
7B57
  8
ALPHA
 10
1233.337812
 20
161.451881
 30
0.0
  0
VERTEX
  5
7B58
  8
ALPHA
 10
1233.894997
 20
161.821054
 30
0.0
  0
SEQEND
  5
7B59
  8
ALPHA
  0
POLYLINE
  5
6CBC
  8
ALPHA
 66
     1
 10
0.0
 20
0.0
 30
0.0
 70
   128
  0
VERTEX
  5
7B5A
  8
ALPHA
 10
1233.894997
 20
161.821054
 30
0.0
  0
VERTEX
  5
7B5B
  8
ALPHA
 10
1234.20079
 20
161.856097
 30
0.0
  0
VERTEX
  5
7B5C
  8
ALPHA
 10
1234.873534
 20
161.933192
 30
0.0
  0
VERTEX
  5
7B5D
  8
ALPHA
 10
1235.546277
 20
162.010287
 30
0.0
  0
VERTEX
  5
7B5E
  8
ALPHA
 10
1235.85207
 20
162.04533
 30
0.0
  0
VERTEX
  5
7B5F
  8
ALPHA
 10
1236.595213
 20
162.233488
 30
0.0
  0
VERTEX
  5
7B60
  8
ALPHA
 10
1237.018337
 20
162.596924
 30
0.0
  0
VERTEX
  5
7B61
  8
ALPHA
 10
1237.252458
 20
163.748757
 30
0.0
  0
SEQEND
  5
7B62
  8
ALPHA
  0
POLYLINE
  5
6CBD
  8
ALPHA
 66
     1
 10
0.0
 20
0.0
 30
0.0
 70
   128
  0
VERTEX
  5
7B63
  8
ALPHA
 10
1233.894997
 20
161.821054
 30
0.0
  0
VERTEX
  5
7B64
  8
ALPHA
 10
1234.20079
 20
161.856097
 30
0.0
  0
VERTEX
  5
7B65
  8
ALPHA
 10
1234.873534
 20
161.933192
 30
0.0
  0
VERTEX
  5
7B66
  8
ALPHA
 10
1235.546277
 20
162.010287
 30
0.0
  0
VERTEX
  5
7B67
  8
ALPHA
 10
1235.85207
 20
162.04533
 30
0.0
  0
VERTEX
  5
7B68
  8
ALPHA
 10
1236.595213
 20
162.233488
 30
0.0
  0
VERTEX
  5
7B69
  8
ALPHA
 10
1237.018337
 20
162.596924
 30
0.0
  0
VERTEX
  5
7B6A
  8
ALPHA
 10
1237.252458
 20
163.748757
 30
0.0
  0
SEQEND
  5
7B6B
  8
ALPHA
  0
LINE
  5
6CC6
  8
AXE
 10
1236.930729
 20
168.531239
 30
0.0
 11
1236.930729
 21
23.728457
 31
0.0
  0
LINE
  5
6CC8
  8
ALPHA
 10
1244.680873
 20
119.518414
 30
0.0
 11
1236.930729
 21
119.518414
 31
0.0
  0
LINE
  5
6CC9
  8
ALPHA
 10
1244.176919
 20
120.021253
 30
0.0
 11
1236.930729
 21
120.021253
 31
0.0
  0
DIMENSION
  5
6CCD
  8
COTATION1
  2
*D14
 10
1201.430729
 20
108.728457
 30
0.0
 11
1201.430729
 21
179.728457
 31
0.0
 70
   128
 13
1237.252458
 23
250.728457
 33
0.0
 14
1222.780729
 24
108.728457
 34
0.0
 50
90.0
  0
LINE
  5
6CCE
  8
ALPHA
 10
1238.451267
 20
250.574937
 30
0.0
 11
1238.451265
 21
175.350353
 31
0.0
  0
LINE
  5
6CCF
  8
ALPHA
 10
1237.252458
 20
174.396378
 30
0.0
 11
1237.252458
 21
250.728457
 31
0.0
  0
LINE
  5
6CD0
  8
ALPHA
 10
1238.451267
 20
250.574937
 30
0.0
 11
1238.451267
 21
177.525027
 31
0.0
  0
LINE
  5
6CD1
  8
ALPHA
 10
1237.252458
 20
177.048441
 30
0.0
 11
1237.252458
 21
250.728457
 31
0.0
  0
LINE
  5
6CD2
  8
ALPHA
 10
1233.894995
 20
142.490625
 30
0.0
 11
1239.967795
 21
143.14743
 31
0.0
  0
LINE
  5
6CD3
  8
ALPHA
 10
1243.17124
 20
120.821124
 30
0.0
 11
1243.17124
 21
120.021253
 31
0.0
  0
LINE
  5
6CD4
  8
ALPHA
 10
1230.690217
 20
120.821124
 30
0.0
 11
1230.690217
 21
120.021253
 31
0.0
  0
LINE
  5
6CDA
  8
ALPHA
 10
1229.684538
 20
120.021253
 30
0.0
 11
1236.930729
 21
120.021253
 31
0.0
  0
LINE
  5
6CDB
  8
ALPHA
 10
1229.180584
 20
119.518414
 30
0.0
 11
1229.684538
 21
120.021253
 31
0.0
  0
LINE
  5
6CDC
  8
ALPHA
 10
1229.180584
 20
118.510507
 30
0.0
 11
1229.180584
 21
119.518414
 31
0.0
  0
LINE
  5
6CDD
  8
ALPHA
 10
1229.180584
 20
119.518414
 30
0.0
 11
1229.684538
 21
120.021253
 31
0.0
  0
LINE
  5
6CDE
  8
ALPHA
 10
1229.180584
 20
118.167332
 30
0.0
 11
1229.180584
 21
119.518414
 31
0.0
  0
LINE
  5
6CDF
  8
ALPHA
 10
1229.180584
 20
119.518414
 30
0.0
 11
1236.930729
 21
119.518414
 31
0.0
  0
LINE
  5
6CF4
  8
ALPHA
 10
1243.17124
 20
121.776744
 30
0.0
 11
1243.17124
 21
124.047314
 31
0.0
  0
LINE
  5
6CF5
  8
ALPHA
 10
1243.17124
 20
124.047314
 30
0.0
 11
1236.930729
 21
124.047314
 31
0.0
  0
LINE
  5
6CF6
  8
ALPHA
 10
1239.931329
 20
140.728457
 30
0.0
 11
1233.92889
 21
140.728457
 31
0.0
  0
LINE
  5
6CF7
  8
ALPHA
 10
1230.690217
 20
124.047314
 30
0.0
 11
1236.930729
 21
124.047314
 31
0.0
  0
LINE
  5
6CF8
  8
ALPHA
 10
1239.931329
 20
140.728457
 30
0.0
 11
1233.92889
 21
140.728457
 31
0.0
  0
LINE
  5
6CF9
  8
ALPHA
 10
1233.92889
 20
140.728457
 30
0.0
 11
1233.404789
 21
137.554042
 31
0.0
  0
LINE
  5
6CFA
  8
ALPHA
 10
1234.679194
 20
140.728457
 30
0.0
 11
1239.183497
 21
140.728457
 31
0.0
  0
LINE
  5
6CFB
  8
ALPHA
 10
1240.456668
 20
137.554042
 30
0.0
 11
1239.931329
 21
140.728457
 31
0.0
  0
LINE
  5
6CFC
  8
ALPHA
 10
1230.690217
 20
121.776744
 30
0.0
 11
1230.690217
 21
124.047314
 31
0.0
  0
LINE
  5
6CFD
  8
ALPHA
 10
1239.364387
 20
140.728457
 30
0.0
 11
1239.364387
 21
141.875201
 31
0.0
  0
LINE
  5
6CFE
  8
ALPHA
 10
1234.49974
 20
141.349221
 30
0.0
 11
1234.49974
 21
140.728457
 31
0.0
  0
CIRCLE
  5
6CFF
  8
ALPHA
 10
1240.037215
 20
141.330531
 30
0.0
 40
0.603407
  0
LINE
  5
6D00
  8
ALPHA
 10
1234.49974
 20
141.349221
 30
0.0
 11
1234.49974
 21
140.728457
 31
0.0
  0
LINE
  5
6D01
  8
ALPHA
 10
1239.364387
 20
141.875201
 30
0.0
 11
1239.364387
 21
140.728457
 31
0.0
  0
CIRCLE
  5
6D02
  8
ALPHA
 10
1240.037215
 20
141.330531
 30
0.0
 40
0.603407
  0
LINE
  5
6D03
  8
ALPHA
 10
1239.969132
 20
161.270379
 30
0.0
 11
1237.592877
 21
161.485976
 31
0.0
  0
LINE
  5
6D04
  8
ALPHA
 10
1237.592877
 20
161.485976
 30
0.0
 11
1239.969132
 21
161.270379
 31
0.0
  0
LINE
  5
6D05
  8
ALPHA
 10
1233.894995
 20
159.402749
 30
0.0
 11
1239.969132
 21
160.060224
 31
0.0
  0
LINE
  5
6D06
  8
ALPHA
 10
1233.894995
 20
158.19593
 30
0.0
 11
1239.969132
 21
158.853405
 31
0.0
  0
LINE
  5
6D07
  8
ALPHA
 10
1233.894995
 20
156.987112
 30
0.0
 11
1239.969132
 21
157.645921
 31
0.0
  0
LINE
  5
6D08
  8
ALPHA
 10
1233.894995
 20
155.778961
 30
0.0
 11
1239.969132
 21
156.436436
 31
0.0
  0
LINE
  5
6D09
  8
ALPHA
 10
1233.894995
 20
154.570139
 30
0.0
 11
1239.969132
 21
155.227614
 31
0.0
  0
LINE
  5
6D0A
  8
ALPHA
 10
1233.894995
 20
153.360655
 30
0.0
 11
1239.969132
 21
154.019463
 31
0.0
  0
LINE
  5
6D0B
  8
ALPHA
 10
1233.894995
 20
152.151833
 30
0.0
 11
1239.969132
 21
152.809975
 31
0.0
  0
LINE
  5
6D0C
  8
ALPHA
 10
1233.894995
 20
150.943682
 30
0.0
 11
1239.969132
 21
151.601157
 31
0.0
  0
LINE
  5
6D0D
  8
ALPHA
 10
1233.894995
 20
148.528712
 30
0.0
 11
1239.969132
 21
149.185521
 31
0.0
  0
LINE
  5
6D0E
  8
ALPHA
 10
1233.894995
 20
147.320561
 30
0.0
 11
1239.969132
 21
147.978702
 31
0.0
  0
LINE
  5
6D0F
  8
ALPHA
 10
1233.894995
 20
149.73553
 30
0.0
 11
1239.969132
 21
150.393006
 31
0.0
  0
LINE
  5
6D10
  8
ALPHA
 10
1233.894995
 20
146.112409
 30
0.0
 11
1239.969132
 21
146.770551
 31
0.0
  0
LINE
  5
6D11
  8
ALPHA
 10
1233.894995
 20
144.905591
 30
0.0
 11
1239.969132
 21
145.5624
 31
0.0
  0
LINE
  5
6D12
  8
ALPHA
 10
1233.894995
 20
143.698776
 30
0.0
 11
1239.969132
 21
144.354248
 31
0.0
  0
LINE
  5
6D15
  8
ALPHA
 10
1237.252458
 20
250.728457
 30
0.0
 11
1238.451267
 21
250.574937
 31
0.0
  0
LINE
  5
6D16
  8
ALPHA
 10
1237.252458
 20
250.728457
 30
0.0
 11
1238.451267
 21
250.574937
 31
0.0
  0
LINE
  5
6D17
  8
ALPHA
 10
1244.680873
 20
118.167332
 30
0.0
 11
1244.680873
 21
119.518414
 31
0.0
  0
LINE
  5
6D18
  8
ALPHA
 10
1244.680873
 20
119.518414
 30
0.0
 11
1244.176919
 21
120.021253
 31
0.0
  0
LINE
  5
6D19
  8
ALPHA
 10
1244.680873
 20
118.510507
 30
0.0
 11
1244.680873
 21
119.518414
 31
0.0
  0
LINE
  5
6D1A
  8
ALPHA
 10
1244.680873
 20
119.518414
 30
0.0
 11
1244.176919
 21
120.021253
 31
0.0
  0
DIMENSION
  5
71E9
  8
COTATION1
  2
*D3
 10
1247.930729
 20
67.607731
 30
0.0
 11
1236.930729
 21
70.857731
 31
0.0
 13
1225.930729
 23
106.578457
 33
0.0
 14
1247.930729
 24
106.578457
 34
0.0
  0
DIMENSION
  5
71EA
  8
COTATION1
  2
*D4
 10
1246.930729
 20
77.109846
 30
0.0
 11
1236.930729
 21
80.359846
 31
0.0
 13
1226.930729
 23
104.578457
 33
0.0
 14
1246.930729
 24
104.578457
 34
0.0
  0
DIMENSION
  5
73B8
  8
COTATION1
  2
*D5
 10
1246.731589
 20
108.943922
 30
0.0
 11
1273.193271
 21
130.55409
 31
0.0
 70
   131
  1
2x<>x6.3
 15
1249.129868
 25
112.512992
 35
0.0
 40
0.0
1001
ACAD
1000
DSTYLE
1002
{
1070
   288
1070
     1
1002
}
  0
DIMENSION
  5
73B9
  8
COTATION1
  2
*D6
 10
1287.430729
 20
108.728457
 30
0.0
 11
1287.430729
 21
113.728457
 31
0.0
 70
   128
 13
1236.930729
 23
118.728457
 33
0.0
 14
1251.080729
 24
108.728457
 34
0.0
 50
90.0
1001
ACAD
1000
DSTYLE
1002
{
1070
   287
1070
     5
1070
   287
1070
     5
1070
   279
1070
     2
1070
   289
1070
     3
1002
}
  0
DIMENSION
  5
73BA
  8
COTATION1
  2
*D7
 10
1297.430729
 20
41.728457
 30
0.0
 11
1297.430729
 21
146.228457
 31
0.0
 13
1237.252458
 23
250.728457
 33
0.0
 14
1241.198678
 24
41.728457
 34
0.0
 50
90.0
  0
TEXT
  5
73BB
  8
AXE
 10
1229.454538
 20
23.728457
 30
0.0
 40
8.0
  1
Y
 72
     2
 11
1235.930729
 21
23.728457
 31
0.0
  0
DIMENSION
  5
73BC
  8
COTATION1
  2
*D8
 10
1252.430729
 20
3.728457
 30
0.0
 11
1236.930729
 21
6.978457
 31
0.0
 13
1221.430729
 23
53.728457
 33
0.0
 14
1252.430729
 24
53.728457
 34
0.0
  0
DIMENSION
  5
73BD
  8
COTATION1
  2
*D9
 10
1246.430729
 20
13.728457
 30
0.0
 11
1236.930729
 21
16.978457
 31
0.0
 13
1227.430729
 23
53.228457
 33
0.0
 14
1246.430729
 24
53.228457
 34
0.0
  0
DIMENSION
  5
73BE
  8
COTATION1
  2
*D10
 10
1287.430729
 20
57.728457
 30
0.0
 11
1287.430729
 21
83.228457
 31
0.0
 13
1251.080729
 23
108.728457
 33
0.0
 14
1250.930729
 24
57.728457
 34
0.0
 50
90.0
  0
DIMENSION
  5
73BF
  8
COTATION1
  2
*D11
 10
1277.430729
 20
108.728457
 30
0.0
 11
1274.597395
 21
100.330197
 31
0.0
 70
   128
 13
1252.080729
 23
110.728457
 33
0.0
 14
1251.080729
 24
108.728457
 34
0.0
 50
90.0
1001
ACAD
1000
DSTYLE
1002
{
1070
   287
1070
     5
1070
   287
1070
     5
1070
   279
1070
     2
1070
   289
1070
     3
1002
}
  0
LINE
  5
73C0
  8
ALPHA
 10
1221.430729
 20
116.028457
 30
0.0
 11
1221.430729
 21
53.728457
 31
0.0
  0
LINE
  5
73C1
  8
ALPHA
 10
1252.430729
 20
116.028457
 30
0.0
 11
1252.430729
 21
53.728457
 31
0.0
  0
DIMENSION
  5
73C2
  8
COTATION1
  2
*D12
 10
1228.677294
 20
56.894147
 30
0.0
 11
1195.528815
 21
74.952719
 31
0.0
 70
   131
  1
2x<>
 15
1226.184163
 25
58.562767
 35
0.0
 40
0.0
  0
LINE
  5
73C3
  8
ALPHA_FIN
 10
1241.857219
 20
53.728457
 30
0.0
 11
1241.857219
 21
42.108666
 31
0.0
  0
LINE
  5
73C4
  8
ALPHA
 10
1242.930729
 20
42.728457
 30
0.0
 11
1242.930729
 21
53.728457
 31
0.0
  0
LINE
  5
73C5
  8
ALPHA_FIN
 10
1232.004238
 20
53.728457
 30
0.0
 11
1232.004238
 21
42.108666
 31
0.0
  0
LINE
  5
73C6
  8
ALPHA
 10
1230.930729
 20
42.728457
 30
0.0
 11
1230.930729
 21
53.728457
 31
0.0
  0
LINE
  5
73C7
  8
ALPHA
 10
1236.930729
 20
42.728457
 30
0.0
 11
1230.930729
 21
42.728457
 31
0.0
  0
LINE
  5
73C8
  8
ALPHA
 10
1236.930729
 20
41.728457
 30
0.0
 11
1232.662779
 21
41.728457
 31
0.0
  0
LINE
  5
73C9
  8
ALPHA
 10
1230.930729
 20
42.728457
 30
0.0
 11
1232.662779
 21
41.728457
 31
0.0
  0
LINE
  5
73CA
  8
ALPHA
 10
1242.930729
 20
42.728457
 30
0.0
 11
1241.198678
 21
41.728457
 31
0.0
  0
LINE
  5
73CB
  8
ALPHA
 10
1236.930729
 20
42.728457
 30
0.0
 11
1242.930729
 21
42.728457
 31
0.0
  0
LINE
  5
73CC
  8
ALPHA
 10
1236.930729
 20
41.728457
 30
0.0
 11
1241.198678
 21
41.728457
 31
0.0
  0
LINE
  5
73CD
  8
ALPHA
 10
1221.430729
 20
53.728457
 30
0.0
 11
1252.430729
 21
53.728457
 31
0.0
  0
LINE
  5
73CE
  8
ALPHA
 10
1224.430729
 20
58.780776
 30
0.0
 11
1236.930729
 21
58.780776
 31
0.0
  0
LINE
  5
73CF
  8
ALPHA
 10
1225.930729
 20
54.728457
 30
0.0
 11
1247.930729
 21
54.728457
 31
0.0
  0
LINE
  5
73D0
  8
ALPHA
 10
1221.430729
 20
54.728457
 30
0.0
 11
1224.430729
 21
54.728457
 31
0.0
  0
LINE
  5
73D1
  8
ALPHA
 10
1225.930729
 20
58.780776
 30
0.0
 11
1226.943529
 21
54.728457
 31
0.0
  0
LINE
  5
73D2
  8
ALPHA
 10
1224.430729
 20
54.728457
 30
0.0
 11
1224.430729
 21
58.780776
 31
0.0
  0
LINE
  5
73D3
  8
ALPHA
 10
1225.930729
 20
54.728457
 30
0.0
 11
1225.930729
 21
58.780776
 31
0.0
  0
LINE
  5
73D4
  8
AXE
 10
1227.430729
 20
53.228457
 30
0.0
 11
1227.430729
 21
62.228457
 31
0.0
  0
LINE
  5
73D5
  8
AXE
 10
1231.930729
 20
57.728457
 30
0.0
 11
1222.930729
 21
57.728457
 31
0.0
  0
CIRCLE
  5
73D6
  8
POINTILLE_COURT
 10
1227.430729
 20
57.728457
 30
0.0
 40
1.5
  0
LINE
  5
73D7
  8
ALPHA
 10
1249.430729
 20
54.728457
 30
0.0
 11
1252.430729
 21
54.728457
 31
0.0
  0
LINE
  5
73D8
  8
ALPHA
 10
1247.930729
 20
58.780776
 30
0.0
 11
1246.917928
 21
54.728457
 31
0.0
  0
LINE
  5
73D9
  8
ALPHA
 10
1247.930729
 20
54.728457
 30
0.0
 11
1247.930729
 21
58.780776
 31
0.0
  0
LINE
  5
73DA
  8
ALPHA
 10
1249.430729
 20
54.728457
 30
0.0
 11
1249.430729
 21
58.780776
 31
0.0
  0
LINE
  5
73DB
  8
ALPHA
 10
1249.430729
 20
58.780776
 30
0.0
 11
1236.930729
 21
58.780776
 31
0.0
  0
LINE
  5
73DC
  8
AXE
 10
1246.430729
 20
53.228457
 30
0.0
 11
1246.430729
 21
62.228457
 31
0.0
  0
LINE
  5
73DD
  8
AXE
 10
1241.930729
 20
57.728457
 30
0.0
 11
1250.930729
 21
57.728457
 31
0.0
  0
CIRCLE
  5
73DE
  8
POINTILLE_COURT
 10
1246.430729
 20
57.728457
 30
0.0
 40
1.5
  0
DIMENSION
  5
73DF
  8
COTATION1
  2
*D13
 10
1228.83012
 20
109.735837
 30
0.0
 11
1189.788663
 21
93.24713
 31
0.0
 70
   131
  1
2x<>
 15
1225.031337
 25
107.721078
 35
0.0
 40
0.0
1001
ACAD
1000
DSTYLE
1002
{
1070
   288
1070
     1
1002
}
  0
LINE
  5
73E0
  8
AXE
 10
1217.430729
 20
86.228457
 30
0.0
 11
1267.430729
 21
86.228457
 31
0.0
  0
TEXT
  5
73E1
  8
AXE
 10
1260.954538
 20
87.228457
 30
0.0
 40
8.0
  1
X
 72
     2
 11
1267.430729
 21
87.228457
 31
0.0
  0
POLYLINE
  5
73E2
  8
ALPHA
 66
     1
 10
0.0
 20
0.0
 30
0.0
 70
   128
  0
VERTEX
  5
7B6C
  8
ALPHA
 10
1228.476134
 20
116.646215
 30
0.0
  0
VERTEX
  5
7B6D
  8
ALPHA
 10
1228.666193
 20
116.646215
 30
0.0
  0
VERTEX
  5
7B6E
  8
ALPHA
 10
1229.203315
 20
116.646215
 30
0.0
  0
VERTEX
  5
7B6F
  8
ALPHA
 10
1230.037921
 20
116.646215
 30
0.0
  0
VERTEX
  5
7B70
  8
ALPHA
 10
1231.120428
 20
116.646215
 30
0.0
  0
VERTEX
  5
7B71
  8
ALPHA
 10
1233.83083
 20
116.646215
 30
0.0
  0
VERTEX
  5
7B72
  8
ALPHA
 10
1236.937875
 20
116.646215
 30
0.0
  0
VERTEX
  5
7B73
  8
ALPHA
 10
1240.044921
 20
116.646215
 30
0.0
  0
VERTEX
  5
7B74
  8
ALPHA
 10
1242.755322
 20
116.646215
 30
0.0
  0
VERTEX
  5
7B75
  8
ALPHA
 10
1243.83783
 20
116.646215
 30
0.0
  0
VERTEX
  5
7B76
  8
ALPHA
 10
1244.672435
 20
116.646215
 30
0.0
  0
VERTEX
  5
7B77
  8
ALPHA
 10
1245.209558
 20
116.646215
 30
0.0
  0
VERTEX
  5
7B78
  8
ALPHA
 10
1245.399616
 20
116.646215
 30
0.0
  0
SEQEND
  5
7B79
  8
ALPHA
  0
ARC
  5
73E3
  8
ALPHA
 10
1236.930729
 20
64.233363
 30
0.0
 40
54.495095
 50
73.978407
 51
106.021593
  0
POLYLINE
  5
73E4
  8
ALPHA
 66
     1
 10
0.0
 20
0.0
 30
0.0
 70
   128
  0
VERTEX
  5
7B7A
  8
ALPHA
 10
1252.430729
 20
102.014089
 30
0.0
  0
VERTEX
  5
7B7B
  8
ALPHA
 10
1252.210575
 20
102.515048
 30
0.0
  0
VERTEX
  5
7B7C
  8
ALPHA
 10
1251.811342
 20
102.840362
 30
0.0
  0
VERTEX
  5
7B7D
  8
ALPHA
 10
1250.6828
 20
103.231063
 30
0.0
  0
VERTEX
  5
7B7E
  8
ALPHA
 10
1249.289187
 20
103.606102
 30
0.0
  0
VERTEX
  5
7B7F
  8
ALPHA
 10
1245.818869
 20
104.264281
 30
0.0
  0
VERTEX
  5
7B80
  8
ALPHA
 10
1241.624634
 20
104.725066
 30
0.0
  0
VERTEX
  5
7B81
  8
ALPHA
 10
1236.930729
 20
104.898623
 30
0.0
  0
VERTEX
  5
7B82
  8
ALPHA
 10
1232.236815
 20
104.725066
 30
0.0
  0
VERTEX
  5
7B83
  8
ALPHA
 10
1228.04252
 20
104.264281
 30
0.0
  0
VERTEX
  5
7B84
  8
ALPHA
 10
1224.572038
 20
103.606102
 30
0.0
  0
VERTEX
  5
7B85
  8
ALPHA
 10
1223.178289
 20
103.231063
 30
0.0
  0
VERTEX
  5
7B86
  8
ALPHA
 10
1222.049565
 20
102.840362
 30
0.0
  0
VERTEX
  5
7B87
  8
ALPHA
 10
1221.650195
 20
102.515048
 30
0.0
  0
VERTEX
  5
7B88
  8
ALPHA
 10
1221.430729
 20
102.014089
 30
0.0
  0
SEQEND
  5
7B89
  8
ALPHA
  0
LINE
  5
73E5
  8
ALPHA
 10
1236.086315
 20
107.729281
 30
0.0
 11
1234.62453
 21
106.266401
 31
0.0
  0
LINE
  5
73E6
  8
ALPHA
 10
1235.512925
 20
108.302121
 30
0.0
 11
1236.086315
 21
107.729281
 31
0.0
  0
LINE
  5
73E7
  8
ALPHA
 10
1236.357339
 20
109.145437
 30
0.0
 11
1235.512925
 21
108.302121
 31
0.0
  0
LINE
  5
73E8
  8
ALPHA
 10
1236.940625
 20
106.874421
 30
0.0
 11
1235.478291
 21
105.41209
 31
0.0
  0
POLYLINE
  5
73E9
  8
ALPHA
 66
     1
 10
0.0
 20
0.0
 30
0.0
 70
   128
210
0.0
220
0.0
230
-1.0
  0
VERTEX
  5
7B8A
  8
ALPHA
 10
-1245.373778
 20
104.326884
 30
0.0
  0
VERTEX
  5
7B8B
  8
ALPHA
 10
-1244.357085
 20
104.700782
 30
0.0
  0
VERTEX
  5
7B8C
  8
ALPHA
 10
-1243.487588
 20
105.576464
 30
0.0
  0
VERTEX
  5
7B8D
  8
ALPHA
 10
-1240.497158
 20
111.920158
 30
0.0
  0
VERTEX
  5
7B8E
  8
ALPHA
 10
-1239.666589
 20
113.270098
 30
0.0
  0
VERTEX
  5
7B8F
  8
ALPHA
 10
-1238.797205
 20
114.345721
 30
0.0
  0
VERTEX
  5
7B90
  8
ALPHA
 10
-1237.88619
 20
115.057066
 30
0.0
  0
VERTEX
  5
7B91
  8
ALPHA
 10
-1236.930729
 20
115.314173
 30
0.0
  0
VERTEX
  5
7B92
  8
ALPHA
 10
-1235.975107
 20
115.057066
 30
0.0
  0
VERTEX
  5
7B93
  8
ALPHA
 10
-1235.063995
 20
114.345721
 30
0.0
  0
VERTEX
  5
7B94
  8
ALPHA
 10
-1234.194539
 20
113.270098
 30
0.0
  0
VERTEX
  5
7B95
  8
ALPHA
 10
-1233.363887
 20
111.920158
 30
0.0
  0
VERTEX
  5
7B96
  8
ALPHA
 10
-1230.37222
 20
105.576464
 30
0.0
  0
VERTEX
  5
7B97
  8
ALPHA
 10
-1229.503341
 20
104.700782
 30
0.0
  0
VERTEX
  5
7B98
  8
ALPHA
 10
-1228.487679
 20
104.326884
 30
0.0
  0
SEQEND
  5
7B99
  8
ALPHA
  0
CIRCLE
  5
73EA
  8
ALPHA
 10
1236.930729
 20
107.728457
 30
0.0
 40
2.735279
  0
LINE
  5
73EB
  8
AXE
 10
1225.930729
 20
106.578457
 30
0.0
 11
1225.930729
 21
114.878457
 31
0.0
  0
LINE
  5
73EC
  8
AXE
 10
1226.930729
 20
104.578457
 30
0.0
 11
1226.930729
 21
112.878457
 31
0.0
  0
ARC
  5
73ED
  8
ALPHA
 10
1226.930729
 20
108.728457
 30
0.0
 40
2.15
 50
270.0
 51
57.663974
  0
LINE
  5
73EE
  8
ALPHA
 10
1223.780729
 20
110.728457
 30
0.0
 11
1223.780729
 21
108.728457
 31
0.0
  0
LINE
  5
73EF
  8
AXE
 10
1222.780729
 20
108.728457
 30
0.0
 11
1231.080729
 21
108.728457
 31
0.0
  0
ARC
  5
73F0
  8
ALPHA
 10
1225.930729
 20
108.728457
 30
0.0
 40
2.15
 50
180.0
 51
270.0
  0
LINE
  5
73F1
  8
ALPHA
 10
1225.930729
 20
106.578457
 30
0.0
 11
1226.930729
 21
106.578457
 31
0.0
  0
POLYLINE
  5
73F2
  8
ALPHA
 66
     1
 10
0.0
 20
0.0
 30
0.0
 70
   128
210
0.0
220
0.0
230
-1.0
  0
VERTEX
  5
7B9A
  8
ALPHA
 10
-1232.951643
 20
112.66713
 30
0.0
  0
VERTEX
  5
7B9B
  8
ALPHA
 10
-1231.815011
 20
112.850918
 30
0.0
  0
VERTEX
  5
7B9C
  8
ALPHA
 10
-1230.538038
 20
113.323118
 30
0.0
  0
VERTEX
  5
7B9D
  8
ALPHA
 10
-1229.34899
 20
113.964985
 30
0.0
  0
VERTEX
  5
7B9E
  8
ALPHA
 10
-1228.476134
 20
114.657772
 30
0.0
  0
SEQEND
  5
7B9F
  8
ALPHA
  0
POLYLINE
  5
73F3
  8
ALPHA
 66
     1
 10
0.0
 20
0.0
 30
0.0
 70
   128
  0
VERTEX
  5
7BA0
  8
ALPHA
 10
1233.801221
 20
112.66713
 30
0.0
  0
VERTEX
  5
7BA1
  8
ALPHA
 10
1233.196624
 20
112.66713
 30
0.0
  0
VERTEX
  5
7BA2
  8
ALPHA
 10
1232.951643
 20
112.66713
 30
0.0
  0
SEQEND
  5
7BA3
  8
ALPHA
  0
POLYLINE
  5
73F4
  8
ALPHA
 66
     1
 10
0.0
 20
0.0
 30
0.0
 70
   128
  0
VERTEX
  5
7BA4
  8
ALPHA
 10
1228.476134
 20
114.657772
 30
0.0
  0
VERTEX
  5
7BA5
  8
ALPHA
 10
1228.476134
 20
114.968467
 30
0.0
  0
VERTEX
  5
7BA6
  8
ALPHA
 10
1228.476134
 20
115.651994
 30
0.0
  0
VERTEX
  5
7BA7
  8
ALPHA
 10
1228.476134
 20
116.335521
 30
0.0
  0
VERTEX
  5
7BA8
  8
ALPHA
 10
1228.476134
 20
116.646215
 30
0.0
  0
SEQEND
  5
7BA9
  8
ALPHA
  0
ARC
  5
73F5
  8
ALPHA
 10
1222.030729
 20
116.028457
 30
0.0
 40
0.6
 50
103.554708
 51
180.0
  0
LINE
  5
73F6
  8
ALPHA
 10
1226.487141
 20
116.646216
 30
0.0
 11
1228.46184
 21
116.646216
 31
0.0
  0
LINE
  5
73F7
  8
ALPHA
 10
1228.442599
 20
116.059633
 30
0.0
 11
1226.51298
 21
116.059633
 31
0.0
  0
ARC
  5
73F8
  8
ALPHA
 10
1225.930729
 20
110.728457
 30
0.0
 40
2.15
 50
0.0
 51
180.0
  0
LINE
  5
73F9
  8
AXE
 10
1221.780729
 20
110.728457
 30
0.0
 11
1230.080729
 21
110.728457
 31
0.0
  0
LINE
  5
73FA
  8
ALPHA
 10
1228.080729
 20
110.728457
 30
0.0
 11
1228.080729
 21
110.545047
 31
0.0
  0
LINE
  5
73FB
  8
ALPHA
 10
1228.46184
 20
114.656673
 30
0.0
 11
1226.487141
 21
114.656673
 31
0.0
  0
LINE
  5
73FC
  8
ALPHA
 10
1226.487141
 20
114.656673
 30
0.0
 11
1226.487141
 21
116.646216
 31
0.0
  0
LINE
  5
73FD
  8
ALPHA
 10
1228.46184
 20
116.646216
 30
0.0
 11
1228.46184
 21
114.656673
 31
0.0
  0
LINE
  5
73FE
  8
ALPHA
 10
1250.080729
 20
110.728457
 30
0.0
 11
1250.080729
 21
108.728457
 31
0.0
  0
LINE
  5
73FF
  8
AXE
 10
1247.930729
 20
106.578457
 30
0.0
 11
1247.930729
 21
114.878457
 31
0.0
  0
LINE
  5
7400
  8
AXE
 10
1246.930729
 20
104.578457
 30
0.0
 11
1246.930729
 21
112.878457
 31
0.0
  0
LINE
  5
7401
  8
ALPHA
 10
1238.387564
 20
110.030533
 30
0.0
 11
1236.930729
 21
108.573698
 31
0.0
  0
ARC
  5
7402
  8
ALPHA
 10
1246.930729
 20
108.728457
 30
0.0
 40
2.15
 50
122.336026
 51
270.0
  0
LINE
  5
7403
  8
ALPHA
 10
1247.930729
 20
106.578457
 30
0.0
 11
1246.930729
 21
106.578457
 31
0.0
  0
ARC
  5
7404
  8
ALPHA
 10
1247.930729
 20
108.728457
 30
0.0
 40
2.15
 50
270.0
 51
0.0
  0
LINE
  5
7405
  8
ALPHA
 10
1237.514012
 20
106.301584
 30
0.0
 11
1236.940625
 21
106.874421
 31
0.0
  0
LINE
  5
7406
  8
ALPHA
 10
1236.930729
 20
108.573698
 30
0.0
 11
1236.357339
 21
109.145437
 31
0.0
  0
LINE
  5
7407
  8
ALPHA
 10
1238.358429
 20
107.145998
 30
0.0
 11
1237.514012
 21
106.301584
 31
0.0
  0
LINE
  5
7408
  8
ALPHA
 10
1237.785039
 20
107.717737
 30
0.0
 11
1238.358429
 21
107.145998
 31
0.0
  0
LINE
  5
7409
  8
ALPHA
 10
1239.241874
 20
109.175673
 30
0.0
 11
1237.785039
 21
107.717737
 31
0.0
  0
LINE
  5
740A
  8
AXE
 10
1251.080729
 20
108.728457
 30
0.0
 11
1242.780729
 21
108.728457
 31
0.0
  0
ARC
  5
740B
  8
ALPHA
 10
1251.830729
 20
116.028457
 30
0.0
 40
0.6
 50
0.0
 51
76.445292
  0
POLYLINE
  5
740C
  8
ALPHA
 66
     1
 10
0.0
 20
0.0
 30
0.0
 70
   128
  0
VERTEX
  5
7BAA
  8
ALPHA
 10
1245.399616
 20
116.646215
 30
0.0
  0
VERTEX
  5
7BAB
  8
ALPHA
 10
1245.399616
 20
116.335521
 30
0.0
  0
VERTEX
  5
7BAC
  8
ALPHA
 10
1245.399616
 20
115.651994
 30
0.0
  0
VERTEX
  5
7BAD
  8
ALPHA
 10
1245.399616
 20
114.968467
 30
0.0
  0
VERTEX
  5
7BAE
  8
ALPHA
 10
1245.399616
 20
114.657772
 30
0.0
  0
VERTEX
  5
7BAF
  8
ALPHA
 10
1244.527147
 20
113.964985
 30
0.0
  0
VERTEX
  5
7BB0
  8
ALPHA
 10
1243.338331
 20
113.323118
 30
0.0
  0
VERTEX
  5
7BB1
  8
ALPHA
 10
1242.061281
 20
112.850918
 30
0.0
  0
VERTEX
  5
7BB2
  8
ALPHA
 10
1240.924107
 20
112.66713
 30
0.0
  0
SEQEND
  5
7BB3
  8
ALPHA
  0
POLYLINE
  5
740D
  8
ALPHA
 66
     1
 10
0.0
 20
0.0
 30
0.0
 70
   128
  0
VERTEX
  5
7BB4
  8
ALPHA
 10
1240.924107
 20
112.66713
 30
0.0
  0
VERTEX
  5
7BB5
  8
ALPHA
 10
1240.674597
 20
112.66713
 30
0.0
  0
VERTEX
  5
7BB6
  8
ALPHA
 10
1240.059873
 20
112.66713
 30
0.0
  0
SEQEND
  5
7BB7
  8
ALPHA
  0
LINE
  5
740E
  8
AXE
 10
1252.080729
 20
110.728457
 30
0.0
 11
1243.780729
 21
110.728457
 31
0.0
  0
LINE
  5
740F
  8
ALPHA
 10
1247.374316
 20
114.657771
 30
0.0
 11
1247.374316
 21
116.647314
 31
0.0
  0
LINE
  5
7410
  8
ALPHA
 10
1245.780729
 20
110.728457
 30
0.0
 11
1245.780729
 21
110.545047
 31
0.0
  0
LINE
  5
7411
  8
ALPHA
 10
1245.399617
 20
116.647314
 30
0.0
 11
1245.399617
 21
114.657771
 31
0.0
  0
LINE
  5
7412
  8
ALPHA
 10
1247.374316
 20
116.647314
 30
0.0
 11
1245.399617
 21
116.647314
 31
0.0
  0
LINE
  5
7413
  8
ALPHA
 10
1245.417757
 20
116.059633
 30
0.0
 11
1247.348477
 21
116.059633
 31
0.0
  0
LINE
  5
7414
  8
ALPHA
 10
1245.399617
 20
114.657771
 30
0.0
 11
1247.374316
 21
114.657771
 31
0.0
  0
ARC
  5
7415
  8
ALPHA
 10
1247.930729
 20
110.728457
 30
0.0
 40
2.15
 50
0.0
 51
180.0
  0
VIEWPORT
  5
494D
 67
     1
  8
0
 10
4.995325
 20
6.556512
 30
0.0
 40
22.70986
 41
13.988421
 68
    -1
 69
     1
1001
ACAD
1000
MVIEW
1002
{
1070
    16
1010
0.0
1020
0.0
1030
0.0
1010
0.0
1020
0.0
1030
1.0
1040
0.0
1040
13.988421
1040
4.995325
1040
6.556512
1040
50.0
1040
0.0
1040
0.0
1070
     0
1070
   100
1070
     1
1070
     1
1070
     0
1070
     0
1070
     0
1070
     0
1040
0.0
1040
0.0
1040
0.0
1040
10.0
1040
10.0
1040
10.0
1040
10.0
1070
     0
1002
{
1002
}
1002
}
  0
ENDSEC
  0
EOF
