  0
SECTION
  2
HEADER
  9
$ACADVER
  1
AC1009
  9
$INSBASE
 10
402.590624
 20
-1.041018
 30
0.0
  9
$EXTMIN
 10
1183.836282
 20
1.228457
 30
0.0
  9
$EXTMAX
 10
1302.252157
 20
190.728457
 30
0.0
  9
$LIMMIN
 10
-407.970438
 20
-367.832444
  9
$LIMMAX
 10
429.804077
 20
234.370848
  9
$ORTHOMODE
 70
     1
  9
$REGENMODE
 70
     1
  9
$FILLMODE
 70
     1
  9
$QTEXTMODE
 70
     0
  9
$MIRRTEXT
 70
     1
  9
$DRAGMODE
 70
     2
  9
$LTSCALE
 40
10.0
  9
$OSMODE
 70
    33
  9
$ATTMODE
 70
     1
  9
$TEXTSIZE
 40
6.0
  9
$TRACEWID
 40
1.0
  9
$TEXTSTYLE
  7
ROMANS
  9
$CLAYER
  8
ALPHA
  9
$CELTYPE
  6
BYLAYER
  9
$CECOLOR
 62
   256
  9
$DIMSCALE
 40
1.0
  9
$DIMASZ
 40
5.0
  9
$DIMEXO
 40
2.0
  9
$DIMDLI
 40
0.38
  9
$DIMRND
 40
0.0
  9
$DIMDLE
 40
0.0
  9
$DIMEXE
 40
2.5
  9
$DIMTP
 40
0.0
  9
$DIMTM
 40
0.0
  9
$DIMTXT
 40
2.5
  9
$DIMCEN
 40
0.0
  9
$DIMTSZ
 40
0.0
  9
$DIMTOL
 70
     0
  9
$DIMLIM
 70
     0
  9
$DIMTIH
 70
     1
  9
$DIMTOH
 70
     1
  9
$DIMSE1
 70
     0
  9
$DIMSE2
 70
     0
  9
$DIMTAD
 70
     1
  9
$DIMZIN
 70
    12
  9
$DIMBLK
  1
OPEN30
  9
$DIMASO
 70
     1
  9
$DIMSHO
 70
     1
  9
$DIMPOST
  1

  9
$DIMAPOST
  1

  9
$DIMALT
 70
     0
  9
$DIMALTD
 70
     2
  9
$DIMALTF
 40
25.4
  9
$DIMLFAC
 40
1.0
  9
$DIMTOFL
 70
     0
  9
$DIMTVP
 40
0.0
  9
$DIMTIX
 70
     0
  9
$DIMSOXD
 70
     0
  9
$DIMSAH
 70
     0
  9
$DIMBLK1
  1

  9
$DIMBLK2
  1

  9
$DIMSTYLE
  2
SC_DEFAUT
  9
$DIMCLRD
 70
     0
  9
$DIMCLRE
 70
     0
  9
$DIMCLRT
 70
     0
  9
$DIMTFAC
 40
1.0
  9
$DIMGAP
 40
2.0
  9
$LUNITS
 70
     2
  9
$LUPREC
 70
     1
  9
$SKETCHINC
 40
0.1
  9
$FILLETRAD
 40
0.0
  9
$AUNITS
 70
     0
  9
$AUPREC
 70
     0
  9
$MENU
  1
acad
  9
$ELEVATION
 40
0.0
  9
$PELEVATION
 40
0.0
  9
$THICKNESS
 40
0.0
  9
$LIMCHECK
 70
     0
  9
$BLIPMODE
 70
     0
  9
$CHAMFERA
 40
0.0
  9
$CHAMFERB
 40
0.0
  9
$SKPOLY
 70
     0
  9
$TDCREATE
 40
2450373.687919
  9
$TDUPDATE
 40
2452823.421653
  9
$TDINDWG
 40
0.832085
  9
$TDUSRTIMER
 40
0.832085
  9
$USRTIMER
 70
     1
  9
$ANGBASE
 50
0.0
  9
$ANGDIR
 70
     0
  9
$PDMODE
 70
    32
  9
$PDSIZE
 40
0.0
  9
$PLINEWID
 40
0.0
  9
$COORDS
 70
     1
  9
$SPLFRAME
 70
     0
  9
$SPLINETYPE
 70
     6
  9
$SPLINESEGS
 70
     8
  9
$ATTDIA
 70
     0
  9
$ATTREQ
 70
     1
  9
$HANDLING
 70
     1
  9
$HANDSEED
  5
7850
  9
$SURFTAB1
 70
     6
  9
$SURFTAB2
 70
     6
  9
$SURFTYPE
 70
     6
  9
$SURFU
 70
     6
  9
$SURFV
 70
     6
  9
$UCSNAME
  2

  9
$UCSORG
 10
0.0
 20
0.0
 30
0.0
  9
$UCSXDIR
 10
1.0
 20
0.0
 30
0.0
  9
$UCSYDIR
 10
0.0
 20
1.0
 30
0.0
  9
$PUCSNAME
  2

  9
$PUCSORG
 10
0.0
 20
0.0
 30
0.0
  9
$PUCSXDIR
 10
1.0
 20
0.0
 30
0.0
  9
$PUCSYDIR
 10
0.0
 20
1.0
 30
0.0
  9
$USERI1
 70
     0
  9
$USERI2
 70
     0
  9
$USERI3
 70
     0
  9
$USERI4
 70
     0
  9
$USERI5
 70
     0
  9
$USERR1
 40
0.0
  9
$USERR2
 40
0.0
  9
$USERR3
 40
0.0
  9
$USERR4
 40
0.0
  9
$USERR5
 40
0.0
  9
$WORLDVIEW
 70
     1
  9
$SHADEDGE
 70
     3
  9
$SHADEDIF
 70
    70
  9
$TILEMODE
 70
     1
  9
$MAXACTVP
 70
    16
  9
$PLIMCHECK
 70
     0
  9
$PEXTMIN
 10
-1.452248
 20
-0.437698
 30
0.0
  9
$PEXTMAX
 10
12.749749
 20
8.310198
 30
0.0
  9
$PLIMMIN
 10
0.0
 20
0.0
  9
$PLIMMAX
 10
12.0
 20
9.0
  9
$UNITMODE
 70
     0
  9
$VISRETAIN
 70
     0
  9
$PLINEGEN
 70
     0
  9
$PSLTSCALE
 70
     0
  0
ENDSEC
  0
SECTION
  2
TABLES
  0
TABLE
  2
VPORT
 70
     2
  0
VPORT
  2
*ACTIVE
 70
     0
 10
0.0
 20
0.0
 11
1.0
 21
1.0
 12
1243.045683
 22
95.981526
 13
0.0
 23
0.0
 14
1.0
 24
1.0
 15
10.0
 25
10.0
 16
0.0
 26
0.0
 36
1.0
 17
0.0
 27
0.0
 37
0.0
 40
191.143065
 41
1.56
 42
50.0
 43
0.0
 44
0.0
 50
0.0
 51
0.0
 71
     0
 72
   100
 73
     1
 74
     0
 75
     0
 76
     0
 77
     0
 78
     0
  0
ENDTAB
  0
TABLE
  2
LTYPE
 70
     3
  0
LTYPE
  2
CONTINUOUS
 70
     0
  3
Solid line
 72
    65
 73
     0
 40
0.0
  0
LTYPE
  2
AXES2
 70
     0
  3
___ _ ___ _ ___ _ ___ _ ___ _ ___ _ ___ _ ___ _
 72
    65
 73
     4
 40
1.125
 49
0.75
 49
-0.125
 49
0.125
 49
-0.125
  0
LTYPE
  2
CACHE2
 70
     0
  3
Caché (x.5) _ _ _ _ _ _ _ _ _ _ _ _ _ _ _ _ _
 72
    65
 73
     2
 40
0.1875
 49
0.125
 49
-0.0625
  0
ENDTAB
  0
TABLE
  2
LAYER
 70
     7
  0
LAYER
  2
0
 70
     0
 62
   255
  6
CONTINUOUS
  0
LAYER
  2
COTATION1
 70
     0
 62
     2
  6
CONTINUOUS
  0
LAYER
  2
AXE
 70
     0
 62
    80
  6
AXES2
  0
LAYER
  2
DEFPOINTS
 70
     0
 62
     7
  6
CONTINUOUS
  0
LAYER
  2
ALPHA
 70
     0
 62
   254
  6
CONTINUOUS
  0
LAYER
  2
POINTILLE_COURT
 70
     0
 62
    41
  6
CACHE2
  0
LAYER
  2
ALPHA_FIN
 70
     0
 62
   255
  6
CONTINUOUS
  0
ENDTAB
  0
TABLE
  2
STYLE
 70
     2
  0
STYLE
  2
ROMANS
 70
     0
 40
0.0
 41
1.0
 50
0.0
 71
     0
 42
6.0
  3
romans
  4

  0
STYLE
  2
STANDARD
 70
     0
 40
0.2
 41
1.0
 50
0.0
 71
     0
 42
0.2
  3
txt
  4

  0
ENDTAB
  0
TABLE
  2
VIEW
 70
     0
  0
ENDTAB
  0
TABLE
  2
UCS
 70
     0
  0
ENDTAB
  0
TABLE
  2
APPID
 70
     1
  0
APPID
  2
ACAD
 70
     0
  0
ENDTAB
  0
TABLE
  2
DIMSTYLE
 70
     1
  0
DIMSTYLE
  2
SC_DEFAUT
 70
     0
  3

  4

  5
OPEN30
  6

  7

 40
1.0
 41
5.0
 42
2.0
 43
0.38
 44
2.5
 45
0.0
 46
0.0
 47
0.0
 48
0.0
140
2.5
141
0.0
142
0.0
143
25.4
144
1.0
145
0.0
146
1.0
147
2.0
 71
     0
 72
     0
 73
     1
 74
     1
 75
     0
 76
     0
 77
     1
 78
    12
170
     0
171
     2
172
     0
173
     0
174
     0
175
     0
176
     0
177
     0
178
     0
  0
ENDTAB
  0
ENDSEC
  0
SECTION
  2
BLOCKS
  0
BLOCK
  8
0
  2
$MODEL_SPACE
 70
     0
 10
0.0
 20
0.0
 30
0.0
  3
$MODEL_SPACE
  1

  0
ENDBLK
  5
77DB
  8
0
  0
BLOCK
 67
     1
  8
0
  2
$PAPER_SPACE
 70
     0
 10
0.0
 20
0.0
 30
0.0
  3
$PAPER_SPACE
  1

  0
ENDBLK
  5
77D9
 67
     1
  8
0
  0
BLOCK
  8
0
  2
COTE
 70
     0
 10
0.0
 20
0.0
 30
0.0
  3
COTE
  1

  0
ENDBLK
  5
F
  8
0
  0
BLOCK
  8
0
  2
FOND
 70
     0
 10
0.0
 20
0.0
 30
0.0
  3
FOND
  1

  0
ENDBLK
  5
75
  8
0
  0
BLOCK
  8
0
  2
_OPEN30
 70
     0
 10
0.0
 20
0.0
 30
0.0
  3
_OPEN30
  1

  0
LINE
  5
4B05
  8
COTATION1
 62
     0
 10
-1.0
 20
0.267949
 30
0.0
 11
0.0
 21
0.0
 31
0.0
1001
ACAD
1000
RTLwPs
1070
   158
  0
LINE
  5
4B06
  8
COTATION1
 62
     0
 10
0.0
 20
0.0
 30
0.0
 11
-1.0
 21
-0.267949
 31
0.0
1001
ACAD
1000
RTLwPs
1070
   158
  0
LINE
  5
4B07
  8
COTATION1
 62
     0
 10
0.0
 20
0.0
 30
0.0
 11
-1.0
 21
0.0
 31
0.0
1001
ACAD
1000
RTLwPs
1070
   158
  0
ENDBLK
  5
4B09
  8
0
  0
BLOCK
  8
0
  2
*D3
 70
     1
 10
0.0
 20
0.0
 30
0.0
  3
*D3
  1

  0
LINE
  5
75C0
  8
COTATION1
 62
     0
 10
1225.930729
 20
116.878457
 30
0.0
 11
1225.930729
 21
188.728457
 31
0.0
1001
ACAD
1000
RTLwPs
1070
   158
  0
LINE
  5
75C1
  8
COTATION1
 62
     0
 10
1247.930729
 20
116.657771
 30
0.0
 11
1247.930729
 21
188.728457
 31
0.0
1001
ACAD
1000
RTLwPs
1070
   158
  0
LINE
  5
75C2
  8
COTATION1
 62
     0
 10
1230.930729
 20
186.228457
 30
0.0
 11
1242.930729
 21
186.228457
 31
0.0
1001
ACAD
1000
RTLwPs
1070
   158
  0
INSERT
  5
75C3
  8
COTATION1
 62
     0
  2
_OPEN30
 10
1225.930729
 20
186.228457
 30
0.0
 41
5.0
 42
5.0
 43
5.0
 50
180.0
1001
ACAD
1000
RTLwPs
1070
   158
  0
INSERT
  5
75C4
  8
COTATION1
 62
     0
  2
_OPEN30
 10
1247.930729
 20
186.228457
 30
0.0
 41
5.0
 42
5.0
 43
5.0
1001
ACAD
1000
RTLwPs
1070
   158
  0
TEXT
  5
75C5
  8
COTATION1
 62
     0
 10
1234.549776
 20
188.228457
 30
0.0
 40
2.5
  1
22
1001
ACAD
1000
MTEXTBEGIN
1070
    73
1070
     1
1070
    44
1040
1.0
1070
    74
1070
     0
1000
MTEXTEND
1000
MTEXTBEGIN
1070
    73
1070
     1
1070
    44
1040
1.0
1070
    74
1070
     0
1000
MTEXTEND
  0
POINT
  5
75C6
  8
DEFPOINTS
 62
     0
 10
1225.930729
 20
114.878457
 30
0.0
  0
POINT
  5
75C7
  8
DEFPOINTS
 62
     0
 10
1247.930729
 20
114.657771
 30
0.0
  0
POINT
  5
75C8
  8
DEFPOINTS
 62
     0
 10
1247.930729
 20
186.228457
 30
0.0
  0
ENDBLK
  5
729B
  8
0
  0
BLOCK
  8
0
  2
*D4
 70
     1
 10
0.0
 20
0.0
 30
0.0
  3
*D4
  1

  0
LINE
  5
75C9
  8
COTATION1
 62
     0
 10
1226.930729
 20
114.878457
 30
0.0
 11
1226.930729
 21
178.728457
 31
0.0
1001
ACAD
1000
RTLwPs
1070
   158
  0
LINE
  5
75CA
  8
COTATION1
 62
     0
 10
1246.930729
 20
114.878457
 30
0.0
 11
1246.930729
 21
178.728457
 31
0.0
1001
ACAD
1000
RTLwPs
1070
   158
  0
LINE
  5
75CB
  8
COTATION1
 62
     0
 10
1231.930729
 20
176.228457
 30
0.0
 11
1241.930729
 21
176.228457
 31
0.0
1001
ACAD
1000
RTLwPs
1070
   158
  0
INSERT
  5
75CC
  8
COTATION1
 62
     0
  2
_OPEN30
 10
1226.930729
 20
176.228457
 30
0.0
 41
5.0
 42
5.0
 43
5.0
 50
180.0
1001
ACAD
1000
RTLwPs
1070
   158
  0
INSERT
  5
75CD
  8
COTATION1
 62
     0
  2
_OPEN30
 10
1246.930729
 20
176.228457
 30
0.0
 41
5.0
 42
5.0
 43
5.0
1001
ACAD
1000
RTLwPs
1070
   158
  0
TEXT
  5
75CE
  8
COTATION1
 62
     0
 10
1234.549776
 20
178.228457
 30
0.0
 40
2.5
  1
20
1001
ACAD
1000
MTEXTBEGIN
1070
    73
1070
     1
1070
    44
1040
1.0
1070
    74
1070
     0
1000
MTEXTEND
1000
MTEXTBEGIN
1070
    73
1070
     1
1070
    44
1040
1.0
1070
    74
1070
     0
1000
MTEXTEND
  0
POINT
  5
75CF
  8
DEFPOINTS
 62
     0
 10
1226.930729
 20
112.878457
 30
0.0
  0
POINT
  5
75D0
  8
DEFPOINTS
 62
     0
 10
1246.930729
 20
112.878457
 30
0.0
  0
POINT
  5
75D1
  8
DEFPOINTS
 62
     0
 10
1246.930729
 20
176.228457
 30
0.0
  0
ENDBLK
  5
72A7
  8
0
  0
BLOCK
  8
0
  2
*D5
 70
     1
 10
0.0
 20
0.0
 30
0.0
  3
*D5
  1

  0
LINE
  5
7669
  8
COTATION1
 62
     0
 10
1251.918564
 20
116.663074
 30
0.0
 11
1261.252795
 21
130.55409
 31
0.0
1001
ACAD
1000
RTLwPs
1070
   158
  0
LINE
  5
766A
  8
COTATION1
 62
     0
 10
1261.252795
 20
130.55409
 30
0.0
 11
1283.133747
 21
130.55409
 31
0.0
1001
ACAD
1000
RTLwPs
1070
   158
  0
INSERT
  5
766B
  8
COTATION1
 62
     0
  2
_OPEN30
 10
1249.129868
 20
112.512992
 30
0.0
 41
5.0
 42
5.0
 43
5.0
 50
236.10041
1001
ACAD
1000
RTLwPs
1070
   158
  0
TEXT
  5
766C
  8
COTATION1
 62
     0
 10
1262.895652
 20
132.55409
 30
0.0
 40
2.5
  1
2x%%c4.3x6.3
1001
ACAD
1000
MTEXTBEGIN
1070
    73
1070
     1
1070
    44
1040
1.0
1070
    74
1070
     0
1000
MTEXTEND
1000
MTEXTBEGIN
1070
    73
1070
     1
1070
    44
1040
1.0
1070
    74
1070
     0
1000
MTEXTEND
  0
POINT
  5
766D
  8
DEFPOINTS
 62
     0
 10
1249.129868
 20
112.512992
 30
0.0
  0
POINT
  5
766E
  8
DEFPOINTS
 62
     0
 10
1246.731589
 20
108.943922
 30
0.0
  0
ENDBLK
  5
7473
  8
0
  0
BLOCK
  8
0
  2
*D6
 70
     1
 10
0.0
 20
0.0
 30
0.0
  3
*D6
  1

  0
LINE
  5
7719
  8
COTATION1
 62
     0
 10
1238.930729
 20
118.728457
 30
0.0
 11
1289.930729
 21
118.728457
 31
0.0
  0
LINE
  5
771A
  8
COTATION1
 62
     0
 10
1253.080729
 20
108.728457
 30
0.0
 11
1289.930729
 21
108.728457
 31
0.0
  0
LINE
  5
771B
  8
COTATION1
 62
     0
 10
1287.430729
 20
123.728457
 30
0.0
 11
1287.430729
 21
128.728457
 31
0.0
  0
LINE
  5
771C
  8
COTATION1
 62
     0
 10
1287.430729
 20
103.728457
 30
0.0
 11
1287.430729
 21
98.728457
 31
0.0
  0
TEXT
  5
771D
  8
COTATION1
 62
     0
 10
1284.871205
 20
112.478457
 30
0.0
 40
2.5
  1
10
  0
INSERT
  5
771E
  8
COTATION1
 62
     0
  2
_OPEN30
 10
1287.430729
 20
118.728457
 30
0.0
 41
5.0
 42
5.0
 43
5.0
 50
270.0
  0
INSERT
  5
771F
  8
COTATION1
 62
     0
  2
_OPEN30
 10
1287.430729
 20
108.728457
 30
0.0
 41
5.0
 42
5.0
 43
5.0
 50
90.0
  0
POINT
  5
7720
  8
DEFPOINTS
 62
     0
 10
1236.930729
 20
118.728457
 30
0.0
  0
POINT
  5
7721
  8
DEFPOINTS
 62
     0
 10
1251.080729
 20
108.728457
 30
0.0
  0
POINT
  5
7722
  8
DEFPOINTS
 62
     0
 10
1287.430729
 20
108.728457
 30
0.0
  0
ENDBLK
  5
7480
  8
0
  0
BLOCK
  8
0
  2
*D7
 70
     1
 10
0.0
 20
0.0
 30
0.0
  3
*D7
  1

  0
LINE
  5
767F
  8
COTATION1
 62
     0
 10
1238.930729
 20
161.228457
 30
0.0
 11
1299.930729
 21
161.228457
 31
0.0
1001
ACAD
1000
RTLwPs
1070
   158
  0
LINE
  5
7680
  8
COTATION1
 62
     0
 10
1243.198678
 20
41.728457
 30
0.0
 11
1299.930729
 21
41.728457
 31
0.0
1001
ACAD
1000
RTLwPs
1070
   158
  0
LINE
  5
7681
  8
COTATION1
 62
     0
 10
1297.430729
 20
156.228457
 30
0.0
 11
1297.430729
 21
104.728457
 31
0.0
1001
ACAD
1000
RTLwPs
1070
   158
  0
LINE
  5
7682
  8
COTATION1
 62
     0
 10
1297.430729
 20
46.728457
 30
0.0
 11
1297.430729
 21
98.228457
 31
0.0
1001
ACAD
1000
RTLwPs
1070
   158
  0
INSERT
  5
7683
  8
COTATION1
 62
     0
  2
_OPEN30
 10
1297.430729
 20
161.228457
 30
0.0
 41
5.0
 42
5.0
 43
5.0
 50
90.0
1001
ACAD
1000
RTLwPs
1070
   158
  0
INSERT
  5
7684
  8
COTATION1
 62
     0
  2
_OPEN30
 10
1297.430729
 20
41.728457
 30
0.0
 41
5.0
 42
5.0
 43
5.0
 50
270.0
1001
ACAD
1000
RTLwPs
1070
   158
  0
TEXT
  5
7685
  8
COTATION1
 62
     0
 10
1291.895014
 20
100.228457
 30
0.0
 40
2.5
  1
119.5
1001
ACAD
1000
MTEXTBEGIN
1070
    73
1070
     1
1070
    44
1040
1.0
1070
    74
1070
     0
1000
MTEXTEND
1000
MTEXTBEGIN
1070
    73
1070
     1
1070
    44
1040
1.0
1070
    74
1070
     0
1000
MTEXTEND
  0
POINT
  5
7686
  8
DEFPOINTS
 62
     0
 10
1236.930729
 20
161.228457
 30
0.0
  0
POINT
  5
7687
  8
DEFPOINTS
 62
     0
 10
1241.198678
 20
41.728457
 30
0.0
  0
POINT
  5
7688
  8
DEFPOINTS
 62
     0
 10
1297.430729
 20
41.728457
 30
0.0
  0
ENDBLK
  5
748D
  8
0
  0
BLOCK
  8
0
  2
*D8
 70
     1
 10
0.0
 20
0.0
 30
0.0
  3
*D8
  1

  0
LINE
  5
763D
  8
COTATION1
 62
     0
 10
1221.430729
 20
51.728457
 30
0.0
 11
1221.430729
 21
1.228457
 31
0.0
1001
ACAD
1000
RTLwPs
1070
   158
  0
LINE
  5
763E
  8
COTATION1
 62
     0
 10
1252.430729
 20
51.728457
 30
0.0
 11
1252.430729
 21
1.228457
 31
0.0
1001
ACAD
1000
RTLwPs
1070
   158
  0
LINE
  5
763F
  8
COTATION1
 62
     0
 10
1226.430729
 20
3.728457
 30
0.0
 11
1247.430729
 21
3.728457
 31
0.0
1001
ACAD
1000
RTLwPs
1070
   158
  0
INSERT
  5
7640
  8
COTATION1
 62
     0
  2
_OPEN30
 10
1221.430729
 20
3.728457
 30
0.0
 41
5.0
 42
5.0
 43
5.0
 50
180.0
1001
ACAD
1000
RTLwPs
1070
   158
  0
INSERT
  5
7641
  8
COTATION1
 62
     0
  2
_OPEN30
 10
1252.430729
 20
3.728457
 30
0.0
 41
5.0
 42
5.0
 43
5.0
1001
ACAD
1000
RTLwPs
1070
   158
  0
TEXT
  5
7642
  8
COTATION1
 62
     0
 10
1234.906919
 20
5.728457
 30
0.0
 40
2.5
  1
31
1001
ACAD
1000
MTEXTBEGIN
1070
    73
1070
     1
1070
    44
1040
1.0
1070
    74
1070
     0
1000
MTEXTEND
1000
MTEXTBEGIN
1070
    73
1070
     1
1070
    44
1040
1.0
1070
    74
1070
     0
1000
MTEXTEND
  0
POINT
  5
7643
  8
DEFPOINTS
 62
     0
 10
1221.430729
 20
53.728457
 30
0.0
  0
POINT
  5
7644
  8
DEFPOINTS
 62
     0
 10
1252.430729
 20
53.728457
 30
0.0
  0
POINT
  5
7645
  8
DEFPOINTS
 62
     0
 10
1252.430729
 20
3.728457
 30
0.0
  0
ENDBLK
  5
7499
  8
0
  0
BLOCK
  8
0
  2
*D9
 70
     1
 10
0.0
 20
0.0
 30
0.0
  3
*D9
  1

  0
LINE
  5
7646
  8
COTATION1
 62
     0
 10
1227.430729
 20
51.228457
 30
0.0
 11
1227.430729
 21
11.228457
 31
0.0
1001
ACAD
1000
RTLwPs
1070
   158
  0
LINE
  5
7647
  8
COTATION1
 62
     0
 10
1246.430729
 20
51.228457
 30
0.0
 11
1246.430729
 21
11.228457
 31
0.0
1001
ACAD
1000
RTLwPs
1070
   158
  0
LINE
  5
7648
  8
COTATION1
 62
     0
 10
1232.430729
 20
13.728457
 30
0.0
 11
1241.430729
 21
13.728457
 31
0.0
1001
ACAD
1000
RTLwPs
1070
   158
  0
INSERT
  5
7649
  8
COTATION1
 62
     0
  2
_OPEN30
 10
1227.430729
 20
13.728457
 30
0.0
 41
5.0
 42
5.0
 43
5.0
 50
180.0
1001
ACAD
1000
RTLwPs
1070
   158
  0
INSERT
  5
764A
  8
COTATION1
 62
     0
  2
_OPEN30
 10
1246.430729
 20
13.728457
 30
0.0
 41
5.0
 42
5.0
 43
5.0
1001
ACAD
1000
RTLwPs
1070
   158
  0
TEXT
  5
764B
  8
COTATION1
 62
     0
 10
1234.430729
 20
15.728457
 30
0.0
 40
2.5
  1
19
1001
ACAD
1000
MTEXTBEGIN
1070
    73
1070
     1
1070
    44
1040
1.0
1070
    74
1070
     0
1000
MTEXTEND
1000
MTEXTBEGIN
1070
    73
1070
     1
1070
    44
1040
1.0
1070
    74
1070
     0
1000
MTEXTEND
  0
POINT
  5
764C
  8
DEFPOINTS
 62
     0
 10
1227.430729
 20
53.228457
 30
0.0
  0
POINT
  5
764D
  8
DEFPOINTS
 62
     0
 10
1246.430729
 20
53.228457
 30
0.0
  0
POINT
  5
764E
  8
DEFPOINTS
 62
     0
 10
1246.430729
 20
13.728457
 30
0.0
  0
ENDBLK
  5
74A5
  8
0
  0
BLOCK
  8
0
  2
*D10
 70
     1
 10
0.0
 20
0.0
 30
0.0
  3
*D10
  1

  0
LINE
  5
7629
  8
COTATION1
 62
     0
 10
1253.080729
 20
108.728457
 30
0.0
 11
1289.930729
 21
108.728457
 31
0.0
1001
ACAD
1000
RTLwPs
1070
   158
  0
LINE
  5
762A
  8
COTATION1
 62
     0
 10
1252.930729
 20
57.728457
 30
0.0
 11
1289.930729
 21
57.728457
 31
0.0
1001
ACAD
1000
RTLwPs
1070
   158
  0
LINE
  5
762B
  8
COTATION1
 62
     0
 10
1287.430729
 20
103.728457
 30
0.0
 11
1287.430729
 21
86.478457
 31
0.0
1001
ACAD
1000
RTLwPs
1070
   158
  0
LINE
  5
762C
  8
COTATION1
 62
     0
 10
1287.430729
 20
62.728457
 30
0.0
 11
1287.430729
 21
79.978457
 31
0.0
1001
ACAD
1000
RTLwPs
1070
   158
  0
INSERT
  5
762D
  8
COTATION1
 62
     0
  2
_OPEN30
 10
1287.430729
 20
108.728457
 30
0.0
 41
5.0
 42
5.0
 43
5.0
 50
90.0
1001
ACAD
1000
RTLwPs
1070
   158
  0
INSERT
  5
762E
  8
COTATION1
 62
     0
  2
_OPEN30
 10
1287.430729
 20
57.728457
 30
0.0
 41
5.0
 42
5.0
 43
5.0
 50
270.0
1001
ACAD
1000
RTLwPs
1070
   158
  0
TEXT
  5
762F
  8
COTATION1
 62
     0
 10
1285.406919
 20
81.978457
 30
0.0
 40
2.5
  1
51
1001
ACAD
1000
MTEXTBEGIN
1070
    73
1070
     1
1070
    44
1040
1.0
1070
    74
1070
     0
1000
MTEXTEND
1000
MTEXTBEGIN
1070
    73
1070
     1
1070
    44
1040
1.0
1070
    74
1070
     0
1000
MTEXTEND
  0
POINT
  5
7630
  8
DEFPOINTS
 62
     0
 10
1251.080729
 20
108.728457
 30
0.0
  0
POINT
  5
7631
  8
DEFPOINTS
 62
     0
 10
1250.930729
 20
57.728457
 30
0.0
  0
POINT
  5
7632
  8
DEFPOINTS
 62
     0
 10
1287.430729
 20
57.728457
 30
0.0
  0
ENDBLK
  5
74B2
  8
0
  0
BLOCK
  8
0
  2
*D11
 70
     1
 10
0.0
 20
0.0
 30
0.0
  3
*D11
  1

  0
LINE
  5
7723
  8
COTATION1
 62
     0
 10
1254.080729
 20
110.728457
 30
0.0
 11
1279.930729
 21
110.728457
 31
0.0
  0
LINE
  5
7724
  8
COTATION1
 62
     0
 10
1253.080729
 20
108.728457
 30
0.0
 11
1279.930729
 21
108.728457
 31
0.0
  0
LINE
  5
7725
  8
COTATION1
 62
     0
 10
1277.430729
 20
115.728457
 30
0.0
 11
1277.430729
 21
120.728457
 31
0.0
  0
LINE
  5
7726
  8
COTATION1
 62
     0
 10
1277.430729
 20
103.728457
 30
0.0
 11
1277.430729
 21
98.728457
 31
0.0
  0
TEXT
  5
7727
  8
COTATION1
 62
     0
 10
1273.406919
 20
99.080197
 30
0.0
 40
2.5
  1
2
  0
INSERT
  5
7728
  8
COTATION1
 62
     0
  2
_OPEN30
 10
1277.430729
 20
110.728457
 30
0.0
 41
5.0
 42
5.0
 43
5.0
 50
270.0
  0
INSERT
  5
7729
  8
COTATION1
 62
     0
  2
_OPEN30
 10
1277.430729
 20
108.728457
 30
0.0
 41
5.0
 42
5.0
 43
5.0
 50
90.0
  0
POINT
  5
772A
  8
DEFPOINTS
 62
     0
 10
1252.080729
 20
110.728457
 30
0.0
  0
POINT
  5
772B
  8
DEFPOINTS
 62
     0
 10
1251.080729
 20
108.728457
 30
0.0
  0
POINT
  5
772C
  8
DEFPOINTS
 62
     0
 10
1277.430729
 20
108.728457
 30
0.0
  0
ENDBLK
  5
74BF
  8
0
  0
BLOCK
  8
0
  2
*D12
 70
     1
 10
0.0
 20
0.0
 30
0.0
  3
*D12
  1

  0
LINE
  5
76DD
  8
COTATION1
 62
     0
 10
1222.028943
 20
61.343801
 30
0.0
 11
1201.695481
 21
74.952719
 31
0.0
1001
ACAD
1000
RTLwPs
1070
   158
  0
LINE
  5
76DE
  8
COTATION1
 62
     0
 10
1201.695481
 20
74.952719
 30
0.0
 11
1191.362148
 21
74.952719
 31
0.0
1001
ACAD
1000
RTLwPs
1070
   158
  0
INSERT
  5
76DF
  8
COTATION1
 62
     0
  2
_OPEN30
 10
1226.184163
 20
58.562767
 30
0.0
 41
5.0
 42
5.0
 43
5.0
 50
326.206126
1001
ACAD
1000
RTLwPs
1070
   158
  0
TEXT
  5
76E0
  8
COTATION1
 62
     0
 10
1191.005005
 20
76.952719
 30
0.0
 40
2.5
  1
2x%%c3
1001
ACAD
1000
MTEXTBEGIN
1070
    73
1070
     1
1070
    44
1040
1.0
1070
    74
1070
     0
1000
MTEXTEND
  0
POINT
  5
76E1
  8
DEFPOINTS
 62
     0
 10
1226.184163
 20
58.562767
 30
0.0
  0
POINT
  5
76E2
  8
DEFPOINTS
 62
     0
 10
1228.677294
 20
56.894147
 30
0.0
  0
ENDBLK
  5
74C9
  8
0
  0
BLOCK
  8
0
  2
*D13
 70
     1
 10
0.0
 20
0.0
 30
0.0
  3
*D13
  1

  0
LINE
  5
7623
  8
COTATION1
 62
     0
 10
1220.614149
 20
105.378334
 30
0.0
 11
1197.741044
 21
93.24713
 31
0.0
1001
ACAD
1000
RTLwPs
1070
   158
  0
LINE
  5
7624
  8
COTATION1
 62
     0
 10
1197.741044
 20
93.24713
 30
0.0
 11
1183.836282
 21
93.24713
 31
0.0
1001
ACAD
1000
RTLwPs
1070
   158
  0
INSERT
  5
7625
  8
COTATION1
 62
     0
  2
_OPEN30
 10
1225.031337
 20
107.721078
 30
0.0
 41
5.0
 42
5.0
 43
5.0
 50
27.940128
1001
ACAD
1000
RTLwPs
1070
   158
  0
TEXT
  5
7626
  8
COTATION1
 62
     0
 10
1183.479139
 20
95.24713
 30
0.0
 40
2.5
  1
2x%%c4.3
1001
ACAD
1000
MTEXTBEGIN
1070
    73
1070
     1
1070
    44
1040
1.0
1070
    74
1070
     0
1000
MTEXTEND
1000
MTEXTBEGIN
1070
    73
1070
     1
1070
    44
1040
1.0
1070
    74
1070
     0
1000
MTEXTEND
  0
POINT
  5
7627
  8
DEFPOINTS
 62
     0
 10
1225.031337
 20
107.721078
 30
0.0
  0
POINT
  5
7628
  8
DEFPOINTS
 62
     0
 10
1228.83012
 20
109.735837
 30
0.0
  0
ENDBLK
  5
74D3
  8
0
  0
BLOCK
  8
0
  2
*D14
 70
     1
 10
0.0
 20
0.0
 30
0.0
  3
*D14
  1

  0
LINE
  5
759F
  8
COTATION1
 62
     0
 10
1234.930729
 20
161.228457
 30
0.0
 11
1198.736394
 21
161.228457
 31
0.0
1001
ACAD
1000
RTLwPs
1070
   158
  0
LINE
  5
75A0
  8
COTATION1
 62
     0
 10
1223.930729
 20
128.228457
 30
0.0
 11
1198.736394
 21
128.228457
 31
0.0
1001
ACAD
1000
RTLwPs
1070
   158
  0
LINE
  5
75A1
  8
COTATION1
 62
     0
 10
1201.236394
 20
156.228457
 30
0.0
 11
1201.236394
 21
147.978457
 31
0.0
1001
ACAD
1000
RTLwPs
1070
   158
  0
LINE
  5
75A2
  8
COTATION1
 62
     0
 10
1201.236394
 20
133.228457
 30
0.0
 11
1201.236394
 21
141.478457
 31
0.0
1001
ACAD
1000
RTLwPs
1070
   158
  0
INSERT
  5
75A3
  8
COTATION1
 62
     0
  2
_OPEN30
 10
1201.236394
 20
161.228457
 30
0.0
 41
5.0
 42
5.0
 43
5.0
 50
90.0
1001
ACAD
1000
RTLwPs
1070
   158
  0
INSERT
  5
75A4
  8
COTATION1
 62
     0
  2
_OPEN30
 10
1201.236394
 20
128.228457
 30
0.0
 41
5.0
 42
5.0
 43
5.0
 50
270.0
1001
ACAD
1000
RTLwPs
1070
   158
  0
TEXT
  5
75A5
  8
COTATION1
 62
     0
 10
1198.855441
 20
143.478457
 30
0.0
 40
2.5
  1
33
1001
ACAD
1000
MTEXTBEGIN
1070
    73
1070
     1
1070
    44
1040
1.0
1070
    74
1070
     0
1000
MTEXTEND
1000
MTEXTBEGIN
1070
    73
1070
     1
1070
    44
1040
1.0
1070
    74
1070
     0
1000
MTEXTEND
  0
POINT
  5
75A6
  8
DEFPOINTS
 62
     0
 10
1236.930729
 20
161.228457
 30
0.0
  0
POINT
  5
75A7
  8
DEFPOINTS
 62
     0
 10
1225.930729
 20
128.228457
 30
0.0
  0
POINT
  5
75A8
  8
DEFPOINTS
 62
     0
 10
1201.236394
 20
128.228457
 30
0.0
  0
ENDBLK
  5
75AA
  8
0
  0
BLOCK
  8
0
  2
*D15
 70
     1
 10
0.0
 20
0.0
 30
0.0
  3
*D15
  1

  0
LINE
  5
75AC
  8
COTATION1
 62
     0
 10
1234.930729
 20
161.228457
 30
0.0
 11
1189.021763
 21
161.228457
 31
0.0
1001
ACAD
1000
RTLwPs
1070
   158
  0
LINE
  5
75AD
  8
COTATION1
 62
     0
 10
1220.780729
 20
108.728457
 30
0.0
 11
1189.021763
 21
108.728457
 31
0.0
1001
ACAD
1000
RTLwPs
1070
   158
  0
LINE
  5
75AE
  8
COTATION1
 62
     0
 10
1191.521763
 20
156.228457
 30
0.0
 11
1191.521763
 21
138.228457
 31
0.0
1001
ACAD
1000
RTLwPs
1070
   158
  0
LINE
  5
75AF
  8
COTATION1
 62
     0
 10
1191.521763
 20
113.728457
 30
0.0
 11
1191.521763
 21
131.728457
 31
0.0
1001
ACAD
1000
RTLwPs
1070
   158
  0
INSERT
  5
75B0
  8
COTATION1
 62
     0
  2
_OPEN30
 10
1191.521763
 20
161.228457
 30
0.0
 41
5.0
 42
5.0
 43
5.0
 50
90.0
1001
ACAD
1000
RTLwPs
1070
   158
  0
INSERT
  5
75B1
  8
COTATION1
 62
     0
  2
_OPEN30
 10
1191.521763
 20
108.728457
 30
0.0
 41
5.0
 42
5.0
 43
5.0
 50
270.0
1001
ACAD
1000
RTLwPs
1070
   158
  0
TEXT
  5
75B2
  8
COTATION1
 62
     0
 10
1187.355096
 20
133.728457
 30
0.0
 40
2.5
  1
52.5
1001
ACAD
1000
MTEXTBEGIN
1070
    73
1070
     1
1070
    44
1040
1.0
1070
    74
1070
     0
1000
MTEXTEND
1000
MTEXTBEGIN
1070
    73
1070
     1
1070
    44
1040
1.0
1070
    74
1070
     0
1000
MTEXTEND
  0
POINT
  5
75B3
  8
DEFPOINTS
 62
     0
 10
1236.930729
 20
161.228457
 30
0.0
  0
POINT
  5
75B4
  8
DEFPOINTS
 62
     0
 10
1222.780729
 20
108.728457
 30
0.0
  0
POINT
  5
75B5
  8
DEFPOINTS
 62
     0
 10
1191.521763
 20
108.728457
 30
0.0
  0
ENDBLK
  5
75B7
  8
0
  0
BLOCK
  8
0
  2
*D16
 70
     1
 10
0.0
 20
0.0
 30
0.0
  3
*D16
  1

  0
LINE
  5
7689
  8
COTATION1
 62
     0
 10
1250.294283
 20
146.101255
 30
0.0
 11
1254.902406
 21
144.16084
 31
0.0
1001
ACAD
1000
RTLwPs
1070
   158
  0
LINE
  5
768A
  8
COTATION1
 62
     0
 10
1254.902406
 20
144.16084
 30
0.0
 11
1263.092882
 21
144.16084
 31
0.0
1001
ACAD
1000
RTLwPs
1070
   158
  0
INSERT
  5
768B
  8
COTATION1
 62
     0
  2
_OPEN30
 10
1245.686161
 20
148.041669
 30
0.0
 41
5.0
 42
5.0
 43
5.0
 50
157.164734
1001
ACAD
1000
RTLwPs
1070
   158
  0
TEXT
  5
768C
  8
COTATION1
 62
     0
 10
1256.66431
 20
146.16084
 30
0.0
 40
2.5
  1
%%c19
1001
ACAD
1000
MTEXTBEGIN
1070
    73
1070
     1
1070
    44
1040
1.0
1070
    74
1070
     0
1000
MTEXTEND
1000
MTEXTBEGIN
1070
    73
1070
     1
1070
    44
1040
1.0
1070
    74
1070
     0
1000
MTEXTEND
  0
POINT
  5
768D
  8
DEFPOINTS
 62
     0
 10
1245.686161
 20
148.041669
 30
0.0
  0
POINT
  5
768E
  8
DEFPOINTS
 62
     0
 10
1228.175296
 20
155.415245
 30
0.0
  0
ENDBLK
  5
7678
  8
0
  0
ENDSEC
  0
SECTION
  2
ENTITIES
  0
INSERT
  5
A
  8
0
  2
COTE
 10
0.0
 20
0.0
 30
0.0
  0
INSERT
  5
17
  8
0
  2
COTE
 10
284.010391
 20
6.373258
 30
0.0
  0
INSERT
  5
72
  8
0
  2
FOND
 10
0.0
 20
0.0
 30
0.0
  0
LINE
  5
6F5C
  8
ALPHA
 10
1244.888476
 20
134.225977
 30
0.0
 11
1244.972804
 21
133.646476
 31
0.0
  0
LINE
  5
6F5D
  8
ALPHA
 10
1228.886986
 20
133.646476
 30
0.0
 11
1228.972981
 21
134.230877
 31
0.0
  0
POLYLINE
  5
6F5E
  8
ALPHA
 66
     1
 10
0.0
 20
0.0
 30
0.0
 70
   128
  0
VERTEX
  5
77E1
  8
ALPHA
 10
1228.893098
 20
125.319573
 30
0.0
  0
VERTEX
  5
77E2
  8
ALPHA
 10
1230.131006
 20
123.051879
 30
0.0
  0
VERTEX
  5
77E3
  8
ALPHA
 10
1231.971319
 20
121.268599
 30
0.0
  0
VERTEX
  5
77E4
  8
ALPHA
 10
1234.281929
 20
120.10179
 30
0.0
  0
VERTEX
  5
77E5
  8
ALPHA
 10
1236.930728
 20
119.683508
 30
0.0
  0
VERTEX
  5
77E6
  8
ALPHA
 10
1239.579449
 20
120.101616
 30
0.0
  0
VERTEX
  5
77E7
  8
ALPHA
 10
1241.889929
 20
121.268043
 30
0.0
  0
VERTEX
  5
77E8
  8
ALPHA
 10
1243.730216
 20
123.050941
 30
0.0
  0
VERTEX
  5
77E9
  8
ALPHA
 10
1244.968358
 20
125.318462
 30
0.0
  0
SEQEND
  5
77EA
  8
ALPHA
  0
POLYLINE
  5
6F5F
  8
ALPHA
 66
     1
 10
0.0
 20
0.0
 30
0.0
 70
   128
  0
VERTEX
  5
77EB
  8
ALPHA
 10
1228.886986
 20
118.13154
 30
0.0
  0
VERTEX
  5
77EC
  8
ALPHA
 10
1228.886986
 20
118.30578
 30
0.0
  0
VERTEX
  5
77ED
  8
ALPHA
 10
1228.886986
 20
118.798197
 30
0.0
  0
VERTEX
  5
77EE
  8
ALPHA
 10
1228.886986
 20
120.555749
 30
0.0
  0
VERTEX
  5
77EF
  8
ALPHA
 10
1228.886986
 20
123.040563
 30
0.0
  0
VERTEX
  5
77F0
  8
ALPHA
 10
1228.886986
 20
125.889008
 30
0.0
  0
VERTEX
  5
77F1
  8
ALPHA
 10
1228.886986
 20
128.737453
 30
0.0
  0
VERTEX
  5
77F2
  8
ALPHA
 10
1228.886986
 20
131.222267
 30
0.0
  0
VERTEX
  5
77F3
  8
ALPHA
 10
1228.886986
 20
132.979818
 30
0.0
  0
VERTEX
  5
77F4
  8
ALPHA
 10
1228.886986
 20
133.472236
 30
0.0
  0
VERTEX
  5
77F5
  8
ALPHA
 10
1228.886986
 20
133.646476
 30
0.0
  0
SEQEND
  5
77F6
  8
ALPHA
  0
POLYLINE
  5
6F60
  8
ALPHA
 66
     1
 10
0.0
 20
0.0
 30
0.0
 70
   128
  0
VERTEX
  5
77F7
  8
ALPHA
 10
1244.972804
 20
133.646476
 30
0.0
  0
VERTEX
  5
77F8
  8
ALPHA
 10
1244.972804
 20
133.472238
 30
0.0
  0
VERTEX
  5
77F9
  8
ALPHA
 10
1244.972804
 20
132.979829
 30
0.0
  0
VERTEX
  5
77FA
  8
ALPHA
 10
1244.972804
 20
131.222306
 30
0.0
  0
VERTEX
  5
77FB
  8
ALPHA
 10
1244.972804
 20
128.737532
 30
0.0
  0
VERTEX
  5
77FC
  8
ALPHA
 10
1244.972804
 20
125.889132
 30
0.0
  0
VERTEX
  5
77FD
  8
ALPHA
 10
1244.972804
 20
123.040733
 30
0.0
  0
VERTEX
  5
77FE
  8
ALPHA
 10
1244.972804
 20
120.555959
 30
0.0
  0
VERTEX
  5
77FF
  8
ALPHA
 10
1244.972804
 20
118.798436
 30
0.0
  0
VERTEX
  5
7800
  8
ALPHA
 10
1244.972804
 20
118.306026
 30
0.0
  0
VERTEX
  5
7801
  8
ALPHA
 10
1244.972804
 20
118.131789
 30
0.0
  0
SEQEND
  5
7802
  8
ALPHA
  0
LINE
  5
6F6A
  8
ALPHA
 10
1228.972981
 20
141.642671
 30
0.0
 11
1244.888476
 21
141.642671
 31
0.0
  0
ARC
  5
6F6B
  8
ALPHA
 10
1236.930729
 20
128.228457
 30
0.0
 40
7.957747
 50
180.0
 51
0.0
  0
LINE
  5
6F6C
  8
ALPHA
 10
1228.972981
 20
136.070928
 30
0.0
 11
1244.888476
 21
136.070928
 31
0.0
  0
LINE
  5
6F6D
  8
AXE
 10
1225.930729
 20
128.228457
 30
0.0
 11
1247.930729
 21
128.228457
 31
0.0
  0
CIRCLE
  5
6F6E
  8
ALPHA
 10
1236.930729
 20
151.728457
 30
0.0
 40
9.5
  0
DIMENSION
  5
6F72
  8
COTATION1
  2
*D14
 10
1201.236394
 20
128.228457
 30
0.0
 11
1201.236394
 21
144.728457
 31
0.0
 70
   128
 13
1236.930729
 23
161.228457
 33
0.0
 14
1225.930729
 24
128.228457
 34
0.0
 50
90.0
  0
LINE
  5
6F73
  8
AXE
 10
1236.930729
 20
166.228457
 30
0.0
 11
1236.930729
 21
23.728457
 31
0.0
  0
LINE
  5
6F8E
  8
ALPHA
 10
1228.972981
 20
127.665346
 30
0.0
 11
1228.972981
 21
146.539598
 31
0.0
  0
LINE
  5
6F8F
  8
ALPHA
 10
1237.926474
 20
128.228457
 30
0.0
 11
1240.271361
 21
130.575012
 31
0.0
  0
LINE
  5
6F90
  8
ALPHA
 10
1239.02779
 20
127.127138
 30
0.0
 11
1237.926474
 21
128.228457
 31
0.0
  0
LINE
  5
6F91
  8
ALPHA
 10
1238.032048
 20
126.131393
 30
0.0
 11
1239.02779
 21
127.127138
 31
0.0
  0
LINE
  5
6F92
  8
ALPHA
 10
1235.828854
 20
130.325518
 30
0.0
 11
1234.833109
 21
129.329776
 31
0.0
  0
LINE
  5
6F93
  8
ALPHA
 10
1236.930729
 20
129.224199
 30
0.0
 11
1235.828854
 21
130.325518
 31
0.0
  0
LINE
  5
6F94
  8
ALPHA
 10
1234.585287
 20
124.88727
 30
0.0
 11
1236.930729
 21
127.233825
 31
0.0
  0
LINE
  5
6F95
  8
ALPHA
 10
1235.936096
 20
128.228457
 30
0.0
 11
1233.589541
 21
125.883012
 31
0.0
  0
LINE
  5
6F96
  8
ALPHA
 10
1234.833109
 20
129.329776
 30
0.0
 11
1235.936096
 21
128.228457
 31
0.0
  0
CIRCLE
  5
6F97
  8
ALPHA
 10
1236.930729
 20
128.228457
 30
0.0
 40
4.021871
  0
CIRCLE
  5
6F98
  8
ALPHA
 10
1236.930729
 20
128.228457
 30
0.0
 40
5.026506
  0
CIRCLE
  5
6F99
  8
ALPHA
 10
1236.930729
 20
128.228457
 30
0.0
 40
6.5
  0
LINE
  5
6F9A
  8
ALPHA
 10
1239.277283
 20
131.569644
 30
0.0
 11
1236.930729
 21
129.224199
 31
0.0
  0
LINE
  5
6F9B
  8
ALPHA
 10
1236.930729
 20
127.233825
 30
0.0
 11
1238.032048
 21
126.131393
 31
0.0
  0
CIRCLE
  5
6F9C
  8
ALPHA
 10
1236.930729
 20
151.728457
 30
0.0
 40
4.0
  0
DIMENSION
  5
6F9D
  8
COTATION1
  2
*D15
 10
1191.521763
 20
108.728457
 30
0.0
 11
1191.521763
 21
134.978457
 31
0.0
 70
   128
 13
1236.930729
 23
161.228457
 33
0.0
 14
1222.780729
 24
108.728457
 34
0.0
 50
90.0
  0
LINE
  5
6FAD
  8
ALPHA
 10
1244.888476
 20
127.665346
 30
0.0
 11
1244.888476
 21
146.539598
 31
0.0
  0
DIMENSION
  5
728D
  8
COTATION1
  2
*D3
 10
1247.930729
 20
186.228457
 30
0.0
 11
1236.930729
 21
189.478457
 31
0.0
 13
1225.930729
 23
114.878457
 33
0.0
 14
1247.930729
 24
114.657771
 34
0.0
  0
DIMENSION
  5
728E
  8
COTATION1
  2
*D4
 10
1246.930729
 20
176.228457
 30
0.0
 11
1236.930729
 21
179.478457
 31
0.0
 13
1226.930729
 23
112.878457
 33
0.0
 14
1246.930729
 24
112.878457
 34
0.0
  0
DIMENSION
  5
73F4
  8
COTATION1
  2
*D5
 10
1246.731589
 20
108.943922
 30
0.0
 11
1273.193271
 21
130.55409
 31
0.0
 70
   131
  1
2x<>x6.3
 15
1249.129868
 25
112.512992
 35
0.0
 40
0.0
1001
ACAD
1000
DSTYLE
1002
{
1070
   288
1070
     1
1002
}
  0
DIMENSION
  5
73F5
  8
COTATION1
  2
*D6
 10
1287.430729
 20
108.728457
 30
0.0
 11
1287.430729
 21
113.728457
 31
0.0
 70
   128
 13
1236.930729
 23
118.728457
 33
0.0
 14
1251.080729
 24
108.728457
 34
0.0
 50
90.0
1001
ACAD
1000
DSTYLE
1002
{
1070
   287
1070
     5
1070
   279
1070
     2
1070
   289
1070
     3
1002
}
  0
DIMENSION
  5
73F6
  8
COTATION1
  2
*D7
 10
1297.430729
 20
41.728457
 30
0.0
 11
1297.430729
 21
101.478457
 31
0.0
 13
1236.930729
 23
161.228457
 33
0.0
 14
1241.198678
 24
41.728457
 34
0.0
 50
90.0
  0
TEXT
  5
73F7
  8
AXE
 10
1229.454538
 20
23.728457
 30
0.0
 40
8.0
  1
Y
 72
     2
 11
1235.930729
 21
23.728457
 31
0.0
  0
DIMENSION
  5
73F8
  8
COTATION1
  2
*D8
 10
1252.430729
 20
3.728457
 30
0.0
 11
1236.930729
 21
6.978457
 31
0.0
 13
1221.430729
 23
53.728457
 33
0.0
 14
1252.430729
 24
53.728457
 34
0.0
  0
DIMENSION
  5
73F9
  8
COTATION1
  2
*D9
 10
1246.430729
 20
13.728457
 30
0.0
 11
1236.930729
 21
16.978457
 31
0.0
 13
1227.430729
 23
53.228457
 33
0.0
 14
1246.430729
 24
53.228457
 34
0.0
  0
DIMENSION
  5
73FA
  8
COTATION1
  2
*D10
 10
1287.430729
 20
57.728457
 30
0.0
 11
1287.430729
 21
83.228457
 31
0.0
 13
1251.080729
 23
108.728457
 33
0.0
 14
1250.930729
 24
57.728457
 34
0.0
 50
90.0
  0
DIMENSION
  5
73FB
  8
COTATION1
  2
*D11
 10
1277.430729
 20
108.728457
 30
0.0
 11
1274.597395
 21
100.330197
 31
0.0
 70
   128
 13
1252.080729
 23
110.728457
 33
0.0
 14
1251.080729
 24
108.728457
 34
0.0
 50
90.0
1001
ACAD
1000
DSTYLE
1002
{
1070
   287
1070
     5
1070
   279
1070
     2
1070
   289
1070
     3
1002
}
  0
LINE
  5
73FC
  8
ALPHA
 10
1221.430729
 20
116.028457
 30
0.0
 11
1221.430729
 21
53.728457
 31
0.0
  0
LINE
  5
73FD
  8
ALPHA
 10
1252.430729
 20
116.028457
 30
0.0
 11
1252.430729
 21
53.728457
 31
0.0
  0
DIMENSION
  5
73FE
  8
COTATION1
  2
*D12
 10
1228.677294
 20
56.894147
 30
0.0
 11
1195.528815
 21
74.952719
 31
0.0
 70
   131
  1
2x<>
 15
1226.184163
 25
58.562767
 35
0.0
 40
0.0
  0
LINE
  5
73FF
  8
ALPHA_FIN
 10
1241.857219
 20
53.728457
 30
0.0
 11
1241.857219
 21
42.108666
 31
0.0
  0
LINE
  5
7400
  8
ALPHA
 10
1242.930729
 20
42.728457
 30
0.0
 11
1242.930729
 21
53.728457
 31
0.0
  0
LINE
  5
7401
  8
ALPHA_FIN
 10
1232.004238
 20
53.728457
 30
0.0
 11
1232.004238
 21
42.108666
 31
0.0
  0
LINE
  5
7402
  8
ALPHA
 10
1230.930729
 20
42.728457
 30
0.0
 11
1230.930729
 21
53.728457
 31
0.0
  0
LINE
  5
7403
  8
ALPHA
 10
1236.930729
 20
42.728457
 30
0.0
 11
1230.930729
 21
42.728457
 31
0.0
  0
LINE
  5
7404
  8
ALPHA
 10
1236.930729
 20
41.728457
 30
0.0
 11
1232.662779
 21
41.728457
 31
0.0
  0
LINE
  5
7405
  8
ALPHA
 10
1230.930729
 20
42.728457
 30
0.0
 11
1232.662779
 21
41.728457
 31
0.0
  0
LINE
  5
7406
  8
ALPHA
 10
1242.930729
 20
42.728457
 30
0.0
 11
1241.198678
 21
41.728457
 31
0.0
  0
LINE
  5
7407
  8
ALPHA
 10
1236.930729
 20
42.728457
 30
0.0
 11
1242.930729
 21
42.728457
 31
0.0
  0
LINE
  5
7408
  8
ALPHA
 10
1236.930729
 20
41.728457
 30
0.0
 11
1241.198678
 21
41.728457
 31
0.0
  0
LINE
  5
7409
  8
ALPHA
 10
1221.430729
 20
53.728457
 30
0.0
 11
1252.430729
 21
53.728457
 31
0.0
  0
LINE
  5
740A
  8
ALPHA
 10
1224.430729
 20
58.780776
 30
0.0
 11
1236.930729
 21
58.780776
 31
0.0
  0
LINE
  5
740B
  8
ALPHA
 10
1225.930729
 20
54.728457
 30
0.0
 11
1247.930729
 21
54.728457
 31
0.0
  0
LINE
  5
740C
  8
ALPHA
 10
1221.430729
 20
54.728457
 30
0.0
 11
1224.430729
 21
54.728457
 31
0.0
  0
LINE
  5
740D
  8
ALPHA
 10
1225.930729
 20
58.780776
 30
0.0
 11
1226.943529
 21
54.728457
 31
0.0
  0
LINE
  5
740E
  8
ALPHA
 10
1224.430729
 20
54.728457
 30
0.0
 11
1224.430729
 21
58.780776
 31
0.0
  0
LINE
  5
740F
  8
ALPHA
 10
1225.930729
 20
54.728457
 30
0.0
 11
1225.930729
 21
58.780776
 31
0.0
  0
LINE
  5
7410
  8
AXE
 10
1227.430729
 20
53.228457
 30
0.0
 11
1227.430729
 21
62.228457
 31
0.0
  0
LINE
  5
7411
  8
AXE
 10
1231.930729
 20
57.728457
 30
0.0
 11
1222.930729
 21
57.728457
 31
0.0
  0
CIRCLE
  5
7412
  8
POINTILLE_COURT
 10
1227.430729
 20
57.728457
 30
0.0
 40
1.5
  0
LINE
  5
7413
  8
ALPHA
 10
1249.430729
 20
54.728457
 30
0.0
 11
1252.430729
 21
54.728457
 31
0.0
  0
LINE
  5
7414
  8
ALPHA
 10
1247.930729
 20
58.780776
 30
0.0
 11
1246.917928
 21
54.728457
 31
0.0
  0
LINE
  5
7415
  8
ALPHA
 10
1247.930729
 20
54.728457
 30
0.0
 11
1247.930729
 21
58.780776
 31
0.0
  0
LINE
  5
7416
  8
ALPHA
 10
1249.430729
 20
54.728457
 30
0.0
 11
1249.430729
 21
58.780776
 31
0.0
  0
LINE
  5
7417
  8
ALPHA
 10
1249.430729
 20
58.780776
 30
0.0
 11
1236.930729
 21
58.780776
 31
0.0
  0
LINE
  5
7418
  8
AXE
 10
1246.430729
 20
53.228457
 30
0.0
 11
1246.430729
 21
62.228457
 31
0.0
  0
LINE
  5
7419
  8
AXE
 10
1241.930729
 20
57.728457
 30
0.0
 11
1250.930729
 21
57.728457
 31
0.0
  0
CIRCLE
  5
741A
  8
POINTILLE_COURT
 10
1246.430729
 20
57.728457
 30
0.0
 40
1.5
  0
DIMENSION
  5
741B
  8
COTATION1
  2
*D13
 10
1228.83012
 20
109.735837
 30
0.0
 11
1189.788663
 21
93.24713
 31
0.0
 70
   131
  1
2x<>
 15
1225.031337
 25
107.721078
 35
0.0
 40
0.0
1001
ACAD
1000
DSTYLE
1002
{
1070
   288
1070
     1
1002
}
  0
LINE
  5
741C
  8
AXE
 10
1217.430729
 20
86.228457
 30
0.0
 11
1267.430729
 21
86.228457
 31
0.0
  0
TEXT
  5
741D
  8
AXE
 10
1260.954538
 20
87.228457
 30
0.0
 40
8.0
  1
X
 72
     2
 11
1267.430729
 21
87.228457
 31
0.0
  0
POLYLINE
  5
741E
  8
ALPHA
 66
     1
 10
0.0
 20
0.0
 30
0.0
 70
   128
  0
VERTEX
  5
7803
  8
ALPHA
 10
1228.476134
 20
116.646215
 30
0.0
  0
VERTEX
  5
7804
  8
ALPHA
 10
1228.666193
 20
116.646215
 30
0.0
  0
VERTEX
  5
7805
  8
ALPHA
 10
1229.203315
 20
116.646215
 30
0.0
  0
VERTEX
  5
7806
  8
ALPHA
 10
1230.037921
 20
116.646215
 30
0.0
  0
VERTEX
  5
7807
  8
ALPHA
 10
1231.120428
 20
116.646215
 30
0.0
  0
VERTEX
  5
7808
  8
ALPHA
 10
1233.83083
 20
116.646215
 30
0.0
  0
VERTEX
  5
7809
  8
ALPHA
 10
1236.937875
 20
116.646215
 30
0.0
  0
VERTEX
  5
780A
  8
ALPHA
 10
1240.044921
 20
116.646215
 30
0.0
  0
VERTEX
  5
780B
  8
ALPHA
 10
1242.755322
 20
116.646215
 30
0.0
  0
VERTEX
  5
780C
  8
ALPHA
 10
1243.83783
 20
116.646215
 30
0.0
  0
VERTEX
  5
780D
  8
ALPHA
 10
1244.672435
 20
116.646215
 30
0.0
  0
VERTEX
  5
780E
  8
ALPHA
 10
1245.209558
 20
116.646215
 30
0.0
  0
VERTEX
  5
780F
  8
ALPHA
 10
1245.399616
 20
116.646215
 30
0.0
  0
SEQEND
  5
7810
  8
ALPHA
  0
ARC
  5
741F
  8
ALPHA
 10
1236.930729
 20
64.233363
 30
0.0
 40
54.495095
 50
73.978407
 51
106.021593
  0
POLYLINE
  5
7420
  8
ALPHA
 66
     1
 10
0.0
 20
0.0
 30
0.0
 70
   128
  0
VERTEX
  5
7811
  8
ALPHA
 10
1252.430729
 20
102.014089
 30
0.0
  0
VERTEX
  5
7812
  8
ALPHA
 10
1252.210575
 20
102.515048
 30
0.0
  0
VERTEX
  5
7813
  8
ALPHA
 10
1251.811342
 20
102.840362
 30
0.0
  0
VERTEX
  5
7814
  8
ALPHA
 10
1250.6828
 20
103.231063
 30
0.0
  0
VERTEX
  5
7815
  8
ALPHA
 10
1249.289187
 20
103.606102
 30
0.0
  0
VERTEX
  5
7816
  8
ALPHA
 10
1245.818869
 20
104.264281
 30
0.0
  0
VERTEX
  5
7817
  8
ALPHA
 10
1241.624634
 20
104.725066
 30
0.0
  0
VERTEX
  5
7818
  8
ALPHA
 10
1236.930729
 20
104.898623
 30
0.0
  0
VERTEX
  5
7819
  8
ALPHA
 10
1232.236815
 20
104.725066
 30
0.0
  0
VERTEX
  5
781A
  8
ALPHA
 10
1228.04252
 20
104.264281
 30
0.0
  0
VERTEX
  5
781B
  8
ALPHA
 10
1224.572038
 20
103.606102
 30
0.0
  0
VERTEX
  5
781C
  8
ALPHA
 10
1223.178289
 20
103.231063
 30
0.0
  0
VERTEX
  5
781D
  8
ALPHA
 10
1222.049565
 20
102.840362
 30
0.0
  0
VERTEX
  5
781E
  8
ALPHA
 10
1221.650195
 20
102.515048
 30
0.0
  0
VERTEX
  5
781F
  8
ALPHA
 10
1221.430729
 20
102.014089
 30
0.0
  0
SEQEND
  5
7820
  8
ALPHA
  0
LINE
  5
7421
  8
ALPHA
 10
1236.086315
 20
107.729281
 30
0.0
 11
1234.62453
 21
106.266401
 31
0.0
  0
LINE
  5
7422
  8
ALPHA
 10
1235.512925
 20
108.302121
 30
0.0
 11
1236.086315
 21
107.729281
 31
0.0
  0
LINE
  5
7423
  8
ALPHA
 10
1236.357339
 20
109.145437
 30
0.0
 11
1235.512925
 21
108.302121
 31
0.0
  0
LINE
  5
7424
  8
ALPHA
 10
1236.940625
 20
106.874421
 30
0.0
 11
1235.478291
 21
105.41209
 31
0.0
  0
POLYLINE
  5
7425
  8
ALPHA
 66
     1
 10
0.0
 20
0.0
 30
0.0
 70
   128
210
0.0
220
0.0
230
-1.0
  0
VERTEX
  5
7821
  8
ALPHA
 10
-1245.373778
 20
104.326884
 30
0.0
  0
VERTEX
  5
7822
  8
ALPHA
 10
-1244.357085
 20
104.700782
 30
0.0
  0
VERTEX
  5
7823
  8
ALPHA
 10
-1243.487588
 20
105.576464
 30
0.0
  0
VERTEX
  5
7824
  8
ALPHA
 10
-1240.497158
 20
111.920158
 30
0.0
  0
VERTEX
  5
7825
  8
ALPHA
 10
-1239.666589
 20
113.270098
 30
0.0
  0
VERTEX
  5
7826
  8
ALPHA
 10
-1238.797205
 20
114.345721
 30
0.0
  0
VERTEX
  5
7827
  8
ALPHA
 10
-1237.88619
 20
115.057066
 30
0.0
  0
VERTEX
  5
7828
  8
ALPHA
 10
-1236.930729
 20
115.314173
 30
0.0
  0
VERTEX
  5
7829
  8
ALPHA
 10
-1235.975107
 20
115.057066
 30
0.0
  0
VERTEX
  5
782A
  8
ALPHA
 10
-1235.063995
 20
114.345721
 30
0.0
  0
VERTEX
  5
782B
  8
ALPHA
 10
-1234.194539
 20
113.270098
 30
0.0
  0
VERTEX
  5
782C
  8
ALPHA
 10
-1233.363887
 20
111.920158
 30
0.0
  0
VERTEX
  5
782D
  8
ALPHA
 10
-1230.37222
 20
105.576464
 30
0.0
  0
VERTEX
  5
782E
  8
ALPHA
 10
-1229.503341
 20
104.700782
 30
0.0
  0
VERTEX
  5
782F
  8
ALPHA
 10
-1228.487679
 20
104.326884
 30
0.0
  0
SEQEND
  5
7830
  8
ALPHA
  0
CIRCLE
  5
7426
  8
ALPHA
 10
1236.930729
 20
107.728457
 30
0.0
 40
2.735279
  0
LINE
  5
7427
  8
AXE
 10
1225.930729
 20
106.578457
 30
0.0
 11
1225.930729
 21
114.878457
 31
0.0
  0
LINE
  5
7428
  8
AXE
 10
1226.930729
 20
104.578457
 30
0.0
 11
1226.930729
 21
112.878457
 31
0.0
  0
ARC
  5
7429
  8
ALPHA
 10
1226.930729
 20
108.728457
 30
0.0
 40
2.15
 50
270.0
 51
57.663974
  0
LINE
  5
742A
  8
ALPHA
 10
1223.780729
 20
110.728457
 30
0.0
 11
1223.780729
 21
108.728457
 31
0.0
  0
LINE
  5
742B
  8
AXE
 10
1222.780729
 20
108.728457
 30
0.0
 11
1231.080729
 21
108.728457
 31
0.0
  0
ARC
  5
742C
  8
ALPHA
 10
1225.930729
 20
108.728457
 30
0.0
 40
2.15
 50
180.0
 51
270.0
  0
LINE
  5
742D
  8
ALPHA
 10
1225.930729
 20
106.578457
 30
0.0
 11
1226.930729
 21
106.578457
 31
0.0
  0
POLYLINE
  5
742E
  8
ALPHA
 66
     1
 10
0.0
 20
0.0
 30
0.0
 70
   128
210
0.0
220
0.0
230
-1.0
  0
VERTEX
  5
7831
  8
ALPHA
 10
-1232.951643
 20
112.66713
 30
0.0
  0
VERTEX
  5
7832
  8
ALPHA
 10
-1231.815011
 20
112.850918
 30
0.0
  0
VERTEX
  5
7833
  8
ALPHA
 10
-1230.538038
 20
113.323118
 30
0.0
  0
VERTEX
  5
7834
  8
ALPHA
 10
-1229.34899
 20
113.964985
 30
0.0
  0
VERTEX
  5
7835
  8
ALPHA
 10
-1228.476134
 20
114.657772
 30
0.0
  0
SEQEND
  5
7836
  8
ALPHA
  0
POLYLINE
  5
742F
  8
ALPHA
 66
     1
 10
0.0
 20
0.0
 30
0.0
 70
   128
  0
VERTEX
  5
7837
  8
ALPHA
 10
1233.801221
 20
112.66713
 30
0.0
  0
VERTEX
  5
7838
  8
ALPHA
 10
1233.196624
 20
112.66713
 30
0.0
  0
VERTEX
  5
7839
  8
ALPHA
 10
1232.951643
 20
112.66713
 30
0.0
  0
SEQEND
  5
783A
  8
ALPHA
  0
POLYLINE
  5
7430
  8
ALPHA
 66
     1
 10
0.0
 20
0.0
 30
0.0
 70
   128
  0
VERTEX
  5
783B
  8
ALPHA
 10
1228.476134
 20
114.657772
 30
0.0
  0
VERTEX
  5
783C
  8
ALPHA
 10
1228.476134
 20
114.968467
 30
0.0
  0
VERTEX
  5
783D
  8
ALPHA
 10
1228.476134
 20
115.651994
 30
0.0
  0
VERTEX
  5
783E
  8
ALPHA
 10
1228.476134
 20
116.335521
 30
0.0
  0
VERTEX
  5
783F
  8
ALPHA
 10
1228.476134
 20
116.646215
 30
0.0
  0
SEQEND
  5
7840
  8
ALPHA
  0
ARC
  5
7431
  8
ALPHA
 10
1222.030729
 20
116.028457
 30
0.0
 40
0.6
 50
103.554708
 51
180.0
  0
LINE
  5
7432
  8
ALPHA
 10
1226.487141
 20
116.646216
 30
0.0
 11
1228.46184
 21
116.646216
 31
0.0
  0
LINE
  5
7433
  8
ALPHA
 10
1228.442599
 20
116.059633
 30
0.0
 11
1226.51298
 21
116.059633
 31
0.0
  0
ARC
  5
7434
  8
ALPHA
 10
1225.930729
 20
110.728457
 30
0.0
 40
2.15
 50
0.0
 51
180.0
  0
LINE
  5
7435
  8
AXE
 10
1221.780729
 20
110.728457
 30
0.0
 11
1230.080729
 21
110.728457
 31
0.0
  0
LINE
  5
7436
  8
ALPHA
 10
1228.080729
 20
110.728457
 30
0.0
 11
1228.080729
 21
110.545047
 31
0.0
  0
LINE
  5
7437
  8
ALPHA
 10
1228.46184
 20
114.656673
 30
0.0
 11
1226.487141
 21
114.656673
 31
0.0
  0
LINE
  5
7438
  8
ALPHA
 10
1226.487141
 20
114.656673
 30
0.0
 11
1226.487141
 21
116.646216
 31
0.0
  0
LINE
  5
7439
  8
ALPHA
 10
1228.46184
 20
116.646216
 30
0.0
 11
1228.46184
 21
114.656673
 31
0.0
  0
LINE
  5
743A
  8
ALPHA
 10
1250.080729
 20
110.728457
 30
0.0
 11
1250.080729
 21
108.728457
 31
0.0
  0
LINE
  5
743B
  8
AXE
 10
1247.930729
 20
106.578457
 30
0.0
 11
1247.930729
 21
114.878457
 31
0.0
  0
LINE
  5
743C
  8
AXE
 10
1246.930729
 20
104.578457
 30
0.0
 11
1246.930729
 21
112.878457
 31
0.0
  0
LINE
  5
743D
  8
ALPHA
 10
1238.387564
 20
110.030533
 30
0.0
 11
1236.930729
 21
108.573698
 31
0.0
  0
ARC
  5
743E
  8
ALPHA
 10
1246.930729
 20
108.728457
 30
0.0
 40
2.15
 50
122.336026
 51
270.0
  0
LINE
  5
743F
  8
ALPHA
 10
1247.930729
 20
106.578457
 30
0.0
 11
1246.930729
 21
106.578457
 31
0.0
  0
ARC
  5
7440
  8
ALPHA
 10
1247.930729
 20
108.728457
 30
0.0
 40
2.15
 50
270.0
 51
0.0
  0
LINE
  5
7441
  8
ALPHA
 10
1237.514012
 20
106.301584
 30
0.0
 11
1236.940625
 21
106.874421
 31
0.0
  0
LINE
  5
7442
  8
ALPHA
 10
1236.930729
 20
108.573698
 30
0.0
 11
1236.357339
 21
109.145437
 31
0.0
  0
LINE
  5
7443
  8
ALPHA
 10
1238.358429
 20
107.145998
 30
0.0
 11
1237.514012
 21
106.301584
 31
0.0
  0
LINE
  5
7444
  8
ALPHA
 10
1237.785039
 20
107.717737
 30
0.0
 11
1238.358429
 21
107.145998
 31
0.0
  0
LINE
  5
7445
  8
ALPHA
 10
1239.241874
 20
109.175673
 30
0.0
 11
1237.785039
 21
107.717737
 31
0.0
  0
LINE
  5
7446
  8
AXE
 10
1251.080729
 20
108.728457
 30
0.0
 11
1242.780729
 21
108.728457
 31
0.0
  0
ARC
  5
7447
  8
ALPHA
 10
1251.830729
 20
116.028457
 30
0.0
 40
0.6
 50
0.0
 51
76.445292
  0
POLYLINE
  5
7448
  8
ALPHA
 66
     1
 10
0.0
 20
0.0
 30
0.0
 70
   128
  0
VERTEX
  5
7841
  8
ALPHA
 10
1245.399616
 20
116.646215
 30
0.0
  0
VERTEX
  5
7842
  8
ALPHA
 10
1245.399616
 20
116.335521
 30
0.0
  0
VERTEX
  5
7843
  8
ALPHA
 10
1245.399616
 20
115.651994
 30
0.0
  0
VERTEX
  5
7844
  8
ALPHA
 10
1245.399616
 20
114.968467
 30
0.0
  0
VERTEX
  5
7845
  8
ALPHA
 10
1245.399616
 20
114.657772
 30
0.0
  0
VERTEX
  5
7846
  8
ALPHA
 10
1244.527147
 20
113.964985
 30
0.0
  0
VERTEX
  5
7847
  8
ALPHA
 10
1243.338331
 20
113.323118
 30
0.0
  0
VERTEX
  5
7848
  8
ALPHA
 10
1242.061281
 20
112.850918
 30
0.0
  0
VERTEX
  5
7849
  8
ALPHA
 10
1240.924107
 20
112.66713
 30
0.0
  0
SEQEND
  5
784A
  8
ALPHA
  0
POLYLINE
  5
7449
  8
ALPHA
 66
     1
 10
0.0
 20
0.0
 30
0.0
 70
   128
  0
VERTEX
  5
784B
  8
ALPHA
 10
1240.924107
 20
112.66713
 30
0.0
  0
VERTEX
  5
784C
  8
ALPHA
 10
1240.674597
 20
112.66713
 30
0.0
  0
VERTEX
  5
784D
  8
ALPHA
 10
1240.059873
 20
112.66713
 30
0.0
  0
SEQEND
  5
784E
  8
ALPHA
  0
LINE
  5
744A
  8
AXE
 10
1252.080729
 20
110.728457
 30
0.0
 11
1243.780729
 21
110.728457
 31
0.0
  0
LINE
  5
744B
  8
ALPHA
 10
1247.374316
 20
114.657771
 30
0.0
 11
1247.374316
 21
116.647314
 31
0.0
  0
LINE
  5
744C
  8
ALPHA
 10
1245.780729
 20
110.728457
 30
0.0
 11
1245.780729
 21
110.545047
 31
0.0
  0
LINE
  5
744D
  8
ALPHA
 10
1245.399617
 20
116.647314
 30
0.0
 11
1245.399617
 21
114.657771
 31
0.0
  0
LINE
  5
744E
  8
ALPHA
 10
1247.374316
 20
116.647314
 30
0.0
 11
1245.399617
 21
116.647314
 31
0.0
  0
LINE
  5
744F
  8
ALPHA
 10
1245.417757
 20
116.059633
 30
0.0
 11
1247.348477
 21
116.059633
 31
0.0
  0
LINE
  5
7450
  8
ALPHA
 10
1245.399617
 20
114.657771
 30
0.0
 11
1247.374316
 21
114.657771
 31
0.0
  0
ARC
  5
7451
  8
ALPHA
 10
1247.930729
 20
110.728457
 30
0.0
 40
2.15
 50
0.0
 51
180.0
  0
DIMENSION
  5
766F
  8
COTATION1
  2
*D16
 10
1228.175296
 20
155.415245
 30
0.0
 11
1259.997644
 21
144.16084
 31
0.0
 70
   131
 15
1245.686161
 25
148.041669
 35
0.0
 40
0.0
1001
ACAD
1000
DSTYLE
1002
{
1070
   288
1070
     1
1002
}
  0
VIEWPORT
  5
494D
 67
     1
  8
0
 10
4.995325
 20
6.556512
 30
0.0
 40
22.70986
 41
13.988421
 68
    -1
 69
     1
1001
ACAD
1000
MVIEW
1002
{
1070
    16
1010
0.0
1020
0.0
1030
0.0
1010
0.0
1020
0.0
1030
1.0
1040
0.0
1040
13.988421
1040
4.995325
1040
6.556512
1040
50.0
1040
0.0
1040
0.0
1070
     0
1070
   100
1070
     1
1070
     1
1070
     0
1070
     0
1070
     0
1070
     0
1040
0.0
1040
0.0
1040
0.0
1040
10.0
1040
10.0
1040
10.0
1040
10.0
1070
     0
1002
{
1002
}
1002
}
  0
ENDSEC
  0
EOF
