  0
SECTION
  2
HEADER
  9
$ACADVER
  1
AC1009
  9
$INSBASE
 10
-146.27124
 20
-153.796096
 30
0.0
  9
$EXTMIN
 10
162.214211
 20
-153.953016
 30
0.0
  9
$EXTMAX
 10
222.214211
 20
-73.816927
 30
0.0
  9
$LIMMIN
 10
-407.970438
 20
-367.832444
  9
$LIMMAX
 10
429.804077
 20
234.370848
  9
$ORTHOMODE
 70
     1
  9
$REGENMODE
 70
     1
  9
$FILLMODE
 70
     1
  9
$QTEXTMODE
 70
     0
  9
$MIRRTEXT
 70
     1
  9
$DRAGMODE
 70
     2
  9
$LTSCALE
 40
10.0
  9
$OSMODE
 70
    37
  9
$ATTMODE
 70
     1
  9
$TEXTSIZE
 40
6.0
  9
$TRACEWID
 40
1.0
  9
$TEXTSTYLE
  7
ROMANS
  9
$CLAYER
  8
COTATION1
  9
$CELTYPE
  6
BYLAYER
  9
$CECOLOR
 62
   256
  9
$DIMSCALE
 40
1.0
  9
$DIMASZ
 40
2.0
  9
$DIMEXO
 40
0.5
  9
$DIMDLI
 40
0.38
  9
$DIMRND
 40
0.0
  9
$DIMDLE
 40
0.0
  9
$DIMEXE
 40
0.18
  9
$DIMTP
 40
0.0
  9
$DIMTM
 40
0.0
  9
$DIMTXT
 40
2.0
  9
$DIMCEN
 40
0.09
  9
$DIMTSZ
 40
0.0
  9
$DIMTOL
 70
     0
  9
$DIMLIM
 70
     0
  9
$DIMTIH
 70
     0
  9
$DIMTOH
 70
     1
  9
$DIMSE1
 70
     0
  9
$DIMSE2
 70
     0
  9
$DIMTAD
 70
     1
  9
$DIMZIN
 70
    12
  9
$DIMBLK
  1
OPEN30
  9
$DIMASO
 70
     1
  9
$DIMSHO
 70
     1
  9
$DIMPOST
  1

  9
$DIMAPOST
  1

  9
$DIMALT
 70
     0
  9
$DIMALTD
 70
     2
  9
$DIMALTF
 40
25.4
  9
$DIMLFAC
 40
1.0
  9
$DIMTOFL
 70
     0
  9
$DIMTVP
 40
0.0
  9
$DIMTIX
 70
     0
  9
$DIMSOXD
 70
     0
  9
$DIMSAH
 70
     0
  9
$DIMBLK1
  1

  9
$DIMBLK2
  1

  9
$DIMSTYLE
  2
ROMANS
  9
$DIMCLRD
 70
     0
  9
$DIMCLRE
 70
     0
  9
$DIMCLRT
 70
     0
  9
$DIMTFAC
 40
1.0
  9
$DIMGAP
 40
0.5
  9
$LUNITS
 70
     2
  9
$LUPREC
 70
     1
  9
$SKETCHINC
 40
0.1
  9
$FILLETRAD
 40
1.5
  9
$AUNITS
 70
     0
  9
$AUPREC
 70
     0
  9
$MENU
  1
acad
  9
$ELEVATION
 40
0.0
  9
$PELEVATION
 40
0.0
  9
$THICKNESS
 40
0.0
  9
$LIMCHECK
 70
     0
  9
$BLIPMODE
 70
     0
  9
$CHAMFERA
 40
0.0
  9
$CHAMFERB
 40
0.0
  9
$SKPOLY
 70
     0
  9
$TDCREATE
 40
2450365.355314
  9
$TDUPDATE
 40
2452608.501164
  9
$TDINDWG
 40
0.690202
  9
$TDUSRTIMER
 40
0.690202
  9
$USRTIMER
 70
     1
  9
$ANGBASE
 50
0.0
  9
$ANGDIR
 70
     0
  9
$PDMODE
 70
    32
  9
$PDSIZE
 40
0.0
  9
$PLINEWID
 40
0.0
  9
$COORDS
 70
     2
  9
$SPLFRAME
 70
     0
  9
$SPLINETYPE
 70
     6
  9
$SPLINESEGS
 70
     8
  9
$ATTDIA
 70
     0
  9
$ATTREQ
 70
     1
  9
$HANDLING
 70
     1
  9
$HANDSEED
  5
6230
  9
$SURFTAB1
 70
     6
  9
$SURFTAB2
 70
     6
  9
$SURFTYPE
 70
     6
  9
$SURFU
 70
     6
  9
$SURFV
 70
     6
  9
$UCSNAME
  2

  9
$UCSORG
 10
0.0
 20
0.0
 30
0.0
  9
$UCSXDIR
 10
1.0
 20
0.0
 30
0.0
  9
$UCSYDIR
 10
0.0
 20
1.0
 30
0.0
  9
$PUCSNAME
  2

  9
$PUCSORG
 10
0.0
 20
0.0
 30
0.0
  9
$PUCSXDIR
 10
1.0
 20
0.0
 30
0.0
  9
$PUCSYDIR
 10
0.0
 20
1.0
 30
0.0
  9
$USERI1
 70
     0
  9
$USERI2
 70
     0
  9
$USERI3
 70
     0
  9
$USERI4
 70
     0
  9
$USERI5
 70
     0
  9
$USERR1
 40
0.0
  9
$USERR2
 40
0.0
  9
$USERR3
 40
0.0
  9
$USERR4
 40
0.0
  9
$USERR5
 40
0.0
  9
$WORLDVIEW
 70
     1
  9
$SHADEDGE
 70
     3
  9
$SHADEDIF
 70
    70
  9
$TILEMODE
 70
     1
  9
$MAXACTVP
 70
    16
  9
$PLIMCHECK
 70
     0
  9
$PEXTMIN
 10
1.000000E+020
 20
1.000000E+020
 30
1.000000E+020
  9
$PEXTMAX
 10
-1.000000E+020
 20
-1.000000E+020
 30
-1.000000E+020
  9
$PLIMMIN
 10
0.0
 20
0.0
  9
$PLIMMAX
 10
12.0
 20
9.0
  9
$UNITMODE
 70
     0
  9
$VISRETAIN
 70
     0
  9
$PLINEGEN
 70
     0
  9
$PSLTSCALE
 70
     0
  0
ENDSEC
  0
SECTION
  2
TABLES
  0
TABLE
  2
VPORT
 70
     2
  0
VPORT
  2
*ACTIVE
 70
     0
 10
0.0
 20
0.0
 11
1.0
 21
1.0
 12
192.217741
 22
-113.89279
 13
0.0
 23
0.0
 14
1.0
 24
1.0
 15
10.0
 25
10.0
 16
0.0
 26
0.0
 36
1.0
 17
0.0
 27
0.0
 37
0.0
 40
80.898639
 41
1.63142
 42
50.0
 43
0.0
 44
0.0
 50
0.0
 51
0.0
 71
     0
 72
   100
 73
     1
 74
     0
 75
     0
 76
     0
 77
     0
 78
     0
  0
ENDTAB
  0
TABLE
  2
LTYPE
 70
    26
  0
LTYPE
  2
CONTINUOUS
 70
     0
  3
Solid line
 72
    65
 73
     0
 40
0.0
  0
LTYPE
  2
AXES2
 70
     0
  3
___ _ ___ _ ___ _ ___ _ ___ _ ___ _ ___ _ ___ _
 72
    65
 73
     4
 40
1.125
 49
0.75
 49
-0.125
 49
0.125
 49
-0.125
  0
LTYPE
  2
ACAD_ISO04W100
 70
     0
  3
ISO Lang gestrichelt punktiert ____ . ____ . __
 72
    65
 73
     4
 40
30.5
 49
24.0
 49
-3.0
 49
0.5
 49
-3.0
  0
LTYPE
  2
AXES
 70
     0
  3
____ _ ____ _ ____ _ ____ _ ____ _ ____ _ ____ 
 72
    65
 73
     4
 40
2.0
 49
1.25
 49
-0.25
 49
0.25
 49
-0.25
  0
LTYPE
  2
AXESX2
 70
     0
  3
________  __  ________  __  ________  __  _____
 72
    65
 73
     4
 40
4.0
 49
2.5
 49
-0.5
 49
0.5
 49
-0.5
  0
LTYPE
  2
TIRETPT
 70
     0
  3
__ . __ . __ . __ . __ . __ . __ . __ . __ . __
 72
    65
 73
     4
 40
1.0
 49
0.5
 49
-0.25
 49
0.0
 49
-0.25
  0
LTYPE
  2
TIRETPT2
 70
     0
  3
_._._._._._._._._._._._._._._._._._._._._._._._
 72
    65
 73
     4
 40
0.5
 49
0.25
 49
-0.125
 49
0.0
 49
-0.125
  0
LTYPE
  2
TIRETPTX2
 70
     0
  3
____  .  ____  .  ____  .  ____  .  ____  .  __
 72
    65
 73
     4
 40
2.0
 49
1.0
 49
-0.5
 49
0.0
 49
-0.5
  0
LTYPE
  2
DISCONTINU
 70
     0
  3
__ __ __ __ __ __ __ __ __ __ __ __ __ __ __ __
 72
    65
 73
     2
 40
0.75
 49
0.5
 49
-0.25
  0
LTYPE
  2
DISCONTINU2
 70
     0
  3
_ _ _ _ _ _ _ _ _ _ _ _ _ _ _ _ _ _ _ _ _ _ _ _
 72
    65
 73
     2
 40
0.375
 49
0.25
 49
-0.125
  0
LTYPE
  2
DISCONTINUX2
 70
     0
  3
____  ____  ____  ____  ____  ____  ____  ____ 
 72
    65
 73
     2
 40
1.5
 49
1.0
 49
-0.5
  0
LTYPE
  2
DIVISE
 70
     0
  3
____ . . ____ . . ____ . . ____ . . ____ . . __
 72
    65
 73
     6
 40
1.25
 49
0.5
 49
-0.25
 49
0.0
 49
-0.25
 49
0.0
 49
-0.25
  0
LTYPE
  2
DIVISE2
 70
     0
  3
__..__..__..__..__..__..__..__..__..__..__..__.
 72
    65
 73
     6
 40
0.625
 49
0.25
 49
-0.125
 49
0.0
 49
-0.125
 49
0.0
 49
-0.125
  0
LTYPE
  2
DIVISEX2
 70
     0
  3
________  .  .  ________  .  .  ________  .  . 
 72
    65
 73
     6
 40
2.5
 49
1.0
 49
-0.5
 49
0.0
 49
-0.5
 49
0.0
 49
-0.5
  0
LTYPE
  2
POINTILLE
 70
     0
  3
. . . . . . . . . . . . . . . . . . . . . . . .
 72
    65
 73
     2
 40
0.25
 49
0.0
 49
-0.25
  0
LTYPE
  2
POINTILLE2
 70
     0
  3
...............................................
 72
    65
 73
     2
 40
0.125
 49
0.0
 49
-0.125
  0
LTYPE
  2
POINTILLEX2
 70
     0
  3
.  .  .  .  .  .  .  .  .  .  .  .  .  .  .  . 
 72
    65
 73
     2
 40
0.5
 49
0.0
 49
-0.5
  0
LTYPE
  2
CACHE
 70
     0
  3
__ __ __ __ __ __ __ __ __ __ __ __ __ __ __ __
 72
    65
 73
     2
 40
0.375
 49
0.25
 49
-0.125
  0
LTYPE
  2
CACHE2
 70
     0
  3
_ _ _ _ _ _ _ _ _ _ _ _ _ _ _ _ _ _ _ _ _ _ _ _
 72
    65
 73
     2
 40
0.1875
 49
0.125
 49
-0.0625
  0
LTYPE
  2
CACHEX2
 70
     0
  3
____ ____ ____ ____ ____ ____ ____ ____ ____ __
 72
    65
 73
     2
 40
0.75
 49
0.5
 49
-0.25
  0
LTYPE
  2
FANTOME
 70
     0
  3
______  __  __  ______  __  __  ______  __  __ 
 72
    65
 73
     6
 40
2.5
 49
1.25
 49
-0.25
 49
0.25
 49
-0.25
 49
0.25
 49
-0.25
  0
LTYPE
  2
FANTOME2
 70
     0
  3
___ _ _ ___ _ _ ___ _ _ ___ _ _ ___ _ _ ___ _ _
 72
    65
 73
     6
 40
1.25
 49
0.625
 49
-0.125
 49
0.125
 49
-0.125
 49
0.125
 49
-0.125
  0
LTYPE
  2
FANTOMEX2
 70
     0
  3
____________    ____    ____    ____________   
 72
    65
 73
     6
 40
5.0
 49
2.5
 49
-0.5
 49
0.5
 49
-0.5
 49
0.5
 49
-0.5
  0
LTYPE
  2
0
 70
     0
  3
MEDUSA PEN 0
 72
    65
 73
     0
 40
0.0
  0
LTYPE
  2
AI9-LTYPE1
 70
     0
  3
Illustrator Dash Style No.1
 72
    65
 73
     4
 40
5.64621
 49
4.106333
 49
-0.307975
 49
0.923926
 49
-0.307975
  0
LTYPE
  2
AI9-LTYPE2
 70
     0
  3
Illustrator Dash Style No.2
 72
    65
 73
     2
 40
1.33456
 49
1.026585
 49
-0.307975
  0
ENDTAB
  0
TABLE
  2
LAYER
 70
    21
  0
LAYER
  2
0
 70
     0
 62
     7
  6
CONTINUOUS
  0
LAYER
  2
TEXTE_MOYEN
 70
     0
 62
   131
  6
CONTINUOUS
  0
LAYER
  2
ALPHA
 70
     0
 62
   254
  6
CONTINUOUS
  0
LAYER
  2
COTATION1
 70
     0
 62
    50
  6
CONTINUOUS
  0
LAYER
  2
AXE
 70
     0
 62
    80
  6
AXES2
  0
LAYER
  2
DEFPOINTS
 70
     0
 62
     7
  6
CONTINUOUS
  0
LAYER
  2
MC_1_7_050
 70
     0
 62
     7
  6
CONTINUOUS
  0
LAYER
  2
MC_1_2_025
 70
     0
 62
     2
  6
CONTINUOUS
  0
LAYER
  2
MC_14_3_025
 70
     0
 62
     3
  6
ACAD_ISO04W100
  0
LAYER
  2
HACHURES1
 70
     0
 62
   130
  6
CONTINUOUS
  0
LAYER
  2
FMULT
 70
     0
 62
   210
  6
CONTINUOUS
  0
LAYER
  2
FDP_CARTOUCHE
 70
     0
 62
   136
  6
CONTINUOUS
  0
LAYER
  2
FDP_TEXTES
 70
     0
 62
   171
  6
CONTINUOUS
  0
LAYER
  2
FDP_LOGO_MG
 70
     0
 62
    30
  6
CONTINUOUS
  0
LAYER
  2
FDP_LOGO_SCH
 70
     0
 62
    90
  6
CONTINUOUS
  0
LAYER
  2
FDP_FDP
 70
     0
 62
   170
  6
CONTINUOUS
  0
LAYER
  2
POINTILLE_COURT2
 70
     0
 62
    41
  6
CACHE2
  0
LAYER
  2
POINTILLE_MOYEN2
 70
     0
 62
   141
  6
CACHE
  0
LAYER
  2
POINTILLE_LONG2
 70
     0
 62
   241
  6
CACHEX2
  0
LAYER
  2
ALPHA_FIN
 70
     0
 62
   255
  6
CONTINUOUS
  0
LAYER
  2
CALQUE_1
 70
     0
 62
   160
  6
CONTINUOUS
  0
ENDTAB
  0
TABLE
  2
STYLE
 70
     5
  0
STYLE
  2
ROMANS
 70
     0
 40
0.0
 41
1.0
 50
0.0
 71
     0
 42
6.0
  3
romans
  4

  0
STYLE
  2
STANDARD
 70
     0
 40
0.2
 41
1.0
 50
0.0
 71
     0
 42
0.2
  3
txt
  4

  0
STYLE
  2
STD
 70
     0
 40
0.0
 41
1.0
 50
0.0
 71
     0
 42
0.0
  3
txt
  4

  0
STYLE
  2
INFOCAR
 70
     0
 40
0.0
 41
1.34
 50
0.0
 71
     0
 42
2.0
  3
ROMANS.SHX
  4

  0
STYLE
  2
CARTOUCHE
 70
     0
 40
0.0
 41
1.0
 50
0.0
 71
     0
 42
0.2
  3
ROMANS.SHX
  4

  0
ENDTAB
  0
TABLE
  2
VIEW
 70
     0
  0
ENDTAB
  0
TABLE
  2
UCS
 70
     0
  0
ENDTAB
  0
TABLE
  2
APPID
 70
     3
  0
APPID
  2
ACAD
 70
     0
  0
APPID
  2
AVE_RENDER
 70
     0
  0
APPID
  2
AVE_MATERIAL
 70
     0
  0
ENDTAB
  0
TABLE
  2
DIMSTYLE
 70
     1
  0
DIMSTYLE
  2
ROMANS
 70
     0
  3

  4

  5
OPEN30
  6

  7

 40
1.0
 41
2.0
 42
0.5
 43
0.38
 44
0.18
 45
0.0
 46
0.0
 47
0.0
 48
0.0
140
2.0
141
0.09
142
0.0
143
25.4
144
1.0
145
0.0
146
1.0
147
0.5
 71
     0
 72
     0
 73
     0
 74
     1
 75
     0
 76
     0
 77
     1
 78
    12
170
     0
171
     2
172
     0
173
     0
174
     0
175
     0
176
     0
177
     0
178
     0
  0
ENDTAB
  0
ENDSEC
  0
SECTION
  2
BLOCKS
  0
BLOCK
  8
0
  2
$MODEL_SPACE
 70
     0
 10
0.0
 20
0.0
 30
0.0
  3
$MODEL_SPACE
  1

  0
ENDBLK
  5
6229
  8
0
  0
BLOCK
 67
     1
  8
0
  2
$PAPER_SPACE
 70
     0
 10
0.0
 20
0.0
 30
0.0
  3
$PAPER_SPACE
  1

  0
ENDBLK
  5
6227
 67
     1
  8
0
  0
BLOCK
  8
0
  2
COTE
 70
     0
 10
0.0
 20
0.0
 30
0.0
  3
COTE
  1

  0
ENDBLK
  5
35
  8
0
  0
BLOCK
  8
0
  2
FOND
 70
     0
 10
0.0
 20
0.0
 30
0.0
  3
FOND
  1

  0
ENDBLK
  5
39
  8
0
  0
BLOCK
  8
0
  2
SCH_ISO
 70
     0
 10
0.0
 20
0.0
 30
0.0
  3
SCH_ISO
  1

  0
ENDBLK
  5
24AD
  8
0
  0
BLOCK
  8
0
  2
_OPEN30
 70
     0
 10
0.0
 20
0.0
 30
0.0
  3
_OPEN30
  1

  0
LINE
  5
27E1
  8
COTATION1
 62
     0
 10
-1.0
 20
0.267949
 30
0.0
 11
0.0
 21
0.0
 31
0.0
1001
ACAD
1000
RTLwPs
1070
   158
  0
LINE
  5
27E2
  8
COTATION1
 62
     0
 10
0.0
 20
0.0
 30
0.0
 11
-1.0
 21
-0.267949
 31
0.0
1001
ACAD
1000
RTLwPs
1070
   158
  0
LINE
  5
27E3
  8
COTATION1
 62
     0
 10
0.0
 20
0.0
 30
0.0
 11
-1.0
 21
0.0
 31
0.0
1001
ACAD
1000
RTLwPs
1070
   158
  0
ENDBLK
  5
27E5
  8
0
  0
BLOCK
  8
0
  2
*D4
 70
     1
 10
0.0
 20
0.0
 30
0.0
  3
*D4
  1

  0
LINE
  5
5F84
  8
COTATION1
 62
     0
 10
190.714211
 20
-91.316927
 30
0.0
 11
164.534211
 21
-91.316927
 31
0.0
1001
ACAD
1000
RTLwPs
1070
   158
  0
LINE
  5
5F85
  8
COTATION1
 62
     0
 10
189.214211
 20
-132.316927
 30
0.0
 11
164.534211
 21
-132.316927
 31
0.0
1001
ACAD
1000
RTLwPs
1070
   158
  0
LINE
  5
5F86
  8
COTATION1
 62
     0
 10
164.714211
 20
-93.316927
 30
0.0
 11
164.714211
 21
-130.316927
 31
0.0
1001
ACAD
1000
RTLwPs
1070
   158
  0
INSERT
  5
5F87
  8
COTATION1
 62
     0
  2
_OPEN30
 10
164.714211
 20
-91.316927
 30
0.0
 41
2.0
 42
2.0
 43
2.0
 50
90.0
1001
ACAD
1000
RTLwPs
1070
   158
  0
INSERT
  5
5F88
  8
COTATION1
 62
     0
  2
_OPEN30
 10
164.714211
 20
-132.316927
 30
0.0
 41
2.0
 42
2.0
 43
2.0
 50
270.0
1001
ACAD
1000
RTLwPs
1070
   158
  0
TEXT
  5
5F89
  8
COTATION1
 62
     0
 10
164.214211
 20
-114.421016
 30
0.0
 40
2.0
  1
41
 50
90.0
1001
ACAD
1000
MTEXTBEGIN
1070
    73
1070
     1
1070
    44
1040
1.0
1070
    74
1070
     0
1000
MTEXTEND
  0
POINT
  5
5F8A
  8
DEFPOINTS
 62
     0
 10
191.214211
 20
-91.316927
 30
0.0
  0
POINT
  5
5F8B
  8
DEFPOINTS
 62
     0
 10
189.714211
 20
-132.316927
 30
0.0
  0
POINT
  5
5F8C
  8
DEFPOINTS
 62
     0
 10
164.714211
 20
-132.316927
 30
0.0
  0
ENDBLK
  5
5B8C
  8
0
  0
BLOCK
  8
0
  2
*D5
 70
     1
 10
0.0
 20
0.0
 30
0.0
  3
*D5
  1

  0
LINE
  5
5FAD
  8
COTATION1
 62
     0
 10
207.214211
 20
-92.316927
 30
0.0
 11
207.214211
 21
-76.136927
 31
0.0
1001
ACAD
1000
RTLwPs
1070
   158
  0
LINE
  5
5FAE
  8
COTATION1
 62
     0
 10
189.714211
 20
-92.316927
 30
0.0
 11
189.714211
 21
-76.136927
 31
0.0
1001
ACAD
1000
RTLwPs
1070
   158
  0
LINE
  5
5FAF
  8
COTATION1
 62
     0
 10
205.214211
 20
-76.316927
 30
0.0
 11
191.714211
 21
-76.316927
 31
0.0
1001
ACAD
1000
RTLwPs
1070
   158
  0
INSERT
  5
5FB0
  8
COTATION1
 62
     0
  2
_OPEN30
 10
207.214211
 20
-76.316927
 30
0.0
 41
2.0
 42
2.0
 43
2.0
1001
ACAD
1000
RTLwPs
1070
   158
  0
INSERT
  5
5FB1
  8
COTATION1
 62
     0
  2
_OPEN30
 10
189.714211
 20
-76.316927
 30
0.0
 41
2.0
 42
2.0
 43
2.0
 50
180.0
1001
ACAD
1000
RTLwPs
1070
   158
  0
TEXT
  5
5FB2
  8
COTATION1
 62
     0
 10
194.98802
 20
-75.816927
 30
0.0
 40
2.0
  1
17.5
1001
ACAD
1000
MTEXTBEGIN
1070
    73
1070
     1
1070
    44
1040
1.0
1070
    74
1070
     0
1000
MTEXTEND
  0
POINT
  5
5FB3
  8
DEFPOINTS
 62
     0
 10
207.214211
 20
-92.816927
 30
0.0
  0
POINT
  5
5FB4
  8
DEFPOINTS
 62
     0
 10
189.714211
 20
-92.816927
 30
0.0
  0
POINT
  5
5FB5
  8
DEFPOINTS
 62
     0
 10
189.714211
 20
-76.316927
 30
0.0
  0
ENDBLK
  5
5B99
  8
0
  0
BLOCK
  8
0
  2
*D6
 70
     1
 10
0.0
 20
0.0
 30
0.0
  3
*D6
  1

  0
LINE
  5
61B0
  8
COTATION1
 62
     0
 10
192.680645
 20
-136.729825
 30
0.0
 11
192.680645
 21
-153.631899
 31
0.0
  0
LINE
  5
61B1
  8
COTATION1
 62
     0
 10
196.280865
 20
-136.7279
 30
0.0
 11
197.748854
 21
-153.409325
 31
0.0
  0
ARC
  5
61B2
  8
COTATION1
 62
     0
 10
192.680645
 20
-95.816942
 30
0.0
 40
57.634957
 50
268.01167
 51
270.0
  0
LINE
  5
61B3
  8
COTATION1
 62
     0
 10
190.680946
 20
-153.417198
 30
0.0
 11
185.585708
 21
-153.417198
 31
0.0
  0
ARC
  5
61B4
  8
COTATION1
 62
     0
 10
192.680645
 20
-95.816942
 30
0.0
 40
57.634957
 50
271.98833
 51
273.040822
  0
INSERT
  5
61B5
  8
COTATION1
 62
     0
  2
_OPEN30
 10
192.680645
 20
-153.451899
 30
0.0
 41
2.0
 42
2.0
 43
2.0
 50
180.994165
  0
INSERT
  5
61B6
  8
COTATION1
 62
     0
  2
_OPEN30
 10
197.733074
 20
-153.230018
 30
0.0
 41
2.0
 42
2.0
 43
2.0
 50
4.034987
  0
TEXT
  5
61B7
  8
COTATION1
 62
     0
 10
185.799994
 20
-152.917198
 30
0.0
 40
2.0
  1
5%%d
  0
POINT
  5
61B8
  8
DEFPOINTS
 62
     0
 10
196.051336
 20
-153.35325
 30
0.0
  0
POINT
  5
61B9
  8
DEFPOINTS
 62
     0
 10
192.680645
 20
-95.816942
 30
0.0
  0
POINT
  5
61BA
  8
DEFPOINTS
 62
     0
 10
192.680645
 20
-95.816942
 30
0.0
  0
POINT
  5
61BB
  8
DEFPOINTS
 62
     0
 10
196.237034
 20
-136.229825
 30
0.0
  0
POINT
  5
61BC
  8
DEFPOINTS
 62
     0
 10
192.680645
 20
-136.229825
 30
0.0
  0
ENDBLK
  5
5BAD
  8
0
  0
BLOCK
  8
0
  2
*D7
 70
     1
 10
0.0
 20
0.0
 30
0.0
  3
*D7
  1

  0
LINE
  5
5F9A
  8
COTATION1
 62
     0
 10
174.739626
 20
-129.525935
 30
0.0
 11
180.192007
 21
-129.525935
 31
0.0
1001
ACAD
1000
RTLwPs
1070
   158
  0
LINE
  5
5F9B
  8
COTATION1
 62
     0
 10
180.192007
 20
-129.525935
 30
0.0
 11
189.755912
 21
-123.239396
 31
0.0
1001
ACAD
1000
RTLwPs
1070
   158
  0
TEXT
  5
5F9C
  8
COTATION1
 62
     0
 10
174.453912
 20
-129.025935
 30
0.0
 40
2.0
  1
3x4
1001
ACAD
1000
MTEXTBEGIN
1070
    73
1070
     1
1070
    44
1040
1.0
1070
    74
1070
     0
1000
MTEXTEND
  0
INSERT
  5
5F9D
  8
COTATION1
 62
     0
  2
_OPEN30
 10
191.427188
 20
-122.140834
 30
0.0
 41
2.0
 42
2.0
 43
2.0
 50
33.317689
1001
ACAD
1000
RTLwPs
1070
   158
  0
LINE
  5
5F9E
  8
COTATION1
 62
     0
 10
192.590645
 20
-121.316913
 30
0.0
 11
192.770645
 21
-121.316913
 31
0.0
1001
ACAD
1000
RTLwPs
1070
   158
  0
LINE
  5
5F9F
  8
COTATION1
 62
     0
 10
192.680645
 20
-121.406913
 30
0.0
 11
192.680645
 21
-121.226913
 31
0.0
1001
ACAD
1000
RTLwPs
1070
   158
  0
POINT
  5
5FA0
  8
DEFPOINTS
 62
     0
 10
191.427188
 20
-122.140834
 30
0.0
  0
POINT
  5
5FA1
  8
DEFPOINTS
 62
     0
 10
193.934102
 20
-120.492992
 30
0.0
  0
ENDBLK
  5
5BE9
  8
0
  0
BLOCK
  8
0
  2
*D8
 70
     1
 10
0.0
 20
0.0
 30
0.0
  3
*D8
  1

  0
LINE
  5
5FB6
  8
COTATION1
 62
     0
 10
192.180645
 20
-95.816942
 30
0.0
 11
174.534211
 21
-95.816942
 31
0.0
1001
ACAD
1000
RTLwPs
1070
   158
  0
LINE
  5
5FB7
  8
COTATION1
 62
     0
 10
192.180645
 20
-121.316913
 30
0.0
 11
174.534211
 21
-121.316913
 31
0.0
1001
ACAD
1000
RTLwPs
1070
   158
  0
LINE
  5
5FB8
  8
COTATION1
 62
     0
 10
174.714211
 20
-97.816942
 30
0.0
 11
174.714211
 21
-119.316913
 31
0.0
1001
ACAD
1000
RTLwPs
1070
   158
  0
INSERT
  5
5FB9
  8
COTATION1
 62
     0
  2
_OPEN30
 10
174.714211
 20
-95.816942
 30
0.0
 41
2.0
 42
2.0
 43
2.0
 50
90.0
1001
ACAD
1000
RTLwPs
1070
   158
  0
INSERT
  5
5FBA
  8
COTATION1
 62
     0
  2
_OPEN30
 10
174.714211
 20
-121.316913
 30
0.0
 41
2.0
 42
2.0
 43
2.0
 50
270.0
1001
ACAD
1000
RTLwPs
1070
   158
  0
TEXT
  5
5FBB
  8
COTATION1
 62
     0
 10
174.214211
 20
-111.900261
 30
0.0
 40
2.0
  1
25.5
 50
90.0
1001
ACAD
1000
MTEXTBEGIN
1070
    73
1070
     1
1070
    44
1040
1.0
1070
    74
1070
     0
1000
MTEXTEND
  0
POINT
  5
5FBC
  8
DEFPOINTS
 62
     0
 10
192.680645
 20
-95.816942
 30
0.0
  0
POINT
  5
5FBD
  8
DEFPOINTS
 62
     0
 10
192.680645
 20
-121.316913
 30
0.0
  0
POINT
  5
5FBE
  8
DEFPOINTS
 62
     0
 10
174.714211
 20
-121.316913
 30
0.0
  0
ENDBLK
  5
5C7E
  8
0
  0
BLOCK
  8
0
  2
*D9
 70
     1
 10
0.0
 20
0.0
 30
0.0
  3
*D9
  1

  0
LINE
  5
61BD
  8
COTATION1
 62
     0
 10
190.714211
 20
-91.316927
 30
0.0
 11
174.534211
 21
-91.316927
 31
0.0
  0
LINE
  5
61BE
  8
COTATION1
 62
     0
 10
192.180645
 20
-95.816942
 30
0.0
 11
174.534211
 21
-95.816942
 31
0.0
  0
LINE
  5
61BF
  8
COTATION1
 62
     0
 10
174.714211
 20
-89.316927
 30
0.0
 11
174.714211
 21
-87.316927
 31
0.0
  0
LINE
  5
61C0
  8
COTATION1
 62
     0
 10
174.714211
 20
-97.816942
 30
0.0
 11
174.714211
 21
-99.816942
 31
0.0
  0
TEXT
  5
61C1
  8
COTATION1
 62
     0
 10
174.02085
 20
-87.677669
 30
0.0
 40
2.0
  1
4.5
 50
90.0
  0
LINE
  5
61C2
  8
COTATION1
 62
     0
 10
174.714211
 20
-91.316927
 30
0.0
 11
174.714211
 21
-95.816942
 31
0.0
  0
INSERT
  5
61C3
  8
COTATION1
 62
     0
  2
_OPEN30
 10
174.714211
 20
-91.316927
 30
0.0
 41
2.0
 42
2.0
 43
2.0
 50
270.0
  0
INSERT
  5
61C4
  8
COTATION1
 62
     0
  2
_OPEN30
 10
174.714211
 20
-95.816942
 30
0.0
 41
2.0
 42
2.0
 43
2.0
 50
90.0
  0
POINT
  5
61C5
  8
DEFPOINTS
 62
     0
 10
191.214211
 20
-91.316927
 30
0.0
  0
POINT
  5
61C6
  8
DEFPOINTS
 62
     0
 10
192.680645
 20
-95.816942
 30
0.0
  0
POINT
  5
61C7
  8
DEFPOINTS
 62
     0
 10
174.714211
 20
-95.816942
 30
0.0
  0
ENDBLK
  5
6092
  8
0
  0
ENDSEC
  0
SECTION
  2
ENTITIES
  0
INSERT
  5
32
  8
0
  2
COTE
 10
0.0
 20
0.0
 30
0.0
  0
INSERT
  5
36
  8
0
  2
FOND
 10
0.0
 20
0.0
 30
0.0
  0
INSERT
  5
24AE
  8
ALPHA
  2
SCH_ISO
 10
-66.27012
 20
-238.940658
 30
0.0
  0
LINE
  5
58EC
  8
AXE
 10
184.714211
 20
-111.816927
 30
0.0
 11
222.214211
 21
-111.816927
 31
0.0
  0
TEXT
  5
58EE
  8
AXE
 10
193.442294
 20
-147.280302
 30
0.0
 40
5.0
  1
Y
 72
     2
 11
197.489913
 21
-147.280302
 31
0.0
  0
TEXT
  5
58EF
  8
AXE
 10
218.133553
 20
-110.728947
 30
0.0
 40
5.0
  1
Z
 72
     2
 11
222.181172
 21
-110.728947
 31
0.0
  0
LINE
  5
5A1A
  8
ALPHA
 10
191.214211
 20
-91.316927
 30
0.0
 11
205.714211
 21
-91.316927
 31
0.0
  0
LINE
  5
5A1B
  8
ALPHA
 10
207.214211
 20
-92.816927
 30
0.0
 11
207.214211
 21
-132.316927
 31
0.0
  0
LINE
  5
5A1C
  8
ALPHA
 10
207.214211
 20
-132.316927
 30
0.0
 11
189.714211
 21
-132.316927
 31
0.0
  0
LINE
  5
5A1D
  8
ALPHA
 10
189.714211
 20
-132.316927
 30
0.0
 11
189.714211
 21
-92.816927
 31
0.0
  0
LINE
  5
5A1E
  8
ALPHA
 10
207.214211
 20
-130.816927
 30
0.0
 11
189.714211
 21
-130.816927
 31
0.0
  0
LINE
  5
5A1F
  8
AXE
 10
198.464211
 20
-86.316927
 30
0.0
 11
198.464211
 21
-147.316927
 31
0.0
  0
LINE
  5
5A20
  8
ALPHA
 10
197.464211
 20
-128.816927
 30
0.0
 11
199.464211
 21
-128.816927
 31
0.0
  0
LINE
  5
5A21
  8
ALPHA
 10
199.464211
 20
-128.816927
 30
0.0
 11
199.464211
 21
-130.816927
 31
0.0
  0
LINE
  5
5A22
  8
ALPHA
 10
197.464211
 20
-128.816927
 30
0.0
 11
197.464211
 21
-130.816927
 31
0.0
  0
ARC
  5
5A23
  8
ALPHA
 10
192.680645
 20
-95.816942
 30
0.0
 40
1.5
 50
84.0
 51
264.0
  0
ARC
  5
5A25
  8
ALPHA
 10
194.972568
 20
-96.02006
 30
0.0
 40
1.5
 50
262.0
 51
82.0
  0
LINE
  5
5A26
  8
ALPHA
 10
192.837438
 20
-94.325159
 30
0.0
 11
195.129361
 21
-94.528277
 31
0.0
  0
LINE
  5
5A27
  8
ALPHA
 10
192.523852
 20
-97.308725
 30
0.0
 11
194.815776
 21
-97.511843
 31
0.0
  0
LINE
  5
5B06
  8
ALPHA
 10
192.837438
 20
-122.808696
 30
0.0
 11
195.129361
 21
-122.605578
 31
0.0
  0
LINE
  5
5B07
  8
ALPHA
 10
192.523852
 20
-119.82513
 30
0.0
 11
194.815776
 21
-119.622012
 31
0.0
  0
ARC
  5
5B08
  8
ALPHA
 10
194.972568
 20
-121.113795
 30
0.0
 40
1.5
 50
278.0
 51
98.0
  0
ARC
  5
5B09
  8
ALPHA
 10
192.680645
 20
-121.316913
 30
0.0
 40
1.5
 50
96.0
 51
276.0
  0
ARC
  5
5B34
  8
ALPHA
 10
204.247776
 20
-121.316913
 30
0.0
 40
1.5
 50
264.0
 51
84.0
  0
ARC
  5
5B35
  8
ALPHA
 10
201.955853
 20
-121.113795
 30
0.0
 40
1.5
 50
82.0
 51
262.0
  0
LINE
  5
5B36
  8
ALPHA
 10
204.404569
 20
-119.82513
 30
0.0
 11
202.112645
 21
-119.622012
 31
0.0
  0
LINE
  5
5B37
  8
ALPHA
 10
204.090984
 20
-122.808696
 30
0.0
 11
201.79906
 21
-122.605578
 31
0.0
  0
LINE
  5
5B38
  8
ALPHA
 10
204.090984
 20
-94.325159
 30
0.0
 11
201.79906
 21
-94.528277
 31
0.0
  0
LINE
  5
5B39
  8
ALPHA
 10
204.404569
 20
-97.308725
 30
0.0
 11
202.112645
 21
-97.511843
 31
0.0
  0
ARC
  5
5B3A
  8
ALPHA
 10
201.955853
 20
-96.02006
 30
0.0
 40
1.5
 50
98.0
 51
278.0
  0
ARC
  5
5B3B
  8
ALPHA
 10
204.247776
 20
-95.816942
 30
0.0
 40
1.5
 50
276.0
 51
96.0
  0
DIMENSION
  5
5B80
  8
COTATION1
  2
*D4
 10
164.714211
 20
-132.316927
 30
0.0
 11
164.714211
 21
-112.801969
 31
0.0
 70
   128
 13
191.214211
 23
-91.316927
 33
0.0
 14
189.714211
 24
-132.316927
 34
0.0
 50
90.0
  0
DIMENSION
  5
5B8D
  8
COTATION1
  2
*D5
 10
189.714211
 20
-76.316927
 30
0.0
 11
198.464211
 21
-76.316927
 31
0.0
 70
   128
 13
207.214211
 23
-92.816927
 33
0.0
 14
189.714211
 24
-92.816927
 34
0.0
  0
LINE
  5
5B9A
  8
AXE
 10
192.680645
 20
-95.816942
 30
0.0
 11
192.680645
 21
-136.229825
 31
0.0
  0
LINE
  5
5B9B
  8
AXE
 10
192.680645
 20
-95.816942
 30
0.0
 11
196.237034
 21
-136.229825
 31
0.0
  0
DIMENSION
  5
5B9D
  8
COTATION1
  2
*D6
 10
192.680645
 20
-136.229825
 30
0.0
 11
187.133327
 21
-151.917198
 31
0.0
 70
     2
 13
192.680645
 23
-95.816942
 33
0.0
 14
196.237034
 24
-136.229825
 34
0.0
 15
192.680645
 25
-95.816942
 35
0.0
 16
196.051336
 26
-153.35325
 36
0.0
1001
ACAD
1000
DSTYLE
1002
{
1070
   271
1070
     0
1002
}
  0
DIMENSION
  5
5BDF
  8
COTATION1
  2
*D7
 10
193.934102
 20
-120.492992
 30
0.0
 11
177.215817
 21
-129.525935
 31
0.0
 70
   131
  1
3x4
 15
191.427188
 25
-122.140834
 35
0.0
 40
0.0
  0
DIMENSION
  5
5C72
  8
COTATION1
  2
*D8
 10
174.714211
 20
-121.316913
 30
0.0
 11
174.714211
 21
-108.566927
 31
0.0
 70
   128
 13
192.680645
 23
-95.816942
 33
0.0
 14
192.680645
 24
-121.316913
 34
0.0
 50
90.0
  0
ARC
  5
5CA1
  8
ALPHA
 10
205.714211
 20
-92.816927
 30
0.0
 40
1.5
 50
0.0
 51
90.0
  0
ARC
  5
5CA5
  8
ALPHA
 10
191.214211
 20
-92.816927
 30
0.0
 40
1.5
 50
90.0
 51
180.0
  0
DIMENSION
  5
6086
  8
COTATION1
  2
*D9
 10
174.714211
 20
-95.816942
 30
0.0
 11
173.02085
 21
-85.296717
 31
0.0
 70
   128
 53
90.0
 13
191.214211
 23
-91.316927
 33
0.0
 14
192.680645
 24
-95.816942
 34
0.0
 50
90.0
1001
ACAD
1000
DSTYLE
1002
{
1070
   287
1070
     5
1070
   279
1070
     2
1070
   175
1070
     0
1070
   172
1070
     1
1002
}
  0
LINE
  5
6123
  8
COTATION1
 10
174.714211
 20
-87.316927
 30
0.0
 11
174.714211
 21
-82.935158
 31
0.0
  0
ENDSEC
  0
EOF
