  0
SECTION
  2
HEADER
  9
$ACADVER
  1
AC1009
  9
$INSBASE
 10
402.590624
 20
-1.041018
 30
0.0
  9
$EXTMIN
 10
82.958279
 20
5.843709
 30
0.0
  9
$EXTMAX
 10
125.007326
 20
77.743709
 30
0.0
  9
$LIMMIN
 10
-407.970438
 20
-367.832444
  9
$LIMMAX
 10
429.804077
 20
234.370848
  9
$ORTHOMODE
 70
     0
  9
$REGENMODE
 70
     1
  9
$FILLMODE
 70
     1
  9
$QTEXTMODE
 70
     0
  9
$MIRRTEXT
 70
     1
  9
$DRAGMODE
 70
     2
  9
$LTSCALE
 40
10.0
  9
$OSMODE
 70
    35
  9
$ATTMODE
 70
     1
  9
$TEXTSIZE
 40
6.0
  9
$TRACEWID
 40
1.0
  9
$TEXTSTYLE
  7
ROMANS
  9
$CLAYER
  8
ALPHA
  9
$CELTYPE
  6
BYLAYER
  9
$CECOLOR
 62
   256
  9
$DIMSCALE
 40
1.0
  9
$DIMASZ
 40
5.0
  9
$DIMEXO
 40
2.0
  9
$DIMDLI
 40
0.38
  9
$DIMRND
 40
0.0
  9
$DIMDLE
 40
0.0
  9
$DIMEXE
 40
2.5
  9
$DIMTP
 40
0.0
  9
$DIMTM
 40
0.0
  9
$DIMTXT
 40
2.5
  9
$DIMCEN
 40
0.0
  9
$DIMTSZ
 40
0.0
  9
$DIMTOL
 70
     0
  9
$DIMLIM
 70
     0
  9
$DIMTIH
 70
     1
  9
$DIMTOH
 70
     1
  9
$DIMSE1
 70
     0
  9
$DIMSE2
 70
     0
  9
$DIMTAD
 70
     1
  9
$DIMZIN
 70
    12
  9
$DIMBLK
  1
OPEN30
  9
$DIMASO
 70
     1
  9
$DIMSHO
 70
     1
  9
$DIMPOST
  1

  9
$DIMAPOST
  1

  9
$DIMALT
 70
     0
  9
$DIMALTD
 70
     2
  9
$DIMALTF
 40
25.4
  9
$DIMLFAC
 40
1.0
  9
$DIMTOFL
 70
     0
  9
$DIMTVP
 40
0.0
  9
$DIMTIX
 70
     0
  9
$DIMSOXD
 70
     0
  9
$DIMSAH
 70
     0
  9
$DIMBLK1
  1

  9
$DIMBLK2
  1

  9
$DIMSTYLE
  2
SC_DEFAUT
  9
$DIMCLRD
 70
     0
  9
$DIMCLRE
 70
     0
  9
$DIMCLRT
 70
     0
  9
$DIMTFAC
 40
1.0
  9
$DIMGAP
 40
2.0
  9
$LUNITS
 70
     2
  9
$LUPREC
 70
     1
  9
$SKETCHINC
 40
0.1
  9
$FILLETRAD
 40
0.0
  9
$AUNITS
 70
     0
  9
$AUPREC
 70
     0
  9
$MENU
  1
acad
  9
$ELEVATION
 40
0.0
  9
$PELEVATION
 40
0.0
  9
$THICKNESS
 40
0.0
  9
$LIMCHECK
 70
     0
  9
$BLIPMODE
 70
     0
  9
$CHAMFERA
 40
0.0
  9
$CHAMFERB
 40
0.0
  9
$SKPOLY
 70
     0
  9
$TDCREATE
 40
2450373.687919
  9
$TDUPDATE
 40
2453032.645215
  9
$TDINDWG
 40
1.098249
  9
$TDUSRTIMER
 40
1.098249
  9
$USRTIMER
 70
     1
  9
$ANGBASE
 50
0.0
  9
$ANGDIR
 70
     0
  9
$PDMODE
 70
    32
  9
$PDSIZE
 40
0.0
  9
$PLINEWID
 40
0.0
  9
$COORDS
 70
     1
  9
$SPLFRAME
 70
     0
  9
$SPLINETYPE
 70
     6
  9
$SPLINESEGS
 70
     8
  9
$ATTDIA
 70
     0
  9
$ATTREQ
 70
     1
  9
$HANDLING
 70
     1
  9
$HANDSEED
  5
AC43
  9
$SURFTAB1
 70
     6
  9
$SURFTAB2
 70
     6
  9
$SURFTYPE
 70
     6
  9
$SURFU
 70
     6
  9
$SURFV
 70
     6
  9
$UCSNAME
  2

  9
$UCSORG
 10
0.0
 20
0.0
 30
0.0
  9
$UCSXDIR
 10
1.0
 20
0.0
 30
0.0
  9
$UCSYDIR
 10
0.0
 20
1.0
 30
0.0
  9
$PUCSNAME
  2

  9
$PUCSORG
 10
0.0
 20
0.0
 30
0.0
  9
$PUCSXDIR
 10
1.0
 20
0.0
 30
0.0
  9
$PUCSYDIR
 10
0.0
 20
1.0
 30
0.0
  9
$USERI1
 70
     0
  9
$USERI2
 70
     0
  9
$USERI3
 70
     0
  9
$USERI4
 70
     0
  9
$USERI5
 70
     0
  9
$USERR1
 40
0.0
  9
$USERR2
 40
0.0
  9
$USERR3
 40
0.0
  9
$USERR4
 40
0.0
  9
$USERR5
 40
0.0
  9
$WORLDVIEW
 70
     1
  9
$SHADEDGE
 70
     3
  9
$SHADEDIF
 70
    70
  9
$TILEMODE
 70
     1
  9
$MAXACTVP
 70
    16
  9
$PLIMCHECK
 70
     0
  9
$PEXTMIN
 10
-1.452248
 20
-0.437698
 30
0.0
  9
$PEXTMAX
 10
12.749749
 20
8.310198
 30
0.0
  9
$PLIMMIN
 10
0.0
 20
0.0
  9
$PLIMMAX
 10
12.0
 20
9.0
  9
$UNITMODE
 70
     0
  9
$VISRETAIN
 70
     0
  9
$PLINEGEN
 70
     0
  9
$PSLTSCALE
 70
     0
  0
ENDSEC
  0
SECTION
  2
TABLES
  0
TABLE
  2
VPORT
 70
     2
  0
VPORT
  2
*ACTIVE
 70
     0
 10
0.0
 20
0.0
 11
1.0
 21
1.0
 12
103.980153
 22
41.79003
 13
0.0
 23
0.0
 14
1.0
 24
1.0
 15
10.0
 25
10.0
 16
0.0
 26
0.0
 36
1.0
 17
0.0
 27
0.0
 37
0.0
 40
72.467272
 41
1.466346
 42
50.0
 43
0.0
 44
0.0
 50
0.0
 51
0.0
 71
     0
 72
   100
 73
     1
 74
     0
 75
     0
 76
     0
 77
     0
 78
     0
  0
ENDTAB
  0
TABLE
  2
LTYPE
 70
     2
  0
LTYPE
  2
CONTINUOUS
 70
     0
  3
Solid line
 72
    65
 73
     0
 40
0.0
  0
LTYPE
  2
AXES2
 70
     0
  3
___ _ ___ _ ___ _ ___ _ ___ _ ___ _ ___ _ ___ _
 72
    65
 73
     4
 40
1.125
 49
0.75
 49
-0.125
 49
0.125
 49
-0.125
  0
ENDTAB
  0
TABLE
  2
LAYER
 70
     5
  0
LAYER
  2
0
 70
     0
 62
   255
  6
CONTINUOUS
  0
LAYER
  2
COTATION1
 70
     0
 62
     2
  6
CONTINUOUS
  0
LAYER
  2
AXE
 70
     0
 62
    80
  6
AXES2
  0
LAYER
  2
DEFPOINTS
 70
     0
 62
     7
  6
CONTINUOUS
  0
LAYER
  2
ALPHA
 70
     0
 62
   254
  6
CONTINUOUS
  0
ENDTAB
  0
TABLE
  2
STYLE
 70
     2
  0
STYLE
  2
ROMANS
 70
     0
 40
0.0
 41
1.0
 50
0.0
 71
     0
 42
6.0
  3
romans
  4

  0
STYLE
  2
STANDARD
 70
     0
 40
0.0
 41
1.0
 50
0.0
 71
     0
 42
0.2
  3
txt
  4

  0
ENDTAB
  0
TABLE
  2
VIEW
 70
     0
  0
ENDTAB
  0
TABLE
  2
UCS
 70
     0
  0
ENDTAB
  0
TABLE
  2
APPID
 70
     1
  0
APPID
  2
ACAD
 70
     0
  0
ENDTAB
  0
TABLE
  2
DIMSTYLE
 70
     2
  0
DIMSTYLE
  2
SC_DEFAUT
 70
     0
  3

  4

  5
OPEN30
  6

  7

 40
1.0
 41
5.0
 42
2.0
 43
0.38
 44
2.5
 45
0.0
 46
0.0
 47
0.0
 48
0.0
140
2.5
141
0.0
142
0.0
143
25.4
144
1.0
145
0.0
146
1.0
147
2.0
 71
     0
 72
     0
 73
     1
 74
     1
 75
     0
 76
     0
 77
     1
 78
    12
170
     0
171
     2
172
     0
173
     0
174
     0
175
     0
176
     0
177
     0
178
     0
  0
DIMSTYLE
  2
STANDARD
 70
     0
  3

  4

  5

  6

  7

 40
1.0
 41
0.18
 42
0.0625
 43
0.38
 44
0.18
 45
0.0
 46
0.0
 47
0.0
 48
0.0
140
0.18
141
0.09
142
0.0
143
25.4
144
1.0
145
0.0
146
1.0
147
0.09
 71
     0
 72
     0
 73
     1
 74
     1
 75
     0
 76
     0
 77
     0
 78
     0
170
     0
171
     2
172
     0
173
     0
174
     0
175
     0
176
     0
177
     0
178
     0
  0
ENDTAB
  0
ENDSEC
  0
SECTION
  2
BLOCKS
  0
BLOCK
  8
0
  2
$MODEL_SPACE
 70
     0
 10
0.0
 20
0.0
 30
0.0
  3
$MODEL_SPACE
  1

  0
ENDBLK
  5
AC3C
  8
0
  0
BLOCK
 67
     1
  8
0
  2
$PAPER_SPACE
 70
     0
 10
0.0
 20
0.0
 30
0.0
  3
$PAPER_SPACE
  1

  0
ENDBLK
  5
AC3A
 67
     1
  8
0
  0
BLOCK
  8
0
  2
COTE
 70
     0
 10
0.0
 20
0.0
 30
0.0
  3
COTE
  1

  0
ENDBLK
  5
F
  8
0
  0
BLOCK
  8
0
  2
FOND
 70
     0
 10
0.0
 20
0.0
 30
0.0
  3
FOND
  1

  0
ENDBLK
  5
75
  8
0
  0
BLOCK
  8
0
  2
_OPEN30
 70
     0
 10
0.0
 20
0.0
 30
0.0
  3
_OPEN30
  1

  0
LINE
  5
4B05
  8
COTATION1
 62
     0
 10
-1.0
 20
0.267949
 30
0.0
 11
0.0
 21
0.0
 31
0.0
1001
ACAD
1000
RTLwPs
1070
   158
  0
LINE
  5
4B06
  8
COTATION1
 62
     0
 10
0.0
 20
0.0
 30
0.0
 11
-1.0
 21
-0.267949
 31
0.0
1001
ACAD
1000
RTLwPs
1070
   158
  0
LINE
  5
4B07
  8
COTATION1
 62
     0
 10
0.0
 20
0.0
 30
0.0
 11
-1.0
 21
0.0
 31
0.0
1001
ACAD
1000
RTLwPs
1070
   158
  0
ENDBLK
  5
4B09
  8
0
  0
BLOCK
  8
0
  2
*D3
 70
     1
 10
0.0
 20
0.0
 30
0.0
  3
*D3
  1

  0
LINE
  5
AB49
  8
COTATION1
 62
     0
 10
87.958279
 20
52.243709
 30
0.0
 11
87.958279
 21
75.743709
 31
0.0
1001
ACAD
1000
RTLwPs
1070
   158
  0
LINE
  5
AB4A
  8
COTATION1
 62
     0
 10
103.958279
 20
52.243709
 30
0.0
 11
103.958279
 21
75.743709
 31
0.0
1001
ACAD
1000
RTLwPs
1070
   158
  0
LINE
  5
AB4B
  8
COTATION1
 62
     0
 10
92.958279
 20
73.243709
 30
0.0
 11
98.958279
 21
73.243709
 31
0.0
1001
ACAD
1000
RTLwPs
1070
   158
  0
INSERT
  5
AB4C
  8
COTATION1
 62
     0
  2
_OPEN30
 10
87.958279
 20
73.243709
 30
0.0
 41
5.0
 42
5.0
 43
5.0
 50
180.0
1001
ACAD
1000
RTLwPs
1070
   158
  0
INSERT
  5
AB4D
  8
COTATION1
 62
     0
  2
_OPEN30
 10
103.958279
 20
73.243709
 30
0.0
 41
5.0
 42
5.0
 43
5.0
1001
ACAD
1000
RTLwPs
1070
   158
  0
TEXT
  5
AB4E
  8
COTATION1
 62
     0
 10
92.565421
 20
75.243709
 30
0.0
 40
2.5
  1
%%c
1001
ACAD
1000
MTEXTBEGIN
1070
    73
1070
     1
1070
    44
1040
1.0
1070
    74
1070
     0
1000
MTEXTEND
  0
TEXT
  5
AC0D
  8
COTATION1
 62
     0
 10
94.827326
 20
75.243709
 30
0.0
 40
2.5
  1
16
1001
ACAD
1000
R13OBJECT
1002
{
1005
AB4E
1002
}
  0
POINT
  5
AB4F
  8
DEFPOINTS
 62
     0
 10
87.958279
 20
50.243709
 30
0.0
  0
POINT
  5
AB50
  8
DEFPOINTS
 62
     0
 10
103.958279
 20
50.243709
 30
0.0
  0
POINT
  5
AB51
  8
DEFPOINTS
 62
     0
 10
103.958279
 20
73.243709
 30
0.0
  0
ENDBLK
  5
97F8
  8
0
  0
BLOCK
  8
0
  2
*D4
 70
     1
 10
0.0
 20
0.0
 30
0.0
  3
*D4
  1

  0
LINE
  5
AB3F
  8
COTATION1
 62
     0
 10
97.958279
 20
58.243709
 30
0.0
 11
123.638279
 21
58.243709
 31
0.0
1001
ACAD
1000
RTLwPs
1070
   158
  0
LINE
  5
AB40
  8
COTATION1
 62
     0
 10
97.958279
 20
15.843709
 30
0.0
 11
123.638279
 21
15.843709
 31
0.0
1001
ACAD
1000
RTLwPs
1070
   158
  0
LINE
  5
AB41
  8
COTATION1
 62
     0
 10
121.138279
 20
53.243709
 30
0.0
 11
121.138279
 21
40.293709
 31
0.0
1001
ACAD
1000
RTLwPs
1070
   158
  0
LINE
  5
AB42
  8
COTATION1
 62
     0
 10
121.138279
 20
20.843709
 30
0.0
 11
121.138279
 21
33.793709
 31
0.0
1001
ACAD
1000
RTLwPs
1070
   158
  0
INSERT
  5
AB43
  8
COTATION1
 62
     0
  2
_OPEN30
 10
121.138279
 20
58.243709
 30
0.0
 41
5.0
 42
5.0
 43
5.0
 50
90.0
1001
ACAD
1000
RTLwPs
1070
   158
  0
INSERT
  5
AB44
  8
COTATION1
 62
     0
  2
_OPEN30
 10
121.138279
 20
15.843709
 30
0.0
 41
5.0
 42
5.0
 43
5.0
 50
270.0
1001
ACAD
1000
RTLwPs
1070
   158
  0
TEXT
  5
AB45
  8
COTATION1
 62
     0
 10
116.912088
 20
35.793709
 30
0.0
 40
2.5
  1
42.4
1001
ACAD
1000
MTEXTBEGIN
1070
    73
1070
     1
1070
    44
1040
1.0
1070
    74
1070
     0
1000
MTEXTEND
  0
POINT
  5
AB46
  8
DEFPOINTS
 62
     0
 10
95.958279
 20
58.243709
 30
0.0
  0
POINT
  5
AB47
  8
DEFPOINTS
 62
     0
 10
95.958279
 20
15.843709
 30
0.0
  0
POINT
  5
AB48
  8
DEFPOINTS
 62
     0
 10
121.138279
 20
15.843709
 30
0.0
  0
ENDBLK
  5
989A
  8
0
  0
ENDSEC
  0
SECTION
  2
ENTITIES
  0
INSERT
  5
A
  8
0
  2
COTE
 10
0.0
 20
0.0
 30
0.0
  0
INSERT
  5
17
  8
0
  2
COTE
 10
284.010391
 20
6.373258
 30
0.0
  0
INSERT
  5
72
  8
0
  2
FOND
 10
0.0
 20
0.0
 30
0.0
  0
LINE
  5
97AB
  8
AXE
 10
95.958279
 20
5.843709
 30
0.0
 11
95.958279
 21
63.243709
 31
0.0
  0
TEXT
  5
97AC
  8
AXE
 10
90.91066
 20
5.843709
 30
0.0
 40
5.0
  1
Y
 72
     2
 11
94.958279
 21
5.843709
 31
0.0
  0
TEXT
  5
97AF
  8
AXE
 10
109.91066
 20
51.243709
 30
0.0
 40
5.0
  1
X
 72
     2
 11
113.958279
 21
51.243709
 31
0.0
  0
LINE
  5
97B0
  8
AXE
 10
82.958279
 20
50.243709
 30
0.0
 11
113.958279
 21
50.243709
 31
0.0
  0
DIMENSION
  5
97EC
  8
COTATION1
  2
*D3
 10
103.958279
 20
73.243709
 30
0.0
 11
95.958279
 21
76.493709
 31
0.0
  1
%%c<>
 13
87.958279
 23
50.243709
 33
0.0
 14
103.958279
 24
50.243709
 34
0.0
  0
DIMENSION
  5
988B
  8
COTATION1
  2
*D4
 10
121.138279
 20
15.843709
 30
0.0
 11
121.138279
 21
37.043709
 31
0.0
 13
95.958279
 23
58.243709
 33
0.0
 14
95.958279
 24
15.843709
 34
0.0
 50
90.0
  0
LINE
  5
98A5
  8
AXE
 10
85.782389
 20
23.843709
 30
0.0
 11
106.134168
 21
23.843709
 31
0.0
  0
ARC
  5
AA1D
  8
ALPHA
 10
99.84387
 20
20.899596
 30
0.0
 40
0.3
 50
322.848784
 51
47.0
  0
LINE
  5
AA1E
  8
ALPHA
 10
100.727211
 20
21.834255
 30
0.0
 11
100.082983
 21
20.718419
 31
0.0
  0
ARC
  5
AA1F
  8
ALPHA
 10
92.072687
 20
20.899596
 30
0.0
 40
0.3
 50
133.0
 51
217.151216
  0
LINE
  5
AA20
  8
ALPHA
 10
91.833574
 20
20.718419
 30
0.0
 11
91.189346
 21
21.834255
 31
0.0
  0
ARC
  5
AA21
  8
ALPHA
 10
95.958279
 20
23.843709
 30
0.0
 40
8.0
 50
173.707306
 51
6.292694
  0
ARC
  5
AA25
  8
ALPHA
 10
95.958279
 20
23.843709
 30
0.0
 40
5.175
 50
247.151216
 51
262.848784
  0
LINE
  5
AA26
  8
ALPHA
 10
93.908666
 20
19.864952
 30
0.0
 11
93.778423
 21
19.438948
 31
0.0
  0
LINE
  5
AA27
  8
ALPHA
 10
93.233571
 20
19.753518
 30
0.0
 11
93.537381
 21
20.079314
 31
0.0
  0
ARC
  5
AA28
  8
ALPHA
 10
93.698279
 20
19.929274
 30
0.0
 40
0.22
 50
343.0
 51
137.0
  0
ARC
  5
AA29
  8
ALPHA
 10
93.014165
 20
19.958118
 30
0.0
 40
0.3
 50
232.848784
 51
317.0
  0
ARC
  5
AA2A
  8
ALPHA
 10
94.065314
 20
19.351236
 30
0.0
 40
0.3
 50
163.0
 51
247.151216
  0
LINE
  5
AA2B
  8
ALPHA
 10
93.948824
 20
19.074776
 30
0.0
 11
92.832989
 21
19.719004
 31
0.0
  0
ARC
  5
AA2C
  8
ALPHA
 10
95.958279
 20
23.843709
 30
0.0
 40
5.175
 50
217.151216
 51
232.848784
  0
LINE
  5
AA2D
  8
ALPHA
 10
98.379176
 20
20.079314
 30
0.0
 11
98.682986
 21
19.753518
 31
0.0
  0
ARC
  5
AA2E
  8
ALPHA
 10
98.902392
 20
19.958118
 30
0.0
 40
0.3
 50
223.0
 51
307.151216
  0
ARC
  5
AA2F
  8
ALPHA
 10
95.958279
 20
23.843709
 30
0.0
 40
5.175
 50
307.151216
 51
322.848784
  0
LINE
  5
AA30
  8
ALPHA
 10
98.138134
 20
19.438948
 30
0.0
 11
98.007892
 21
19.864952
 31
0.0
  0
ARC
  5
AA31
  8
ALPHA
 10
98.218279
 20
19.929274
 30
0.0
 40
0.22
 50
43.0
 51
197.0
  0
ARC
  5
AA32
  8
ALPHA
 10
95.958279
 20
19.323709
 30
0.0
 40
0.22
 50
13.0
 51
167.0
  0
ARC
  5
AA33
  8
ALPHA
 10
95.958279
 20
23.843709
 30
0.0
 40
5.175
 50
277.151216
 51
292.848784
  0
ARC
  5
AA34
  8
ALPHA
 10
96.56516
 20
19.006631
 30
0.0
 40
0.3
 50
193.0
 51
277.151216
  0
ARC
  5
AA35
  8
ALPHA
 10
95.351397
 20
19.006631
 30
0.0
 40
0.3
 50
262.848784
 51
347.0
  0
LINE
  5
AA36
  8
ALPHA
 10
95.958279
 20
18.668709
 30
0.0
 11
95.314051
 21
18.708965
 31
0.0
  0
LINE
  5
AA37
  8
ALPHA
 10
96.602506
 20
18.708965
 30
0.0
 11
95.958279
 21
18.668709
 31
0.0
  0
LINE
  5
AA38
  8
ALPHA
 10
96.17264
 20
19.373198
 30
0.0
 11
96.272849
 21
18.939146
 31
0.0
  0
LINE
  5
AA39
  8
ALPHA
 10
95.643708
 20
18.939146
 30
0.0
 11
95.743917
 21
19.373198
 31
0.0
  0
ARC
  5
AA3A
  8
ALPHA
 10
97.851243
 20
19.351236
 30
0.0
 40
0.3
 50
292.848784
 51
17.0
  0
LINE
  5
AA3B
  8
ALPHA
 10
99.083568
 20
19.719004
 30
0.0
 11
97.967733
 21
19.074776
 31
0.0
  0
CIRCLE
  5
AA60
  8
ALPHA
 10
95.958279
 20
50.243709
 30
0.0
 40
4.15
  0
CIRCLE
  5
AA61
  8
ALPHA
 10
95.958279
 20
50.243709
 30
0.0
 40
4.25
  0
ARC
  5
AA62
  8
ALPHA
 10
95.958279
 20
23.843709
 30
0.0
 40
5.175
 50
97.151216
 51
112.848784
  0
LINE
  5
AA63
  8
ALPHA
 10
102.548968
 20
35.825174
 30
0.0
 11
89.36759
 21
35.825174
 31
0.0
  0
LINE
  5
AA64
  8
ALPHA
 10
102.468456
 20
36.278328
 30
0.0
 11
89.448101
 21
36.278328
 31
0.0
  0
LINE
  5
AA65
  8
ALPHA
 10
90.325254
 20
39.125857
 30
0.0
 11
101.591303
 21
39.125857
 31
0.0
  0
LINE
  5
AA66
  8
ALPHA
 10
90.404895
 20
40.938472
 30
0.0
 11
101.511662
 21
40.938472
 31
0.0
  0
CIRCLE
  5
AA67
  8
ALPHA
 10
95.958279
 20
50.243709
 30
0.0
 40
8.0
  0
LINE
  5
AA68
  8
ALPHA
 10
89.231006
 20
35.825174
 30
0.0
 11
88.006479
 21
24.72057
 31
0.0
  0
LINE
  5
AA69
  8
ALPHA
 10
89.36759
 20
35.825174
 30
0.0
 11
88.006479
 21
24.72057
 31
0.0
  0
LINE
  5
AA6A
  8
ALPHA
 10
93.537381
 20
27.608104
 30
0.0
 11
93.233571
 21
27.9339
 31
0.0
  0
LINE
  5
AA6B
  8
ALPHA
 10
93.778423
 20
28.24847
 30
0.0
 11
93.908666
 21
27.822466
 31
0.0
  0
ARC
  5
AA6C
  8
ALPHA
 10
93.014165
 20
27.7293
 30
0.0
 40
0.3
 50
43.0
 51
127.151216
  0
ARC
  5
AA6D
  8
ALPHA
 10
93.698279
 20
27.758144
 30
0.0
 40
0.22
 50
223.0
 51
17.0
  0
ARC
  5
AA6E
  8
ALPHA
 10
94.065314
 20
28.336182
 30
0.0
 40
0.3
 50
112.848784
 51
197.0
  0
LINE
  5
AA6F
  8
ALPHA
 10
92.832989
 20
27.968414
 30
0.0
 11
93.948824
 21
28.612642
 31
0.0
  0
LINE
  5
AA70
  8
ALPHA
 10
91.979522
 20
25.893322
 30
0.0
 11
91.553517
 21
26.023565
 31
0.0
  0
ARC
  5
AA71
  8
ALPHA
 10
91.465806
 20
25.736673
 30
0.0
 40
0.3
 50
73.0
 51
157.151216
  0
ARC
  5
AA72
  8
ALPHA
 10
92.072687
 20
26.787822
 30
0.0
 40
0.3
 50
142.848784
 51
227.0
  0
LINE
  5
AA73
  8
ALPHA
 10
91.189346
 20
25.853163
 30
0.0
 11
91.833574
 21
26.968999
 31
0.0
  0
LINE
  5
AA74
  8
ALPHA
 10
91.053716
 20
24.158279
 30
0.0
 11
91.487768
 21
24.05807
 31
0.0
  0
LINE
  5
AA75
  8
ALPHA
 10
91.487768
 20
23.629348
 30
0.0
 11
91.053716
 21
23.529139
 31
0.0
  0
LINE
  5
AA76
  8
ALPHA
 10
91.553517
 20
21.663853
 30
0.0
 11
91.979522
 21
21.794096
 31
0.0
  0
ARC
  5
AA77
  8
ALPHA
 10
91.121201
 20
23.236828
 30
0.0
 40
0.3
 50
103.0
 51
187.151216
  0
ARC
  5
AA78
  8
ALPHA
 10
91.438279
 20
23.843709
 30
0.0
 40
0.22
 50
283.0
 51
77.0
  0
ARC
  5
AA79
  8
ALPHA
 10
91.121201
 20
24.45059
 30
0.0
 40
0.3
 50
172.848784
 51
257.0
  0
ARC
  5
AA7A
  8
ALPHA
 10
91.465806
 20
21.950745
 30
0.0
 40
0.3
 50
202.848784
 51
287.0
  0
ARC
  5
AA7B
  8
ALPHA
 10
95.958279
 20
23.843709
 30
0.0
 40
5.175
 50
187.151216
 51
202.848784
  0
LINE
  5
AA7C
  8
ALPHA
 10
90.823535
 20
23.199481
 30
0.0
 11
90.823535
 21
24.487937
 31
0.0
  0
ARC
  5
AA7D
  8
ALPHA
 10
95.958279
 20
23.843709
 30
0.0
 40
5.175
 50
157.151216
 51
172.848784
  0
LINE
  5
AA7E
  8
ALPHA
 10
91.868088
 20
26.568416
 30
0.0
 11
92.193883
 21
26.264607
 31
0.0
  0
LINE
  5
AA7F
  8
ALPHA
 10
92.193883
 20
21.422811
 30
0.0
 11
91.868088
 21
21.119002
 31
0.0
  0
ARC
  5
AA80
  8
ALPHA
 10
92.043844
 20
26.103709
 30
0.0
 40
0.22
 50
253.0
 51
47.0
  0
ARC
  5
AA81
  8
ALPHA
 10
92.043844
 20
21.583709
 30
0.0
 40
0.22
 50
313.0
 51
107.0
  0
ARC
  5
AA82
  8
ALPHA
 10
95.958279
 20
23.843709
 30
0.0
 40
5.175
 50
127.151216
 51
142.848784
  0
LINE
  5
AA83
  8
ALPHA
 10
90.325254
 20
40.938472
 30
0.0
 11
90.325254
 21
39.125857
 31
0.0
  0
LINE
  5
AA84
  8
ALPHA
 10
90.325254
 20
40.938472
 30
0.0
 11
90.404895
 21
40.938472
 31
0.0
  0
LINE
  5
AA85
  8
ALPHA
 10
90.325254
 20
39.125857
 30
0.0
 11
90.404895
 21
40.938472
 31
0.0
  0
LINE
  5
AA86
  8
ALPHA
 10
89.582261
 20
38.090943
 30
0.0
 11
89.406633
 21
37.168423
 31
0.0
  0
LINE
  5
AA87
  8
ALPHA
 10
89.582261
 20
38.090943
 30
0.0
 11
90.325254
 21
40.938472
 31
0.0
  0
LINE
  5
AA88
  8
ALPHA
 10
89.406633
 20
36.093824
 30
0.0
 11
89.448101
 21
36.278328
 31
0.0
  0
LINE
  5
AA89
  8
ALPHA
 10
89.36759
 20
35.825174
 30
0.0
 11
89.406633
 21
36.093824
 31
0.0
  0
LINE
  5
AA8A
  8
ALPHA
 10
89.406633
 20
36.093824
 30
0.0
 11
89.406633
 21
37.168423
 31
0.0
  0
LINE
  5
AA8B
  8
ALPHA
 10
89.448101
 20
36.278328
 30
0.0
 11
90.325254
 21
39.125857
 31
0.0
  0
LINE
  5
AA8C
  8
ALPHA
 10
89.406633
 20
37.168423
 30
0.0
 11
89.231006
 21
35.825174
 31
0.0
  0
LINE
  5
AA8D
  8
ALPHA
 10
90.404895
 20
40.938472
 30
0.0
 11
90.76261
 21
44.182409
 31
0.0
  0
LINE
  5
AA8E
  8
ALPHA
 10
93.031262
 20
53.170725
 30
0.0
 11
92.953075
 21
53.248913
 31
0.0
  0
LINE
  5
AA8F
  8
ALPHA
 10
91.864346
 20
51.340675
 30
0.0
 11
91.955366
 21
51.316286
 31
0.0
  0
LINE
  5
AA90
  8
ALPHA
 10
102.548968
 20
35.825174
 30
0.0
 11
103.910078
 21
24.72057
 31
0.0
  0
LINE
  5
AA91
  8
ALPHA
 10
102.685552
 20
35.825174
 30
0.0
 11
103.910078
 21
24.72057
 31
0.0
  0
LINE
  5
AA92
  8
ALPHA
 10
95.658279
 20
33.843709
 30
0.0
 11
95.658279
 21
30.843709
 31
0.0
  0
LINE
  5
AA93
  8
ALPHA
 10
95.958279
 20
30.843709
 30
0.0
 11
95.958279
 21
33.843709
 31
0.0
  0
LINE
  5
AA94
  8
ALPHA
 10
96.258279
 20
33.843709
 30
0.0
 11
96.258279
 21
30.843709
 31
0.0
  0
ARC
  5
AA95
  8
ALPHA
 10
100.450751
 20
25.736673
 30
0.0
 40
0.3
 50
22.848784
 51
107.0
  0
LINE
  5
AA96
  8
ALPHA
 10
100.428789
 20
24.05807
 30
0.0
 11
100.862842
 21
24.158279
 31
0.0
  0
LINE
  5
AA97
  8
ALPHA
 10
100.862842
 20
23.529139
 30
0.0
 11
100.428789
 21
23.629348
 31
0.0
  0
ARC
  5
AA98
  8
ALPHA
 10
100.450751
 20
21.950745
 30
0.0
 40
0.3
 50
253.0
 51
337.151216
  0
ARC
  5
AA99
  8
ALPHA
 10
100.795356
 20
24.45059
 30
0.0
 40
0.3
 50
283.0
 51
7.151216
  0
ARC
  5
AA9A
  8
ALPHA
 10
100.478279
 20
23.843709
 30
0.0
 40
0.22
 50
103.0
 51
257.0
  0
ARC
  5
AA9B
  8
ALPHA
 10
100.795356
 20
23.236828
 30
0.0
 40
0.3
 50
352.848784
 51
77.0
  0
ARC
  5
AA9C
  8
ALPHA
 10
95.958279
 20
23.843709
 30
0.0
 40
5.175
 50
337.151216
 51
352.848784
  0
LINE
  5
AA9D
  8
ALPHA
 10
101.093023
 20
24.487937
 30
0.0
 11
101.093023
 21
23.199481
 31
0.0
  0
ARC
  5
AA9E
  8
ALPHA
 10
95.958279
 20
23.843709
 30
0.0
 40
5.175
 50
7.151216
 51
22.848784
  0
LINE
  5
AA9F
  8
ALPHA
 10
98.682986
 20
27.9339
 30
0.0
 11
98.379176
 21
27.608104
 31
0.0
  0
LINE
  5
AAA0
  8
ALPHA
 10
99.722674
 20
26.264607
 30
0.0
 11
100.04847
 21
26.568416
 31
0.0
  0
ARC
  5
AAA1
  8
ALPHA
 10
99.84387
 20
26.787822
 30
0.0
 40
0.3
 50
313.0
 51
37.151216
  0
ARC
  5
AAA2
  8
ALPHA
 10
99.872713
 20
26.103709
 30
0.0
 40
0.22
 50
133.0
 51
287.0
  0
ARC
  5
AAA3
  8
ALPHA
 10
98.902392
 20
27.7293
 30
0.0
 40
0.3
 50
52.848784
 51
137.0
  0
ARC
  5
AAA4
  8
ALPHA
 10
95.958279
 20
23.843709
 30
0.0
 40
5.175
 50
37.151216
 51
52.848784
  0
LINE
  5
AAA5
  8
ALPHA
 10
96.272849
 20
28.748272
 30
0.0
 11
96.17264
 21
28.31422
 31
0.0
  0
LINE
  5
AAA6
  8
ALPHA
 10
98.007892
 20
27.822466
 30
0.0
 11
98.138134
 21
28.24847
 31
0.0
  0
ARC
  5
AAA7
  8
ALPHA
 10
96.56516
 20
28.680787
 30
0.0
 40
0.3
 50
82.848784
 51
167.0
  0
ARC
  5
AAA8
  8
ALPHA
 10
95.958279
 20
23.843709
 30
0.0
 40
5.175
 50
67.151216
 51
82.848784
  0
ARC
  5
AAA9
  8
ALPHA
 10
97.851243
 20
28.336182
 30
0.0
 40
0.3
 50
343.0
 51
67.151216
  0
ARC
  5
AAAA
  8
ALPHA
 10
98.218279
 20
27.758144
 30
0.0
 40
0.22
 50
163.0
 51
317.0
  0
LINE
  5
AAAB
  8
ALPHA
 10
97.967733
 20
28.612642
 30
0.0
 11
99.083568
 21
27.968414
 31
0.0
  0
LINE
  5
AAAC
  8
ALPHA
 10
100.04847
 20
21.119002
 30
0.0
 11
99.722674
 21
21.422811
 31
0.0
  0
ARC
  5
AAAD
  8
ALPHA
 10
99.872713
 20
21.583709
 30
0.0
 40
0.22
 50
73.0
 51
227.0
  0
LINE
  5
AAAE
  8
ALPHA
 10
95.743917
 20
28.31422
 30
0.0
 11
95.643708
 21
28.748272
 31
0.0
  0
ARC
  5
AAAF
  8
ALPHA
 10
95.351397
 20
28.680787
 30
0.0
 40
0.3
 50
13.0
 51
97.151216
  0
LINE
  5
AAB0
  8
ALPHA
 10
95.314051
 20
28.978453
 30
0.0
 11
95.958279
 21
29.018709
 31
0.0
  0
LINE
  5
AAB1
  8
ALPHA
 10
96.258279
 20
30.843709
 30
0.0
 11
95.658279
 21
30.843709
 31
0.0
  0
ARC
  5
AAB2
  8
ALPHA
 10
95.958279
 20
28.363709
 30
0.0
 40
0.22
 50
193.0
 51
347.0
  0
LINE
  5
AAB3
  8
ALPHA
 10
95.958279
 20
29.018709
 30
0.0
 11
96.602506
 21
28.978453
 31
0.0
  0
LINE
  5
AAB4
  8
ALPHA
 10
99.937035
 20
21.794096
 30
0.0
 11
100.36304
 21
21.663853
 31
0.0
  0
LINE
  5
AAB5
  8
ALPHA
 10
100.36304
 20
26.023565
 30
0.0
 11
99.937035
 21
25.893322
 31
0.0
  0
LINE
  5
AAB6
  8
ALPHA
 10
100.082983
 20
26.968999
 30
0.0
 11
100.727211
 21
25.853163
 31
0.0
  0
LINE
  5
AAB7
  8
ALPHA
 10
102.509924
 20
37.168423
 30
0.0
 11
102.334297
 21
38.090943
 31
0.0
  0
LINE
  5
AAB8
  8
ALPHA
 10
101.591303
 20
40.938472
 30
0.0
 11
101.511662
 21
40.938472
 31
0.0
  0
LINE
  5
AAB9
  8
ALPHA
 10
101.591303
 20
40.938472
 30
0.0
 11
101.591303
 21
39.125857
 31
0.0
  0
LINE
  5
AABA
  8
ALPHA
 10
101.591303
 20
39.125857
 30
0.0
 11
101.511662
 21
40.938472
 31
0.0
  0
LINE
  5
AABB
  8
ALPHA
 10
102.334297
 20
38.090943
 30
0.0
 11
101.591303
 21
40.938472
 31
0.0
  0
LINE
  5
AABC
  8
ALPHA
 10
102.509924
 20
36.093824
 30
0.0
 11
102.548968
 21
35.825174
 31
0.0
  0
LINE
  5
AABD
  8
ALPHA
 10
102.468456
 20
36.278328
 30
0.0
 11
102.509924
 21
36.093824
 31
0.0
  0
LINE
  5
AABE
  8
ALPHA
 10
102.468456
 20
36.278328
 30
0.0
 11
101.591303
 21
39.125857
 31
0.0
  0
LINE
  5
AABF
  8
ALPHA
 10
102.509924
 20
36.093824
 30
0.0
 11
102.509924
 21
37.168423
 31
0.0
  0
LINE
  5
AAC0
  8
ALPHA
 10
102.685552
 20
35.825174
 30
0.0
 11
102.509924
 21
37.168423
 31
0.0
  0
LINE
  5
AAC1
  8
ALPHA
 10
96.258279
 20
33.843709
 30
0.0
 11
95.658279
 21
33.843709
 31
0.0
  0
LINE
  5
AAC2
  8
ALPHA
 10
101.511662
 20
40.938472
 30
0.0
 11
101.153947
 21
44.182409
 31
0.0
  0
LINE
  5
AAC3
  8
ALPHA
 10
98.963482
 20
53.248913
 30
0.0
 11
98.885295
 21
53.170725
 31
0.0
  0
LINE
  5
AAC4
  8
ALPHA
 10
99.961191
 20
51.316286
 30
0.0
 11
100.052211
 21
51.340675
 31
0.0
  0
LINE
  5
AAC5
  8
ALPHA
 10
97.055245
 20
46.149776
 30
0.0
 11
97.030856
 21
46.240796
 31
0.0
  0
LINE
  5
AAC6
  8
ALPHA
 10
94.885701
 20
46.240796
 30
0.0
 11
94.861313
 21
46.149776
 31
0.0
  0
CIRCLE
  5
AAC7
  8
ALPHA
 10
95.958279
 20
50.243709
 30
0.0
 40
1.0
  0
VIEWPORT
  5
494D
 67
     1
  8
0
 10
4.995325
 20
6.556512
 30
0.0
 40
22.70986
 41
13.988421
 68
    -1
 69
     1
1001
ACAD
1000
MVIEW
1002
{
1070
    16
1010
0.0
1020
0.0
1030
0.0
1010
0.0
1020
0.0
1030
1.0
1040
0.0
1040
13.988421
1040
4.995325
1040
6.556512
1040
50.0
1040
0.0
1040
0.0
1070
     0
1070
   100
1070
     1
1070
     1
1070
     0
1070
     0
1070
     0
1070
     0
1040
0.0
1040
0.0
1040
0.0
1040
10.0
1040
10.0
1040
10.0
1040
10.0
1070
     0
1002
{
1002
}
1002
}
  0
ENDSEC
  0
EOF
