  0
SECTION
  2
HEADER
  9
$ACADVER
  1
AC1009
  9
$INSBASE
 10
402.590624
 20
-1.041018
 30
0.0
  9
$EXTMIN
 10
-187.241943
 20
28.332779
 30
0.0
  9
$EXTMAX
 10
-78.181894
 20
174.332779
 30
0.0
  9
$LIMMIN
 10
-407.970438
 20
-367.832444
  9
$LIMMAX
 10
429.804077
 20
234.370848
  9
$ORTHOMODE
 70
     1
  9
$REGENMODE
 70
     1
  9
$FILLMODE
 70
     1
  9
$QTEXTMODE
 70
     0
  9
$MIRRTEXT
 70
     1
  9
$DRAGMODE
 70
     2
  9
$LTSCALE
 40
10.0
  9
$OSMODE
 70
    37
  9
$ATTMODE
 70
     1
  9
$TEXTSIZE
 40
6.0
  9
$TRACEWID
 40
1.0
  9
$TEXTSTYLE
  7
ROMANS
  9
$CLAYER
  8
ALPHA
  9
$CELTYPE
  6
BYLAYER
  9
$CECOLOR
 62
   256
  9
$DIMSCALE
 40
1.0
  9
$DIMASZ
 40
5.0
  9
$DIMEXO
 40
2.0
  9
$DIMDLI
 40
0.38
  9
$DIMRND
 40
0.0
  9
$DIMDLE
 40
0.0
  9
$DIMEXE
 40
2.5
  9
$DIMTP
 40
0.0
  9
$DIMTM
 40
0.0
  9
$DIMTXT
 40
2.5
  9
$DIMCEN
 40
0.0
  9
$DIMTSZ
 40
0.0
  9
$DIMTOL
 70
     0
  9
$DIMLIM
 70
     0
  9
$DIMTIH
 70
     1
  9
$DIMTOH
 70
     1
  9
$DIMSE1
 70
     0
  9
$DIMSE2
 70
     0
  9
$DIMTAD
 70
     1
  9
$DIMZIN
 70
    12
  9
$DIMBLK
  1
OPEN30
  9
$DIMASO
 70
     1
  9
$DIMSHO
 70
     1
  9
$DIMPOST
  1

  9
$DIMAPOST
  1

  9
$DIMALT
 70
     0
  9
$DIMALTD
 70
     2
  9
$DIMALTF
 40
25.4
  9
$DIMLFAC
 40
1.0
  9
$DIMTOFL
 70
     0
  9
$DIMTVP
 40
0.0
  9
$DIMTIX
 70
     0
  9
$DIMSOXD
 70
     0
  9
$DIMSAH
 70
     0
  9
$DIMBLK1
  1

  9
$DIMBLK2
  1

  9
$DIMSTYLE
  2
SC_DEFAUT
  9
$DIMCLRD
 70
     0
  9
$DIMCLRE
 70
     0
  9
$DIMCLRT
 70
     0
  9
$DIMTFAC
 40
1.0
  9
$DIMGAP
 40
2.0
  9
$LUNITS
 70
     2
  9
$LUPREC
 70
     1
  9
$SKETCHINC
 40
0.1
  9
$FILLETRAD
 40
5.0
  9
$AUNITS
 70
     0
  9
$AUPREC
 70
     0
  9
$MENU
  1
acad
  9
$ELEVATION
 40
0.0
  9
$PELEVATION
 40
0.0
  9
$THICKNESS
 40
0.0
  9
$LIMCHECK
 70
     0
  9
$BLIPMODE
 70
     0
  9
$CHAMFERA
 40
0.0
  9
$CHAMFERB
 40
0.0
  9
$SKPOLY
 70
     0
  9
$TDCREATE
 40
2450373.687919
  9
$TDUPDATE
 40
2452850.435669
  9
$TDINDWG
 40
1.588013
  9
$TDUSRTIMER
 40
1.588013
  9
$USRTIMER
 70
     1
  9
$ANGBASE
 50
0.0
  9
$ANGDIR
 70
     0
  9
$PDMODE
 70
    32
  9
$PDSIZE
 40
0.0
  9
$PLINEWID
 40
0.0
  9
$COORDS
 70
     1
  9
$SPLFRAME
 70
     0
  9
$SPLINETYPE
 70
     6
  9
$SPLINESEGS
 70
     8
  9
$ATTDIA
 70
     0
  9
$ATTREQ
 70
     1
  9
$HANDLING
 70
     1
  9
$HANDSEED
  5
11E83
  9
$SURFTAB1
 70
     6
  9
$SURFTAB2
 70
     6
  9
$SURFTYPE
 70
     6
  9
$SURFU
 70
     6
  9
$SURFV
 70
     6
  9
$UCSNAME
  2

  9
$UCSORG
 10
0.0
 20
0.0
 30
0.0
  9
$UCSXDIR
 10
1.0
 20
0.0
 30
0.0
  9
$UCSYDIR
 10
0.0
 20
1.0
 30
0.0
  9
$PUCSNAME
  2

  9
$PUCSORG
 10
0.0
 20
0.0
 30
0.0
  9
$PUCSXDIR
 10
1.0
 20
0.0
 30
0.0
  9
$PUCSYDIR
 10
0.0
 20
1.0
 30
0.0
  9
$USERI1
 70
     0
  9
$USERI2
 70
     0
  9
$USERI3
 70
     0
  9
$USERI4
 70
     0
  9
$USERI5
 70
     0
  9
$USERR1
 40
0.0
  9
$USERR2
 40
0.0
  9
$USERR3
 40
0.0
  9
$USERR4
 40
0.0
  9
$USERR5
 40
0.0
  9
$WORLDVIEW
 70
     1
  9
$SHADEDGE
 70
     3
  9
$SHADEDIF
 70
    70
  9
$TILEMODE
 70
     1
  9
$MAXACTVP
 70
    16
  9
$PLIMCHECK
 70
     0
  9
$PEXTMIN
 10
-1.452248
 20
-0.437698
 30
0.0
  9
$PEXTMAX
 10
12.749749
 20
8.310198
 30
0.0
  9
$PLIMMIN
 10
0.0
 20
0.0
  9
$PLIMMAX
 10
12.0
 20
9.0
  9
$UNITMODE
 70
     0
  9
$VISRETAIN
 70
     0
  9
$PLINEGEN
 70
     0
  9
$PSLTSCALE
 70
     0
  0
ENDSEC
  0
SECTION
  2
TABLES
  0
TABLE
  2
VPORT
 70
     2
  0
VPORT
  2
*ACTIVE
 70
     0
 10
0.0
 20
0.0
 11
1.0
 21
1.0
 12
-132.704954
 22
101.334057
 13
0.0
 23
0.0
 14
1.0
 24
1.0
 15
10.0
 25
10.0
 16
0.0
 26
0.0
 36
1.0
 17
0.0
 27
0.0
 37
0.0
 40
147.261251
 41
1.56
 42
50.0
 43
0.0
 44
0.0
 50
0.0
 51
0.0
 71
     0
 72
   100
 73
     1
 74
     0
 75
     0
 76
     0
 77
     0
 78
     0
  0
ENDTAB
  0
TABLE
  2
LTYPE
 70
     2
  0
LTYPE
  2
CONTINUOUS
 70
     0
  3
Solid line
 72
    65
 73
     0
 40
0.0
  0
LTYPE
  2
AXES2
 70
     0
  3
___ _ ___ _ ___ _ ___ _ ___ _ ___ _ ___ _ ___ _
 72
    65
 73
     4
 40
1.125
 49
0.75
 49
-0.125
 49
0.125
 49
-0.125
  0
ENDTAB
  0
TABLE
  2
LAYER
 70
     6
  0
LAYER
  2
0
 70
     0
 62
   255
  6
CONTINUOUS
  0
LAYER
  2
COTATION1
 70
     0
 62
     2
  6
CONTINUOUS
  0
LAYER
  2
AXE
 70
     0
 62
    80
  6
AXES2
  0
LAYER
  2
DEFPOINTS
 70
     0
 62
     7
  6
CONTINUOUS
  0
LAYER
  2
ALPHA
 70
     0
 62
   254
  6
CONTINUOUS
  0
LAYER
  2
ALPHA_FIN
 70
     0
 62
   255
  6
CONTINUOUS
  0
ENDTAB
  0
TABLE
  2
STYLE
 70
     2
  0
STYLE
  2
ROMANS
 70
     0
 40
0.0
 41
1.0
 50
0.0
 71
     0
 42
6.0
  3
romans
  4

  0
STYLE
  2
STANDARD
 70
     0
 40
0.2
 41
1.0
 50
0.0
 71
     0
 42
0.2
  3
txt
  4

  0
ENDTAB
  0
TABLE
  2
VIEW
 70
     0
  0
ENDTAB
  0
TABLE
  2
UCS
 70
     0
  0
ENDTAB
  0
TABLE
  2
APPID
 70
     1
  0
APPID
  2
ACAD
 70
     0
  0
ENDTAB
  0
TABLE
  2
DIMSTYLE
 70
     1
  0
DIMSTYLE
  2
SC_DEFAUT
 70
     0
  3

  4

  5
OPEN30
  6

  7

 40
1.0
 41
5.0
 42
2.0
 43
0.38
 44
2.5
 45
0.0
 46
0.0
 47
0.0
 48
0.0
140
2.5
141
0.0
142
0.0
143
25.4
144
1.0
145
0.0
146
1.0
147
2.0
 71
     0
 72
     0
 73
     1
 74
     1
 75
     0
 76
     0
 77
     1
 78
    12
170
     0
171
     2
172
     0
173
     0
174
     0
175
     0
176
     0
177
     0
178
     0
  0
ENDTAB
  0
ENDSEC
  0
SECTION
  2
BLOCKS
  0
BLOCK
  8
0
  2
$MODEL_SPACE
 70
     0
 10
0.0
 20
0.0
 30
0.0
  3
$MODEL_SPACE
  1

  0
ENDBLK
  5
11E4E
  8
0
  0
BLOCK
 67
     1
  8
0
  2
$PAPER_SPACE
 70
     0
 10
0.0
 20
0.0
 30
0.0
  3
$PAPER_SPACE
  1

  0
ENDBLK
  5
11E4C
 67
     1
  8
0
  0
BLOCK
  8
0
  2
COTE
 70
     0
 10
0.0
 20
0.0
 30
0.0
  3
COTE
  1

  0
ENDBLK
  5
F
  8
0
  0
BLOCK
  8
0
  2
FOND
 70
     0
 10
0.0
 20
0.0
 30
0.0
  3
FOND
  1

  0
ENDBLK
  5
75
  8
0
  0
BLOCK
  8
0
  2
_OPEN30
 70
     0
 10
0.0
 20
0.0
 30
0.0
  3
_OPEN30
  1

  0
LINE
  5
4B05
  8
COTATION1
 62
     0
 10
-1.0
 20
0.267949
 30
0.0
 11
0.0
 21
0.0
 31
0.0
1001
ACAD
1000
RTLwPs
1070
   158
  0
LINE
  5
4B06
  8
COTATION1
 62
     0
 10
0.0
 20
0.0
 30
0.0
 11
-1.0
 21
-0.267949
 31
0.0
1001
ACAD
1000
RTLwPs
1070
   158
  0
LINE
  5
4B07
  8
COTATION1
 62
     0
 10
0.0
 20
0.0
 30
0.0
 11
-1.0
 21
0.0
 31
0.0
1001
ACAD
1000
RTLwPs
1070
   158
  0
ENDBLK
  5
4B09
  8
0
  0
BLOCK
  8
0
  2
*D3
 70
     1
 10
0.0
 20
0.0
 30
0.0
  3
*D3
  1

  0
LINE
  5
11686
  8
COTATION1
 62
     0
 10
-136.552225
 20
118.832779
 30
0.0
 11
-88.181894
 21
118.832779
 31
0.0
1001
ACAD
1000
RTLwPs
1070
   158
  0
LINE
  5
11687
  8
COTATION1
 62
     0
 10
-133.681894
 20
66.832779
 30
0.0
 11
-88.181894
 21
66.832779
 31
0.0
1001
ACAD
1000
RTLwPs
1070
   158
  0
LINE
  5
11688
  8
COTATION1
 62
     0
 10
-90.681894
 20
113.832779
 30
0.0
 11
-90.681894
 21
96.082779
 31
0.0
1001
ACAD
1000
RTLwPs
1070
   158
  0
LINE
  5
11689
  8
COTATION1
 62
     0
 10
-90.681894
 20
71.832779
 30
0.0
 11
-90.681894
 21
89.582779
 31
0.0
1001
ACAD
1000
RTLwPs
1070
   158
  0
INSERT
  5
1168A
  8
COTATION1
 62
     0
  2
_OPEN30
 10
-90.681894
 20
118.832779
 30
0.0
 41
5.0
 42
5.0
 43
5.0
 50
90.0
1001
ACAD
1000
RTLwPs
1070
   158
  0
INSERT
  5
1168B
  8
COTATION1
 62
     0
  2
_OPEN30
 10
-90.681894
 20
66.832779
 30
0.0
 41
5.0
 42
5.0
 43
5.0
 50
270.0
1001
ACAD
1000
RTLwPs
1070
   158
  0
TEXT
  5
1168C
  8
COTATION1
 62
     0
 10
-93.062846
 20
91.582779
 30
0.0
 40
2.5
  1
52
1001
ACAD
1000
MTEXTBEGIN
1070
    73
1070
     1
1070
    44
1040
1.0
1070
    74
1070
     0
1000
MTEXTEND
1000
MTEXTBEGIN
1070
    73
1070
     1
1070
    44
1040
1.0
1070
    74
1070
     0
1000
MTEXTEND
  0
POINT
  5
1168D
  8
DEFPOINTS
 62
     0
 10
-138.552225
 20
118.832779
 30
0.0
  0
POINT
  5
1168E
  8
DEFPOINTS
 62
     0
 10
-135.681894
 20
66.832779
 30
0.0
  0
POINT
  5
1168F
  8
DEFPOINTS
 62
     0
 10
-90.681894
 20
66.832779
 30
0.0
  0
ENDBLK
  5
FF9B
  8
0
  0
BLOCK
  8
0
  2
*D4
 70
     1
 10
0.0
 20
0.0
 30
0.0
  3
*D4
  1

  0
LINE
  5
102ED
  8
COTATION1
 62
     0
 10
-143.802225
 20
116.832779
 30
0.0
 11
-98.181894
 21
116.832779
 31
0.0
1001
ACAD
1000
RTLwPs
1070
   158
  0
LINE
  5
102EE
  8
COTATION1
 62
     0
 10
-133.681894
 20
66.832779
 30
0.0
 11
-98.181894
 21
66.832779
 31
0.0
1001
ACAD
1000
RTLwPs
1070
   158
  0
LINE
  5
102EF
  8
COTATION1
 62
     0
 10
-100.681894
 20
111.832779
 30
0.0
 11
-100.681894
 21
95.082779
 31
0.0
1001
ACAD
1000
RTLwPs
1070
   158
  0
LINE
  5
102F0
  8
COTATION1
 62
     0
 10
-100.681894
 20
71.832779
 30
0.0
 11
-100.681894
 21
88.582779
 31
0.0
1001
ACAD
1000
RTLwPs
1070
   158
  0
INSERT
  5
102F1
  8
COTATION1
 62
     0
  2
_OPEN30
 10
-100.681894
 20
116.832779
 30
0.0
 41
5.0
 42
5.0
 43
5.0
 50
90.0
1001
ACAD
1000
RTLwPs
1070
   158
  0
INSERT
  5
102F2
  8
COTATION1
 62
     0
  2
_OPEN30
 10
-100.681894
 20
66.832779
 30
0.0
 41
5.0
 42
5.0
 43
5.0
 50
270.0
1001
ACAD
1000
RTLwPs
1070
   158
  0
TEXT
  5
102F3
  8
COTATION1
 62
     0
 10
-103.062846
 20
90.582779
 30
0.0
 40
2.5
  1
50
1001
ACAD
1000
MTEXTBEGIN
1070
    73
1070
     1
1070
    44
1040
1.0
1070
    74
1070
     0
1000
MTEXTEND
1000
MTEXTBEGIN
1070
    73
1070
     1
1070
    44
1040
1.0
1070
    74
1070
     0
1000
MTEXTEND
1000
MTEXTBEGIN
1070
    73
1070
     1
1070
    44
1040
1.0
1070
    74
1070
     0
1000
MTEXTEND
1000
MTEXTBEGIN
1070
    73
1070
     1
1070
    44
1040
1.0
1070
    74
1070
     0
1000
MTEXTEND
1000
MTEXTBEGIN
1070
    73
1070
     1
1070
    44
1040
1.0
1070
    74
1070
     0
1000
MTEXTEND
1000
MTEXTBEGIN
1070
    73
1070
     1
1070
    44
1040
1.0
1070
    74
1070
     0
1000
MTEXTEND
  0
POINT
  5
102F4
  8
DEFPOINTS
 62
     0
 10
-145.802225
 20
116.832779
 30
0.0
  0
POINT
  5
102F5
  8
DEFPOINTS
 62
     0
 10
-135.681894
 20
66.832779
 30
0.0
  0
POINT
  5
102F6
  8
DEFPOINTS
 62
     0
 10
-100.681894
 20
66.832779
 30
0.0
  0
ENDBLK
  5
FFB5
  8
0
  0
BLOCK
  8
0
  2
*D5
 70
     1
 10
0.0
 20
0.0
 30
0.0
  3
*D5
  1

  0
LINE
  5
10429
  8
COTATION1
 62
     0
 10
-127.302225
 20
106.832779
 30
0.0
 11
-108.181894
 21
106.832779
 31
0.0
1001
ACAD
1000
RTLwPs
1070
   158
  0
LINE
  5
1042A
  8
COTATION1
 62
     0
 10
-133.681894
 20
66.832779
 30
0.0
 11
-108.181894
 21
66.832779
 31
0.0
1001
ACAD
1000
RTLwPs
1070
   158
  0
LINE
  5
1042B
  8
COTATION1
 62
     0
 10
-110.681894
 20
101.832779
 30
0.0
 11
-110.681894
 21
90.082779
 31
0.0
1001
ACAD
1000
RTLwPs
1070
   158
  0
LINE
  5
1042C
  8
COTATION1
 62
     0
 10
-110.681894
 20
71.832779
 30
0.0
 11
-110.681894
 21
83.582779
 31
0.0
1001
ACAD
1000
RTLwPs
1070
   158
  0
INSERT
  5
1042D
  8
COTATION1
 62
     0
  2
_OPEN30
 10
-110.681894
 20
106.832779
 30
0.0
 41
5.0
 42
5.0
 43
5.0
 50
90.0
1001
ACAD
1000
RTLwPs
1070
   158
  0
INSERT
  5
1042E
  8
COTATION1
 62
     0
  2
_OPEN30
 10
-110.681894
 20
66.832779
 30
0.0
 41
5.0
 42
5.0
 43
5.0
 50
270.0
1001
ACAD
1000
RTLwPs
1070
   158
  0
TEXT
  5
1042F
  8
COTATION1
 62
     0
 10
-113.062846
 20
85.582779
 30
0.0
 40
2.5
  1
40
1001
ACAD
1000
MTEXTBEGIN
1070
    73
1070
     1
1070
    44
1040
1.0
1070
    74
1070
     0
1000
MTEXTEND
1000
MTEXTBEGIN
1070
    73
1070
     1
1070
    44
1040
1.0
1070
    74
1070
     0
1000
MTEXTEND
1000
MTEXTBEGIN
1070
    73
1070
     1
1070
    44
1040
1.0
1070
    74
1070
     0
1000
MTEXTEND
1000
MTEXTBEGIN
1070
    73
1070
     1
1070
    44
1040
1.0
1070
    74
1070
     0
1000
MTEXTEND
1000
MTEXTBEGIN
1070
    73
1070
     1
1070
    44
1040
1.0
1070
    74
1070
     0
1000
MTEXTEND
1000
MTEXTBEGIN
1070
    73
1070
     1
1070
    44
1040
1.0
1070
    74
1070
     0
1000
MTEXTEND
  0
POINT
  5
10430
  8
DEFPOINTS
 62
     0
 10
-129.302225
 20
106.832779
 30
0.0
  0
POINT
  5
10431
  8
DEFPOINTS
 62
     0
 10
-135.681894
 20
66.832779
 30
0.0
  0
POINT
  5
10432
  8
DEFPOINTS
 62
     0
 10
-110.681894
 20
66.832779
 30
0.0
  0
ENDBLK
  5
FFC2
  8
0
  0
BLOCK
  8
0
  2
*D6
 70
     1
 10
0.0
 20
0.0
 30
0.0
  3
*D6
  1

  0
LINE
  5
1043C
  8
COTATION1
 62
     0
 10
-155.802225
 20
98.332779
 30
0.0
 11
-155.802225
 21
38.332779
 31
0.0
1001
ACAD
1000
RTLwPs
1070
   158
  0
LINE
  5
1043D
  8
COTATION1
 62
     0
 10
-135.802225
 20
98.332779
 30
0.0
 11
-135.802225
 21
38.332779
 31
0.0
1001
ACAD
1000
RTLwPs
1070
   158
  0
LINE
  5
1043E
  8
COTATION1
 62
     0
 10
-150.802225
 20
40.832779
 30
0.0
 11
-140.802225
 21
40.832779
 31
0.0
1001
ACAD
1000
RTLwPs
1070
   158
  0
INSERT
  5
1043F
  8
COTATION1
 62
     0
  2
_OPEN30
 10
-155.802225
 20
40.832779
 30
0.0
 41
5.0
 42
5.0
 43
5.0
 50
180.0
1001
ACAD
1000
RTLwPs
1070
   158
  0
INSERT
  5
10440
  8
COTATION1
 62
     0
  2
_OPEN30
 10
-135.802225
 20
40.832779
 30
0.0
 41
5.0
 42
5.0
 43
5.0
1001
ACAD
1000
RTLwPs
1070
   158
  0
TEXT
  5
10441
  8
COTATION1
 62
     0
 10
-148.183177
 20
42.832779
 30
0.0
 40
2.5
  1
20
1001
ACAD
1000
MTEXTBEGIN
1070
    73
1070
     1
1070
    44
1040
1.0
1070
    74
1070
     0
1000
MTEXTEND
1000
MTEXTBEGIN
1070
    73
1070
     1
1070
    44
1040
1.0
1070
    74
1070
     0
1000
MTEXTEND
1000
MTEXTBEGIN
1070
    73
1070
     1
1070
    44
1040
1.0
1070
    74
1070
     0
1000
MTEXTEND
1000
MTEXTBEGIN
1070
    73
1070
     1
1070
    44
1040
1.0
1070
    74
1070
     0
1000
MTEXTEND
1000
MTEXTBEGIN
1070
    73
1070
     1
1070
    44
1040
1.0
1070
    74
1070
     0
1000
MTEXTEND
1000
MTEXTBEGIN
1070
    73
1070
     1
1070
    44
1040
1.0
1070
    74
1070
     0
1000
MTEXTEND
  0
POINT
  5
10442
  8
DEFPOINTS
 62
     0
 10
-155.802225
 20
100.332779
 30
0.0
  0
POINT
  5
10443
  8
DEFPOINTS
 62
     0
 10
-135.802225
 20
100.332779
 30
0.0
  0
POINT
  5
10444
  8
DEFPOINTS
 62
     0
 10
-135.802225
 20
40.832779
 30
0.0
  0
ENDBLK
  5
FFCE
  8
0
  0
BLOCK
  8
0
  2
*D7
 70
     1
 10
0.0
 20
0.0
 30
0.0
  3
*D7
  1

  0
LINE
  5
10300
  8
COTATION1
 62
     0
 10
-160.681894
 20
64.832779
 30
0.0
 11
-160.681894
 21
28.332779
 31
0.0
1001
ACAD
1000
RTLwPs
1070
   158
  0
LINE
  5
10301
  8
COTATION1
 62
     0
 10
-130.681894
 20
69.832779
 30
0.0
 11
-130.681894
 21
28.332779
 31
0.0
1001
ACAD
1000
RTLwPs
1070
   158
  0
LINE
  5
10302
  8
COTATION1
 62
     0
 10
-155.681894
 20
30.832779
 30
0.0
 11
-135.681894
 21
30.832779
 31
0.0
1001
ACAD
1000
RTLwPs
1070
   158
  0
INSERT
  5
10303
  8
COTATION1
 62
     0
  2
_OPEN30
 10
-160.681894
 20
30.832779
 30
0.0
 41
5.0
 42
5.0
 43
5.0
 50
180.0
1001
ACAD
1000
RTLwPs
1070
   158
  0
INSERT
  5
10304
  8
COTATION1
 62
     0
  2
_OPEN30
 10
-130.681894
 20
30.832779
 30
0.0
 41
5.0
 42
5.0
 43
5.0
1001
ACAD
1000
RTLwPs
1070
   158
  0
TEXT
  5
10305
  8
COTATION1
 62
     0
 10
-148.062846
 20
32.832779
 30
0.0
 40
2.5
  1
30
1001
ACAD
1000
MTEXTBEGIN
1070
    73
1070
     1
1070
    44
1040
1.0
1070
    74
1070
     0
1000
MTEXTEND
1000
MTEXTBEGIN
1070
    73
1070
     1
1070
    44
1040
1.0
1070
    74
1070
     0
1000
MTEXTEND
1000
MTEXTBEGIN
1070
    73
1070
     1
1070
    44
1040
1.0
1070
    74
1070
     0
1000
MTEXTEND
1000
MTEXTBEGIN
1070
    73
1070
     1
1070
    44
1040
1.0
1070
    74
1070
     0
1000
MTEXTEND
1000
MTEXTBEGIN
1070
    73
1070
     1
1070
    44
1040
1.0
1070
    74
1070
     0
1000
MTEXTEND
1000
MTEXTBEGIN
1070
    73
1070
     1
1070
    44
1040
1.0
1070
    74
1070
     0
1000
MTEXTEND
  0
POINT
  5
10306
  8
DEFPOINTS
 62
     0
 10
-160.681894
 20
66.832779
 30
0.0
  0
POINT
  5
10307
  8
DEFPOINTS
 62
     0
 10
-130.681894
 20
71.832779
 30
0.0
  0
POINT
  5
10308
  8
DEFPOINTS
 62
     0
 10
-130.681894
 20
30.832779
 30
0.0
  0
ENDBLK
  5
FFDA
  8
0
  0
BLOCK
  8
0
  2
*D8
 70
     1
 10
0.0
 20
0.0
 30
0.0
  3
*D8
  1

  0
LINE
  5
1036D
  8
COTATION1
 62
     0
 10
-174.090626
 20
116.592548
 30
0.0
 11
-164.590626
 21
116.592548
 31
0.0
1001
ACAD
1000
RTLwPs
1070
   158
  0
LINE
  5
1036E
  8
COTATION1
 62
     0
 10
-164.590626
 20
116.592548
 30
0.0
 11
-160.553251
 21
112.108928
 31
0.0
1001
ACAD
1000
RTLwPs
1070
   158
  0
TEXT
  5
1036F
  8
COTATION1
 62
     0
 10
-174.328721
 20
118.592548
 30
0.0
 40
2.5
  1
%%c4.2
1001
ACAD
1000
MTEXTBEGIN
1070
    73
1070
     1
1070
    44
1040
1.0
1070
    74
1070
     0
1000
MTEXTEND
1000
MTEXTBEGIN
1070
    73
1070
     1
1070
    44
1040
1.0
1070
    74
1070
     0
1000
MTEXTEND
1000
MTEXTBEGIN
1070
    73
1070
     1
1070
    44
1040
1.0
1070
    74
1070
     0
1000
MTEXTEND
1000
MTEXTBEGIN
1070
    73
1070
     1
1070
    44
1040
1.0
1070
    74
1070
     0
1000
MTEXTEND
1000
MTEXTBEGIN
1070
    73
1070
     1
1070
    44
1040
1.0
1070
    74
1070
     0
1000
MTEXTEND
1000
MTEXTBEGIN
1070
    73
1070
     1
1070
    44
1040
1.0
1070
    74
1070
     0
1000
MTEXTEND
  0
INSERT
  5
10370
  8
COTATION1
 62
     0
  2
_OPEN30
 10
-157.207458
 20
108.39333
 30
0.0
 41
5.0
 42
5.0
 43
5.0
 50
312.002156
1001
ACAD
1000
RTLwPs
1070
   158
  0
POINT
  5
10371
  8
DEFPOINTS
 62
     0
 10
-157.207458
 20
108.39333
 30
0.0
  0
POINT
  5
10372
  8
DEFPOINTS
 62
     0
 10
-154.396992
 20
105.272227
 30
0.0
  0
ENDBLK
  5
10363
  8
0
  0
BLOCK
  8
0
  2
*D9
 70
     1
 10
0.0
 20
0.0
 30
0.0
  3
*D9
  1

  0
LINE
  5
10379
  8
COTATION1
 62
     0
 10
-183.827086
 20
93.482114
 30
0.0
 11
-177.898515
 21
93.482114
 31
0.0
1001
ACAD
1000
RTLwPs
1070
   158
  0
LINE
  5
1037A
  8
COTATION1
 62
     0
 10
-177.898515
 20
93.482114
 30
0.0
 11
-163.505338
 21
102.178528
 31
0.0
1001
ACAD
1000
RTLwPs
1070
   158
  0
TEXT
  5
1037B
  8
COTATION1
 62
     0
 10
-184.065182
 20
95.482114
 30
0.0
 40
2.5
  1
%%c8
1001
ACAD
1000
MTEXTBEGIN
1070
    73
1070
     1
1070
    44
1040
1.0
1070
    74
1070
     0
1000
MTEXTEND
1000
MTEXTBEGIN
1070
    73
1070
     1
1070
    44
1040
1.0
1070
    74
1070
     0
1000
MTEXTEND
1000
MTEXTBEGIN
1070
    73
1070
     1
1070
    44
1040
1.0
1070
    74
1070
     0
1000
MTEXTEND
1000
MTEXTBEGIN
1070
    73
1070
     1
1070
    44
1040
1.0
1070
    74
1070
     0
1000
MTEXTEND
1000
MTEXTBEGIN
1070
    73
1070
     1
1070
    44
1040
1.0
1070
    74
1070
     0
1000
MTEXTEND
1000
MTEXTBEGIN
1070
    73
1070
     1
1070
    44
1040
1.0
1070
    74
1070
     0
1000
MTEXTEND
  0
INSERT
  5
1037C
  8
COTATION1
 62
     0
  2
_OPEN30
 10
-159.225831
 20
104.764223
 30
0.0
 41
5.0
 42
5.0
 43
5.0
 50
31.140535
1001
ACAD
1000
RTLwPs
1070
   158
  0
POINT
  5
1037D
  8
DEFPOINTS
 62
     0
 10
-159.225831
 20
104.764223
 30
0.0
  0
POINT
  5
1037E
  8
DEFPOINTS
 62
     0
 10
-152.378619
 20
108.901335
 30
0.0
  0
ENDBLK
  5
1036C
  8
0
  0
BLOCK
  8
0
  2
*D10
 70
     1
 10
0.0
 20
0.0
 30
0.0
  3
*D10
  1

  0
LINE
  5
11D0C
  8
COTATION1
 62
     0
 10
-143.802225
 20
154.832779
 30
0.0
 11
-78.181894
 21
154.832779
 31
0.0
1001
ACAD
1000
RTLwPs
1070
   158
  0
LINE
  5
11D0D
  8
COTATION1
 62
     0
 10
-133.681894
 20
66.832779
 30
0.0
 11
-78.181894
 21
66.832779
 31
0.0
1001
ACAD
1000
RTLwPs
1070
   158
  0
LINE
  5
11D0E
  8
COTATION1
 62
     0
 10
-80.681894
 20
149.832779
 30
0.0
 11
-80.681894
 21
114.082779
 31
0.0
1001
ACAD
1000
RTLwPs
1070
   158
  0
LINE
  5
11D0F
  8
COTATION1
 62
     0
 10
-80.681894
 20
71.832779
 30
0.0
 11
-80.681894
 21
107.582779
 31
0.0
1001
ACAD
1000
RTLwPs
1070
   158
  0
INSERT
  5
11D10
  8
COTATION1
 62
     0
  2
_OPEN30
 10
-80.681894
 20
154.832779
 30
0.0
 41
5.0
 42
5.0
 43
5.0
 50
90.0
1001
ACAD
1000
RTLwPs
1070
   158
  0
INSERT
  5
11D11
  8
COTATION1
 62
     0
  2
_OPEN30
 10
-80.681894
 20
66.832779
 30
0.0
 41
5.0
 42
5.0
 43
5.0
 50
270.0
1001
ACAD
1000
RTLwPs
1070
   158
  0
TEXT
  5
11D12
  8
COTATION1
 62
     0
 10
-83.062846
 20
109.582779
 30
0.0
 40
2.5
  1
88
1001
ACAD
1000
MTEXTBEGIN
1070
    73
1070
     1
1070
    44
1040
1.0
1070
    74
1070
     0
1000
MTEXTEND
  0
POINT
  5
11D13
  8
DEFPOINTS
 62
     0
 10
-145.802225
 20
154.832779
 30
0.0
  0
POINT
  5
11D14
  8
DEFPOINTS
 62
     0
 10
-135.681894
 20
66.832779
 30
0.0
  0
POINT
  5
11D15
  8
DEFPOINTS
 62
     0
 10
-80.681894
 20
66.832779
 30
0.0
  0
ENDBLK
  5
11622
  8
0
  0
BLOCK
  8
0
  2
*D11
 70
     1
 10
0.0
 20
0.0
 30
0.0
  3
*D11
  1

  0
LINE
  5
11CDE
  8
COTATION1
 62
     0
 10
-154.327217
 20
130.832779
 30
0.0
 11
-183.194324
 21
130.832779
 31
0.0
1001
ACAD
1000
RTLwPs
1070
   158
  0
LINE
  5
11CDF
  8
COTATION1
 62
     0
 10
-154.327217
 20
122.832779
 30
0.0
 11
-183.194324
 21
122.832779
 31
0.0
1001
ACAD
1000
RTLwPs
1070
   158
  0
LINE
  5
11CE0
  8
COTATION1
 62
     0
 10
-180.694324
 20
135.832779
 30
0.0
 11
-180.694324
 21
140.832779
 31
0.0
1001
ACAD
1000
RTLwPs
1070
   158
  0
LINE
  5
11CE1
  8
COTATION1
 62
     0
 10
-180.694324
 20
117.832779
 30
0.0
 11
-180.694324
 21
112.832779
 31
0.0
1001
ACAD
1000
RTLwPs
1070
   158
  0
INSERT
  5
11CE2
  8
COTATION1
 62
     0
  2
_OPEN30
 10
-180.694324
 20
130.832779
 30
0.0
 41
5.0
 42
5.0
 43
5.0
 50
270.0
1001
ACAD
1000
RTLwPs
1070
   158
  0
INSERT
  5
11CE3
  8
COTATION1
 62
     0
  2
_OPEN30
 10
-180.694324
 20
122.832779
 30
0.0
 41
5.0
 42
5.0
 43
5.0
 50
90.0
1001
ACAD
1000
RTLwPs
1070
   158
  0
TEXT
  5
11CE4
  8
COTATION1
 62
     0
 10
-187.599086
 20
125.582779
 30
0.0
 40
2.5
  1
8 max.
1001
ACAD
1000
MTEXTBEGIN
1070
    73
1070
     1
1070
    44
1040
1.0
1070
    74
1070
     0
1000
MTEXTEND
  0
POINT
  5
11CE5
  8
DEFPOINTS
 62
     0
 10
-152.327217
 20
130.832779
 30
0.0
  0
POINT
  5
11CE6
  8
DEFPOINTS
 62
     0
 10
-152.327217
 20
122.832779
 30
0.0
  0
POINT
  5
11CE7
  8
DEFPOINTS
 62
     0
 10
-180.694324
 20
122.832779
 30
0.0
  0
ENDBLK
  5
11CAD
  8
0
  0
BLOCK
  8
0
  2
*D12
 70
     1
 10
0.0
 20
0.0
 30
0.0
  3
*D12
  1

  0
LINE
  5
11CE8
  8
COTATION1
 62
     0
 10
-143.802225
 20
154.832779
 30
0.0
 11
-88.181894
 21
154.832779
 31
0.0
1001
ACAD
1000
RTLwPs
1070
   158
  0
LINE
  5
11CE9
  8
COTATION1
 62
     0
 10
-136.552225
 20
118.832779
 30
0.0
 11
-88.181894
 21
118.832779
 31
0.0
1001
ACAD
1000
RTLwPs
1070
   158
  0
LINE
  5
11CEA
  8
COTATION1
 62
     0
 10
-90.681894
 20
149.832779
 30
0.0
 11
-90.681894
 21
140.082779
 31
0.0
1001
ACAD
1000
RTLwPs
1070
   158
  0
LINE
  5
11CEB
  8
COTATION1
 62
     0
 10
-90.681894
 20
123.832779
 30
0.0
 11
-90.681894
 21
133.582779
 31
0.0
1001
ACAD
1000
RTLwPs
1070
   158
  0
INSERT
  5
11CEC
  8
COTATION1
 62
     0
  2
_OPEN30
 10
-90.681894
 20
154.832779
 30
0.0
 41
5.0
 42
5.0
 43
5.0
 50
90.0
1001
ACAD
1000
RTLwPs
1070
   158
  0
INSERT
  5
11CED
  8
COTATION1
 62
     0
  2
_OPEN30
 10
-90.681894
 20
118.832779
 30
0.0
 41
5.0
 42
5.0
 43
5.0
 50
270.0
1001
ACAD
1000
RTLwPs
1070
   158
  0
TEXT
  5
11CEE
  8
COTATION1
 62
     0
 10
-93.062846
 20
135.582779
 30
0.0
 40
2.5
  1
36
1001
ACAD
1000
MTEXTBEGIN
1070
    73
1070
     1
1070
    44
1040
1.0
1070
    74
1070
     0
1000
MTEXTEND
  0
POINT
  5
11CEF
  8
DEFPOINTS
 62
     0
 10
-145.802225
 20
154.832779
 30
0.0
  0
POINT
  5
11CF0
  8
DEFPOINTS
 62
     0
 10
-138.552225
 20
118.832779
 30
0.0
  0
POINT
  5
11CF1
  8
DEFPOINTS
 62
     0
 10
-90.681894
 20
118.832779
 30
0.0
  0
ENDBLK
  5
11CBA
  8
0
  0
BLOCK
  8
0
  2
*D13
 70
     1
 10
0.0
 20
0.0
 30
0.0
  3
*D13
  1

  0
LINE
  5
11CF2
  8
COTATION1
 62
     0
 10
-151.802225
 20
137.038087
 30
0.0
 11
-151.802225
 21
172.332779
 31
0.0
1001
ACAD
1000
RTLwPs
1070
   158
  0
LINE
  5
11CF3
  8
COTATION1
 62
     0
 10
-139.802225
 20
137.038087
 30
0.0
 11
-139.802225
 21
172.332779
 31
0.0
1001
ACAD
1000
RTLwPs
1070
   158
  0
LINE
  5
11CF4
  8
COTATION1
 62
     0
 10
-156.802225
 20
169.832779
 30
0.0
 11
-161.802225
 21
169.832779
 31
0.0
1001
ACAD
1000
RTLwPs
1070
   158
  0
LINE
  5
11CF5
  8
COTATION1
 62
     0
 10
-134.802225
 20
169.832779
 30
0.0
 11
-115.326034
 21
169.832779
 31
0.0
1001
ACAD
1000
RTLwPs
1070
   158
  0
INSERT
  5
11CF6
  8
COTATION1
 62
     0
  2
_OPEN30
 10
-151.802225
 20
169.832779
 30
0.0
 41
5.0
 42
5.0
 43
5.0
1001
ACAD
1000
RTLwPs
1070
   158
  0
INSERT
  5
11CF7
  8
COTATION1
 62
     0
  2
_OPEN30
 10
-139.802225
 20
169.832779
 30
0.0
 41
5.0
 42
5.0
 43
5.0
 50
180.0
1001
ACAD
1000
RTLwPs
1070
   158
  0
TEXT
  5
11CF8
  8
COTATION1
 62
     0
 10
-128.278415
 20
171.832779
 30
0.0
 40
2.5
  1
M12x1
1001
ACAD
1000
MTEXTBEGIN
1070
    73
1070
     1
1070
    44
1040
1.0
1070
    74
1070
     0
1000
MTEXTEND
  0
POINT
  5
11CF9
  8
DEFPOINTS
 62
     0
 10
-151.802225
 20
135.038087
 30
0.0
  0
POINT
  5
11CFA
  8
DEFPOINTS
 62
     0
 10
-139.802225
 20
135.038087
 30
0.0
  0
POINT
  5
11CFB
  8
DEFPOINTS
 62
     0
 10
-139.802225
 20
169.832779
 30
0.0
  0
ENDBLK
  5
11CC7
  8
0
  0
BLOCK
  8
0
  2
*D14
 70
     1
 10
0.0
 20
0.0
 30
0.0
  3
*D14
  1

  0
LINE
  5
11DD8
  8
COTATION1
 62
     0
 10
-137.277232
 20
134.332779
 30
0.0
 11
-98.181894
 21
134.332779
 31
0.0
  0
LINE
  5
11DD9
  8
COTATION1
 62
     0
 10
-137.277232
 20
130.832779
 30
0.0
 11
-98.181894
 21
130.832779
 31
0.0
  0
LINE
  5
11DDA
  8
COTATION1
 62
     0
 10
-100.681894
 20
139.332779
 30
0.0
 11
-100.681894
 21
144.332779
 31
0.0
  0
LINE
  5
11DDB
  8
COTATION1
 62
     0
 10
-100.681894
 20
125.832779
 30
0.0
 11
-100.681894
 21
120.832779
 31
0.0
  0
TEXT
  5
11DDC
  8
COTATION1
 62
     0
 10
-108.277132
 20
121.665837
 30
0.0
 40
2.5
  1
3.5
  0
INSERT
  5
11DDD
  8
COTATION1
 62
     0
  2
_OPEN30
 10
-100.681894
 20
134.332779
 30
0.0
 41
5.0
 42
5.0
 43
5.0
 50
270.0
  0
INSERT
  5
11DDE
  8
COTATION1
 62
     0
  2
_OPEN30
 10
-100.681894
 20
130.832779
 30
0.0
 41
5.0
 42
5.0
 43
5.0
 50
90.0
  0
POINT
  5
11DDF
  8
DEFPOINTS
 62
     0
 10
-139.277232
 20
134.332779
 30
0.0
  0
POINT
  5
11DE0
  8
DEFPOINTS
 62
     0
 10
-139.277232
 20
130.832779
 30
0.0
  0
POINT
  5
11DE1
  8
DEFPOINTS
 62
     0
 10
-100.681894
 20
130.832779
 30
0.0
  0
ENDBLK
  5
11CD4
  8
0
  0
BLOCK
  8
0
  2
*D15
 70
     1
 10
0.0
 20
0.0
 30
0.0
  3
*D15
  1

  0
LINE
  5
11D06
  8
COTATION1
 62
     0
 10
-174.568404
 20
162.124421
 30
0.0
 11
-162.687452
 21
162.124421
 31
0.0
1001
ACAD
1000
RTLwPs
1070
   158
  0
LINE
  5
11D07
  8
COTATION1
 62
     0
 10
-162.687452
 20
162.124421
 30
0.0
 11
-154.059159
 21
155.690135
 31
0.0
1001
ACAD
1000
RTLwPs
1070
   158
  0
TEXT
  5
11D08
  8
COTATION1
 62
     0
 10
-174.806499
 20
164.124421
 30
0.0
 40
2.5
  1
%%c10.6
1001
ACAD
1000
MTEXTBEGIN
1070
    73
1070
     1
1070
    44
1040
1.0
1070
    74
1070
     0
1000
MTEXTEND
  0
INSERT
  5
11D09
  8
COTATION1
 62
     0
  2
_OPEN30
 10
-150.050939
 20
152.701127
 30
0.0
 41
5.0
 42
5.0
 43
5.0
 50
323.287391
1001
ACAD
1000
RTLwPs
1070
   158
  0
POINT
  5
11D0A
  8
DEFPOINTS
 62
     0
 10
-150.050939
 20
152.701127
 30
0.0
  0
POINT
  5
11D0B
  8
DEFPOINTS
 62
     0
 10
-141.553511
 20
146.36443
 30
0.0
  0
ENDBLK
  5
11CDD
  8
0
  0
ENDSEC
  0
SECTION
  2
ENTITIES
  0
INSERT
  5
A
  8
0
  2
COTE
 10
0.0
 20
0.0
 30
0.0
  0
INSERT
  5
17
  8
0
  2
COTE
 10
284.010391
 20
6.373258
 30
0.0
  0
INSERT
  5
72
  8
0
  2
FOND
 10
0.0
 20
0.0
 30
0.0
  0
DIMENSION
  5
FF3F
  8
COTATION1
  2
*D3
 10
-90.681894
 20
66.832779
 30
0.0
 11
-90.681894
 21
92.832779
 31
0.0
 13
-138.552225
 23
118.832779
 33
0.0
 14
-135.681894
 24
66.832779
 34
0.0
 50
90.0
  0
LINE
  5
FF41
  8
AXE
 10
-145.802225
 20
159.832779
 30
0.0
 11
-145.802225
 21
50.832779
 31
0.0
  0
DIMENSION
  5
FF42
  8
COTATION1
  2
*D4
 10
-100.681894
 20
66.832779
 30
0.0
 11
-100.681894
 21
91.832779
 31
0.0
 13
-145.802225
 23
116.832779
 33
0.0
 14
-135.681894
 24
66.832779
 34
0.0
 50
90.0
  0
DIMENSION
  5
FF43
  8
COTATION1
  2
*D5
 10
-110.681894
 20
66.832779
 30
0.0
 11
-110.681894
 21
86.832779
 31
0.0
 13
-129.302225
 23
106.832779
 33
0.0
 14
-135.681894
 24
66.832779
 34
0.0
 50
90.0
  0
LINE
  5
FF44
  8
AXE
 10
-165.681894
 20
91.832779
 30
0.0
 11
-118.181894
 21
91.832779
 31
0.0
  0
ARC
  5
FF45
  8
ALPHA
 10
-149.069586
 20
53.014506
 30
0.0
 40
26.27482
 50
17.344588
 51
45.588038
  0
ARC
  5
FF46
  8
ALPHA
 10
-154.019333
 20
48.064759
 30
0.0
 40
26.27482
 50
17.344588
 51
45.586396
  0
LINE
  5
FF47
  8
AXE
 10
-122.928845
 20
61.908158
 30
0.0
 11
-129.999913
 21
54.83709
 31
0.0
  0
DIMENSION
  5
FF48
  8
COTATION1
  2
*D6
 10
-135.802225
 20
40.832779
 30
0.0
 11
-145.802225
 21
44.082779
 31
0.0
 13
-155.802225
 23
100.332779
 33
0.0
 14
-135.802225
 24
100.332779
 34
0.0
  0
LINE
  5
FF49
  8
ALPHA
 10
-130.681894
 20
71.832779
 30
0.0
 11
-130.681894
 21
114.832779
 31
0.0
  0
LINE
  5
FF4A
  8
ALPHA
 10
-160.681894
 20
66.832779
 30
0.0
 11
-160.681894
 21
114.832779
 31
0.0
  0
DIMENSION
  5
FF4B
  8
COTATION1
  2
*D7
 10
-130.681894
 20
30.832779
 30
0.0
 11
-145.681894
 21
34.082779
 31
0.0
 13
-160.681894
 23
66.832779
 33
0.0
 14
-130.681894
 24
71.832779
 34
0.0
  0
LINE
  5
FF4C
  8
ALPHA
 10
-149.302225
 20
71.132779
 30
0.0
 11
-145.802225
 21
71.132779
 31
0.0
  0
LINE
  5
FF4D
  8
ALPHA
 10
-149.302225
 20
69.132779
 30
0.0
 11
-145.802225
 21
69.132779
 31
0.0
  0
LINE
  5
FF4E
  8
ALPHA
 10
-160.681894
 20
66.832779
 30
0.0
 11
-135.681894
 21
66.832779
 31
0.0
  0
TEXT
  5
FF4F
  8
AXE
 10
-153.278415
 20
50.832779
 30
0.0
 40
8.0
  1
Y
 72
     2
 11
-146.802225
 21
50.832779
 31
0.0
  0
ARC
  5
FF50
  8
ALPHA
 10
-149.302225
 20
70.132779
 30
0.0
 40
1.0
 50
90.0
 51
270.0
  0
ARC
  5
FF51
  8
ALPHA
 10
-142.302225
 20
70.132779
 30
0.0
 40
1.0
 50
270.0
 51
90.0
  0
LINE
  5
FF52
  8
ALPHA
 10
-142.302225
 20
71.132779
 30
0.0
 11
-145.802225
 21
71.132779
 31
0.0
  0
LINE
  5
FF53
  8
ALPHA
 10
-142.302225
 20
69.132779
 30
0.0
 11
-145.802225
 21
69.132779
 31
0.0
  0
ARC
  5
FF54
  8
ALPHA
 10
-135.681894
 20
71.832779
 30
0.0
 40
5.0
 50
270.0
 51
0.0
  0
ARC
  5
FF58
  8
ALPHA
 10
-145.681894
 20
59.586399
 30
0.0
 40
57.246507
 50
74.809764
 51
105.190236
  0
TEXT
  5
FF7C
  8
AXE
 10
-124.658084
 20
92.832779
 30
0.0
 40
8.0
  1
X
 72
     2
 11
-118.181894
 21
92.832779
 31
0.0
  0
DIMENSION
  5
10351
  8
COTATION1
  2
*D8
 10
-154.396992
 20
105.272227
 30
0.0
 11
-170.340626
 21
116.592548
 31
0.0
 70
   131
 15
-157.207458
 25
108.39333
 35
0.0
 40
0.0
  0
CIRCLE
  5
10352
  8
ALPHA
 10
-155.802225
 20
106.832779
 30
0.0
 40
4.0
  0
CIRCLE
  5
10353
  8
ALPHA
 10
-155.802225
 20
106.832779
 30
0.0
 40
2.1
  0
LINE
  5
10354
  8
AXE
 10
-162.302225
 20
106.832779
 30
0.0
 11
-149.302225
 21
106.832779
 31
0.0
  0
CIRCLE
  5
10355
  8
ALPHA
 10
-135.802225
 20
106.832779
 30
0.0
 40
4.0
  0
CIRCLE
  5
10356
  8
ALPHA
 10
-135.802225
 20
106.832779
 30
0.0
 40
2.1
  0
LINE
  5
10357
  8
AXE
 10
-135.802225
 20
100.332779
 30
0.0
 11
-135.802225
 21
113.332779
 31
0.0
  0
LINE
  5
10358
  8
AXE
 10
-129.302225
 20
106.832779
 30
0.0
 11
-142.302225
 21
106.832779
 31
0.0
  0
LINE
  5
10359
  8
AXE
 10
-155.802225
 20
100.332779
 30
0.0
 11
-155.802225
 21
113.332779
 31
0.0
  0
DIMENSION
  5
1035A
  8
COTATION1
  2
*D9
 10
-152.378619
 20
108.901335
 30
0.0
 11
-181.862801
 21
93.482114
 31
0.0
 70
   131
 15
-159.225831
 25
104.764223
 35
0.0
 40
0.0
  0
SOLID
  5
10445
  8
COTATION1
  6
CONTINUOUS
 10
125.917883
 20
57.282386
 30
0.0
 11
127.423725
 21
62.122519
 31
0.0
 12
124.429507
 22
58.032396
 32
0.0
 13
124.429507
 23
58.032396
 33
0.0
210
0.0
220
0.0
230
-1.0
1001
ACAD
1000
DSTYLE
1002
{
1070
     5
1000
OPEN30
1070
   342
1005
6C00360300004B04
1002
}
  0
POLYLINE
  5
11DE5
  8
COTATION1
 66
     1
 10
0.0
 20
0.0
 30
0.0
 70
   128
1001
ACAD
1000
R13OBJECT
1002
{
1005
10445
1002
}
  0
VERTEX
  5
11E7E
  8
COTATION1
 10
-125.173695
 20
57.657391
 30
0.0
  0
VERTEX
  5
11E7F
  8
COTATION1
 10
-121.475411
 20
50.318238
 30
0.0
  0
VERTEX
  5
11E80
  8
COTATION1
 10
-106.975411
 20
50.318238
 30
0.0
  0
SEQEND
  5
11E81
  8
COTATION1
  0
TEXT
  5
10446
  8
COTATION1
 10
-115.741606
 20
52.15522
 30
0.0
 40
2.5
  1
%%c
1001
ACAD
1000
MTEXTBEGIN
1070
    73
1070
     1
1070
    44
1040
1.0
1070
    74
1070
     0
1000
MTEXTEND
1000
MTEXTBEGIN
1070
    73
1070
     1
1070
    44
1040
1.0
1070
    74
1070
     0
1000
MTEXTEND
1000
MTEXTBEGIN
1070
    73
1070
     1
1070
    44
1040
1.0
1070
    74
1070
     0
1000
MTEXTEND
1000
MTEXTBEGIN
1070
    73
1070
     1
1070
    44
1040
1.0
1070
    74
1070
     0
1000
MTEXTEND
1000
MTEXTBEGIN
1070
    73
1070
     1
1070
    44
1040
1.0
1070
    74
1070
     0
1000
MTEXTEND
1000
MTEXTBEGIN
1070
    73
1070
     1
1070
    44
1040
1.0
1070
    74
1070
     0
1000
MTEXTEND
  0
TEXT
  5
11DEA
  8
COTATION1
 10
-113.479702
 20
52.15522
 30
0.0
 40
2.5
  1
7,5
1001
ACAD
1000
R13OBJECT
1002
{
1005
10446
1002
}
  0
POLYLINE
  5
10602
  8
ALPHA
 66
     1
 10
0.0
 20
0.0
 30
0.0
 70
   128
210
0.0
220
0.0
230
-1.0
  0
VERTEX
  5
11E54
  8
ALPHA
 10
142.356379
 20
111.949789
 30
0.0
  0
VERTEX
  5
11E55
  8
ALPHA
 10
142.945887
 20
109.586374
 30
0.0
  0
VERTEX
  5
11E56
  8
ALPHA
 10
143.720196
 20
107.017873
 30
0.0
  0
VERTEX
  5
11E57
  8
ALPHA
 10
144.175216
 20
105.878918
 30
0.0
  0
VERTEX
  5
11E58
  8
ALPHA
 10
144.674715
 20
104.955335
 30
0.0
  0
VERTEX
  5
11E59
  8
ALPHA
 10
145.218117
 20
104.336006
 30
0.0
  0
VERTEX
  5
11E5A
  8
ALPHA
 10
145.80485
 20
104.109812
 30
0.0
  0
VERTEX
  5
11E5B
  8
ALPHA
 10
146.391581
 20
104.336006
 30
0.0
  0
VERTEX
  5
11E5C
  8
ALPHA
 10
146.934976
 20
104.955335
 30
0.0
  0
VERTEX
  5
11E5D
  8
ALPHA
 10
147.434452
 20
105.878918
 30
0.0
  0
VERTEX
  5
11E5E
  8
ALPHA
 10
147.88943
 20
107.017873
 30
0.0
  0
VERTEX
  5
11E5F
  8
ALPHA
 10
148.663567
 20
109.586374
 30
0.0
  0
VERTEX
  5
11E60
  8
ALPHA
 10
149.252737
 20
111.949789
 30
0.0
  0
SEQEND
  5
11E61
  8
ALPHA
  0
LINE
  5
10603
  8
ALPHA
 10
-136.444467
 20
114.116382
 30
0.0
 11
-155.164065
 21
114.116382
 31
0.0
  0
LINE
  5
10604
  8
ALPHA
 10
-155.164065
 20
111.94979
 30
0.0
 11
-146.29649
 21
111.94979
 31
0.0
  0
LINE
  5
10605
  8
ALPHA
 10
-155.164065
 20
114.116382
 30
0.0
 11
-155.164065
 21
111.94979
 31
0.0
  0
LINE
  5
10606
  8
ALPHA
 10
-145.31146
 20
111.94979
 30
0.0
 11
-136.444467
 21
111.94979
 31
0.0
  0
LINE
  5
10607
  8
ALPHA
 10
-146.29649
 20
111.94979
 30
0.0
 11
-146.29649
 21
112.934817
 31
0.0
  0
LINE
  5
10608
  8
ALPHA
 10
-146.29649
 20
112.934817
 30
0.0
 11
-145.31146
 21
112.934817
 31
0.0
  0
LINE
  5
10609
  8
ALPHA
 10
-145.31146
 20
112.934817
 30
0.0
 11
-145.31146
 21
111.94979
 31
0.0
  0
LINE
  5
1060A
  8
ALPHA
 10
-136.444467
 20
111.94979
 30
0.0
 11
-136.444467
 21
114.116382
 31
0.0
  0
LINE
  5
115C5
  8
ALPHA
 10
-153.552225
 20
118.332779
 30
0.0
 11
-145.802225
 21
118.332779
 31
0.0
  0
LINE
  5
115C6
  8
ALPHA
 10
-153.052225
 20
118.832779
 30
0.0
 11
-145.802225
 21
118.832779
 31
0.0
  0
LINE
  5
115CA
  8
ALPHA
 10
-153.552225
 20
118.332779
 30
0.0
 11
-153.052225
 21
118.832779
 31
0.0
  0
LINE
  5
115CB
  8
ALPHA
 10
-153.552225
 20
118.332779
 30
0.0
 11
-153.552225
 21
116.289312
 31
0.0
  0
LINE
  5
115CD
  8
ALPHA
 10
-138.552225
 20
118.832779
 30
0.0
 11
-145.802225
 21
118.832779
 31
0.0
  0
LINE
  5
115CE
  8
ALPHA
 10
-138.052225
 20
118.332779
 30
0.0
 11
-145.802225
 21
118.332779
 31
0.0
  0
LINE
  5
115D1
  8
ALPHA
 10
-138.052225
 20
118.332779
 30
0.0
 11
-138.552225
 21
118.832779
 31
0.0
  0
LINE
  5
115D2
  8
ALPHA
 10
-138.052225
 20
118.332779
 30
0.0
 11
-138.052225
 21
116.322196
 31
0.0
  0
DIMENSION
  5
115FA
  8
COTATION1
  2
*D10
 10
-80.681894
 20
66.832779
 30
0.0
 11
-80.681894
 21
110.832779
 31
0.0
 13
-145.802225
 23
154.832779
 33
0.0
 14
-135.681894
 24
66.832779
 34
0.0
 50
90.0
  0
POLYLINE
  5
11C5E
  8
ALPHA
 66
     1
 10
0.0
 20
0.0
 30
0.0
 70
   128
  0
VERTEX
  5
11E62
  8
ALPHA
 10
-142.138199
 20
149.292873
 30
0.0
  0
VERTEX
  5
11E63
  8
ALPHA
 10
-141.981963
 20
149.136854
 30
0.0
  0
VERTEX
  5
11E64
  8
ALPHA
 10
-141.638243
 20
148.793613
 30
0.0
  0
VERTEX
  5
11E65
  8
ALPHA
 10
-141.294522
 20
148.450371
 30
0.0
  0
VERTEX
  5
11E66
  8
ALPHA
 10
-141.138286
 20
148.294353
 30
0.0
  0
SEQEND
  5
11E67
  8
ALPHA
  0
POLYLINE
  5
11C5F
  8
ALPHA
 66
     1
 10
0.0
 20
0.0
 30
0.0
 70
   128
  0
VERTEX
  5
11E68
  8
ALPHA
 10
-149.425866
 20
149.292873
 30
0.0
  0
VERTEX
  5
11E69
  8
ALPHA
 10
-149.09098
 20
149.292873
 30
0.0
  0
VERTEX
  5
11E6A
  8
ALPHA
 10
-148.354232
 20
149.292873
 30
0.0
  0
VERTEX
  5
11E6B
  8
ALPHA
 10
-147.617484
 20
149.292873
 30
0.0
  0
VERTEX
  5
11E6C
  8
ALPHA
 10
-147.282598
 20
149.292873
 30
0.0
  0
SEQEND
  5
11E6D
  8
ALPHA
  0
POLYLINE
  5
11C60
  8
ALPHA
 66
     1
 10
0.0
 20
0.0
 30
0.0
 70
   128
  0
VERTEX
  5
11E6E
  8
ALPHA
 10
-146.646163
 20
148.29296
 30
0.0
  0
VERTEX
  5
11E6F
  8
ALPHA
 10
-145.802226
 20
148.032537
 30
0.0
  0
VERTEX
  5
11E70
  8
ALPHA
 10
-144.958288
 20
148.29296
 30
0.0
  0
SEQEND
  5
11E71
  8
ALPHA
  0
POLYLINE
  5
11C61
  8
ALPHA
 66
     1
 10
0.0
 20
0.0
 30
0.0
 70
   128
  0
VERTEX
  5
11E72
  8
ALPHA
 10
-150.425779
 20
148.294353
 30
0.0
  0
VERTEX
  5
11E73
  8
ALPHA
 10
-150.269543
 20
148.450371
 30
0.0
  0
VERTEX
  5
11E74
  8
ALPHA
 10
-149.925822
 20
148.793613
 30
0.0
  0
VERTEX
  5
11E75
  8
ALPHA
 10
-149.582102
 20
149.136854
 30
0.0
  0
VERTEX
  5
11E76
  8
ALPHA
 10
-149.425866
 20
149.292873
 30
0.0
  0
SEQEND
  5
11E77
  8
ALPHA
  0
LINE
  5
11C62
  8
ALPHA
 10
-147.282598
 20
149.292873
 30
0.0
 11
-146.646163
 21
148.29296
 31
0.0
  0
LINE
  5
11C63
  8
ALPHA
 10
-144.958288
 20
148.29296
 30
0.0
 11
-144.316283
 21
149.292873
 31
0.0
  0
POLYLINE
  5
11C64
  8
ALPHA
 66
     1
 10
0.0
 20
0.0
 30
0.0
 70
   128
  0
VERTEX
  5
11E78
  8
ALPHA
 10
-144.316283
 20
149.292873
 30
0.0
  0
VERTEX
  5
11E79
  8
ALPHA
 10
-143.975957
 20
149.292873
 30
0.0
  0
VERTEX
  5
11E7A
  8
ALPHA
 10
-143.227241
 20
149.292873
 30
0.0
  0
VERTEX
  5
11E7B
  8
ALPHA
 10
-142.478525
 20
149.292873
 30
0.0
  0
VERTEX
  5
11E7C
  8
ALPHA
 10
-142.138199
 20
149.292873
 30
0.0
  0
SEQEND
  5
11E7D
  8
ALPHA
  0
DIMENSION
  5
11C65
  8
COTATION1
  2
*D15
 10
-141.553511
 20
146.36443
 30
0.0
 11
-169.627928
 21
162.124421
 31
0.0
 70
   131
 15
-150.050939
 25
152.701127
 35
0.0
 40
0.0
  0
ARC
  5
11C66
  8
ALPHA
 10
-145.802225
 20
149.532779
 30
0.0
 40
5.3
 50
330.735075
 51
209.264925
  0
CIRCLE
  5
11C67
  8
ALPHA
 10
-145.802225
 20
149.531015
 30
0.0
 40
0.999914
  0
CIRCLE
  5
11C68
  8
ALPHA
 10
-145.802225
 20
149.531015
 30
0.0
 40
0.999914
  0
LINE
  5
11C69
  8
ALPHA
 10
-148.552685
 20
152.292611
 30
0.0
 11
-142.803879
 21
152.292611
 31
0.0
  0
LINE
  5
11C6A
  8
ALPHA
 10
-148.552685
 20
152.292611
 30
0.0
 11
-142.803879
 21
152.292611
 31
0.0
  0
LINE
  5
11C6B
  8
ALPHA
 10
-148.552685
 20
149.292873
 30
0.0
 11
-148.552685
 21
152.292611
 31
0.0
  0
LINE
  5
11C6C
  8
ALPHA
 10
-148.552685
 20
149.292875
 30
0.0
 11
-148.552685
 21
152.292611
 31
0.0
  0
LINE
  5
11C6D
  8
ALPHA
 10
-150.425779
 20
148.294352
 30
0.0
 11
-146.647558
 21
148.294352
 31
0.0
  0
LINE
  5
11C6E
  8
ALPHA
 10
-142.803879
 20
152.292611
 30
0.0
 11
-142.803879
 21
149.292873
 31
0.0
  0
LINE
  5
11C6F
  8
ALPHA
 10
-142.803879
 20
152.292611
 30
0.0
 11
-142.803879
 21
149.292875
 31
0.0
  0
LINE
  5
11C70
  8
ALPHA
 10
-144.958286
 20
148.294352
 30
0.0
 11
-141.138287
 21
148.294352
 31
0.0
  0
DIMENSION
  5
11C71
  8
COTATION1
  2
*D11
 10
-180.694324
 20
122.832779
 30
0.0
 11
-180.694324
 21
126.832779
 31
0.0
 70
   128
  1
<> max.
 13
-152.327217
 23
130.832779
 33
0.0
 14
-152.327217
 24
122.832779
 34
0.0
 50
90.0
  0
LINE
  5
11C72
  8
ALPHA
 10
-137.102216
 20
120.079131
 30
0.0
 11
-137.102216
 21
122.086426
 31
0.0
  0
LINE
  5
11C73
  8
ALPHA
 10
-141.452217
 20
120.079131
 30
0.0
 11
-141.452217
 21
122.086426
 31
0.0
  0
LINE
  5
11C74
  8
ALPHA
 10
-150.152232
 20
120.079131
 30
0.0
 11
-150.152232
 21
122.086426
 31
0.0
  0
LINE
  5
11C75
  8
ALPHA
 10
-154.502234
 20
120.079131
 30
0.0
 11
-154.502234
 21
122.086426
 31
0.0
  0
ARC
  5
11C76
  8
ALPHA
 10
-145.802225
 20
132.38265
 30
0.0
 40
13.04987
 50
250.528552
 51
289.471449
  0
LINE
  5
11C77
  8
ALPHA
 10
-152.327217
 20
119.332779
 30
0.0
 11
-139.277232
 21
119.332779
 31
0.0
  0
ARC
  5
11C78
  8
ALPHA
 10
-152.327233
 20
122.875119
 30
0.0
 40
3.54234
 50
232.120619
 51
307.879383
  0
LINE
  5
11C79
  8
ALPHA
 10
-151.802225
 20
119.332779
 30
0.0
 11
-151.802225
 21
118.832779
 31
0.0
  0
LINE
  5
11C7A
  8
ALPHA_FIN
 10
-150.782124
 20
118.832779
 30
0.0
 11
-150.782124
 21
119.332779
 31
0.0
  0
ARC
  5
11C7B
  8
ALPHA
 10
-139.277217
 20
122.875119
 30
0.0
 40
3.54234
 50
232.120619
 51
307.879383
  0
LINE
  5
11C7C
  8
ALPHA_FIN
 10
-140.822325
 20
118.832779
 30
0.0
 11
-140.822325
 21
119.332779
 31
0.0
  0
LINE
  5
11C7D
  8
ALPHA
 10
-139.802225
 20
119.332779
 30
0.0
 11
-139.802225
 21
118.832779
 31
0.0
  0
ARC
  5
11C7E
  8
ALPHA
 10
-145.802225
 20
121.282907
 30
0.0
 40
13.04987
 50
70.52854
 51
109.471458
  0
ARC
  5
11C7F
  8
ALPHA
 10
-145.802225
 20
143.88265
 30
0.0
 40
13.04987
 50
250.528552
 51
289.471449
  0
LINE
  5
11C80
  8
ALPHA
 10
-152.327217
 20
130.832779
 30
0.0
 11
-139.277232
 21
130.832779
 31
0.0
  0
LINE
  5
11C81
  8
ALPHA
 10
-139.277232
 20
134.332779
 30
0.0
 11
-152.327217
 21
134.332779
 31
0.0
  0
LINE
  5
11C82
  8
ALPHA
 10
-150.425779
 20
135.832779
 30
0.0
 11
-145.802225
 21
135.832779
 31
0.0
  0
LINE
  5
11C83
  8
ALPHA
 10
-145.802225
 20
135.038087
 30
0.0
 11
-151.802225
 21
135.038087
 31
0.0
  0
ARC
  5
11C84
  8
ALPHA
 10
-145.802225
 20
109.782907
 30
0.0
 40
13.04987
 50
70.52854
 51
109.471458
  0
LINE
  5
11C85
  8
ALPHA
 10
-139.277232
 20
122.832779
 30
0.0
 11
-152.327217
 21
122.832779
 31
0.0
  0
LINE
  5
11C86
  8
ALPHA
 10
-150.152232
 20
131.579131
 30
0.0
 11
-150.152232
 21
133.586426
 31
0.0
  0
LINE
  5
11C87
  8
ALPHA
 10
-154.502234
 20
131.579131
 30
0.0
 11
-154.502234
 21
133.586426
 31
0.0
  0
ARC
  5
11C88
  8
ALPHA
 10
-152.327233
 20
134.375119
 30
0.0
 40
3.54234
 50
232.120619
 51
307.879383
  0
ARC
  5
11C89
  8
ALPHA
 10
-152.327233
 20
119.290438
 30
0.0
 40
3.54234
 50
52.120631
 51
127.879364
  0
LINE
  5
11C8A
  8
ALPHA_FIN
 10
-150.782124
 20
122.832779
 30
0.0
 11
-150.782124
 21
130.832779
 31
0.0
  0
LINE
  5
11C8B
  8
ALPHA
 10
-151.802225
 20
130.832779
 30
0.0
 11
-151.802225
 21
122.832779
 31
0.0
  0
ARC
  5
11C8C
  8
ALPHA
 10
-152.327233
 20
130.790438
 30
0.0
 40
3.54234
 50
52.120631
 51
127.879364
  0
LINE
  5
11C8D
  8
ALPHA
 10
-151.802225
 20
135.038087
 30
0.0
 11
-151.802225
 21
134.332779
 31
0.0
  0
LINE
  5
11C8E
  8
ALPHA_FIN
 10
-150.782124
 20
134.332779
 30
0.0
 11
-150.782124
 21
135.627043
 31
0.0
  0
LINE
  5
11C8F
  8
ALPHA
 10
-151.802225
 20
135.038087
 30
0.0
 11
-150.425779
 21
135.832779
 31
0.0
  0
LINE
  5
11C90
  8
ALPHA
 10
-137.102216
 20
131.579131
 30
0.0
 11
-137.102216
 21
133.586426
 31
0.0
  0
LINE
  5
11C91
  8
ALPHA
 10
-141.452217
 20
131.579131
 30
0.0
 11
-141.452217
 21
133.586426
 31
0.0
  0
ARC
  5
11C92
  8
ALPHA
 10
-139.277217
 20
134.375119
 30
0.0
 40
3.54234
 50
232.120619
 51
307.879383
  0
ARC
  5
11C93
  8
ALPHA
 10
-139.277217
 20
119.290438
 30
0.0
 40
3.54234
 50
52.120631
 51
127.879364
  0
LINE
  5
11C94
  8
ALPHA_FIN
 10
-140.822325
 20
122.832779
 30
0.0
 11
-140.822325
 21
130.832779
 31
0.0
  0
LINE
  5
11C95
  8
ALPHA
 10
-139.802225
 20
130.832779
 30
0.0
 11
-139.802225
 21
122.832779
 31
0.0
  0
ARC
  5
11C96
  8
ALPHA
 10
-139.277217
 20
130.790438
 30
0.0
 40
3.54234
 50
52.120631
 51
127.879364
  0
LINE
  5
11C97
  8
ALPHA
 10
-141.178671
 20
135.832779
 30
0.0
 11
-145.802225
 21
135.832779
 31
0.0
  0
LINE
  5
11C98
  8
ALPHA
 10
-145.802225
 20
135.038087
 30
0.0
 11
-139.802225
 21
135.038087
 31
0.0
  0
LINE
  5
11C99
  8
ALPHA_FIN
 10
-140.822325
 20
134.332779
 30
0.0
 11
-140.822325
 21
135.627043
 31
0.0
  0
LINE
  5
11C9A
  8
ALPHA
 10
-139.802225
 20
135.038087
 30
0.0
 11
-141.178671
 21
135.832779
 31
0.0
  0
LINE
  5
11C9B
  8
ALPHA
 10
-139.802225
 20
135.038087
 30
0.0
 11
-139.802225
 21
134.332779
 31
0.0
  0
DIMENSION
  5
11C9C
  8
COTATION1
  2
*D14
 10
-100.681894
 20
130.832779
 30
0.0
 11
-105.300941
 21
122.915837
 31
0.0
 70
   128
 13
-139.277232
 23
134.332779
 33
0.0
 14
-139.277232
 24
130.832779
 34
0.0
 50
90.0
1001
ACAD
1000
DSTYLE
1002
{
1070
   287
1070
     5
1070
   287
1070
     5
1070
   287
1070
     5
1070
   287
1070
     5
1070
   287
1070
     5
1070
   287
1070
     5
1070
   279
1070
     2
1002
}
  0
DIMENSION
  5
11C9D
  8
COTATION1
  2
*D12
 10
-90.681894
 20
118.832779
 30
0.0
 11
-90.681894
 21
136.832779
 31
0.0
 70
   128
 13
-145.802225
 23
154.832779
 33
0.0
 14
-138.552225
 24
118.832779
 34
0.0
 50
90.0
  0
LINE
  5
11C9E
  8
ALPHA
 10
-141.178671
 20
135.832779
 30
0.0
 11
-141.178671
 21
148.294353
 31
0.0
  0
LINE
  5
11C9F
  8
ALPHA
 10
-150.425779
 20
135.832779
 30
0.0
 11
-150.425779
 21
148.294353
 31
0.0
  0
DIMENSION
  5
11CA0
  8
COTATION1
  2
*D13
 10
-139.802225
 20
169.832779
 30
0.0
 11
-122.56413
 21
173.082779
 31
0.0
  1
M<>x1
 13
-151.802225
 23
135.038087
 33
0.0
 14
-139.802225
 24
135.038087
 34
0.0
  0
VIEWPORT
  5
494D
 67
     1
  8
0
 10
4.995325
 20
6.556512
 30
0.0
 40
22.70986
 41
13.988421
 68
    -1
 69
     1
1001
ACAD
1000
MVIEW
1002
{
1070
    16
1010
0.0
1020
0.0
1030
0.0
1010
0.0
1020
0.0
1030
1.0
1040
0.0
1040
13.988421
1040
4.995325
1040
6.556512
1040
50.0
1040
0.0
1040
0.0
1070
     0
1070
   100
1070
     1
1070
     1
1070
     0
1070
     0
1070
     0
1070
     0
1040
0.0
1040
0.0
1040
0.0
1040
10.0
1040
10.0
1040
10.0
1040
10.0
1070
     0
1002
{
1002
}
1002
}
  0
ENDSEC
  0
EOF
