  0
SECTION
  2
HEADER
  9
$ACADVER
  1
AC1009
  9
$INSBASE
 10
402.590624
 20
-1.041018
 30
0.0
  9
$EXTMIN
 10
0.35749
 20
-1.680496
 30
0.0
  9
$EXTMAX
 10
84.364593
 20
69.569504
 30
0.0
  9
$LIMMIN
 10
-407.970438
 20
-367.832444
  9
$LIMMAX
 10
429.804077
 20
234.370848
  9
$ORTHOMODE
 70
     1
  9
$REGENMODE
 70
     1
  9
$FILLMODE
 70
     1
  9
$QTEXTMODE
 70
     0
  9
$MIRRTEXT
 70
     1
  9
$DRAGMODE
 70
     2
  9
$LTSCALE
 40
10.0
  9
$OSMODE
 70
    35
  9
$ATTMODE
 70
     1
  9
$TEXTSIZE
 40
6.0
  9
$TRACEWID
 40
1.0
  9
$TEXTSTYLE
  7
ROMANS
  9
$CLAYER
  8
ALPHA
  9
$CELTYPE
  6
BYLAYER
  9
$CECOLOR
 62
   256
  9
$DIMSCALE
 40
1.0
  9
$DIMASZ
 40
5.0
  9
$DIMEXO
 40
2.0
  9
$DIMDLI
 40
0.38
  9
$DIMRND
 40
0.0
  9
$DIMDLE
 40
0.0
  9
$DIMEXE
 40
2.5
  9
$DIMTP
 40
0.0
  9
$DIMTM
 40
0.0
  9
$DIMTXT
 40
2.5
  9
$DIMCEN
 40
0.0
  9
$DIMTSZ
 40
0.0
  9
$DIMTOL
 70
     0
  9
$DIMLIM
 70
     0
  9
$DIMTIH
 70
     1
  9
$DIMTOH
 70
     1
  9
$DIMSE1
 70
     0
  9
$DIMSE2
 70
     0
  9
$DIMTAD
 70
     1
  9
$DIMZIN
 70
    12
  9
$DIMBLK
  1
OPEN30
  9
$DIMASO
 70
     1
  9
$DIMSHO
 70
     1
  9
$DIMPOST
  1

  9
$DIMAPOST
  1

  9
$DIMALT
 70
     0
  9
$DIMALTD
 70
     2
  9
$DIMALTF
 40
25.4
  9
$DIMLFAC
 40
1.0
  9
$DIMTOFL
 70
     0
  9
$DIMTVP
 40
0.0
  9
$DIMTIX
 70
     0
  9
$DIMSOXD
 70
     0
  9
$DIMSAH
 70
     0
  9
$DIMBLK1
  1

  9
$DIMBLK2
  1

  9
$DIMSTYLE
  2
SC_DEFAUT
  9
$DIMCLRD
 70
     0
  9
$DIMCLRE
 70
     0
  9
$DIMCLRT
 70
     0
  9
$DIMTFAC
 40
1.0
  9
$DIMGAP
 40
2.0
  9
$LUNITS
 70
     2
  9
$LUPREC
 70
     1
  9
$SKETCHINC
 40
0.1
  9
$FILLETRAD
 40
0.0
  9
$AUNITS
 70
     0
  9
$AUPREC
 70
     0
  9
$MENU
  1
acad
  9
$ELEVATION
 40
0.0
  9
$PELEVATION
 40
0.0
  9
$THICKNESS
 40
0.0
  9
$LIMCHECK
 70
     0
  9
$BLIPMODE
 70
     0
  9
$CHAMFERA
 40
0.0
  9
$CHAMFERB
 40
0.0
  9
$SKPOLY
 70
     0
  9
$TDCREATE
 40
2450373.687919
  9
$TDUPDATE
 40
2453034.409697
  9
$TDINDWG
 40
0.907445
  9
$TDUSRTIMER
 40
0.907445
  9
$USRTIMER
 70
     1
  9
$ANGBASE
 50
0.0
  9
$ANGDIR
 70
     0
  9
$PDMODE
 70
    32
  9
$PDSIZE
 40
0.0
  9
$PLINEWID
 40
0.0
  9
$COORDS
 70
     1
  9
$SPLFRAME
 70
     0
  9
$SPLINETYPE
 70
     6
  9
$SPLINESEGS
 70
     8
  9
$ATTDIA
 70
     0
  9
$ATTREQ
 70
     1
  9
$HANDLING
 70
     1
  9
$HANDSEED
  5
9A02
  9
$SURFTAB1
 70
     6
  9
$SURFTAB2
 70
     6
  9
$SURFTYPE
 70
     6
  9
$SURFU
 70
     6
  9
$SURFV
 70
     6
  9
$UCSNAME
  2

  9
$UCSORG
 10
0.0
 20
0.0
 30
0.0
  9
$UCSXDIR
 10
1.0
 20
0.0
 30
0.0
  9
$UCSYDIR
 10
0.0
 20
1.0
 30
0.0
  9
$PUCSNAME
  2

  9
$PUCSORG
 10
0.0
 20
0.0
 30
0.0
  9
$PUCSXDIR
 10
1.0
 20
0.0
 30
0.0
  9
$PUCSYDIR
 10
0.0
 20
1.0
 30
0.0
  9
$USERI1
 70
     0
  9
$USERI2
 70
     0
  9
$USERI3
 70
     0
  9
$USERI4
 70
     0
  9
$USERI5
 70
     0
  9
$USERR1
 40
0.0
  9
$USERR2
 40
0.0
  9
$USERR3
 40
0.0
  9
$USERR4
 40
0.0
  9
$USERR5
 40
0.0
  9
$WORLDVIEW
 70
     1
  9
$SHADEDGE
 70
     3
  9
$SHADEDIF
 70
    70
  9
$TILEMODE
 70
     1
  9
$MAXACTVP
 70
    16
  9
$PLIMCHECK
 70
     0
  9
$PEXTMIN
 10
-1.452248
 20
-0.437698
 30
0.0
  9
$PEXTMAX
 10
12.749749
 20
8.310198
 30
0.0
  9
$PLIMMIN
 10
0.0
 20
0.0
  9
$PLIMMAX
 10
12.0
 20
9.0
  9
$UNITMODE
 70
     0
  9
$VISRETAIN
 70
     0
  9
$PLINEGEN
 70
     0
  9
$PSLTSCALE
 70
     0
  0
ENDSEC
  0
SECTION
  2
TABLES
  0
TABLE
  2
VPORT
 70
     2
  0
VPORT
  2
*ACTIVE
 70
     0
 10
0.0
 20
0.0
 11
1.0
 21
1.0
 12
42.364046
 22
33.933526
 13
0.0
 23
0.0
 14
1.0
 24
1.0
 15
10.0
 25
10.0
 16
0.0
 26
0.0
 36
1.0
 17
0.0
 27
0.0
 37
0.0
 40
71.819416
 41
1.466346
 42
50.0
 43
0.0
 44
0.0
 50
0.0
 51
0.0
 71
     0
 72
   100
 73
     1
 74
     0
 75
     0
 76
     0
 77
     0
 78
     0
  0
ENDTAB
  0
TABLE
  2
LTYPE
 70
     2
  0
LTYPE
  2
CONTINUOUS
 70
     0
  3
Solid line
 72
    65
 73
     0
 40
0.0
  0
LTYPE
  2
AXES2
 70
     0
  3
___ _ ___ _ ___ _ ___ _ ___ _ ___ _ ___ _ ___ _
 72
    65
 73
     4
 40
1.125
 49
0.75
 49
-0.125
 49
0.125
 49
-0.125
  0
ENDTAB
  0
TABLE
  2
LAYER
 70
     5
  0
LAYER
  2
0
 70
     0
 62
   255
  6
CONTINUOUS
  0
LAYER
  2
COTATION1
 70
     0
 62
     2
  6
CONTINUOUS
  0
LAYER
  2
AXE
 70
     0
 62
    80
  6
AXES2
  0
LAYER
  2
DEFPOINTS
 70
     0
 62
     7
  6
CONTINUOUS
  0
LAYER
  2
ALPHA
 70
     0
 62
   254
  6
CONTINUOUS
  0
ENDTAB
  0
TABLE
  2
STYLE
 70
     2
  0
STYLE
  2
ROMANS
 70
     0
 40
0.0
 41
1.0
 50
0.0
 71
     0
 42
6.0
  3
romans
  4

  0
STYLE
  2
STANDARD
 70
     0
 40
0.0
 41
1.0
 50
0.0
 71
     0
 42
0.2
  3
txt
  4

  0
ENDTAB
  0
TABLE
  2
VIEW
 70
     0
  0
ENDTAB
  0
TABLE
  2
UCS
 70
     0
  0
ENDTAB
  0
TABLE
  2
APPID
 70
     1
  0
APPID
  2
ACAD
 70
     0
  0
ENDTAB
  0
TABLE
  2
DIMSTYLE
 70
     2
  0
DIMSTYLE
  2
SC_DEFAUT
 70
     0
  3

  4

  5
OPEN30
  6

  7

 40
1.0
 41
5.0
 42
2.0
 43
0.38
 44
2.5
 45
0.0
 46
0.0
 47
0.0
 48
0.0
140
2.5
141
0.0
142
0.0
143
25.4
144
1.0
145
0.0
146
1.0
147
2.0
 71
     0
 72
     0
 73
     1
 74
     1
 75
     0
 76
     0
 77
     1
 78
    12
170
     0
171
     2
172
     0
173
     0
174
     0
175
     0
176
     0
177
     0
178
     0
  0
DIMSTYLE
  2
STANDARD
 70
     0
  3

  4

  5

  6

  7

 40
1.0
 41
0.18
 42
0.0625
 43
0.38
 44
0.18
 45
0.0
 46
0.0
 47
0.0
 48
0.0
140
0.18
141
0.09
142
0.0
143
25.4
144
1.0
145
0.0
146
1.0
147
0.09
 71
     0
 72
     0
 73
     1
 74
     1
 75
     0
 76
     0
 77
     0
 78
     0
170
     0
171
     2
172
     0
173
     0
174
     0
175
     0
176
     0
177
     0
178
     0
  0
ENDTAB
  0
ENDSEC
  0
SECTION
  2
BLOCKS
  0
BLOCK
  8
0
  2
$MODEL_SPACE
 70
     0
 10
0.0
 20
0.0
 30
0.0
  3
$MODEL_SPACE
  1

  0
ENDBLK
  5
99CF
  8
0
  0
BLOCK
 67
     1
  8
0
  2
$PAPER_SPACE
 70
     0
 10
0.0
 20
0.0
 30
0.0
  3
$PAPER_SPACE
  1

  0
ENDBLK
  5
99CD
 67
     1
  8
0
  0
BLOCK
  8
0
  2
COTE
 70
     0
 10
0.0
 20
0.0
 30
0.0
  3
COTE
  1

  0
ENDBLK
  5
F
  8
0
  0
BLOCK
  8
0
  2
FOND
 70
     0
 10
0.0
 20
0.0
 30
0.0
  3
FOND
  1

  0
ENDBLK
  5
75
  8
0
  0
BLOCK
  8
0
  2
_OPEN30
 70
     0
 10
0.0
 20
0.0
 30
0.0
  3
_OPEN30
  1

  0
LINE
  5
4B05
  8
COTATION1
 62
     0
 10
-1.0
 20
0.267949
 30
0.0
 11
0.0
 21
0.0
 31
0.0
1001
ACAD
1000
RTLwPs
1070
   158
  0
LINE
  5
4B06
  8
COTATION1
 62
     0
 10
0.0
 20
0.0
 30
0.0
 11
-1.0
 21
-0.267949
 31
0.0
1001
ACAD
1000
RTLwPs
1070
   158
  0
LINE
  5
4B07
  8
COTATION1
 62
     0
 10
0.0
 20
0.0
 30
0.0
 11
-1.0
 21
0.0
 31
0.0
1001
ACAD
1000
RTLwPs
1070
   158
  0
ENDBLK
  5
4B09
  8
0
  0
BLOCK
  8
0
  2
*D3
 70
     1
 10
0.0
 20
0.0
 30
0.0
  3
*D3
  1

  0
LINE
  5
992C
  8
COTATION1
 62
     0
 10
43.879627
 20
27.119504
 30
0.0
 11
43.879627
 21
-1.680496
 31
0.0
1001
ACAD
1000
RTLwPs
1070
   158
  0
LINE
  5
992D
  8
COTATION1
 62
     0
 10
59.879627
 20
27.119504
 30
0.0
 11
59.879627
 21
-1.680496
 31
0.0
1001
ACAD
1000
RTLwPs
1070
   158
  0
LINE
  5
992E
  8
COTATION1
 62
     0
 10
48.879627
 20
0.819504
 30
0.0
 11
54.879627
 21
0.819504
 31
0.0
1001
ACAD
1000
RTLwPs
1070
   158
  0
INSERT
  5
992F
  8
COTATION1
 62
     0
  2
_OPEN30
 10
43.879627
 20
0.819504
 30
0.0
 41
5.0
 42
5.0
 43
5.0
 50
180.0
1001
ACAD
1000
RTLwPs
1070
   158
  0
INSERT
  5
9930
  8
COTATION1
 62
     0
  2
_OPEN30
 10
59.879627
 20
0.819504
 30
0.0
 41
5.0
 42
5.0
 43
5.0
1001
ACAD
1000
RTLwPs
1070
   158
  0
TEXT
  5
9931
  8
COTATION1
 62
     0
 10
48.48677
 20
2.819504
 30
0.0
 40
2.5
  1
%%c
1001
ACAD
1000
MTEXTBEGIN
1070
    73
1070
     1
1070
    44
1040
1.0
1070
    74
1070
     0
1000
MTEXTEND
  0
TEXT
  5
999F
  8
COTATION1
 62
     0
 10
50.748675
 20
2.819504
 30
0.0
 40
2.5
  1
16
1001
ACAD
1000
R13OBJECT
1002
{
1005
9931
1002
}
  0
POINT
  5
9932
  8
DEFPOINTS
 62
     0
 10
43.879627
 20
29.119504
 30
0.0
  0
POINT
  5
9933
  8
DEFPOINTS
 62
     0
 10
59.879627
 20
29.119504
 30
0.0
  0
POINT
  5
9934
  8
DEFPOINTS
 62
     0
 10
59.879627
 20
0.819504
 30
0.0
  0
ENDBLK
  5
7F3E
  8
0
  0
BLOCK
  8
0
  2
*D4
 70
     1
 10
0.0
 20
0.0
 30
0.0
  3
*D4
  1

  0
LINE
  5
98A6
  8
COTATION1
 62
     0
 10
45.879627
 20
64.569504
 30
0.0
 11
31.379627
 21
64.569504
 31
0.0
1001
ACAD
1000
RTLwPs
1070
   158
  0
LINE
  5
98A7
  8
COTATION1
 62
     0
 10
41.879627
 20
29.119504
 30
0.0
 11
31.379627
 21
29.119504
 31
0.0
1001
ACAD
1000
RTLwPs
1070
   158
  0
LINE
  5
98A8
  8
COTATION1
 62
     0
 10
33.879627
 20
59.569504
 30
0.0
 11
33.879627
 21
50.094504
 31
0.0
1001
ACAD
1000
RTLwPs
1070
   158
  0
LINE
  5
98A9
  8
COTATION1
 62
     0
 10
33.879627
 20
34.119504
 30
0.0
 11
33.879627
 21
43.594504
 31
0.0
1001
ACAD
1000
RTLwPs
1070
   158
  0
TEXT
  5
98AA
  8
COTATION1
 62
     0
 10
29.71296
 20
45.594504
 30
0.0
 40
2.5
  1
35.5
1001
ACAD
1000
MTEXTBEGIN
1070
    73
1070
     1
1070
    44
1040
1.0
1070
    74
1070
     0
1000
MTEXTEND
  0
INSERT
  5
98AB
  8
COTATION1
 62
     0
  2
_OPEN30
 10
33.879627
 20
64.569504
 30
0.0
 41
5.0
 42
5.0
 43
5.0
 50
90.0
1001
ACAD
1000
RTLwPs
1070
   158
  0
INSERT
  5
98AC
  8
COTATION1
 62
     0
  2
_OPEN30
 10
33.879627
 20
29.119504
 30
0.0
 41
5.0
 42
5.0
 43
5.0
 50
270.0
1001
ACAD
1000
RTLwPs
1070
   158
  0
POINT
  5
98AD
  8
DEFPOINTS
 62
     0
 10
47.879627
 20
64.569504
 30
0.0
  0
POINT
  5
98AE
  8
DEFPOINTS
 62
     0
 10
43.879627
 20
29.119504
 30
0.0
  0
POINT
  5
98AF
  8
DEFPOINTS
 62
     0
 10
33.879627
 20
29.119504
 30
0.0
  0
ENDBLK
  5
7F4B
  8
0
  0
BLOCK
  8
0
  2
*D5
 70
     1
 10
0.0
 20
0.0
 30
0.0
  3
*D5
  1

  0
LINE
  5
9893
  8
COTATION1
 62
     0
 10
57.879627
 20
64.569504
 30
0.0
 11
83.055069
 21
64.569504
 31
0.0
1001
ACAD
1000
RTLwPs
1070
   158
  0
LINE
  5
9894
  8
COTATION1
 62
     0
 10
59.729627
 20
20.819504
 30
0.0
 11
83.055069
 21
20.819504
 31
0.0
1001
ACAD
1000
RTLwPs
1070
   158
  0
LINE
  5
9895
  8
COTATION1
 62
     0
 10
80.555069
 20
59.569504
 30
0.0
 11
80.555069
 21
45.944504
 31
0.0
1001
ACAD
1000
RTLwPs
1070
   158
  0
LINE
  5
9896
  8
COTATION1
 62
     0
 10
80.555069
 20
25.819504
 30
0.0
 11
80.555069
 21
39.444504
 31
0.0
1001
ACAD
1000
RTLwPs
1070
   158
  0
TEXT
  5
9897
  8
COTATION1
 62
     0
 10
76.388403
 20
41.444504
 30
0.0
 40
2.5
  1
43.8
1001
ACAD
1000
MTEXTBEGIN
1070
    73
1070
     1
1070
    44
1040
1.0
1070
    74
1070
     0
1000
MTEXTEND
  0
INSERT
  5
9898
  8
COTATION1
 62
     0
  2
_OPEN30
 10
80.555069
 20
64.569504
 30
0.0
 41
5.0
 42
5.0
 43
5.0
 50
90.0
1001
ACAD
1000
RTLwPs
1070
   158
  0
INSERT
  5
9899
  8
COTATION1
 62
     0
  2
_OPEN30
 10
80.555069
 20
20.819504
 30
0.0
 41
5.0
 42
5.0
 43
5.0
 50
270.0
1001
ACAD
1000
RTLwPs
1070
   158
  0
POINT
  5
989A
  8
DEFPOINTS
 62
     0
 10
55.879627
 20
64.569504
 30
0.0
  0
POINT
  5
989B
  8
DEFPOINTS
 62
     0
 10
57.729627
 20
20.819504
 30
0.0
  0
POINT
  5
989C
  8
DEFPOINTS
 62
     0
 10
80.555069
 20
20.819504
 30
0.0
  0
ENDBLK
  5
8EB4
  8
0
  0
ENDSEC
  0
SECTION
  2
ENTITIES
  0
INSERT
  5
A
  8
0
  2
COTE
 10
0.0
 20
0.0
 30
0.0
  0
INSERT
  5
17
  8
0
  2
COTE
 10
284.010391
 20
6.373258
 30
0.0
  0
INSERT
  5
72
  8
0
  2
FOND
 10
0.0
 20
0.0
 30
0.0
  0
DIMENSION
  5
7F30
  8
COTATION1
  2
*D3
 10
59.879627
 20
0.819504
 30
0.0
 11
51.879627
 21
4.069504
 31
0.0
  1
%%c<>
 13
43.879627
 23
29.119504
 33
0.0
 14
59.879627
 24
29.119504
 34
0.0
  0
DIMENSION
  5
7F31
  8
COTATION1
  2
*D4
 10
33.879627
 20
29.119504
 30
0.0
 11
33.879627
 21
46.844504
 31
0.0
 70
   128
 13
47.879627
 23
64.569504
 33
0.0
 14
43.879627
 24
29.119504
 34
0.0
 50
90.0
  0
LINE
  5
8AD3
  8
AXE
 10
51.879661
 20
10.819504
 30
0.0
 11
51.879661
 21
69.569504
 31
0.0
  0
TEXT
  5
8AD4
  8
AXE
 10
46.832042
 20
10.819504
 30
0.0
 40
5.0
  1
Y
 72
     2
 11
50.879661
 21
10.819504
 31
0.0
  0
LINE
  5
8AD5
  8
AXE
 10
38.879661
 20
28.064504
 30
0.0
 11
69.879661
 21
28.064504
 31
0.0
  0
TEXT
  5
8AD6
  8
AXE
 10
65.832042
 20
29.064504
 30
0.0
 40
5.0
  1
X
 72
     2
 11
69.879661
 21
29.064504
 31
0.0
  0
LINE
  5
8B73
  8
COTATION1
 10
13.60749
 20
31.619504
 30
0.0
 11
13.60749
 21
56.578427
 31
0.0
  0
LINE
  5
8B74
  8
COTATION1
 10
5.507138
 20
29.119504
 30
0.0
 11
42.879661
 21
29.119504
 31
0.0
  0
SOLID
  5
8B75
  8
COTATION1
 10
15.050866
 20
29.119504
 30
0.0
 11
12.164115
 21
29.119504
 31
0.0
 12
13.60749
 22
31.619504
 32
0.0
 13
13.60749
 23
31.619504
 33
0.0
  0
LINE
  5
8B76
  8
COTATION1
 10
0.35749
 20
61.578427
 30
0.0
 11
26.85749
 21
61.578427
 31
0.0
  0
LINE
  5
8B77
  8
COTATION1
 10
26.85749
 20
56.578427
 30
0.0
 11
0.35749
 21
56.578427
 31
0.0
  0
TEXT
  5
8B78
  8
COTATION1
 10
1.60749
 20
57.828427
 30
0.0
 40
2.5
  1
PLANE_TO_LINE_UP
 41
0.626087
  7
STANDARD
 72
     5
 11
25.60749
 21
57.828427
 31
0.0
  0
LINE
  5
8B79
  8
COTATION1
 10
26.85749
 20
61.578427
 30
0.0
 11
26.85749
 21
56.578427
 31
0.0
  0
LINE
  5
8B7A
  8
COTATION1
 10
0.35749
 20
56.578427
 30
0.0
 11
0.35749
 21
61.578427
 31
0.0
  0
DIMENSION
  5
8EA7
  8
COTATION1
  2
*D5
 10
80.555069
 20
20.819504
 30
0.0
 11
80.555069
 21
42.694504
 31
0.0
 70
   128
 13
55.879627
 23
64.569504
 33
0.0
 14
57.729627
 24
20.819504
 34
0.0
 50
90.0
  0
LINE
  5
95B9
  8
ALPHA
 10
55.879627
 20
52.069504
 30
0.0
 11
55.879627
 21
56.069504
 31
0.0
  0
LINE
  5
95BA
  8
ALPHA
 10
51.879627
 20
52.297558
 30
0.0
 11
51.879627
 21
55.841451
 31
0.0
  0
LINE
  5
95BB
  8
ALPHA
 10
47.879627
 20
52.069504
 30
0.0
 11
47.879627
 21
56.069504
 31
0.0
  0
LINE
  5
95BC
  8
ALPHA
 10
47.879627
 20
52.414249
 30
0.0
 11
49.196756
 21
52.069504
 31
0.0
  0
LINE
  5
95C6
  8
ALPHA
 10
47.879627
 20
52.069504
 30
0.0
 11
55.879627
 21
52.069504
 31
0.0
  0
LINE
  5
95C7
  8
ALPHA
 10
48.379627
 20
51.569504
 30
0.0
 11
55.379627
 21
51.569504
 31
0.0
  0
LINE
  5
95C8
  8
ALPHA
 10
46.679627
 20
40.019504
 30
0.0
 11
57.079627
 21
40.019504
 31
0.0
  0
LINE
  5
95C9
  8
ALPHA
 10
45.679627
 20
39.019504
 30
0.0
 11
58.079627
 21
39.019504
 31
0.0
  0
LINE
  5
95CA
  8
ALPHA
 10
44.379627
 20
31.319504
 30
0.0
 11
59.379627
 21
31.319504
 31
0.0
  0
LINE
  5
95CB
  8
ALPHA
 10
43.879627
 20
30.819504
 30
0.0
 11
59.879627
 21
30.819504
 31
0.0
  0
LINE
  5
95CC
  8
ALPHA
 10
43.879627
 20
29.119504
 30
0.0
 11
59.879627
 21
29.119504
 31
0.0
  0
LINE
  5
95CD
  8
ALPHA
 10
45.179706
 20
27.019504
 30
0.0
 11
58.579549
 21
27.019504
 31
0.0
  0
LINE
  5
95CE
  8
ALPHA
 10
45.529702
 20
25.669504
 30
0.0
 11
58.229553
 21
25.669504
 31
0.0
  0
LINE
  5
95CF
  8
ALPHA
 10
45.529702
 20
24.519504
 30
0.0
 11
58.229553
 21
24.519504
 31
0.0
  0
LINE
  5
95D0
  8
ALPHA
 10
57.879627
 20
24.419504
 30
0.0
 11
45.879627
 21
24.419504
 31
0.0
  0
LINE
  5
95D1
  8
ALPHA
 10
57.879627
 20
23.419504
 30
0.0
 11
45.879627
 21
23.419504
 31
0.0
  0
LINE
  5
95D2
  8
ALPHA
 10
45.529702
 20
23.319504
 30
0.0
 11
58.229553
 21
23.319504
 31
0.0
  0
LINE
  5
95D3
  8
ALPHA
 10
45.529627
 20
21.319504
 30
0.0
 11
58.229627
 21
21.319504
 31
0.0
  0
LINE
  5
95D4
  8
ALPHA
 10
57.729627
 20
20.819504
 30
0.0
 11
46.029695
 21
20.819504
 31
0.0
  0
LINE
  5
95D8
  8
ALPHA
 10
43.879627
 20
30.819504
 30
0.0
 11
43.879627
 21
29.119504
 31
0.0
  0
LINE
  5
95D9
  8
ALPHA
 10
45.529627
 20
25.669504
 30
0.0
 11
45.529627
 21
24.519504
 31
0.0
  0
ARC
  5
95DA
  8
ALPHA
 10
46.029627
 20
21.319504
 30
0.0
 40
0.5
 50
180.0
 51
270.0
  0
ARC
  5
95DB
  8
ALPHA
 10
45.879627
 20
23.919504
 30
0.0
 40
0.5
 50
90.0
 51
270.0
  0
LINE
  5
95DC
  8
ALPHA
 10
46.279627
 20
23.419504
 30
0.0
 11
46.279627
 21
23.319504
 31
0.0
  0
LINE
  5
95DD
  8
ALPHA
 10
46.279627
 20
24.519504
 30
0.0
 11
46.279627
 21
24.419504
 31
0.0
  0
LINE
  5
95DE
  8
ALPHA
 10
45.529627
 20
23.319504
 30
0.0
 11
45.529627
 21
21.319504
 31
0.0
  0
LINE
  5
95DF
  8
ALPHA
 10
46.379627
 20
27.019504
 30
0.0
 11
46.379627
 21
25.669504
 31
0.0
  0
LINE
  5
95E0
  8
ALPHA
 10
45.179627
 20
29.119504
 30
0.0
 11
45.179627
 21
27.019504
 31
0.0
  0
LINE
  5
95E1
  8
ALPHA
 10
47.879627
 20
45.669504
 30
0.0
 11
47.879627
 21
40.019504
 31
0.0
  0
LINE
  5
95E2
  8
ALPHA
 10
44.379627
 20
31.319504
 30
0.0
 11
43.879627
 21
30.819504
 31
0.0
  0
LINE
  5
95E3
  8
ALPHA
 10
45.679627
 20
39.019504
 30
0.0
 11
45.679627
 21
31.319504
 31
0.0
  0
LINE
  5
95E4
  8
ALPHA
 10
46.679627
 20
40.019504
 30
0.0
 11
45.679627
 21
39.019504
 31
0.0
  0
LINE
  5
95E5
  8
ALPHA
 10
48.379627
 20
45.669504
 30
0.0
 11
48.379627
 21
52.069504
 31
0.0
  0
LINE
  5
95E6
  8
ALPHA
 10
48.379627
 20
45.669504
 30
0.0
 11
47.879667
 21
45.669504
 31
0.0
  0
LINE
  5
95F2
  8
ALPHA
 10
59.879627
 20
30.819504
 30
0.0
 11
59.879627
 21
29.119504
 31
0.0
  0
LINE
  5
95F3
  8
ALPHA
 10
58.229627
 20
25.669504
 30
0.0
 11
58.229627
 21
24.519504
 31
0.0
  0
ARC
  5
95F4
  8
ALPHA
 10
57.729627
 20
21.319504
 30
0.0
 40
0.5
 50
270.0
 51
0.0
  0
ARC
  5
95F5
  8
ALPHA
 10
57.879627
 20
23.919504
 30
0.0
 40
0.5
 50
270.0
 51
90.0
  0
LINE
  5
95F6
  8
ALPHA
 10
58.229627
 20
23.319504
 30
0.0
 11
58.229627
 21
21.319504
 31
0.0
  0
LINE
  5
95F7
  8
ALPHA
 10
57.479627
 20
23.419504
 30
0.0
 11
57.479627
 21
23.319504
 31
0.0
  0
LINE
  5
95F8
  8
ALPHA
 10
57.479627
 20
24.519504
 30
0.0
 11
57.479627
 21
24.419504
 31
0.0
  0
LINE
  5
95F9
  8
ALPHA
 10
58.579627
 20
29.119504
 30
0.0
 11
58.579627
 21
27.019504
 31
0.0
  0
LINE
  5
95FA
  8
ALPHA
 10
57.379627
 20
27.019504
 30
0.0
 11
57.379627
 21
25.669504
 31
0.0
  0
LINE
  5
95FB
  8
ALPHA
 10
55.879627
 20
45.669504
 30
0.0
 11
55.879627
 21
40.019504
 31
0.0
  0
LINE
  5
95FC
  8
ALPHA
 10
51.879627
 20
52.297558
 30
0.0
 11
52.842718
 21
52.069504
 31
0.0
  0
LINE
  5
95FD
  8
ALPHA
 10
50.916536
 20
52.069504
 30
0.0
 11
51.879627
 21
52.297558
 31
0.0
  0
LINE
  5
95FE
  8
ALPHA
 10
55.379627
 20
52.069504
 30
0.0
 11
55.379627
 21
45.669504
 31
0.0
  0
LINE
  5
95FF
  8
ALPHA
 10
55.879587
 20
45.669504
 30
0.0
 11
55.379627
 21
45.669504
 31
0.0
  0
LINE
  5
9600
  8
ALPHA
 10
54.562498
 20
52.069504
 30
0.0
 11
55.879627
 21
52.414249
 31
0.0
  0
LINE
  5
9601
  8
ALPHA
 10
58.079627
 20
39.019504
 30
0.0
 11
58.079627
 21
31.319504
 31
0.0
  0
LINE
  5
9602
  8
ALPHA
 10
59.379627
 20
31.319504
 30
0.0
 11
59.879627
 21
30.819504
 31
0.0
  0
LINE
  5
9603
  8
ALPHA
 10
57.079627
 20
40.019504
 30
0.0
 11
58.079627
 21
39.019504
 31
0.0
  0
POLYLINE
  5
9604
  8
ALPHA
 66
     1
 10
0.0
 20
0.0
 30
0.0
 70
   128
210
0.0
220
0.0
230
-1.0
  0
VERTEX
  5
99D5
  8
ALPHA
 10
-47.879627
 20
63.950702
 30
0.0
  0
VERTEX
  5
99D6
  8
ALPHA
 10
-48.839832
 20
64.392989
 30
0.0
  0
VERTEX
  5
99D7
  8
ALPHA
 10
-49.352612
 20
64.524154
 30
0.0
  0
VERTEX
  5
99D8
  8
ALPHA
 10
-49.879627
 20
64.569504
 30
0.0
  0
SEQEND
  5
99D9
  8
ALPHA
  0
POLYLINE
  5
9605
  8
ALPHA
 66
     1
 10
0.0
 20
0.0
 30
0.0
 70
   128
  0
VERTEX
  5
99DA
  8
ALPHA
 10
47.879627
 20
61.688307
 30
0.0
  0
VERTEX
  5
99DB
  8
ALPHA
 10
48.839832
 20
61.24602
 30
0.0
  0
VERTEX
  5
99DC
  8
ALPHA
 10
49.352612
 20
61.114855
 30
0.0
  0
VERTEX
  5
99DD
  8
ALPHA
 10
49.879627
 20
61.069504
 30
0.0
  0
SEQEND
  5
99DE
  8
ALPHA
  0
LINE
  5
9606
  8
ALPHA
 10
47.879627
 20
55.72476
 30
0.0
 11
49.196756
 21
56.069504
 31
0.0
  0
LINE
  5
9607
  8
ALPHA
 10
47.879627
 20
64.569504
 30
0.0
 11
55.879627
 21
64.569504
 31
0.0
  0
LINE
  5
9608
  8
ALPHA
 10
47.879627
 20
61.069504
 30
0.0
 11
55.879627
 21
61.069504
 31
0.0
  0
LINE
  5
9609
  8
ALPHA
 10
47.879627
 20
56.069504
 30
0.0
 11
55.879627
 21
56.069504
 31
0.0
  0
LINE
  5
960A
  8
ALPHA
 10
47.879627
 20
61.069504
 30
0.0
 11
47.879627
 21
64.569504
 31
0.0
  0
LINE
  5
960B
  8
ALPHA
 10
49.88404
 20
60.282184
 30
0.0
 11
53.293841
 21
60.569504
 31
0.0
  0
LINE
  5
960C
  8
ALPHA
 10
49.88589
 20
58.680143
 30
0.0
 11
53.87115
 21
59.060906
 31
0.0
  0
POLYLINE
  5
960D
  8
ALPHA
 66
     1
 10
0.0
 20
0.0
 30
0.0
 70
   128
210
0.0
220
0.0
230
-1.0
  0
VERTEX
  5
99DF
  8
ALPHA
 10
-49.37963
 20
60.65347
 30
0.0
  0
VERTEX
  5
99E0
  8
ALPHA
 10
-51.508636
 20
60.834206
 30
0.0
  0
VERTEX
  5
99E1
  8
ALPHA
 10
-53.647394
 20
60.953168
 30
0.0
  0
SEQEND
  5
99E2
  8
ALPHA
  0
LINE
  5
960E
  8
ALPHA
 10
53.647394
 20
60.185841
 30
0.0
 11
49.383558
 21
59.895739
 31
0.0
  0
LINE
  5
960F
  8
ALPHA
 10
49.417598
 20
59.875388
 30
0.0
 11
54.375542
 21
60.24335
 31
0.0
  0
LINE
  5
9610
  8
ALPHA
 10
49.889647
 20
57.078563
 30
0.0
 11
53.869466
 21
57.461434
 31
0.0
  0
LINE
  5
9611
  8
ALPHA
 10
54.342276
 20
59.463804
 30
0.0
 11
49.383677
 21
59.095679
 31
0.0
  0
LINE
  5
9612
  8
ALPHA
 10
49.417344
 20
59.075312
 30
0.0
 11
54.375572
 21
59.443333
 31
0.0
  0
LINE
  5
9613
  8
ALPHA
 10
54.341745
 20
58.663647
 30
0.0
 11
49.383692
 21
58.29567
 31
0.0
  0
LINE
  5
9614
  8
ALPHA
 10
49.417599
 20
58.275388
 30
0.0
 11
54.375578
 21
58.64333
 31
0.0
  0
LINE
  5
9615
  8
ALPHA
 10
54.341648
 20
57.863619
 30
0.0
 11
49.383677
 21
57.495679
 31
0.0
  0
LINE
  5
9616
  8
ALPHA
 10
49.417593
 20
57.475386
 30
0.0
 11
54.375532
 21
57.843356
 31
0.0
  0
LINE
  5
9617
  8
ALPHA
 10
49.885276
 20
57.881389
 30
0.0
 11
53.875671
 21
58.257862
 31
0.0
  0
LINE
  5
9618
  8
ALPHA
 10
54.342426
 20
57.063849
 30
0.0
 11
49.383677
 21
56.695679
 31
0.0
  0
LINE
  5
9619
  8
ALPHA
 10
49.416982
 20
56.675206
 30
0.0
 11
54.375578
 21
57.04333
 31
0.0
  0
LINE
  5
961A
  8
ALPHA
 10
54.341649
 20
56.263619
 30
0.0
 11
51.56054
 21
56.069546
 31
0.0
  0
LINE
  5
961B
  8
ALPHA
 10
49.888896
 20
59.477563
 30
0.0
 11
53.871457
 21
59.859287
 31
0.0
  0
LINE
  5
961C
  8
ALPHA
 10
52.198748
 20
56.069464
 30
0.0
 11
54.37558
 21
56.243329
 31
0.0
  0
LINE
  5
961D
  8
ALPHA
 10
49.884582
 20
56.282109
 30
0.0
 11
53.873677
 21
56.657771
 31
0.0
  0
POLYLINE
  5
961E
  8
ALPHA
 66
     1
 10
0.0
 20
0.0
 30
0.0
 70
   128
  0
VERTEX
  5
99E3
  8
ALPHA
 10
51.879627
 20
61.688307
 30
0.0
  0
VERTEX
  5
99E4
  8
ALPHA
 10
52.839832
 20
61.24602
 30
0.0
  0
VERTEX
  5
99E5
  8
ALPHA
 10
53.352612
 20
61.114855
 30
0.0
  0
VERTEX
  5
99E6
  8
ALPHA
 10
53.879627
 20
61.069504
 30
0.0
  0
SEQEND
  5
99E7
  8
ALPHA
  0
POLYLINE
  5
961F
  8
ALPHA
 66
     1
 10
0.0
 20
0.0
 30
0.0
 70
   128
210
0.0
220
0.0
230
-1.0
  0
VERTEX
  5
99E8
  8
ALPHA
 10
-51.879627
 20
63.950702
 30
0.0
  0
VERTEX
  5
99E9
  8
ALPHA
 10
-52.839832
 20
64.392989
 30
0.0
  0
VERTEX
  5
99EA
  8
ALPHA
 10
-53.352612
 20
64.524154
 30
0.0
  0
VERTEX
  5
99EB
  8
ALPHA
 10
-53.879627
 20
64.569504
 30
0.0
  0
SEQEND
  5
99EC
  8
ALPHA
  0
LINE
  5
9620
  8
ALPHA
 10
51.879627
 20
55.841451
 30
0.0
 11
52.842718
 21
56.069504
 31
0.0
  0
LINE
  5
9621
  8
ALPHA
 10
49.385116
 20
59.84473
 30
0.0
 11
49.872785
 21
59.469506
 31
0.0
  0
LINE
  5
9622
  8
ALPHA
 10
49.40013
 20
59.071344
 30
0.0
 11
49.417344
 21
59.075312
 31
0.0
  0
LINE
  5
9623
  8
ALPHA
 10
49.390814
 20
59.067881
 30
0.0
 11
49.40013
 21
59.071344
 31
0.0
  0
LINE
  5
9624
  8
ALPHA
 10
49.379629
 20
59.053407
 30
0.0
 11
49.390814
 21
59.067881
 31
0.0
  0
LINE
  5
9625
  8
ALPHA
 10
49.400082
 20
58.271367
 30
0.0
 11
49.417599
 21
58.275388
 31
0.0
  0
LINE
  5
9626
  8
ALPHA
 10
49.390749
 20
58.267884
 30
0.0
 11
49.400082
 21
58.271367
 31
0.0
  0
LINE
  5
9627
  8
ALPHA
 10
49.379629
 20
58.253414
 30
0.0
 11
49.390749
 21
58.267884
 31
0.0
  0
LINE
  5
9628
  8
ALPHA
 10
49.400083
 20
57.471367
 30
0.0
 11
49.417593
 21
57.475386
 31
0.0
  0
LINE
  5
9629
  8
ALPHA
 10
49.390751
 20
57.467884
 30
0.0
 11
49.400083
 21
57.471367
 31
0.0
  0
LINE
  5
962A
  8
ALPHA
 10
49.379629
 20
57.453414
 30
0.0
 11
49.390751
 21
57.467884
 31
0.0
  0
LINE
  5
962B
  8
ALPHA
 10
49.400199
 20
56.671314
 30
0.0
 11
49.416982
 21
56.675206
 31
0.0
  0
LINE
  5
962C
  8
ALPHA
 10
49.390904
 20
56.667878
 30
0.0
 11
49.400199
 21
56.671314
 31
0.0
  0
LINE
  5
962D
  8
ALPHA
 10
49.379629
 20
56.653397
 30
0.0
 11
49.390904
 21
56.667878
 31
0.0
  0
LINE
  5
962E
  8
ALPHA
 10
49.385116
 20
56.644729
 30
0.0
 11
49.872785
 21
56.269506
 31
0.0
  0
LINE
  5
962F
  8
ALPHA
 10
49.385116
 20
57.44473
 30
0.0
 11
49.872785
 21
57.069506
 31
0.0
  0
LINE
  5
9630
  8
ALPHA
 10
49.385116
 20
58.24473
 30
0.0
 11
49.872785
 21
57.869506
 31
0.0
  0
LINE
  5
9631
  8
ALPHA
 10
49.886475
 20
56.280044
 30
0.0
 11
49.612917
 21
56.0695
 31
0.0
  0
LINE
  5
9632
  8
ALPHA
 10
49.886475
 20
57.080044
 30
0.0
 11
49.385116
 21
56.69428
 31
0.0
  0
LINE
  5
9633
  8
ALPHA
 10
49.385116
 20
59.044729
 30
0.0
 11
49.872785
 21
58.669505
 31
0.0
  0
LINE
  5
9634
  8
ALPHA
 10
49.886475
 20
57.880044
 30
0.0
 11
49.385116
 21
57.494279
 31
0.0
  0
LINE
  5
9635
  8
ALPHA
 10
49.886475
 20
58.680043
 30
0.0
 11
49.385116
 21
58.294279
 31
0.0
  0
LINE
  5
9636
  8
ALPHA
 10
49.886475
 20
59.480044
 30
0.0
 11
49.385116
 21
59.09428
 31
0.0
  0
LINE
  5
9637
  8
ALPHA
 10
49.385116
 20
59.044729
 30
0.0
 11
49.379627
 21
59.053168
 31
0.0
  0
LINE
  5
9638
  8
ALPHA
 10
49.385116
 20
58.24473
 30
0.0
 11
49.379627
 21
58.253168
 31
0.0
  0
LINE
  5
9639
  8
ALPHA
 10
49.385116
 20
57.44473
 30
0.0
 11
49.379627
 21
57.453168
 31
0.0
  0
LINE
  5
963A
  8
ALPHA
 10
49.385116
 20
56.644729
 30
0.0
 11
49.379627
 21
56.653168
 31
0.0
  0
LINE
  5
963B
  8
ALPHA
 10
49.379627
 20
56.685841
 30
0.0
 11
49.379627
 21
56.653168
 31
0.0
  0
LINE
  5
963C
  8
ALPHA
 10
49.379627
 20
57.485841
 30
0.0
 11
49.379627
 21
57.453168
 31
0.0
  0
LINE
  5
963D
  8
ALPHA
 10
49.379627
 20
58.285841
 30
0.0
 11
49.379627
 21
58.253168
 31
0.0
  0
LINE
  5
963E
  8
ALPHA
 10
49.379627
 20
59.085841
 30
0.0
 11
49.379627
 21
59.053168
 31
0.0
  0
LINE
  5
963F
  8
ALPHA
 10
49.385116
 20
56.69428
 30
0.0
 11
49.379627
 21
56.685841
 31
0.0
  0
LINE
  5
9640
  8
ALPHA
 10
49.385116
 20
57.494279
 30
0.0
 11
49.379627
 21
57.485841
 31
0.0
  0
LINE
  5
9641
  8
ALPHA
 10
49.385116
 20
58.294279
 30
0.0
 11
49.379627
 21
58.285841
 31
0.0
  0
LINE
  5
9642
  8
ALPHA
 10
49.385116
 20
59.09428
 30
0.0
 11
49.379627
 21
59.085841
 31
0.0
  0
LINE
  5
9643
  8
ALPHA
 10
50.916536
 20
56.069504
 30
0.0
 11
51.879627
 21
55.841451
 31
0.0
  0
POLYLINE
  5
9644
  8
ALPHA
 66
     1
 10
0.0
 20
0.0
 30
0.0
 70
   128
210
0.0
220
0.0
230
-1.0
  0
VERTEX
  5
99ED
  8
ALPHA
 10
-49.879627
 20
64.569504
 30
0.0
  0
VERTEX
  5
99EE
  8
ALPHA
 10
-50.406642
 20
64.524154
 30
0.0
  0
VERTEX
  5
99EF
  8
ALPHA
 10
-50.919422
 20
64.392989
 30
0.0
  0
VERTEX
  5
99F0
  8
ALPHA
 10
-51.879627
 20
63.950702
 30
0.0
  0
SEQEND
  5
99F1
  8
ALPHA
  0
POLYLINE
  5
9645
  8
ALPHA
 66
     1
 10
0.0
 20
0.0
 30
0.0
 70
   128
  0
VERTEX
  5
99F2
  8
ALPHA
 10
49.879627
 20
61.069504
 30
0.0
  0
VERTEX
  5
99F3
  8
ALPHA
 10
50.406642
 20
61.114855
 30
0.0
  0
VERTEX
  5
99F4
  8
ALPHA
 10
50.919422
 20
61.24602
 30
0.0
  0
VERTEX
  5
99F5
  8
ALPHA
 10
51.879627
 20
61.688307
 30
0.0
  0
SEQEND
  5
99F6
  8
ALPHA
  0
LINE
  5
9646
  8
ALPHA
 10
49.400082
 20
59.871367
 30
0.0
 11
49.417598
 21
59.875388
 31
0.0
  0
LINE
  5
9647
  8
ALPHA
 10
49.39075
 20
59.867884
 30
0.0
 11
49.400082
 21
59.871367
 31
0.0
  0
LINE
  5
9648
  8
ALPHA
 10
49.379627
 20
59.853168
 30
0.0
 11
49.39075
 21
59.867884
 31
0.0
  0
LINE
  5
9649
  8
ALPHA
 10
49.385116
 20
60.64473
 30
0.0
 11
49.872785
 21
60.269506
 31
0.0
  0
LINE
  5
964A
  8
ALPHA
 10
49.886475
 20
60.280044
 30
0.0
 11
49.385116
 21
59.89428
 31
0.0
  0
LINE
  5
964B
  8
ALPHA
 10
49.385116
 20
60.64473
 30
0.0
 11
49.379627
 21
60.653168
 31
0.0
  0
LINE
  5
964C
  8
ALPHA
 10
49.385116
 20
59.84473
 30
0.0
 11
49.379627
 21
59.853168
 31
0.0
  0
LINE
  5
964D
  8
ALPHA
 10
49.379627
 20
59.885841
 30
0.0
 11
49.379627
 21
59.853168
 31
0.0
  0
LINE
  5
964E
  8
ALPHA
 10
49.379627
 20
61.069504
 30
0.0
 11
49.379627
 21
60.653168
 31
0.0
  0
LINE
  5
964F
  8
ALPHA
 10
49.385116
 20
59.89428
 30
0.0
 11
49.379627
 21
59.885841
 31
0.0
  0
LINE
  5
9650
  8
ALPHA
 10
51.879627
 20
61.688307
 30
0.0
 11
51.879627
 21
63.950702
 31
0.0
  0
LINE
  5
9651
  8
ALPHA
 10
54.374139
 20
59.49428
 30
0.0
 11
53.886469
 21
59.869503
 31
0.0
  0
LINE
  5
9652
  8
ALPHA
 10
54.562498
 20
56.069504
 30
0.0
 11
55.879627
 21
55.72476
 31
0.0
  0
LINE
  5
9653
  8
ALPHA
 10
54.359055
 20
59.467693
 30
0.0
 11
54.342276
 21
59.463804
 31
0.0
  0
LINE
  5
9654
  8
ALPHA
 10
54.368351
 20
59.471129
 30
0.0
 11
54.359055
 21
59.467693
 31
0.0
  0
LINE
  5
9655
  8
ALPHA
 10
54.379627
 20
59.485841
 30
0.0
 11
54.368351
 21
59.471129
 31
0.0
  0
LINE
  5
9656
  8
ALPHA
 10
54.359155
 20
58.66765
 30
0.0
 11
54.341745
 21
58.663647
 31
0.0
  0
LINE
  5
9657
  8
ALPHA
 10
54.368482
 20
58.671126
 30
0.0
 11
54.359155
 21
58.66765
 31
0.0
  0
LINE
  5
9658
  8
ALPHA
 10
54.379627
 20
58.685841
 30
0.0
 11
54.368482
 21
58.671126
 31
0.0
  0
LINE
  5
9659
  8
ALPHA
 10
54.359174
 20
57.867641
 30
0.0
 11
54.341648
 21
57.863619
 31
0.0
  0
LINE
  5
965A
  8
ALPHA
 10
54.368507
 20
57.871125
 30
0.0
 11
54.359174
 21
57.867641
 31
0.0
  0
LINE
  5
965B
  8
ALPHA
 10
54.379627
 20
57.885841
 30
0.0
 11
54.368507
 21
57.871125
 31
0.0
  0
LINE
  5
965C
  8
ALPHA
 10
54.359027
 20
57.067707
 30
0.0
 11
54.342426
 21
57.063849
 31
0.0
  0
LINE
  5
965D
  8
ALPHA
 10
54.368313
 20
57.071132
 30
0.0
 11
54.359027
 21
57.067707
 31
0.0
  0
LINE
  5
965E
  8
ALPHA
 10
54.379627
 20
57.085841
 30
0.0
 11
54.368313
 21
57.071132
 31
0.0
  0
LINE
  5
965F
  8
ALPHA
 10
54.359173
 20
56.267641
 30
0.0
 11
54.341649
 21
56.263619
 31
0.0
  0
LINE
  5
9660
  8
ALPHA
 10
54.368506
 20
56.271125
 30
0.0
 11
54.359173
 21
56.267641
 31
0.0
  0
LINE
  5
9661
  8
ALPHA
 10
54.379627
 20
56.285841
 30
0.0
 11
54.368506
 21
56.271125
 31
0.0
  0
LINE
  5
9662
  8
ALPHA
 10
54.146338
 20
56.069509
 30
0.0
 11
54.374139
 21
56.244729
 31
0.0
  0
LINE
  5
9663
  8
ALPHA
 10
53.872779
 20
56.658965
 30
0.0
 11
54.374139
 21
57.04473
 31
0.0
  0
LINE
  5
9664
  8
ALPHA
 10
53.872779
 20
57.458965
 30
0.0
 11
54.374139
 21
57.84473
 31
0.0
  0
LINE
  5
9665
  8
ALPHA
 10
54.374139
 20
56.294279
 30
0.0
 11
53.886469
 21
56.669503
 31
0.0
  0
LINE
  5
9666
  8
ALPHA
 10
54.374139
 20
57.09428
 30
0.0
 11
53.886469
 21
57.469503
 31
0.0
  0
LINE
  5
9667
  8
ALPHA
 10
53.872779
 20
58.258965
 30
0.0
 11
54.374139
 21
58.644729
 31
0.0
  0
LINE
  5
9668
  8
ALPHA
 10
53.872779
 20
59.058965
 30
0.0
 11
54.374139
 21
59.444729
 31
0.0
  0
LINE
  5
9669
  8
ALPHA
 10
54.374139
 20
57.894279
 30
0.0
 11
53.886469
 21
58.269503
 31
0.0
  0
LINE
  5
966A
  8
ALPHA
 10
54.374139
 20
58.694279
 30
0.0
 11
53.886469
 21
59.069503
 31
0.0
  0
LINE
  5
966B
  8
ALPHA
 10
54.374139
 20
59.49428
 30
0.0
 11
54.379627
 21
59.485841
 31
0.0
  0
LINE
  5
966C
  8
ALPHA
 10
54.374139
 20
58.694279
 30
0.0
 11
54.379627
 21
58.685841
 31
0.0
  0
LINE
  5
966D
  8
ALPHA
 10
54.374139
 20
57.894279
 30
0.0
 11
54.379627
 21
57.885841
 31
0.0
  0
LINE
  5
966E
  8
ALPHA
 10
54.374139
 20
57.09428
 30
0.0
 11
54.379627
 21
57.085841
 31
0.0
  0
LINE
  5
966F
  8
ALPHA
 10
54.374139
 20
56.294279
 30
0.0
 11
54.379627
 21
56.285841
 31
0.0
  0
LINE
  5
9670
  8
ALPHA
 10
54.379627
 20
56.285841
 30
0.0
 11
54.379627
 21
56.253168
 31
0.0
  0
LINE
  5
9671
  8
ALPHA
 10
54.379627
 20
57.085841
 30
0.0
 11
54.379627
 21
57.053168
 31
0.0
  0
LINE
  5
9672
  8
ALPHA
 10
54.379627
 20
57.885841
 30
0.0
 11
54.379627
 21
57.853168
 31
0.0
  0
LINE
  5
9673
  8
ALPHA
 10
54.379627
 20
58.685841
 30
0.0
 11
54.379627
 21
58.653168
 31
0.0
  0
LINE
  5
9674
  8
ALPHA
 10
54.379627
 20
59.485841
 30
0.0
 11
54.379627
 21
59.453168
 31
0.0
  0
LINE
  5
9675
  8
ALPHA
 10
54.374139
 20
56.244729
 30
0.0
 11
54.379627
 21
56.253168
 31
0.0
  0
LINE
  5
9676
  8
ALPHA
 10
54.374139
 20
57.04473
 30
0.0
 11
54.379627
 21
57.053168
 31
0.0
  0
LINE
  5
9677
  8
ALPHA
 10
54.374139
 20
57.84473
 30
0.0
 11
54.379627
 21
57.853168
 31
0.0
  0
LINE
  5
9678
  8
ALPHA
 10
54.374139
 20
58.644729
 30
0.0
 11
54.379627
 21
58.653168
 31
0.0
  0
LINE
  5
9679
  8
ALPHA
 10
54.374139
 20
59.444729
 30
0.0
 11
54.379627
 21
59.453168
 31
0.0
  0
POLYLINE
  5
967A
  8
ALPHA
 66
     1
 10
0.0
 20
0.0
 30
0.0
 70
   128
  0
VERTEX
  5
99F7
  8
ALPHA
 10
53.879627
 20
61.069504
 30
0.0
  0
VERTEX
  5
99F8
  8
ALPHA
 10
54.406642
 20
61.114855
 30
0.0
  0
VERTEX
  5
99F9
  8
ALPHA
 10
54.919422
 20
61.24602
 30
0.0
  0
VERTEX
  5
99FA
  8
ALPHA
 10
55.879627
 20
61.688307
 30
0.0
  0
SEQEND
  5
99FB
  8
ALPHA
  0
POLYLINE
  5
967B
  8
ALPHA
 66
     1
 10
0.0
 20
0.0
 30
0.0
 70
   128
210
0.0
220
0.0
230
-1.0
  0
VERTEX
  5
99FC
  8
ALPHA
 10
-53.879627
 20
64.569504
 30
0.0
  0
VERTEX
  5
99FD
  8
ALPHA
 10
-54.406642
 20
64.524154
 30
0.0
  0
VERTEX
  5
99FE
  8
ALPHA
 10
-54.919422
 20
64.392989
 30
0.0
  0
VERTEX
  5
99FF
  8
ALPHA
 10
-55.879627
 20
63.950702
 30
0.0
  0
SEQEND
  5
9A00
  8
ALPHA
  0
LINE
  5
967C
  8
ALPHA
 10
53.872779
 20
59.858965
 30
0.0
 11
54.374139
 21
60.24473
 31
0.0
  0
LINE
  5
967D
  8
ALPHA
 10
53.647394
 20
60.185841
 30
0.0
 11
53.293841
 21
60.569504
 31
0.0
  0
LINE
  5
967E
  8
ALPHA
 10
54.379627
 20
61.069504
 30
0.0
 11
54.379627
 21
60.253168
 31
0.0
  0
LINE
  5
967F
  8
ALPHA
 10
53.647394
 20
60.953168
 30
0.0
 11
53.647394
 21
60.185841
 31
0.0
  0
LINE
  5
9680
  8
ALPHA
 10
54.374139
 20
60.24473
 30
0.0
 11
54.379627
 21
60.253168
 31
0.0
  0
LINE
  5
9681
  8
ALPHA
 10
53.293841
 20
60.569504
 30
0.0
 11
53.647394
 21
60.953168
 31
0.0
  0
LINE
  5
9682
  8
ALPHA
 10
55.879627
 20
61.069504
 30
0.0
 11
55.879627
 21
64.569504
 31
0.0
  0
VIEWPORT
  5
494D
 67
     1
  8
0
 10
4.995325
 20
6.556512
 30
0.0
 40
22.70986
 41
13.988421
 68
    -1
 69
     1
1001
ACAD
1000
MVIEW
1002
{
1070
    16
1010
0.0
1020
0.0
1030
0.0
1010
0.0
1020
0.0
1030
1.0
1040
0.0
1040
13.988421
1040
4.995325
1040
6.556512
1040
50.0
1040
0.0
1040
0.0
1070
     0
1070
   100
1070
     1
1070
     1
1070
     0
1070
     0
1070
     0
1070
     0
1040
0.0
1040
0.0
1040
0.0
1040
10.0
1040
10.0
1040
10.0
1040
10.0
1070
     0
1002
{
1002
}
1002
}
  0
ENDSEC
  0
EOF
