  0
SECTION
  2
HEADER
  9
$ACADVER
  1
AC1009
  9
$INSBASE
 10
402.590624
 20
-1.041018
 30
0.0
  9
$EXTMIN
 10
-7.109816
 20
41.441755
 30
0.0
  9
$EXTMAX
 10
52.890184
 20
136.90687
 30
0.0
  9
$LIMMIN
 10
-407.970438
 20
-367.832444
  9
$LIMMAX
 10
429.804077
 20
234.370848
  9
$ORTHOMODE
 70
     0
  9
$REGENMODE
 70
     1
  9
$FILLMODE
 70
     1
  9
$QTEXTMODE
 70
     0
  9
$MIRRTEXT
 70
     1
  9
$DRAGMODE
 70
     2
  9
$LTSCALE
 40
10.0
  9
$OSMODE
 70
    37
  9
$ATTMODE
 70
     1
  9
$TEXTSIZE
 40
6.0
  9
$TRACEWID
 40
1.0
  9
$TEXTSTYLE
  7
ROMANS
  9
$CLAYER
  8
ALPHA
  9
$CELTYPE
  6
BYLAYER
  9
$CECOLOR
 62
   256
  9
$DIMSCALE
 40
1.0
  9
$DIMASZ
 40
5.0
  9
$DIMEXO
 40
2.0
  9
$DIMDLI
 40
0.38
  9
$DIMRND
 40
0.0
  9
$DIMDLE
 40
0.0
  9
$DIMEXE
 40
2.5
  9
$DIMTP
 40
0.0
  9
$DIMTM
 40
0.0
  9
$DIMTXT
 40
2.5
  9
$DIMCEN
 40
0.0
  9
$DIMTSZ
 40
0.0
  9
$DIMTOL
 70
     0
  9
$DIMLIM
 70
     0
  9
$DIMTIH
 70
     1
  9
$DIMTOH
 70
     1
  9
$DIMSE1
 70
     0
  9
$DIMSE2
 70
     0
  9
$DIMTAD
 70
     1
  9
$DIMZIN
 70
    12
  9
$DIMBLK
  1
OPEN30
  9
$DIMASO
 70
     1
  9
$DIMSHO
 70
     1
  9
$DIMPOST
  1

  9
$DIMAPOST
  1

  9
$DIMALT
 70
     0
  9
$DIMALTD
 70
     2
  9
$DIMALTF
 40
25.4
  9
$DIMLFAC
 40
1.0
  9
$DIMTOFL
 70
     0
  9
$DIMTVP
 40
0.0
  9
$DIMTIX
 70
     0
  9
$DIMSOXD
 70
     0
  9
$DIMSAH
 70
     0
  9
$DIMBLK1
  1

  9
$DIMBLK2
  1

  9
$DIMSTYLE
  2
SC_DEFAUT
  9
$DIMCLRD
 70
     0
  9
$DIMCLRE
 70
     0
  9
$DIMCLRT
 70
     0
  9
$DIMTFAC
 40
1.0
  9
$DIMGAP
 40
2.0
  9
$LUNITS
 70
     2
  9
$LUPREC
 70
     1
  9
$SKETCHINC
 40
0.1
  9
$FILLETRAD
 40
0.5
  9
$AUNITS
 70
     0
  9
$AUPREC
 70
     0
  9
$MENU
  1
acad
  9
$ELEVATION
 40
0.0
  9
$PELEVATION
 40
0.0
  9
$THICKNESS
 40
0.0
  9
$LIMCHECK
 70
     0
  9
$BLIPMODE
 70
     0
  9
$CHAMFERA
 40
0.0
  9
$CHAMFERB
 40
0.0
  9
$SKPOLY
 70
     0
  9
$TDCREATE
 40
2450373.687919
  9
$TDUPDATE
 40
2452850.684406
  9
$TDINDWG
 40
1.389597
  9
$TDUSRTIMER
 40
1.389597
  9
$USRTIMER
 70
     1
  9
$ANGBASE
 50
0.0
  9
$ANGDIR
 70
     0
  9
$PDMODE
 70
    32
  9
$PDSIZE
 40
0.0
  9
$PLINEWID
 40
0.0
  9
$COORDS
 70
     1
  9
$SPLFRAME
 70
     0
  9
$SPLINETYPE
 70
     6
  9
$SPLINESEGS
 70
     8
  9
$ATTDIA
 70
     0
  9
$ATTREQ
 70
     1
  9
$HANDLING
 70
     1
  9
$HANDSEED
  5
EF73
  9
$SURFTAB1
 70
     6
  9
$SURFTAB2
 70
     6
  9
$SURFTYPE
 70
     6
  9
$SURFU
 70
     6
  9
$SURFV
 70
     6
  9
$UCSNAME
  2

  9
$UCSORG
 10
0.0
 20
0.0
 30
0.0
  9
$UCSXDIR
 10
1.0
 20
0.0
 30
0.0
  9
$UCSYDIR
 10
0.0
 20
1.0
 30
0.0
  9
$PUCSNAME
  2

  9
$PUCSORG
 10
0.0
 20
0.0
 30
0.0
  9
$PUCSXDIR
 10
1.0
 20
0.0
 30
0.0
  9
$PUCSYDIR
 10
0.0
 20
1.0
 30
0.0
  9
$USERI1
 70
     0
  9
$USERI2
 70
     0
  9
$USERI3
 70
     0
  9
$USERI4
 70
     0
  9
$USERI5
 70
     0
  9
$USERR1
 40
0.0
  9
$USERR2
 40
0.0
  9
$USERR3
 40
0.0
  9
$USERR4
 40
0.0
  9
$USERR5
 40
0.0
  9
$WORLDVIEW
 70
     1
  9
$SHADEDGE
 70
     3
  9
$SHADEDIF
 70
    70
  9
$TILEMODE
 70
     1
  9
$MAXACTVP
 70
    16
  9
$PLIMCHECK
 70
     0
  9
$PEXTMIN
 10
-1.452248
 20
-0.437698
 30
0.0
  9
$PEXTMAX
 10
12.749749
 20
8.310198
 30
0.0
  9
$PLIMMIN
 10
0.0
 20
0.0
  9
$PLIMMAX
 10
12.0
 20
9.0
  9
$UNITMODE
 70
     0
  9
$VISRETAIN
 70
     0
  9
$PLINEGEN
 70
     0
  9
$PSLTSCALE
 70
     0
  0
ENDSEC
  0
SECTION
  2
TABLES
  0
TABLE
  2
VPORT
 70
     2
  0
VPORT
  2
*ACTIVE
 70
     0
 10
0.0
 20
0.0
 11
1.0
 21
1.0
 12
22.869323
 22
89.181746
 13
0.0
 23
0.0
 14
1.0
 24
1.0
 15
10.0
 25
10.0
 16
0.0
 26
0.0
 36
1.0
 17
0.0
 27
0.0
 37
0.0
 40
96.336105
 41
1.56
 42
50.0
 43
0.0
 44
0.0
 50
0.0
 51
0.0
 71
     0
 72
   100
 73
     1
 74
     0
 75
     0
 76
     0
 77
     0
 78
     0
  0
ENDTAB
  0
TABLE
  2
LTYPE
 70
     3
  0
LTYPE
  2
CONTINUOUS
 70
     0
  3
Solid line
 72
    65
 73
     0
 40
0.0
  0
LTYPE
  2
AXES2
 70
     0
  3
___ _ ___ _ ___ _ ___ _ ___ _ ___ _ ___ _ ___ _
 72
    65
 73
     4
 40
1.125
 49
0.75
 49
-0.125
 49
0.125
 49
-0.125
  0
LTYPE
  2
CACHE2
 70
     0
  3
Caché (x.5) _ _ _ _ _ _ _ _ _ _ _ _ _ _ _ _ _
 72
    65
 73
     2
 40
0.1875
 49
0.125
 49
-0.0625
  0
ENDTAB
  0
TABLE
  2
LAYER
 70
     6
  0
LAYER
  2
0
 70
     0
 62
   255
  6
CONTINUOUS
  0
LAYER
  2
COTATION1
 70
     0
 62
     2
  6
CONTINUOUS
  0
LAYER
  2
AXE
 70
     0
 62
    80
  6
AXES2
  0
LAYER
  2
DEFPOINTS
 70
     0
 62
     7
  6
CONTINUOUS
  0
LAYER
  2
ALPHA
 70
     0
 62
   254
  6
CONTINUOUS
  0
LAYER
  2
POINTILLE_COURT
 70
     0
 62
    41
  6
CACHE2
  0
ENDTAB
  0
TABLE
  2
STYLE
 70
     2
  0
STYLE
  2
ROMANS
 70
     0
 40
0.0
 41
1.0
 50
0.0
 71
     0
 42
6.0
  3
romans
  4

  0
STYLE
  2
STANDARD
 70
     0
 40
0.2
 41
1.0
 50
0.0
 71
     0
 42
0.2
  3
txt
  4

  0
ENDTAB
  0
TABLE
  2
VIEW
 70
     0
  0
ENDTAB
  0
TABLE
  2
UCS
 70
     0
  0
ENDTAB
  0
TABLE
  2
APPID
 70
     1
  0
APPID
  2
ACAD
 70
     0
  0
ENDTAB
  0
TABLE
  2
DIMSTYLE
 70
     1
  0
DIMSTYLE
  2
SC_DEFAUT
 70
     0
  3

  4

  5
OPEN30
  6

  7

 40
1.0
 41
5.0
 42
2.0
 43
0.38
 44
2.5
 45
0.0
 46
0.0
 47
0.0
 48
0.0
140
2.5
141
0.0
142
0.0
143
25.4
144
1.0
145
0.0
146
1.0
147
2.0
 71
     0
 72
     0
 73
     1
 74
     1
 75
     0
 76
     0
 77
     1
 78
    12
170
     0
171
     2
172
     0
173
     0
174
     0
175
     0
176
     0
177
     0
178
     0
  0
ENDTAB
  0
ENDSEC
  0
SECTION
  2
BLOCKS
  0
BLOCK
  8
0
  2
$MODEL_SPACE
 70
     0
 10
0.0
 20
0.0
 30
0.0
  3
$MODEL_SPACE
  1

  0
ENDBLK
  5
EF3A
  8
0
  0
BLOCK
 67
     1
  8
0
  2
$PAPER_SPACE
 70
     0
 10
0.0
 20
0.0
 30
0.0
  3
$PAPER_SPACE
  1

  0
ENDBLK
  5
EF38
 67
     1
  8
0
  0
BLOCK
  8
0
  2
COTE
 70
     0
 10
0.0
 20
0.0
 30
0.0
  3
COTE
  1

  0
ENDBLK
  5
F
  8
0
  0
BLOCK
  8
0
  2
FOND
 70
     0
 10
0.0
 20
0.0
 30
0.0
  3
FOND
  1

  0
ENDBLK
  5
75
  8
0
  0
BLOCK
  8
0
  2
_OPEN30
 70
     0
 10
0.0
 20
0.0
 30
0.0
  3
_OPEN30
  1

  0
LINE
  5
4B05
  8
COTATION1
 62
     0
 10
-1.0
 20
0.267949
 30
0.0
 11
0.0
 21
0.0
 31
0.0
1001
ACAD
1000
RTLwPs
1070
   158
  0
LINE
  5
4B06
  8
COTATION1
 62
     0
 10
0.0
 20
0.0
 30
0.0
 11
-1.0
 21
-0.267949
 31
0.0
1001
ACAD
1000
RTLwPs
1070
   158
  0
LINE
  5
4B07
  8
COTATION1
 62
     0
 10
0.0
 20
0.0
 30
0.0
 11
-1.0
 21
0.0
 31
0.0
1001
ACAD
1000
RTLwPs
1070
   158
  0
ENDBLK
  5
4B09
  8
0
  0
BLOCK
  8
0
  2
*D3
 70
     1
 10
0.0
 20
0.0
 30
0.0
  3
*D3
  1

  0
LINE
  5
ED01
  8
COTATION1
 62
     0
 10
29.890184
 20
118.728457
 30
0.0
 11
52.890184
 21
118.728457
 31
0.0
1001
ACAD
1000
RTLwPs
1070
   158
  0
LINE
  5
ED02
  8
COTATION1
 62
     0
 10
29.890184
 20
67.728457
 30
0.0
 11
52.890184
 21
67.728457
 31
0.0
1001
ACAD
1000
RTLwPs
1070
   158
  0
LINE
  5
ED03
  8
COTATION1
 62
     0
 10
50.390184
 20
113.728457
 30
0.0
 11
50.390184
 21
96.478457
 31
0.0
1001
ACAD
1000
RTLwPs
1070
   158
  0
LINE
  5
ED04
  8
COTATION1
 62
     0
 10
50.390184
 20
72.728457
 30
0.0
 11
50.390184
 21
89.978457
 31
0.0
1001
ACAD
1000
RTLwPs
1070
   158
  0
INSERT
  5
ED05
  8
COTATION1
 62
     0
  2
_OPEN30
 10
50.390184
 20
118.728457
 30
0.0
 41
5.0
 42
5.0
 43
5.0
 50
90.0
1001
ACAD
1000
RTLwPs
1070
   158
  0
INSERT
  5
ED06
  8
COTATION1
 62
     0
  2
_OPEN30
 10
50.390184
 20
67.728457
 30
0.0
 41
5.0
 42
5.0
 43
5.0
 50
270.0
1001
ACAD
1000
RTLwPs
1070
   158
  0
TEXT
  5
ED07
  8
COTATION1
 62
     0
 10
48.366375
 20
91.978457
 30
0.0
 40
2.5
  1
51
1001
ACAD
1000
MTEXTBEGIN
1070
    73
1070
     1
1070
    44
1040
1.0
1070
    74
1070
     0
1000
MTEXTEND
1000
MTEXTBEGIN
1070
    73
1070
     1
1070
    44
1040
1.0
1070
    74
1070
     0
1000
MTEXTEND
  0
POINT
  5
ED08
  8
DEFPOINTS
 62
     0
 10
27.890184
 20
118.728457
 30
0.0
  0
POINT
  5
ED09
  8
DEFPOINTS
 62
     0
 10
27.890184
 20
67.728457
 30
0.0
  0
POINT
  5
ED0A
  8
DEFPOINTS
 62
     0
 10
50.390184
 20
67.728457
 30
0.0
  0
ENDBLK
  5
EAB7
  8
0
  0
BLOCK
  8
0
  2
*D4
 70
     1
 10
0.0
 20
0.0
 30
0.0
  3
*D4
  1

  0
LINE
  5
EE95
  8
COTATION1
 62
     0
 10
23.890184
 20
69.128457
 30
0.0
 11
23.890184
 21
41.441755
 31
0.0
1001
ACAD
1000
RTLwPs
1070
   158
  0
LINE
  5
EE96
  8
COTATION1
 62
     0
 10
27.890184
 20
65.728457
 30
0.0
 11
27.890184
 21
41.441755
 31
0.0
1001
ACAD
1000
RTLwPs
1070
   158
  0
LINE
  5
EE97
  8
COTATION1
 62
     0
 10
18.890184
 20
43.941755
 30
0.0
 11
13.890184
 21
43.941755
 31
0.0
1001
ACAD
1000
RTLwPs
1070
   158
  0
LINE
  5
EE98
  8
COTATION1
 62
     0
 10
32.890184
 20
43.941755
 30
0.0
 11
43.675898
 21
43.941755
 31
0.0
1001
ACAD
1000
RTLwPs
1070
   158
  0
INSERT
  5
EE99
  8
COTATION1
 62
     0
  2
_OPEN30
 10
23.890184
 20
43.941755
 30
0.0
 41
5.0
 42
5.0
 43
5.0
1001
ACAD
1000
RTLwPs
1070
   158
  0
INSERT
  5
EE9A
  8
COTATION1
 62
     0
  2
_OPEN30
 10
27.890184
 20
43.941755
 30
0.0
 41
5.0
 42
5.0
 43
5.0
 50
180.0
1001
ACAD
1000
RTLwPs
1070
   158
  0
TEXT
  5
EE9B
  8
COTATION1
 62
     0
 10
39.533041
 20
45.941755
 30
0.0
 40
2.5
  1
4
1001
ACAD
1000
MTEXTBEGIN
1070
    73
1070
     1
1070
    44
1040
1.0
1070
    74
1070
     0
1000
MTEXTEND
  0
POINT
  5
EE9C
  8
DEFPOINTS
 62
     0
 10
23.890184
 20
71.128457
 30
0.0
  0
POINT
  5
EE9D
  8
DEFPOINTS
 62
     0
 10
27.890184
 20
67.728457
 30
0.0
  0
POINT
  5
EE9E
  8
DEFPOINTS
 62
     0
 10
27.890184
 20
43.941755
 30
0.0
  0
ENDBLK
  5
EAD1
  8
0
  0
BLOCK
  8
0
  2
*D5
 70
     1
 10
0.0
 20
0.0
 30
0.0
  3
*D5
  1

  0
LINE
  5
EE82
  8
COTATION1
 62
     0
 10
-2.109816
 20
108.204829
 30
0.0
 11
-2.109816
 21
134.90687
 31
0.0
1001
ACAD
1000
RTLwPs
1070
   158
  0
LINE
  5
EE83
  8
COTATION1
 62
     0
 10
27.890184
 20
120.728457
 30
0.0
 11
27.890184
 21
134.90687
 31
0.0
1001
ACAD
1000
RTLwPs
1070
   158
  0
LINE
  5
EE84
  8
COTATION1
 62
     0
 10
2.890184
 20
132.40687
 30
0.0
 11
22.890184
 21
132.40687
 31
0.0
1001
ACAD
1000
RTLwPs
1070
   158
  0
INSERT
  5
EE85
  8
COTATION1
 62
     0
  2
_OPEN30
 10
-2.109816
 20
132.40687
 30
0.0
 41
5.0
 42
5.0
 43
5.0
 50
180.0
1001
ACAD
1000
RTLwPs
1070
   158
  0
INSERT
  5
EE86
  8
COTATION1
 62
     0
  2
_OPEN30
 10
27.890184
 20
132.40687
 30
0.0
 41
5.0
 42
5.0
 43
5.0
1001
ACAD
1000
RTLwPs
1070
   158
  0
TEXT
  5
EE87
  8
COTATION1
 62
     0
 10
10.509232
 20
134.40687
 30
0.0
 40
2.5
  1
30
1001
ACAD
1000
MTEXTBEGIN
1070
    73
1070
     1
1070
    44
1040
1.0
1070
    74
1070
     0
1000
MTEXTEND
  0
POINT
  5
EE88
  8
DEFPOINTS
 62
     0
 10
-2.109816
 20
106.204829
 30
0.0
  0
POINT
  5
EE89
  8
DEFPOINTS
 62
     0
 10
27.890184
 20
118.728457
 30
0.0
  0
POINT
  5
EE8A
  8
DEFPOINTS
 62
     0
 10
27.890184
 20
132.40687
 30
0.0
  0
ENDBLK
  5
EADD
  8
0
  0
ENDSEC
  0
SECTION
  2
ENTITIES
  0
INSERT
  5
A
  8
0
  2
COTE
 10
0.0
 20
0.0
 30
0.0
  0
INSERT
  5
17
  8
0
  2
COTE
 10
284.010391
 20
6.373258
 30
0.0
  0
INSERT
  5
72
  8
0
  2
FOND
 10
0.0
 20
0.0
 30
0.0
  0
DIMENSION
  5
EA6A
  8
COTATION1
  2
*D3
 10
50.390184
 20
67.728457
 30
0.0
 11
50.390184
 21
93.228457
 31
0.0
 13
27.890184
 23
118.728457
 33
0.0
 14
27.890184
 24
67.728457
 34
0.0
 50
90.0
  0
LINE
  5
EA6D
  8
AXE
 10
15.390184
 20
123.728457
 30
0.0
 11
15.390184
 21
51.728457
 31
0.0
  0
LINE
  5
EA6F
  8
ALPHA
 10
3.890184
 20
77.7914
 30
0.0
 11
3.890184
 21
72.739154
 31
0.0
  0
POLYLINE
  5
EA70
  8
ALPHA
 66
     1
 10
0.0
 20
0.0
 30
0.0
 70
   128
210
0.0
220
0.0
230
-1.0
  0
VERTEX
  5
EF40
  8
ALPHA
 10
-8.330712
 20
74.067849
 30
0.0
  0
VERTEX
  5
EF41
  8
ALPHA
 10
-6.83514
 20
74.960721
 30
0.0
  0
VERTEX
  5
EF42
  8
ALPHA
 10
-5.480352
 20
76.04221
 30
0.0
  0
VERTEX
  5
EF43
  8
ALPHA
 10
-4.284416
 20
77.294308
 30
0.0
  0
VERTEX
  5
EF44
  8
ALPHA
 10
-3.265404
 20
78.699012
 30
0.0
  0
VERTEX
  5
EF45
  8
ALPHA
 10
-2.441384
 20
80.238315
 30
0.0
  0
VERTEX
  5
EF46
  8
ALPHA
 10
-1.830426
 20
81.894212
 30
0.0
  0
VERTEX
  5
EF47
  8
ALPHA
 10
-1.4506
 20
83.648698
 30
0.0
  0
VERTEX
  5
EF48
  8
ALPHA
 10
-1.319976
 20
85.483766
 30
0.0
  0
VERTEX
  5
EF49
  8
ALPHA
 10
-1.4506
 20
87.319284
 30
0.0
  0
VERTEX
  5
EF4A
  8
ALPHA
 10
-1.830426
 20
89.074091
 30
0.0
  0
VERTEX
  5
EF4B
  8
ALPHA
 10
-2.441384
 20
90.730181
 30
0.0
  0
VERTEX
  5
EF4C
  8
ALPHA
 10
-3.265404
 20
92.269548
 30
0.0
  0
VERTEX
  5
EF4D
  8
ALPHA
 10
-4.284416
 20
93.674188
 30
0.0
  0
VERTEX
  5
EF4E
  8
ALPHA
 10
-5.480352
 20
94.926094
 30
0.0
  0
VERTEX
  5
EF4F
  8
ALPHA
 10
-6.83514
 20
96.007261
 30
0.0
  0
VERTEX
  5
EF50
  8
ALPHA
 10
-8.330712
 20
96.899683
 30
0.0
  0
SEQEND
  5
EF51
  8
ALPHA
  0
LINE
  5
EA71
  8
ALPHA
 10
27.890184
 20
118.728457
 30
0.0
 11
27.890184
 21
67.728457
 31
0.0
  0
LINE
  5
EA72
  8
ALPHA
 10
-2.109816
 20
102.228457
 30
0.0
 11
-2.109816
 21
68.728457
 31
0.0
  0
DIMENSION
  5
EA73
  8
COTATION1
  2
*D4
 10
27.890184
 20
43.941755
 30
0.0
 11
40.783041
 21
47.191755
 31
0.0
 13
23.890184
 23
71.128457
 33
0.0
 14
27.890184
 24
67.728457
 34
0.0
  0
POLYLINE
  5
EA74
  8
ALPHA
 66
     1
 10
0.0
 20
0.0
 30
0.0
 70
   128
210
0.0
220
0.0
230
-1.0
  0
VERTEX
  5
EF52
  8
ALPHA
 10
-27.890184
 20
69.728457
 30
0.0
  0
VERTEX
  5
EF53
  8
ALPHA
 10
-22.541329
 20
70.148789
 30
0.0
  0
VERTEX
  5
EF54
  8
ALPHA
 10
-17.29013
 20
70.950881
 30
0.0
  0
VERTEX
  5
EF55
  8
ALPHA
 10
-14.798809
 20
71.523799
 30
0.0
  0
VERTEX
  5
EF56
  8
ALPHA
 10
-12.44909
 20
72.22661
 30
0.0
  0
VERTEX
  5
EF57
  8
ALPHA
 10
-10.280037
 20
73.070798
 30
0.0
  0
VERTEX
  5
EF58
  8
ALPHA
 10
-8.330712
 20
74.067849
 30
0.0
  0
SEQEND
  5
EF59
  8
ALPHA
  0
LINE
  5
EA75
  8
ALPHA
 10
-1.109816
 20
67.728457
 30
0.0
 11
27.890184
 21
67.728457
 31
0.0
  0
DIMENSION
  5
EA76
  8
COTATION1
  2
*D5
 10
27.890184
 20
132.40687
 30
0.0
 11
12.890184
 21
135.65687
 31
0.0
 13
-2.109816
 23
106.204829
 33
0.0
 14
27.890184
 24
118.728457
 34
0.0
  0
ARC
  5
EA77
  8
ALPHA
 10
-1.109816
 20
68.728457
 30
0.0
 40
1.0
 50
180.0
 51
270.0
  0
TEXT
  5
EA78
  8
AXE
 10
7.913994
 20
51.728457
 30
0.0
 40
8.0
  1
Y
 72
     2
 11
14.390184
 21
51.728457
 31
0.0
  0
LINE
  5
EA79
  8
ALPHA
 10
11.900501
 20
67.728457
 30
0.0
 11
6.889107
 21
72.739154
 31
0.0
  0
POLYLINE
  5
EA7A
  8
ALPHA
 66
     1
 10
0.0
 20
0.0
 30
0.0
 70
   128
  0
VERTEX
  5
EF5A
  8
ALPHA
 10
6.889107
 20
71.074147
 30
0.0
  0
VERTEX
  5
EF5B
  8
ALPHA
 10
6.889107
 20
71.334305
 30
0.0
  0
VERTEX
  5
EF5C
  8
ALPHA
 10
6.889107
 20
71.906651
 30
0.0
  0
VERTEX
  5
EF5D
  8
ALPHA
 10
6.889107
 20
72.478997
 30
0.0
  0
VERTEX
  5
EF5E
  8
ALPHA
 10
6.889107
 20
72.739154
 30
0.0
  0
SEQEND
  5
EF5F
  8
ALPHA
  0
LINE
  5
EA7B
  8
ALPHA
 10
6.889107
 20
72.739154
 30
0.0
 11
3.890184
 21
72.739154
 31
0.0
  0
POLYLINE
  5
EA7C
  8
ALPHA
 66
     1
 10
0.0
 20
0.0
 30
0.0
 70
   128
  0
VERTEX
  5
EF60
  8
ALPHA
 10
6.889107
 20
67.728457
 30
0.0
  0
VERTEX
  5
EF61
  8
ALPHA
 10
7.540217
 20
67.860016
 30
0.0
  0
VERTEX
  5
EF62
  8
ALPHA
 10
8.071954
 20
68.218626
 30
0.0
  0
VERTEX
  5
EF63
  8
ALPHA
 10
8.430479
 20
68.750192
 30
0.0
  0
VERTEX
  5
EF64
  8
ALPHA
 10
8.561952
 20
69.400617
 30
0.0
  0
VERTEX
  5
EF65
  8
ALPHA
 10
8.430479
 20
70.051834
 30
0.0
  0
VERTEX
  5
EF66
  8
ALPHA
 10
8.071954
 20
70.583807
 30
0.0
  0
VERTEX
  5
EF67
  8
ALPHA
 10
7.540217
 20
70.942568
 30
0.0
  0
VERTEX
  5
EF68
  8
ALPHA
 10
6.889107
 20
71.074147
 30
0.0
  0
SEQEND
  5
EF69
  8
ALPHA
  0
LINE
  5
EA7D
  8
POINTILLE_COURT
 10
27.890184
 20
69.628457
 30
0.0
 11
25.390184
 21
69.628457
 31
0.0
  0
LINE
  5
EA7E
  8
POINTILLE_COURT
 10
27.890184
 20
72.628457
 30
0.0
 11
25.390184
 21
72.628457
 31
0.0
  0
ARC
  5
EA7F
  8
POINTILLE_COURT
 10
25.390184
 20
71.128457
 30
0.0
 40
1.5
 50
90.0
 51
270.0
  0
LINE
  5
EA81
  8
ALPHA
 10
19.935089
 20
89.976668
 30
0.0
 11
18.60627
 21
91.306171
 31
0.0
  0
LINE
  5
EA82
  8
ALPHA
 10
18.60627
 20
79.662729
 30
0.0
 11
19.935089
 21
80.992236
 31
0.0
  0
LINE
  5
EA83
  8
ALPHA
 10
19.935089
 20
80.992236
 30
0.0
 11
15.442188
 21
85.483768
 31
0.0
  0
LINE
  5
EA84
  8
ALPHA
 10
15.442188
 20
85.483768
 30
0.0
 11
19.935089
 21
89.976668
 31
0.0
  0
CIRCLE
  5
EA85
  8
ALPHA
 10
14.11337
 20
85.48308
 30
0.0
 40
9.25
  0
POLYLINE
  5
EA86
  8
ALPHA
 66
     1
 10
0.0
 20
0.0
 30
0.0
 70
   128
210
0.0
220
0.0
230
-1.0
  0
VERTEX
  5
EF6A
  8
ALPHA
 10
-8.330712
 20
96.899683
 30
0.0
  0
VERTEX
  5
EF6B
  8
ALPHA
 10
-10.280037
 20
97.897186
 30
0.0
  0
VERTEX
  5
EF6C
  8
ALPHA
 10
-12.44909
 20
98.741715
 30
0.0
  0
VERTEX
  5
EF6D
  8
ALPHA
 10
-14.798809
 20
99.444769
 30
0.0
  0
VERTEX
  5
EF6E
  8
ALPHA
 10
-17.29013
 20
100.01785
 30
0.0
  0
VERTEX
  5
EF6F
  8
ALPHA
 10
-22.541329
 20
100.820093
 30
0.0
  0
VERTEX
  5
EF70
  8
ALPHA
 10
-27.890184
 20
101.240446
 30
0.0
  0
SEQEND
  5
EF71
  8
ALPHA
  0
LINE
  5
EA89
  8
AXE
 10
-7.109816
 20
85.48308
 30
0.0
 11
42.890184
 21
85.48308
 31
0.0
  0
LINE
  5
EA8A
  8
ALPHA
 10
2.890184
 20
116.028457
 30
0.0
 11
27.890184
 21
116.028457
 31
0.0
  0
LINE
  5
EA8B
  8
ALPHA
 10
3.890184
 20
101.240446
 30
0.0
 11
3.890184
 21
93.177135
 31
0.0
  0
LINE
  5
EA8C
  8
ALPHA
 10
8.29165
 20
89.976668
 30
0.0
 11
12.783866
 21
85.483768
 31
0.0
  0
LINE
  5
EA8D
  8
ALPHA
 10
9.620469
 20
79.662729
 30
0.0
 11
14.11337
 21
84.155634
 31
0.0
  0
LINE
  5
EA8E
  8
ALPHA
 10
12.783866
 20
85.483768
 30
0.0
 11
8.29165
 21
80.992236
 31
0.0
  0
LINE
  5
EA8F
  8
ALPHA
 10
8.29165
 20
80.992236
 30
0.0
 11
9.620469
 21
79.662729
 31
0.0
  0
LINE
  5
EA90
  8
ALPHA
 10
14.11337
 20
84.155634
 30
0.0
 11
18.60627
 21
79.662729
 31
0.0
  0
LINE
  5
EA91
  8
ALPHA
 10
14.11337
 20
86.813271
 30
0.0
 11
9.620469
 21
91.306171
 31
0.0
  0
LINE
  5
EA92
  8
ALPHA
 10
9.620469
 20
91.306171
 30
0.0
 11
8.29165
 21
89.976668
 31
0.0
  0
LINE
  5
EA93
  8
ALPHA
 10
18.60627
 20
91.306171
 30
0.0
 11
14.11337
 21
86.813271
 31
0.0
  0
LINE
  5
EA94
  8
ALPHA
 10
2.890184
 20
101.240446
 30
0.0
 11
3.890184
 21
101.240446
 31
0.0
  0
LINE
  5
EA96
  8
ALPHA
 10
2.890184
 20
118.228457
 30
0.0
 11
2.890184
 21
101.240446
 31
0.0
  0
ARC
  5
EA97
  8
ALPHA
 10
31.559771
 20
106.515651
 30
0.0
 40
33.671021
 50
166.958519
 51
180.528913
  0
LINE
  5
EA98
  8
ALPHA
 10
-2.109816
 20
102.040446
 30
0.0
 11
2.890184
 21
102.040446
 31
0.0
  0
LINE
  5
EA99
  8
ALPHA
 10
-2.109816
 20
102.228457
 30
0.0
 11
-2.109816
 21
106.204829
 31
0.0
  0
LINE
  5
EA9A
  8
ALPHA
 10
0.227011
 20
115.314173
 30
0.0
 11
2.890184
 21
115.314173
 31
0.0
  0
ARC
  5
EA9B
  8
ALPHA
 10
0.227011
 20
113.814173
 30
0.0
 40
1.5
 50
90.0
 51
168.480193
  0
TEXT
  5
EAA0
  8
AXE
 10
36.413994
 20
86.48308
 30
0.0
 40
8.0
  1
Z
 72
     2
 11
42.890184
 21
86.48308
 31
0.0
  0
LINE
  5
EAA1
  8
ALPHA
 10
3.390184
 20
118.728457
 30
0.0
 11
27.890184
 21
118.728457
 31
0.0
  0
ARC
  5
EB99
  8
ALPHA
 10
3.390184
 20
118.228457
 30
0.0
 40
0.5
 50
90.0
 51
180.0
  0
VIEWPORT
  5
494D
 67
     1
  8
0
 10
4.995325
 20
6.556512
 30
0.0
 40
22.70986
 41
13.988421
 68
    -1
 69
     1
1001
ACAD
1000
MVIEW
1002
{
1070
    16
1010
0.0
1020
0.0
1030
0.0
1010
0.0
1020
0.0
1030
1.0
1040
0.0
1040
13.988421
1040
4.995325
1040
6.556512
1040
50.0
1040
0.0
1040
0.0
1070
     0
1070
   100
1070
     1
1070
     1
1070
     0
1070
     0
1070
     0
1070
     0
1040
0.0
1040
0.0
1040
0.0
1040
10.0
1040
10.0
1040
10.0
1040
10.0
1070
     0
1002
{
1002
}
1002
}
  0
ENDSEC
  0
EOF
