  0
SECTION
  2
HEADER
  9
$ACADVER
  1
AC1009
  9
$INSBASE
 10
402.590624
 20
-1.041018
 30
0.0
  9
$EXTMIN
 10
-4.898391
 20
-1.32807
 30
0.0
  9
$EXTMAX
 10
93.984129
 20
152.636235
 30
0.0
  9
$LIMMIN
 10
-407.970438
 20
-367.832444
  9
$LIMMAX
 10
429.804077
 20
234.370848
  9
$ORTHOMODE
 70
     0
  9
$REGENMODE
 70
     1
  9
$FILLMODE
 70
     1
  9
$QTEXTMODE
 70
     0
  9
$MIRRTEXT
 70
     1
  9
$DRAGMODE
 70
     2
  9
$LTSCALE
 40
10.0
  9
$OSMODE
 70
    35
  9
$ATTMODE
 70
     1
  9
$TEXTSIZE
 40
6.0
  9
$TRACEWID
 40
1.0
  9
$TEXTSTYLE
  7
ROMANS
  9
$CLAYER
  8
ALPHA
  9
$CELTYPE
  6
BYLAYER
  9
$CECOLOR
 62
   256
  9
$DIMSCALE
 40
1.0
  9
$DIMASZ
 40
5.0
  9
$DIMEXO
 40
2.0
  9
$DIMDLI
 40
0.38
  9
$DIMRND
 40
0.0
  9
$DIMDLE
 40
0.0
  9
$DIMEXE
 40
2.5
  9
$DIMTP
 40
0.0
  9
$DIMTM
 40
0.0
  9
$DIMTXT
 40
2.5
  9
$DIMCEN
 40
0.0
  9
$DIMTSZ
 40
0.0
  9
$DIMTOL
 70
     0
  9
$DIMLIM
 70
     0
  9
$DIMTIH
 70
     1
  9
$DIMTOH
 70
     1
  9
$DIMSE1
 70
     0
  9
$DIMSE2
 70
     0
  9
$DIMTAD
 70
     1
  9
$DIMZIN
 70
    12
  9
$DIMBLK
  1
OPEN30
  9
$DIMASO
 70
     1
  9
$DIMSHO
 70
     1
  9
$DIMPOST
  1

  9
$DIMAPOST
  1

  9
$DIMALT
 70
     0
  9
$DIMALTD
 70
     2
  9
$DIMALTF
 40
25.4
  9
$DIMLFAC
 40
1.0
  9
$DIMTOFL
 70
     0
  9
$DIMTVP
 40
0.0
  9
$DIMTIX
 70
     0
  9
$DIMSOXD
 70
     0
  9
$DIMSAH
 70
     0
  9
$DIMBLK1
  1

  9
$DIMBLK2
  1

  9
$DIMSTYLE
  2
SC_DEFAUT
  9
$DIMCLRD
 70
     0
  9
$DIMCLRE
 70
     0
  9
$DIMCLRT
 70
     0
  9
$DIMTFAC
 40
1.0
  9
$DIMGAP
 40
2.0
  9
$LUNITS
 70
     2
  9
$LUPREC
 70
     1
  9
$SKETCHINC
 40
0.1
  9
$FILLETRAD
 40
0.0
  9
$AUNITS
 70
     0
  9
$AUPREC
 70
     0
  9
$MENU
  1
acad
  9
$ELEVATION
 40
0.0
  9
$PELEVATION
 40
0.0
  9
$THICKNESS
 40
0.0
  9
$LIMCHECK
 70
     0
  9
$BLIPMODE
 70
     0
  9
$CHAMFERA
 40
0.0
  9
$CHAMFERB
 40
0.0
  9
$SKPOLY
 70
     0
  9
$TDCREATE
 40
2450373.687919
  9
$TDUPDATE
 40
2453034.401283
  9
$TDINDWG
 40
1.054617
  9
$TDUSRTIMER
 40
1.054617
  9
$USRTIMER
 70
     1
  9
$ANGBASE
 50
0.0
  9
$ANGDIR
 70
     0
  9
$PDMODE
 70
    32
  9
$PDSIZE
 40
0.0
  9
$PLINEWID
 40
0.0
  9
$COORDS
 70
     1
  9
$SPLFRAME
 70
     0
  9
$SPLINETYPE
 70
     6
  9
$SPLINESEGS
 70
     8
  9
$ATTDIA
 70
     0
  9
$ATTREQ
 70
     1
  9
$HANDLING
 70
     1
  9
$HANDSEED
  5
D09F
  9
$SURFTAB1
 70
     6
  9
$SURFTAB2
 70
     6
  9
$SURFTYPE
 70
     6
  9
$SURFU
 70
     6
  9
$SURFV
 70
     6
  9
$UCSNAME
  2

  9
$UCSORG
 10
0.0
 20
0.0
 30
0.0
  9
$UCSXDIR
 10
1.0
 20
0.0
 30
0.0
  9
$UCSYDIR
 10
0.0
 20
1.0
 30
0.0
  9
$PUCSNAME
  2

  9
$PUCSORG
 10
0.0
 20
0.0
 30
0.0
  9
$PUCSXDIR
 10
1.0
 20
0.0
 30
0.0
  9
$PUCSYDIR
 10
0.0
 20
1.0
 30
0.0
  9
$USERI1
 70
     0
  9
$USERI2
 70
     0
  9
$USERI3
 70
     0
  9
$USERI4
 70
     0
  9
$USERI5
 70
     0
  9
$USERR1
 40
0.0
  9
$USERR2
 40
0.0
  9
$USERR3
 40
0.0
  9
$USERR4
 40
0.0
  9
$USERR5
 40
0.0
  9
$WORLDVIEW
 70
     1
  9
$SHADEDGE
 70
     3
  9
$SHADEDIF
 70
    70
  9
$TILEMODE
 70
     1
  9
$MAXACTVP
 70
    16
  9
$PLIMCHECK
 70
     0
  9
$PEXTMIN
 10
-1.452248
 20
-0.437698
 30
0.0
  9
$PEXTMAX
 10
12.749749
 20
8.310198
 30
0.0
  9
$PLIMMIN
 10
0.0
 20
0.0
  9
$PLIMMAX
 10
12.0
 20
9.0
  9
$UNITMODE
 70
     0
  9
$VISRETAIN
 70
     0
  9
$PLINEGEN
 70
     0
  9
$PSLTSCALE
 70
     0
  0
ENDSEC
  0
SECTION
  2
TABLES
  0
TABLE
  2
VPORT
 70
     2
  0
VPORT
  2
*ACTIVE
 70
     0
 10
0.0
 20
0.0
 11
1.0
 21
1.0
 12
44.537228
 22
75.651101
 13
0.0
 23
0.0
 14
1.0
 24
1.0
 15
10.0
 25
10.0
 16
0.0
 26
0.0
 36
1.0
 17
0.0
 27
0.0
 37
0.0
 40
155.115132
 41
1.466346
 42
50.0
 43
0.0
 44
0.0
 50
0.0
 51
0.0
 71
     0
 72
   100
 73
     1
 74
     0
 75
     0
 76
     0
 77
     0
 78
     0
  0
ENDTAB
  0
TABLE
  2
LTYPE
 70
     2
  0
LTYPE
  2
CONTINUOUS
 70
     0
  3
Solid line
 72
    65
 73
     0
 40
0.0
  0
LTYPE
  2
AXES2
 70
     0
  3
___ _ ___ _ ___ _ ___ _ ___ _ ___ _ ___ _ ___ _
 72
    65
 73
     4
 40
1.125
 49
0.75
 49
-0.125
 49
0.125
 49
-0.125
  0
ENDTAB
  0
TABLE
  2
LAYER
 70
     5
  0
LAYER
  2
0
 70
     0
 62
   255
  6
CONTINUOUS
  0
LAYER
  2
COTATION1
 70
     0
 62
     2
  6
CONTINUOUS
  0
LAYER
  2
AXE
 70
     0
 62
    80
  6
AXES2
  0
LAYER
  2
DEFPOINTS
 70
     0
 62
     7
  6
CONTINUOUS
  0
LAYER
  2
ALPHA
 70
     0
 62
   254
  6
CONTINUOUS
  0
ENDTAB
  0
TABLE
  2
STYLE
 70
     2
  0
STYLE
  2
ROMANS
 70
     0
 40
0.0
 41
1.0
 50
0.0
 71
     0
 42
6.0
  3
romans
  4

  0
STYLE
  2
STANDARD
 70
     0
 40
0.0
 41
1.0
 50
0.0
 71
     0
 42
0.2
  3
txt
  4

  0
ENDTAB
  0
TABLE
  2
VIEW
 70
     0
  0
ENDTAB
  0
TABLE
  2
UCS
 70
     0
  0
ENDTAB
  0
TABLE
  2
APPID
 70
     1
  0
APPID
  2
ACAD
 70
     0
  0
ENDTAB
  0
TABLE
  2
DIMSTYLE
 70
     2
  0
DIMSTYLE
  2
SC_DEFAUT
 70
     0
  3

  4

  5
OPEN30
  6

  7

 40
1.0
 41
5.0
 42
2.0
 43
0.38
 44
2.5
 45
0.0
 46
0.0
 47
0.0
 48
0.0
140
2.5
141
0.0
142
0.0
143
25.4
144
1.0
145
0.0
146
1.0
147
2.0
 71
     0
 72
     0
 73
     1
 74
     1
 75
     0
 76
     0
 77
     1
 78
    12
170
     0
171
     2
172
     0
173
     0
174
     0
175
     0
176
     0
177
     0
178
     0
  0
DIMSTYLE
  2
STANDARD
 70
     0
  3

  4

  5

  6

  7

 40
1.0
 41
0.18
 42
0.0625
 43
0.38
 44
0.18
 45
0.0
 46
0.0
 47
0.0
 48
0.0
140
0.18
141
0.09
142
0.0
143
25.4
144
1.0
145
0.0
146
1.0
147
0.09
 71
     0
 72
     0
 73
     1
 74
     1
 75
     0
 76
     0
 77
     0
 78
     0
170
     0
171
     2
172
     0
173
     0
174
     0
175
     0
176
     0
177
     0
178
     0
  0
ENDTAB
  0
ENDSEC
  0
SECTION
  2
BLOCKS
  0
BLOCK
  8
0
  2
$MODEL_SPACE
 70
     0
 10
0.0
 20
0.0
 30
0.0
  3
$MODEL_SPACE
  1

  0
ENDBLK
  5
CB0F
  8
0
  0
BLOCK
 67
     1
  8
0
  2
$PAPER_SPACE
 70
     0
 10
0.0
 20
0.0
 30
0.0
  3
$PAPER_SPACE
  1

  0
ENDBLK
  5
CB0D
 67
     1
  8
0
  0
BLOCK
  8
0
  2
COTE
 70
     0
 10
0.0
 20
0.0
 30
0.0
  3
COTE
  1

  0
ENDBLK
  5
F
  8
0
  0
BLOCK
  8
0
  2
FOND
 70
     0
 10
0.0
 20
0.0
 30
0.0
  3
FOND
  1

  0
ENDBLK
  5
75
  8
0
  0
BLOCK
  8
0
  2
_OPEN30
 70
     0
 10
0.0
 20
0.0
 30
0.0
  3
_OPEN30
  1

  0
LINE
  5
4B05
  8
COTATION1
 62
     0
 10
-1.0
 20
0.267949
 30
0.0
 11
0.0
 21
0.0
 31
0.0
1001
ACAD
1000
RTLwPs
1070
   158
  0
LINE
  5
4B06
  8
COTATION1
 62
     0
 10
0.0
 20
0.0
 30
0.0
 11
-1.0
 21
-0.267949
 31
0.0
1001
ACAD
1000
RTLwPs
1070
   158
  0
LINE
  5
4B07
  8
COTATION1
 62
     0
 10
0.0
 20
0.0
 30
0.0
 11
-1.0
 21
0.0
 31
0.0
1001
ACAD
1000
RTLwPs
1070
   158
  0
ENDBLK
  5
4B09
  8
0
  0
BLOCK
  8
0
  2
*D3
 70
     1
 10
0.0
 20
0.0
 30
0.0
  3
*D3
  1

  0
LINE
  5
C50F
  8
COTATION1
 62
     0
 10
53.162701
 20
28.282076
 30
0.0
 11
53.162701
 21
-1.32807
 31
0.0
1001
ACAD
1000
RTLwPs
1070
   158
  0
LINE
  5
C510
  8
COTATION1
 62
     0
 10
69.162703
 20
28.282076
 30
0.0
 11
69.162703
 21
-1.32807
 31
0.0
1001
ACAD
1000
RTLwPs
1070
   158
  0
LINE
  5
C511
  8
COTATION1
 62
     0
 10
58.162701
 20
1.17193
 30
0.0
 11
64.162703
 21
1.17193
 31
0.0
1001
ACAD
1000
RTLwPs
1070
   158
  0
INSERT
  5
C512
  8
COTATION1
 62
     0
  2
_OPEN30
 10
53.162701
 20
1.17193
 30
0.0
 41
5.0
 42
5.0
 43
5.0
 50
180.0
1001
ACAD
1000
RTLwPs
1070
   158
  0
INSERT
  5
C513
  8
COTATION1
 62
     0
  2
_OPEN30
 10
69.162703
 20
1.17193
 30
0.0
 41
5.0
 42
5.0
 43
5.0
1001
ACAD
1000
RTLwPs
1070
   158
  0
TEXT
  5
C514
  8
COTATION1
 62
     0
 10
57.769845
 20
3.17193
 30
0.0
 40
2.5
  1
%%c
1001
ACAD
1000
MTEXTBEGIN
1070
    73
1070
     1
1070
    44
1040
1.0
1070
    74
1070
     0
1000
MTEXTEND
  0
TEXT
  5
CADF
  8
COTATION1
 62
     0
 10
60.031749
 20
3.17193
 30
0.0
 40
2.5
  1
16
1001
ACAD
1000
R13OBJECT
1002
{
1005
C514
1002
}
  0
POINT
  5
C515
  8
DEFPOINTS
 62
     0
 10
53.162701
 20
30.282076
 30
0.0
  0
POINT
  5
C516
  8
DEFPOINTS
 62
     0
 10
69.162703
 20
30.282076
 30
0.0
  0
POINT
  5
C517
  8
DEFPOINTS
 62
     0
 10
69.162703
 20
1.17193
 30
0.0
  0
ENDBLK
  5
A0F8
  8
0
  0
BLOCK
  8
0
  2
*D4
 70
     1
 10
0.0
 20
0.0
 30
0.0
  3
*D4
  1

  0
LINE
  5
C480
  8
COTATION1
 62
     0
 10
56.362701
 20
149.282076
 30
0.0
 11
33.680072
 21
149.282076
 31
0.0
1001
ACAD
1000
RTLwPs
1070
   158
  0
LINE
  5
C481
  8
COTATION1
 62
     0
 10
51.162717
 20
30.282076
 30
0.0
 11
33.680072
 21
30.282076
 31
0.0
1001
ACAD
1000
RTLwPs
1070
   158
  0
LINE
  5
C482
  8
COTATION1
 62
     0
 10
36.180072
 20
144.282076
 30
0.0
 11
36.180072
 21
92.181799
 31
0.0
1001
ACAD
1000
RTLwPs
1070
   158
  0
LINE
  5
C483
  8
COTATION1
 62
     0
 10
36.180072
 20
35.282076
 30
0.0
 11
36.180072
 21
85.681799
 31
0.0
1001
ACAD
1000
RTLwPs
1070
   158
  0
TEXT
  5
C484
  8
COTATION1
 62
     0
 10
32.489595
 20
87.681799
 30
0.0
 40
2.5
  1
119
1001
ACAD
1000
MTEXTBEGIN
1070
    73
1070
     1
1070
    44
1040
1.0
1070
    74
1070
     0
1000
MTEXTEND
  0
INSERT
  5
C485
  8
COTATION1
 62
     0
  2
_OPEN30
 10
36.180072
 20
149.282076
 30
0.0
 41
5.0
 42
5.0
 43
5.0
 50
90.0
1001
ACAD
1000
RTLwPs
1070
   158
  0
INSERT
  5
C486
  8
COTATION1
 62
     0
  2
_OPEN30
 10
36.180072
 20
30.282076
 30
0.0
 41
5.0
 42
5.0
 43
5.0
 50
270.0
1001
ACAD
1000
RTLwPs
1070
   158
  0
POINT
  5
C487
  8
DEFPOINTS
 62
     0
 10
58.362701
 20
149.282076
 30
0.0
  0
POINT
  5
C488
  8
DEFPOINTS
 62
     0
 10
53.162717
 20
30.282076
 30
0.0
  0
POINT
  5
C489
  8
DEFPOINTS
 62
     0
 10
36.180072
 20
30.282076
 30
0.0
  0
ENDBLK
  5
A105
  8
0
  0
BLOCK
  8
0
  2
*D5
 70
     1
 10
0.0
 20
0.0
 30
0.0
  3
*D5
  1

  0
LINE
  5
C476
  8
COTATION1
 62
     0
 10
65.962701
 20
149.282076
 30
0.0
 11
91.662701
 21
149.282076
 31
0.0
1001
ACAD
1000
RTLwPs
1070
   158
  0
LINE
  5
C477
  8
COTATION1
 62
     0
 10
69.212701
 20
22.682076
 30
0.0
 11
91.662701
 21
22.682076
 31
0.0
1001
ACAD
1000
RTLwPs
1070
   158
  0
LINE
  5
C478
  8
COTATION1
 62
     0
 10
89.162701
 20
144.282076
 30
0.0
 11
89.162701
 21
89.232076
 31
0.0
1001
ACAD
1000
RTLwPs
1070
   158
  0
LINE
  5
C479
  8
COTATION1
 62
     0
 10
89.162701
 20
27.682076
 30
0.0
 11
89.162701
 21
82.732076
 31
0.0
1001
ACAD
1000
RTLwPs
1070
   158
  0
INSERT
  5
C47A
  8
COTATION1
 62
     0
  2
_OPEN30
 10
89.162701
 20
149.282076
 30
0.0
 41
5.0
 42
5.0
 43
5.0
 50
90.0
1001
ACAD
1000
RTLwPs
1070
   158
  0
INSERT
  5
C47B
  8
COTATION1
 62
     0
  2
_OPEN30
 10
89.162701
 20
22.682076
 30
0.0
 41
5.0
 42
5.0
 43
5.0
 50
270.0
1001
ACAD
1000
RTLwPs
1070
   158
  0
TEXT
  5
C47C
  8
COTATION1
 62
     0
 10
83.626986
 20
84.732076
 30
0.0
 40
2.5
  1
126.6
1001
ACAD
1000
MTEXTBEGIN
1070
    73
1070
     1
1070
    44
1040
1.0
1070
    74
1070
     0
1000
MTEXTEND
  0
POINT
  5
C47D
  8
DEFPOINTS
 62
     0
 10
63.962701
 20
149.282076
 30
0.0
  0
POINT
  5
C47E
  8
DEFPOINTS
 62
     0
 10
67.212701
 20
22.682076
 30
0.0
  0
POINT
  5
C47F
  8
DEFPOINTS
 62
     0
 10
89.162701
 20
22.682076
 30
0.0
  0
ENDBLK
  5
A125
  8
0
  0
ENDSEC
  0
SECTION
  2
ENTITIES
  0
INSERT
  5
A
  8
0
  2
COTE
 10
0.0
 20
0.0
 30
0.0
  0
INSERT
  5
17
  8
0
  2
COTE
 10
284.010391
 20
6.373258
 30
0.0
  0
INSERT
  5
72
  8
0
  2
FOND
 10
0.0
 20
0.0
 30
0.0
  0
LINE
  5
9E08
  8
COTATION1
 10
8.351609
 20
32.782076
 30
0.0
 11
8.351609
 21
57.740998
 31
0.0
  0
LINE
  5
9E09
  8
AXE
 10
61.162701
 20
12.532071
 30
0.0
 11
61.162701
 21
152.636235
 31
0.0
  0
DIMENSION
  5
9E0A
  8
COTATION1
  2
*D3
 10
69.162703
 20
1.17193
 30
0.0
 11
61.162702
 21
4.42193
 31
0.0
  1
%%c<>
 13
53.162701
 23
30.282076
 33
0.0
 14
69.162703
 24
30.282076
 34
0.0
  0
LINE
  5
9E0B
  8
COTATION1
 10
0.251256
 20
30.282076
 30
0.0
 11
52.162701
 21
30.282076
 31
0.0
  0
DIMENSION
  5
9E0C
  8
COTATION1
  2
*D4
 10
36.180072
 20
30.282076
 30
0.0
 11
36.180072
 21
88.931799
 31
0.0
 70
   128
 13
58.362701
 23
149.282076
 33
0.0
 14
53.162717
 24
30.282076
 34
0.0
 50
90.0
  0
SOLID
  5
9E0D
  8
COTATION1
 10
9.794985
 20
30.282076
 30
0.0
 11
6.908233
 21
30.282076
 31
0.0
 12
8.351609
 22
32.782076
 32
0.0
 13
8.351609
 23
32.782076
 33
0.0
  0
DIMENSION
  5
9E0E
  8
COTATION1
  2
*D5
 10
89.162701
 20
22.682076
 30
0.0
 11
89.162701
 21
85.982076
 31
0.0
 13
63.962701
 23
149.282076
 33
0.0
 14
67.212701
 24
22.682076
 34
0.0
 50
90.0
  0
LINE
  5
9E11
  8
AXE
 10
48.162701
 20
42.282068
 30
0.0
 11
79.162701
 21
42.282068
 31
0.0
  0
TEXT
  5
9E34
  8
AXE
 10
56.115081
 20
12.532071
 30
0.0
 40
5.0
  1
Y
 72
     2
 11
60.162701
 21
12.532071
 31
0.0
  0
TEXT
  5
A0E7
  8
AXE
 10
75.115081
 20
43.282068
 30
0.0
 40
5.0
  1
X
 72
     2
 11
79.162701
 21
43.282068
 31
0.0
  0
LINE
  5
A0E8
  8
COTATION1
 10
21.601609
 20
57.740998
 30
0.0
 11
-4.898391
 21
57.740998
 31
0.0
  0
LINE
  5
A0E9
  8
COTATION1
 10
-4.898391
 20
62.740998
 30
0.0
 11
21.601609
 21
62.740998
 31
0.0
  0
LINE
  5
A0EA
  8
COTATION1
 10
-4.898391
 20
57.740998
 30
0.0
 11
-4.898391
 21
62.740998
 31
0.0
  0
TEXT
  5
A0EB
  8
COTATION1
 10
-3.648391
 20
58.990998
 30
0.0
 40
2.5
  1
PLANE_TO_LINE_UP
 41
0.626087
  7
STANDARD
 72
     5
 11
20.351609
 21
58.990998
 31
0.0
  0
LINE
  5
A0EC
  8
COTATION1
 10
21.601609
 20
62.740998
 30
0.0
 11
21.601609
 21
57.740998
 31
0.0
  0
LINE
  5
AF3D
  8
ALPHA
 10
67.212701
 20
22.682076
 30
0.0
 11
55.112701
 21
22.682076
 31
0.0
  0
POLYLINE
  5
BE17
  8
ALPHA
 66
     1
 10
0.0
 20
0.0
 30
0.0
 70
   128
  0
VERTEX
  5
CB15
  8
ALPHA
 10
64.212519
 20
109.382071
 30
0.0
  0
VERTEX
  5
CB16
  8
ALPHA
 10
64.032414
 20
109.816307
 30
0.0
  0
VERTEX
  5
CB17
  8
ALPHA
 10
63.611551
 20
110.032565
 30
0.0
  0
SEQEND
  5
CB18
  8
ALPHA
  0
POLYLINE
  5
BE18
  8
ALPHA
 66
     1
 10
0.0
 20
0.0
 30
0.0
 70
   128
  0
VERTEX
  5
CB19
  8
ALPHA
 10
58.113022
 20
110.032094
 30
0.0
  0
VERTEX
  5
CB1A
  8
ALPHA
 10
58.292793
 20
109.598028
 30
0.0
  0
VERTEX
  5
CB1B
  8
ALPHA
 10
58.713438
 20
109.381691
 30
0.0
  0
SEQEND
  5
CB1C
  8
ALPHA
  0
POLYLINE
  5
BE19
  8
ALPHA
 66
     1
 10
0.0
 20
0.0
 30
0.0
 70
   128
  0
VERTEX
  5
CB1D
  8
ALPHA
 10
63.121924
 20
109.947634
 30
0.0
  0
VERTEX
  5
CB1E
  8
ALPHA
 10
63.830329
 20
110.104731
 30
0.0
  0
VERTEX
  5
CB1F
  8
ALPHA
 10
64.104785
 20
110.338098
 30
0.0
  0
VERTEX
  5
CB20
  8
ALPHA
 10
64.212406
 20
110.682092
 30
0.0
  0
SEQEND
  5
CB21
  8
ALPHA
  0
LINE
  5
BE1A
  8
ALPHA
 10
59.375363
 20
66.687587
 30
0.0
 11
63.139223
 21
67.049917
 31
0.0
  0
LINE
  5
BE1B
  8
ALPHA
 10
59.403164
 20
67.991155
 30
0.0
 11
63.101645
 21
68.34499
 31
0.0
  0
LINE
  5
BE1C
  8
ALPHA
 10
58.98944
 20
69.221397
 30
0.0
 11
63.150918
 21
69.65148
 31
0.0
  0
LINE
  5
BE1D
  8
ALPHA
 10
58.989717
 20
70.521413
 30
0.0
 11
63.116326
 21
70.946901
 31
0.0
  0
LINE
  5
BE1E
  8
ALPHA
 10
63.335422
 20
73.49276
 30
0.0
 11
59.187152
 21
73.064363
 31
0.0
  0
LINE
  5
BE1F
  8
ALPHA
 10
63.33471
 20
74.792671
 30
0.0
 11
59.204798
 21
74.366692
 31
0.0
  0
LINE
  5
BE20
  8
ALPHA
 10
63.335241
 20
76.092686
 30
0.0
 11
59.206209
 21
75.666878
 31
0.0
  0
LINE
  5
BE21
  8
ALPHA
 10
63.33489
 20
77.392669
 30
0.0
 11
59.028035
 21
76.941803
 31
0.0
  0
LINE
  5
BE22
  8
ALPHA
 10
63.335241
 20
69.59266
 30
0.0
 11
59.175615
 21
69.162824
 31
0.0
  0
LINE
  5
BE23
  8
ALPHA
 10
58.989566
 20
71.821396
 30
0.0
 11
63.128239
 21
72.248463
 31
0.0
  0
LINE
  5
BE24
  8
ALPHA
 10
58.989542
 20
73.121386
 30
0.0
 11
63.092694
 21
73.543835
 31
0.0
  0
LINE
  5
BE25
  8
ALPHA
 10
58.98943
 20
74.421397
 30
0.0
 11
63.13558
 21
74.849435
 31
0.0
  0
LINE
  5
BE26
  8
ALPHA
 10
58.989704
 20
75.721396
 30
0.0
 11
63.141359
 21
76.150203
 31
0.0
  0
LINE
  5
BE27
  8
ALPHA
 10
63.335009
 20
78.692667
 30
0.0
 11
59.212619
 21
78.267715
 31
0.0
  0
LINE
  5
BE28
  8
ALPHA
 10
63.335369
 20
79.992711
 30
0.0
 11
59.16115
 21
79.560876
 31
0.0
  0
LINE
  5
BE29
  8
ALPHA
 10
63.33532
 20
81.292698
 30
0.0
 11
59.210437
 21
80.867431
 31
0.0
  0
LINE
  5
BE2A
  8
ALPHA
 10
63.334812
 20
82.592686
 30
0.0
 11
59.207852
 21
82.167093
 31
0.0
  0
LINE
  5
BE2B
  8
ALPHA
 10
63.335003
 20
72.192716
 30
0.0
 11
59.205087
 21
71.766731
 31
0.0
  0
LINE
  5
BE2C
  8
ALPHA
 10
63.335054
 20
70.892672
 30
0.0
 11
59.176805
 21
70.462984
 31
0.0
  0
LINE
  5
BE2D
  8
ALPHA
 10
63.334837
 20
68.292662
 30
0.0
 11
59.284719
 21
67.876898
 31
0.0
  0
LINE
  5
BE2E
  8
ALPHA
 10
58.989978
 20
77.021395
 30
0.0
 11
63.120036
 21
77.447385
 31
0.0
  0
LINE
  5
BE2F
  8
ALPHA
 10
58.990113
 20
78.321458
 30
0.0
 11
63.272751
 21
78.768648
 31
0.0
  0
LINE
  5
BE30
  8
ALPHA
 10
58.990162
 20
80.921456
 30
0.0
 11
63.272841
 21
81.368662
 31
0.0
  0
LINE
  5
BE31
  8
ALPHA
 10
58.989702
 20
79.62141
 30
0.0
 11
63.143242
 21
80.050454
 31
0.0
  0
LINE
  5
BE32
  8
ALPHA
 10
63.335973
 20
83.892769
 30
0.0
 11
59.219775
 21
83.468645
 31
0.0
  0
LINE
  5
BE33
  8
ALPHA
 10
58.989785
 20
65.321405
 30
0.0
 11
63.121871
 21
65.747627
 31
0.0
  0
LINE
  5
BE34
  8
ALPHA
 10
63.335168
 20
85.192666
 30
0.0
 11
59.137066
 21
84.757583
 31
0.0
  0
LINE
  5
BE35
  8
ALPHA
 10
63.334699
 20
86.49268
 30
0.0
 11
59.231116
 21
86.070113
 31
0.0
  0
LINE
  5
BE36
  8
ALPHA
 10
63.335571
 20
87.792718
 30
0.0
 11
59.132659
 21
87.356975
 31
0.0
  0
LINE
  5
BE37
  8
ALPHA
 10
58.989804
 20
64.021366
 30
0.0
 11
63.148297
 21
64.451128
 31
0.0
  0
LINE
  5
BE38
  8
ALPHA
 10
61.623417
 20
62.998576
 30
0.0
 11
63.155649
 21
63.152114
 31
0.0
  0
LINE
  5
BE39
  8
ALPHA
 10
61.458797
 20
61.684552
 30
0.0
 11
63.126772
 21
61.84827
 31
0.0
  0
LINE
  5
BE3A
  8
ALPHA
 10
58.989611
 20
82.221401
 30
0.0
 11
63.134553
 21
82.649297
 31
0.0
  0
LINE
  5
BE3B
  8
ALPHA
 10
58.996911
 20
83.525119
 30
0.0
 11
63.126222
 21
83.948198
 31
0.0
  0
LINE
  5
BE3C
  8
ALPHA
 10
58.989837
 20
84.821427
 30
0.0
 11
63.154669
 21
85.251984
 31
0.0
  0
LINE
  5
BE3D
  8
ALPHA
 10
58.989432
 20
86.121395
 30
0.0
 11
63.155203
 21
86.552055
 31
0.0
  0
LINE
  5
BE3E
  8
ALPHA
 10
63.334676
 20
89.092641
 30
0.0
 11
59.045115
 21
88.644379
 31
0.0
  0
LINE
  5
BE3F
  8
ALPHA
 10
63.335434
 20
90.392749
 30
0.0
 11
59.199924
 21
89.966052
 31
0.0
  0
LINE
  5
BE40
  8
ALPHA
 10
62.705271
 20
91.597111
 30
0.0
 11
62.512921
 21
91.576428
 31
0.0
  0
LINE
  5
BE41
  8
ALPHA
 10
58.98987
 20
87.421423
 30
0.0
 11
63.142381
 21
87.850337
 31
0.0
  0
LINE
  5
BE42
  8
ALPHA
 10
58.989828
 20
88.72141
 30
0.0
 11
63.127225
 21
89.14833
 31
0.0
  0
LINE
  5
BE43
  8
ALPHA
 10
58.989453
 20
90.02139
 30
0.0
 11
63.1182
 21
90.447146
 31
0.0
  0
LINE
  5
BE44
  8
ALPHA
 10
63.332464
 20
92.990987
 30
0.0
 11
62.533122
 21
92.878522
 31
0.0
  0
LINE
  5
BE45
  8
ALPHA
 10
63.335142
 20
94.292674
 30
0.0
 11
59.228759
 21
93.869807
 31
0.0
  0
LINE
  5
BE46
  8
ALPHA
 10
63.334592
 20
95.592667
 30
0.0
 11
59.225717
 21
95.169416
 31
0.0
  0
LINE
  5
BE47
  8
ALPHA
 10
63.33535
 20
96.892757
 30
0.0
 11
60.467167
 21
96.595274
 31
0.0
  0
LINE
  5
BE48
  8
ALPHA
 10
63.334761
 20
66.992631
 30
0.0
 11
59.537431
 21
66.606256
 31
0.0
  0
LINE
  5
BE49
  8
ALPHA
 10
62.365571
 20
92.964999
 30
0.0
 11
62.625424
 21
92.990686
 31
0.0
  0
LINE
  5
BE4A
  8
ALPHA
 10
63.335958
 20
65.692674
 30
0.0
 11
59.189775
 21
65.264712
 31
0.0
  0
LINE
  5
BE4B
  8
ALPHA
 10
58.989647
 20
93.921408
 30
0.0
 11
63.092964
 21
94.34387
 31
0.0
  0
LINE
  5
BE4C
  8
ALPHA
 10
58.989451
 20
95.221394
 30
0.0
 11
63.142168
 21
95.650311
 31
0.0
  0
LINE
  5
BE4D
  8
ALPHA
 10
63.334638
 20
64.392637
 30
0.0
 11
59.187978
 21
63.964472
 31
0.0
  0
LINE
  5
BE4E
  8
ALPHA
 10
62.57515
 20
91.685561
 30
0.0
 11
63.145505
 21
91.750755
 31
0.0
  0
LINE
  5
BE4F
  8
ALPHA
 10
63.334623
 20
98.192722
 30
0.0
 11
60.286748
 21
97.879313
 31
0.0
  0
LINE
  5
BE50
  8
ALPHA
 10
63.335582
 20
99.492732
 30
0.0
 11
59.169533
 21
99.062007
 31
0.0
  0
LINE
  5
BE51
  8
ALPHA
 10
63.335037
 20
100.792661
 30
0.0
 11
59.226813
 21
100.369557
 31
0.0
  0
LINE
  5
BE52
  8
ALPHA
 10
63.334843
 20
63.092081
 30
0.0
 11
61.457227
 21
62.8796
 31
0.0
  0
LINE
  5
BE53
  8
ALPHA
 10
63.335114
 20
102.092682
 30
0.0
 11
59.176987
 21
101.663009
 31
0.0
  0
LINE
  5
BE54
  8
ALPHA
 10
58.989437
 20
60.121374
 30
0.0
 11
63.177513
 21
60.555082
 31
0.0
  0
LINE
  5
BE55
  8
ALPHA
 10
60.301222
 20
96.684854
 30
0.0
 11
63.152532
 21
96.951695
 31
0.0
  0
LINE
  5
BE56
  8
ALPHA
 10
58.990198
 20
99.121459
 30
0.0
 11
63.269643
 21
99.568188
 31
0.0
  0
LINE
  5
BE57
  8
ALPHA
 10
58.990209
 20
100.421467
 30
0.0
 11
63.134544
 21
100.849298
 31
0.0
  0
LINE
  5
BE58
  8
ALPHA
 10
58.98985
 20
58.821417
 30
0.0
 11
63.124154
 21
59.247926
 31
0.0
  0
LINE
  5
BE59
  8
ALPHA
 10
60.419274
 20
97.995496
 30
0.0
 11
63.138571
 21
98.249831
 31
0.0
  0
LINE
  5
BE5A
  8
ALPHA
 10
58.989541
 20
57.521395
 30
0.0
 11
63.117214
 21
57.947015
 31
0.0
  0
LINE
  5
BE5B
  8
ALPHA
 10
63.333112
 20
103.392013
 30
0.0
 11
59.125887
 21
102.956034
 31
0.0
  0
LINE
  5
BE5C
  8
ALPHA
 10
63.335309
 20
104.692692
 30
0.0
 11
59.201129
 21
104.26621
 31
0.0
  0
LINE
  5
BE5D
  8
ALPHA
 10
63.334858
 20
105.992551
 30
0.0
 11
59.186066
 21
105.56422
 31
0.0
  0
LINE
  5
BE5E
  8
ALPHA
 10
63.334758
 20
107.292519
 30
0.0
 11
59.351243
 21
106.885006
 31
0.0
  0
LINE
  5
BE5F
  8
ALPHA
 10
58.991888
 20
101.722176
 30
0.0
 11
63.142589
 21
102.150365
 31
0.0
  0
LINE
  5
BE60
  8
ALPHA
 10
58.98986
 20
103.021429
 30
0.0
 11
63.151805
 21
103.451598
 31
0.0
  0
LINE
  5
BE61
  8
ALPHA
 10
58.989511
 20
104.321391
 30
0.0
 11
63.168597
 21
104.753866
 31
0.0
  0
LINE
  5
BE62
  8
ALPHA
 10
58.989807
 20
105.621376
 30
0.0
 11
63.133575
 21
106.04917
 31
0.0
  0
LINE
  5
BE63
  8
ALPHA
 10
63.335518
 20
108.592725
 30
0.0
 11
59.188504
 21
108.164543
 31
0.0
  0
LINE
  5
BE64
  8
ALPHA
 10
63.33512
 20
109.89272
 30
0.0
 11
59.174573
 21
109.462684
 31
0.0
  0
LINE
  5
BE65
  8
ALPHA
 10
58.989843
 20
106.921413
 30
0.0
 11
63.123414
 21
107.347828
 31
0.0
  0
LINE
  5
BE66
  8
ALPHA
 10
58.989493
 20
108.221389
 30
0.0
 11
63.123636
 21
108.647858
 31
0.0
  0
LINE
  5
BE67
  8
ALPHA
 10
58.989693
 20
109.521387
 30
0.0
 11
63.121924
 21
109.947634
 31
0.0
  0
LINE
  5
BE68
  8
ALPHA
 10
63.335024
 20
61.792671
 30
0.0
 11
61.46776
 21
61.5805
 31
0.0
  0
LINE
  5
BE69
  8
ALPHA
 10
63.335141
 20
60.49269
 30
0.0
 11
59.02722
 21
60.041677
 31
0.0
  0
LINE
  5
BE6A
  8
ALPHA
 10
63.335407
 20
59.192707
 30
0.0
 11
59.188723
 21
58.764571
 31
0.0
  0
LINE
  5
BE6B
  8
ALPHA
 10
58.98951
 20
56.221472
 30
0.0
 11
63.143063
 21
56.650429
 31
0.0
  0
LINE
  5
BE6C
  8
ALPHA
 10
58.989919
 20
54.92142
 30
0.0
 11
63.148537
 21
55.351161
 31
0.0
  0
LINE
  5
BE6D
  8
ALPHA
 10
58.990065
 20
53.621444
 30
0.0
 11
63.292195
 21
54.071565
 31
0.0
  0
LINE
  5
BE6E
  8
ALPHA
 10
58.989577
 20
52.321373
 30
0.0
 11
63.148687
 21
52.751179
 31
0.0
  0
LINE
  5
BE6F
  8
ALPHA
 10
63.335309
 20
55.292686
 30
0.0
 11
59.144406
 21
54.858593
 31
0.0
  0
LINE
  5
BE70
  8
ALPHA
 10
63.237435
 20
57.870383
 30
0.0
 11
59.199378
 21
57.465981
 31
0.0
  0
LINE
  5
BE71
  8
ALPHA
 10
63.236718
 20
56.570431
 30
0.0
 11
59.196834
 21
56.165646
 31
0.0
  0
LINE
  5
BE72
  8
ALPHA
 10
63.335554
 20
53.992732
 30
0.0
 11
59.198504
 21
53.565864
 31
0.0
  0
LINE
  5
BE73
  8
ALPHA
 10
58.989873
 20
51.021421
 30
0.0
 11
63.121508
 21
51.447579
 31
0.0
  0
LINE
  5
BE74
  8
ALPHA
 10
58.989559
 20
49.721399
 30
0.0
 11
63.114461
 21
50.146657
 31
0.0
  0
LINE
  5
BE75
  8
ALPHA
 10
58.989507
 20
48.421392
 30
0.0
 11
63.16423
 21
48.853273
 31
0.0
  0
LINE
  5
BE76
  8
ALPHA
 10
61.505137
 20
47.388486
 30
0.0
 11
63.106846
 21
47.545664
 31
0.0
  0
LINE
  5
BE77
  8
ALPHA
 10
63.334848
 20
52.692641
 30
0.0
 11
59.040203
 21
52.243644
 31
0.0
  0
LINE
  5
BE78
  8
ALPHA
 10
63.33543
 20
51.392712
 30
0.0
 11
59.186168
 21
50.964233
 31
0.0
  0
LINE
  5
BE79
  8
ALPHA
 10
63.334982
 20
50.092699
 30
0.0
 11
59.199918
 21
49.666051
 31
0.0
  0
LINE
  5
BE7A
  8
ALPHA
 10
63.335459
 20
48.792732
 30
0.0
 11
59.154815
 21
48.360016
 31
0.0
  0
LINE
  5
BE7B
  8
ALPHA
 10
63.330656
 20
47.491319
 30
0.0
 11
61.486221
 21
47.282076
 31
0.0
  0
LINE
  5
BE7C
  8
ALPHA
 10
58.224509
 20
47.282076
 30
0.0
 11
64.131533
 21
47.282076
 31
0.0
  0
LINE
  5
BE7D
  8
ALPHA
 10
64.10361
 20
46.360864
 30
0.0
 11
58.221791
 21
46.360864
 31
0.0
  0
LINE
  5
BE7E
  8
ALPHA
 10
64.258805
 20
46.280921
 30
0.0
 11
58.066596
 21
46.280921
 31
0.0
  0
LINE
  5
BE7F
  8
ALPHA
 10
65.908007
 20
38.682923
 30
0.0
 11
56.417394
 21
38.682923
 31
0.0
  0
LINE
  5
BE80
  8
ALPHA
 10
54.762701
 20
37.182076
 30
0.0
 11
67.562701
 21
37.182076
 31
0.0
  0
LINE
  5
BE81
  8
ALPHA
 10
53.662701
 20
36.082076
 30
0.0
 11
68.662701
 21
36.082076
 31
0.0
  0
LINE
  5
BE82
  8
ALPHA
 10
68.662701
 20
33.882076
 30
0.0
 11
53.662701
 21
33.882076
 31
0.0
  0
LINE
  5
BE83
  8
ALPHA
 10
68.462701
 20
33.682076
 30
0.0
 11
53.862701
 21
33.682076
 31
0.0
  0
LINE
  5
BE84
  8
ALPHA
 10
67.912164
 20
33.432076
 30
0.0
 11
61.457131
 21
33.432076
 31
0.0
  0
LINE
  5
BE85
  8
ALPHA
 10
67.912164
 20
32.732076
 30
0.0
 11
61.457131
 21
32.732076
 31
0.0
  0
LINE
  5
BE86
  8
ALPHA
 10
53.862701
 20
32.482076
 30
0.0
 11
68.462701
 21
32.482076
 31
0.0
  0
LINE
  5
BE87
  8
ALPHA
 10
53.662701
 20
32.282076
 30
0.0
 11
68.662701
 21
32.282076
 31
0.0
  0
LINE
  5
BE88
  8
ALPHA
 10
68.662701
 20
31.982076
 30
0.0
 11
53.662701
 21
31.982076
 31
0.0
  0
LINE
  5
BE89
  8
ALPHA
 10
53.662701
 20
31.782076
 30
0.0
 11
68.662701
 21
31.782076
 31
0.0
  0
LINE
  5
BE8A
  8
ALPHA
 10
53.162701
 20
31.282076
 30
0.0
 11
69.162701
 21
31.282076
 31
0.0
  0
LINE
  5
BE8B
  8
ALPHA
 10
53.162701
 20
30.282076
 30
0.0
 11
69.162701
 21
30.282076
 31
0.0
  0
LINE
  5
BE8C
  8
ALPHA
 10
67.862632
 20
28.132076
 30
0.0
 11
54.462767
 21
28.132076
 31
0.0
  0
LINE
  5
BE8D
  8
ALPHA
 10
67.512701
 20
26.832076
 30
0.0
 11
54.812701
 21
26.832076
 31
0.0
  0
LINE
  5
BE8E
  8
ALPHA
 10
67.512701
 20
25.682076
 30
0.0
 11
54.812701
 21
25.682076
 31
0.0
  0
LINE
  5
BE8F
  8
ALPHA
 10
67.162701
 20
25.582076
 30
0.0
 11
55.162701
 21
25.582076
 31
0.0
  0
LINE
  5
BE90
  8
ALPHA
 10
67.162701
 20
24.582076
 30
0.0
 11
55.162701
 21
24.582076
 31
0.0
  0
LINE
  5
BE91
  8
ALPHA
 10
67.512701
 20
24.482076
 30
0.0
 11
54.812701
 21
24.482076
 31
0.0
  0
LINE
  5
BE92
  8
ALPHA
 10
67.512701
 20
23.682076
 30
0.0
 11
54.812701
 21
23.682076
 31
0.0
  0
LINE
  5
BE93
  8
ALPHA
 10
67.212701
 20
22.682076
 30
0.0
 11
55.112701
 21
22.682076
 31
0.0
  0
POLYLINE
  5
BE94
  8
ALPHA
 66
     1
 10
0.0
 20
0.0
 30
0.0
 70
   128
  0
VERTEX
  5
CB22
  8
ALPHA
 10
59.187978
 20
63.964472
 30
0.0
  0
VERTEX
  5
CB23
  8
ALPHA
 10
58.48807
 20
63.806123
 30
0.0
  0
VERTEX
  5
CB24
  8
ALPHA
 10
58.218467
 20
63.572866
 30
0.0
  0
VERTEX
  5
CB25
  8
ALPHA
 10
58.112912
 20
63.232068
 30
0.0
  0
SEQEND
  5
CB26
  8
ALPHA
  0
ARC
  5
BE95
  8
ALPHA
 10
58.162701
 20
42.282076
 30
0.0
 40
4.0
 50
91.376722
 51
244.130268
  0
ARC
  5
BE96
  8
ALPHA
 10
54.162701
 20
33.082076
 30
0.0
 40
0.6
 50
270.0
 51
323.964466
  0
ARC
  5
BE97
  8
ALPHA
 10
54.162701
 20
33.082076
 30
0.0
 40
0.6
 50
36.035534
 51
90.0
  0
ARC
  5
BE98
  8
ALPHA
 10
54.762701
 20
36.082076
 30
0.0
 40
1.1
 50
90.0
 51
180.0
  0
ARC
  5
BE99
  8
ALPHA
 10
54.412701
 20
33.082076
 30
0.0
 40
0.35
 50
90.0
 51
270.0
  0
LINE
  5
BE9A
  8
ALPHA
 10
53.662701
 20
33.882076
 30
0.0
 11
53.662701
 21
36.082076
 31
0.0
  0
ARC
  5
BE9B
  8
ALPHA
 10
53.862701
 20
31.982076
 30
0.0
 40
0.2
 50
180.0
 51
270.0
  0
ARC
  5
BE9C
  8
ALPHA
 10
53.862701
 20
32.282076
 30
0.0
 40
0.2
 50
90.0
 51
180.0
  0
ARC
  5
BE9D
  8
ALPHA
 10
53.862701
 20
33.882076
 30
0.0
 40
0.2
 50
180.0
 51
270.0
  0
LINE
  5
BE9E
  8
ALPHA
 10
53.162701
 20
31.282076
 30
0.0
 11
53.662701
 21
31.782076
 31
0.0
  0
LINE
  5
BE9F
  8
ALPHA
 10
53.662701
 20
31.982076
 30
0.0
 11
53.662701
 21
32.282076
 31
0.0
  0
LINE
  5
BEA0
  8
ALPHA
 10
53.162701
 20
30.282076
 30
0.0
 11
53.162701
 21
31.282076
 31
0.0
  0
LINE
  5
BEA1
  8
ALPHA
 10
62.560682
 20
30.282076
 30
0.0
 11
62.560682
 21
28.132076
 31
0.0
  0
LINE
  5
BEA2
  8
ALPHA
 10
62.393524
 20
28.132076
 30
0.0
 11
62.393524
 21
30.282076
 31
0.0
  0
LINE
  5
BEA3
  8
ALPHA
 10
62.231672
 20
28.132076
 30
0.0
 11
62.231672
 21
30.282076
 31
0.0
  0
LINE
  5
BEA4
  8
ALPHA
 10
62.025326
 20
28.132076
 30
0.0
 11
62.025326
 21
30.282076
 31
0.0
  0
LINE
  5
BEA5
  8
ALPHA
 10
61.833333
 20
28.132076
 30
0.0
 11
61.833333
 21
30.282076
 31
0.0
  0
LINE
  5
BEA6
  8
ALPHA
 10
61.534657
 20
28.132076
 30
0.0
 11
61.534657
 21
30.282076
 31
0.0
  0
LINE
  5
BEA7
  8
ALPHA
 10
61.360087
 20
28.132076
 30
0.0
 11
61.360087
 21
30.282076
 31
0.0
  0
LINE
  5
BEA8
  8
ALPHA
 10
60.965314
 20
30.282076
 30
0.0
 11
60.965314
 21
28.132076
 31
0.0
  0
LINE
  5
BEA9
  8
ALPHA
 10
60.790744
 20
30.282076
 30
0.0
 11
60.790744
 21
28.132076
 31
0.0
  0
LINE
  5
BEAA
  8
ALPHA
 10
60.492068
 20
28.132076
 30
0.0
 11
60.492068
 21
30.282076
 31
0.0
  0
LINE
  5
BEAB
  8
ALPHA
 10
60.300075
 20
28.132076
 30
0.0
 11
60.300075
 21
30.282076
 31
0.0
  0
LINE
  5
BEAC
  8
ALPHA
 10
60.093729
 20
28.132076
 30
0.0
 11
60.093729
 21
30.282076
 31
0.0
  0
LINE
  5
BEAD
  8
ALPHA
 10
59.931877
 20
28.132076
 30
0.0
 11
59.931877
 21
30.282076
 31
0.0
  0
LINE
  5
BEAE
  8
ALPHA
 10
59.764719
 20
28.132076
 30
0.0
 11
59.764719
 21
30.282076
 31
0.0
  0
LINE
  5
BEAF
  8
ALPHA
 10
59.620026
 20
28.132076
 30
0.0
 11
59.620026
 21
30.282076
 31
0.0
  0
LINE
  5
BEB0
  8
ALPHA
 10
59.238705
 20
30.282076
 30
0.0
 11
59.238705
 21
28.132076
 31
0.0
  0
LINE
  5
BEB1
  8
ALPHA
 10
59.046155
 20
30.282076
 30
0.0
 11
59.046155
 21
28.132076
 31
0.0
  0
LINE
  5
BEB2
  8
ALPHA
 10
58.636314
 20
28.132076
 30
0.0
 11
58.636314
 21
30.282076
 31
0.0
  0
LINE
  5
BEB3
  8
ALPHA
 10
58.427265
 20
28.132076
 30
0.0
 11
58.427265
 21
30.282076
 31
0.0
  0
LINE
  5
BEB4
  8
ALPHA
 10
58.234981
 20
28.132076
 30
0.0
 11
58.234981
 21
30.282076
 31
0.0
  0
LINE
  5
BEB5
  8
ALPHA
 10
58.114299
 20
28.132076
 30
0.0
 11
58.114299
 21
30.282076
 31
0.0
  0
LINE
  5
BEB6
  8
ALPHA
 10
58.090052
 20
28.132076
 30
0.0
 11
58.090052
 21
30.282076
 31
0.0
  0
LINE
  5
BEB7
  8
ALPHA
 10
57.985096
 20
28.132076
 30
0.0
 11
57.985096
 21
30.282076
 31
0.0
  0
LINE
  5
BEB8
  8
ALPHA
 10
54.462701
 20
30.282076
 30
0.0
 11
54.462701
 21
28.132076
 31
0.0
  0
LINE
  5
BEB9
  8
ALPHA
 10
54.812701
 20
23.682076
 30
0.0
 11
55.112701
 21
22.682076
 31
0.0
  0
ARC
  5
BEBA
  8
ALPHA
 10
55.162701
 20
25.082076
 30
0.0
 40
0.5
 50
90.0
 51
270.0
  0
LINE
  5
BEBB
  8
ALPHA
 10
55.662701
 20
28.132076
 30
0.0
 11
55.662701
 21
26.832076
 31
0.0
  0
LINE
  5
BEBC
  8
ALPHA
 10
55.562701
 20
24.582076
 30
0.0
 11
55.562701
 21
24.482076
 31
0.0
  0
LINE
  5
BEBD
  8
ALPHA
 10
55.562701
 20
25.682076
 30
0.0
 11
55.562701
 21
25.582076
 31
0.0
  0
LINE
  5
BEBE
  8
ALPHA
 10
54.812701
 20
24.482076
 30
0.0
 11
54.812701
 21
23.682076
 31
0.0
  0
LINE
  5
BEBF
  8
ALPHA
 10
54.812701
 20
26.832076
 30
0.0
 11
54.812701
 21
25.682076
 31
0.0
  0
LINE
  5
BEC0
  8
ALPHA
 10
60.86827
 20
33.432076
 30
0.0
 11
54.413237
 21
33.432076
 31
0.0
  0
LINE
  5
BEC1
  8
ALPHA
 10
60.86827
 20
32.732076
 30
0.0
 11
54.413237
 21
32.732076
 31
0.0
  0
ARC
  5
BEC2
  8
ALPHA
 10
56.072693
 20
37.972083
 30
0.0
 40
0.790007
 50
270.0
 51
64.130268
  0
POLYLINE
  5
BEC3
  8
ALPHA
 66
     1
 10
0.0
 20
0.0
 30
0.0
  0
VERTEX
  5
CB27
  8
ALPHA
 10
61.457131
 20
32.732104
 30
0.0
  0
VERTEX
  5
CB28
  8
ALPHA
 10
61.458972
 20
32.734628
 30
0.0
  0
VERTEX
  5
CB29
  8
ALPHA
 10
61.462545
 20
32.75482
 30
0.0
  0
VERTEX
  5
CB2A
  8
ALPHA
 10
61.465804
 20
32.794032
 30
0.0
  0
VERTEX
  5
CB2B
  8
ALPHA
 10
61.468559
 20
32.849983
 30
0.0
  0
VERTEX
  5
CB2C
  8
ALPHA
 10
61.470649
 20
32.919423
 30
0.0
  0
VERTEX
  5
CB2D
  8
ALPHA
 10
61.471955
 20
32.998316
 30
0.0
  0
VERTEX
  5
CB2E
  8
ALPHA
 10
61.472398
 20
33.082076
 30
0.0
  0
SEQEND
  5
CB2F
  8
ALPHA
  0
POLYLINE
  5
BEC4
  8
ALPHA
 66
     1
 10
0.0
 20
0.0
 30
0.0
  0
VERTEX
  5
CB30
  8
ALPHA
 10
61.457131
 20
33.432048
 30
0.0
  0
VERTEX
  5
CB31
  8
ALPHA
 10
61.455291
 20
33.429524
 30
0.0
  0
VERTEX
  5
CB32
  8
ALPHA
 10
61.451718
 20
33.409332
 30
0.0
  0
VERTEX
  5
CB33
  8
ALPHA
 10
61.448459
 20
33.370121
 30
0.0
  0
VERTEX
  5
CB34
  8
ALPHA
 10
61.445704
 20
33.314169
 30
0.0
  0
VERTEX
  5
CB35
  8
ALPHA
 10
61.443613
 20
33.244729
 30
0.0
  0
VERTEX
  5
CB36
  8
ALPHA
 10
61.442308
 20
33.165837
 30
0.0
  0
VERTEX
  5
CB37
  8
ALPHA
 10
61.441865
 20
33.082076
 30
0.0
  0
SEQEND
  5
CB38
  8
ALPHA
  0
POLYLINE
  5
BEC5
  8
ALPHA
 66
     1
 10
0.0
 20
0.0
 30
0.0
  0
VERTEX
  5
CB39
  8
ALPHA
 10
60.883536
 20
33.082076
 30
0.0
  0
VERTEX
  5
CB3A
  8
ALPHA
 10
60.883093
 20
32.998316
 30
0.0
  0
VERTEX
  5
CB3B
  8
ALPHA
 10
60.881788
 20
32.919423
 30
0.0
  0
VERTEX
  5
CB3C
  8
ALPHA
 10
60.879697
 20
32.849983
 30
0.0
  0
VERTEX
  5
CB3D
  8
ALPHA
 10
60.876942
 20
32.794032
 30
0.0
  0
VERTEX
  5
CB3E
  8
ALPHA
 10
60.873683
 20
32.75482
 30
0.0
  0
VERTEX
  5
CB3F
  8
ALPHA
 10
60.87011
 20
32.734628
 30
0.0
  0
VERTEX
  5
CB40
  8
ALPHA
 10
60.86827
 20
32.732104
 30
0.0
  0
SEQEND
  5
CB41
  8
ALPHA
  0
POLYLINE
  5
BEC6
  8
ALPHA
 66
     1
 10
0.0
 20
0.0
 30
0.0
  0
VERTEX
  5
CB42
  8
ALPHA
 10
60.853003
 20
33.082076
 30
0.0
  0
VERTEX
  5
CB43
  8
ALPHA
 10
60.853446
 20
33.165837
 30
0.0
  0
VERTEX
  5
CB44
  8
ALPHA
 10
60.854752
 20
33.244729
 30
0.0
  0
VERTEX
  5
CB45
  8
ALPHA
 10
60.856842
 20
33.314169
 30
0.0
  0
VERTEX
  5
CB46
  8
ALPHA
 10
60.859597
 20
33.370121
 30
0.0
  0
VERTEX
  5
CB47
  8
ALPHA
 10
60.862856
 20
33.409332
 30
0.0
  0
VERTEX
  5
CB48
  8
ALPHA
 10
60.866429
 20
33.429524
 30
0.0
  0
VERTEX
  5
CB49
  8
ALPHA
 10
60.86827
 20
33.432048
 30
0.0
  0
SEQEND
  5
CB4A
  8
ALPHA
  0
POLYLINE
  5
BEC7
  8
ALPHA
 66
     1
 10
0.0
 20
0.0
 30
0.0
  0
VERTEX
  5
CB4B
  8
ALPHA
 10
61.472398
 20
33.082076
 30
0.0
  0
VERTEX
  5
CB4C
  8
ALPHA
 10
61.471955
 20
33.165837
 30
0.0
  0
VERTEX
  5
CB4D
  8
ALPHA
 10
61.470649
 20
33.244729
 30
0.0
  0
VERTEX
  5
CB4E
  8
ALPHA
 10
61.468559
 20
33.314169
 30
0.0
  0
VERTEX
  5
CB4F
  8
ALPHA
 10
61.465804
 20
33.370121
 30
0.0
  0
VERTEX
  5
CB50
  8
ALPHA
 10
61.462545
 20
33.409332
 30
0.0
  0
VERTEX
  5
CB51
  8
ALPHA
 10
61.458972
 20
33.429524
 30
0.0
  0
VERTEX
  5
CB52
  8
ALPHA
 10
61.457131
 20
33.432048
 30
0.0
  0
SEQEND
  5
CB53
  8
ALPHA
  0
POLYLINE
  5
BEC8
  8
ALPHA
 66
     1
 10
0.0
 20
0.0
 30
0.0
  0
VERTEX
  5
CB54
  8
ALPHA
 10
61.441865
 20
33.082076
 30
0.0
  0
VERTEX
  5
CB55
  8
ALPHA
 10
61.442308
 20
32.998316
 30
0.0
  0
VERTEX
  5
CB56
  8
ALPHA
 10
61.443613
 20
32.919423
 30
0.0
  0
VERTEX
  5
CB57
  8
ALPHA
 10
61.445704
 20
32.849983
 30
0.0
  0
VERTEX
  5
CB58
  8
ALPHA
 10
61.448459
 20
32.794032
 30
0.0
  0
VERTEX
  5
CB59
  8
ALPHA
 10
61.451718
 20
32.75482
 30
0.0
  0
VERTEX
  5
CB5A
  8
ALPHA
 10
61.455291
 20
32.734628
 30
0.0
  0
VERTEX
  5
CB5B
  8
ALPHA
 10
61.457131
 20
32.732104
 30
0.0
  0
SEQEND
  5
CB5C
  8
ALPHA
  0
POLYLINE
  5
BEC9
  8
ALPHA
 66
     1
 10
0.0
 20
0.0
 30
0.0
  0
VERTEX
  5
CB5D
  8
ALPHA
 10
60.86827
 20
33.432048
 30
0.0
  0
VERTEX
  5
CB5E
  8
ALPHA
 10
60.87011
 20
33.429524
 30
0.0
  0
VERTEX
  5
CB5F
  8
ALPHA
 10
60.873683
 20
33.409332
 30
0.0
  0
VERTEX
  5
CB60
  8
ALPHA
 10
60.876942
 20
33.370121
 30
0.0
  0
VERTEX
  5
CB61
  8
ALPHA
 10
60.879697
 20
33.314169
 30
0.0
  0
VERTEX
  5
CB62
  8
ALPHA
 10
60.881788
 20
33.244729
 30
0.0
  0
VERTEX
  5
CB63
  8
ALPHA
 10
60.883093
 20
33.165837
 30
0.0
  0
VERTEX
  5
CB64
  8
ALPHA
 10
60.883536
 20
33.082076
 30
0.0
  0
SEQEND
  5
CB65
  8
ALPHA
  0
POLYLINE
  5
BECA
  8
ALPHA
 66
     1
 10
0.0
 20
0.0
 30
0.0
  0
VERTEX
  5
CB66
  8
ALPHA
 10
60.86827
 20
32.732104
 30
0.0
  0
VERTEX
  5
CB67
  8
ALPHA
 10
60.866429
 20
32.734628
 30
0.0
  0
VERTEX
  5
CB68
  8
ALPHA
 10
60.862856
 20
32.75482
 30
0.0
  0
VERTEX
  5
CB69
  8
ALPHA
 10
60.859597
 20
32.794032
 30
0.0
  0
VERTEX
  5
CB6A
  8
ALPHA
 10
60.856842
 20
32.849983
 30
0.0
  0
VERTEX
  5
CB6B
  8
ALPHA
 10
60.854752
 20
32.919423
 30
0.0
  0
VERTEX
  5
CB6C
  8
ALPHA
 10
60.853446
 20
32.998316
 30
0.0
  0
VERTEX
  5
CB6D
  8
ALPHA
 10
60.853003
 20
33.082076
 30
0.0
  0
SEQEND
  5
CB6E
  8
ALPHA
  0
POLYLINE
  5
BECB
  8
ALPHA
 66
     1
 10
0.0
 20
0.0
 30
0.0
 70
   128
  0
VERTEX
  5
CB6F
  8
ALPHA
 10
58.862853
 20
52.214135
 30
0.0
  0
VERTEX
  5
CB70
  8
ALPHA
 10
58.349023
 20
52.018128
 30
0.0
  0
VERTEX
  5
CB71
  8
ALPHA
 10
58.112905
 20
51.532071
 30
0.0
  0
SEQEND
  5
CB72
  8
ALPHA
  0
POLYLINE
  5
BECC
  8
ALPHA
 66
     1
 10
0.0
 20
0.0
 30
0.0
 70
   128
  0
VERTEX
  5
CB73
  8
ALPHA
 10
58.113018
 20
51.532095
 30
0.0
  0
VERTEX
  5
CB74
  8
ALPHA
 10
58.292798
 20
51.098036
 30
0.0
  0
VERTEX
  5
CB75
  8
ALPHA
 10
58.713388
 20
50.881704
 30
0.0
  0
SEQEND
  5
CB76
  8
ALPHA
  0
POLYLINE
  5
BECD
  8
ALPHA
 66
     1
 10
0.0
 20
0.0
 30
0.0
 70
   128
  0
VERTEX
  5
CB77
  8
ALPHA
 10
58.113023
 20
50.232095
 30
0.0
  0
VERTEX
  5
CB78
  8
ALPHA
 10
58.292635
 20
49.798194
 30
0.0
  0
VERTEX
  5
CB79
  8
ALPHA
 10
58.712978
 20
49.581804
 30
0.0
  0
SEQEND
  5
CB7A
  8
ALPHA
  0
POLYLINE
  5
BECE
  8
ALPHA
 66
     1
 10
0.0
 20
0.0
 30
0.0
 70
   128
  0
VERTEX
  5
CB7B
  8
ALPHA
 10
58.113016
 20
48.932093
 30
0.0
  0
VERTEX
  5
CB7C
  8
ALPHA
 10
58.292955
 20
48.497871
 30
0.0
  0
VERTEX
  5
CB7D
  8
ALPHA
 10
58.713837
 20
48.281593
 30
0.0
  0
SEQEND
  5
CB7E
  8
ALPHA
  0
POLYLINE
  5
BECF
  8
ALPHA
 66
     1
 10
0.0
 20
0.0
 30
0.0
 70
   128
  0
VERTEX
  5
CB7F
  8
ALPHA
 10
59.186168
 20
50.964233
 30
0.0
  0
VERTEX
  5
CB80
  8
ALPHA
 10
58.487209
 20
50.805694
 30
0.0
  0
VERTEX
  5
CB81
  8
ALPHA
 10
58.218185
 20
50.572461
 30
0.0
  0
VERTEX
  5
CB82
  8
ALPHA
 10
58.112874
 20
50.232073
 30
0.0
  0
SEQEND
  5
CB83
  8
ALPHA
  0
POLYLINE
  5
BED0
  8
ALPHA
 66
     1
 10
0.0
 20
0.0
 30
0.0
 70
   128
  0
VERTEX
  5
CB84
  8
ALPHA
 10
59.199918
 20
49.666051
 30
0.0
  0
VERTEX
  5
CB85
  8
ALPHA
 10
58.493503
 20
49.508687
 30
0.0
  0
VERTEX
  5
CB86
  8
ALPHA
 10
58.220119
 20
49.275372
 30
0.0
  0
VERTEX
  5
CB87
  8
ALPHA
 10
58.1129
 20
48.932069
 30
0.0
  0
SEQEND
  5
CB88
  8
ALPHA
  0
POLYLINE
  5
BED1
  8
ALPHA
 66
     1
 10
0.0
 20
0.0
 30
0.0
 70
   128
  0
VERTEX
  5
CB89
  8
ALPHA
 10
59.154815
 20
48.360016
 30
0.0
  0
VERTEX
  5
CB8A
  8
ALPHA
 10
58.472993
 20
48.198701
 30
0.0
  0
VERTEX
  5
CB8B
  8
ALPHA
 10
58.213858
 20
47.965798
 30
0.0
  0
VERTEX
  5
CB8C
  8
ALPHA
 10
58.112866
 20
47.632073
 30
0.0
  0
SEQEND
  5
CB8D
  8
ALPHA
  0
LINE
  5
BED2
  8
ALPHA
 10
58.221791
 20
46.360864
 30
0.0
 11
58.912701
 21
47.282076
 31
0.0
  0
LINE
  5
BED3
  8
ALPHA
 10
58.112998
 20
47.63209
 30
0.0
 11
58.224591
 21
47.282078
 31
0.0
  0
ARC
  5
BED4
  8
ALPHA
 10
58.061791
 20
46.480864
 30
0.0
 40
0.2
 50
271.376722
 51
323.130102
  0
LINE
  5
BED5
  8
ALPHA
 10
60.270839
 20
47.282077
 30
0.0
 11
61.220559
 21
47.364403
 31
0.0
  0
LINE
  5
BED6
  8
ALPHA
 10
59.162701
 20
48.456647
 30
0.0
 11
59.162701
 21
48.361015
 31
0.0
  0
LINE
  5
BED7
  8
ALPHA
 10
59.162701
 20
49.756643
 30
0.0
 11
59.162701
 21
49.660752
 31
0.0
  0
LINE
  5
BED8
  8
ALPHA
 10
59.162701
 20
51.056536
 30
0.0
 11
59.162701
 21
50.96085
 31
0.0
  0
LINE
  5
BED9
  8
ALPHA
 10
61.477905
 20
47.386173
 30
0.0
 11
61.505137
 21
47.388486
 31
0.0
  0
LINE
  5
BEDA
  8
ALPHA
 10
61.220559
 20
47.364403
 30
0.0
 11
61.477905
 21
47.386173
 31
0.0
  0
POLYLINE
  5
BEDB
  8
ALPHA
 66
     1
 10
0.0
 20
0.0
 30
0.0
 70
   128
  0
VERTEX
  5
CB8E
  8
ALPHA
 10
58.11299
 20
63.232089
 30
0.0
  0
VERTEX
  5
CB8F
  8
ALPHA
 10
58.293036
 20
62.797789
 30
0.0
  0
VERTEX
  5
CB90
  8
ALPHA
 10
58.714163
 20
62.581513
 30
0.0
  0
SEQEND
  5
CB91
  8
ALPHA
  0
POLYLINE
  5
BEDC
  8
ALPHA
 66
     1
 10
0.0
 20
0.0
 30
0.0
 70
   128
  0
VERTEX
  5
CB92
  8
ALPHA
 10
58.113026
 20
61.932095
 30
0.0
  0
VERTEX
  5
CB93
  8
ALPHA
 10
58.292767
 20
61.498055
 30
0.0
  0
VERTEX
  5
CB94
  8
ALPHA
 10
58.713342
 20
61.281715
 30
0.0
  0
SEQEND
  5
CB95
  8
ALPHA
  0
POLYLINE
  5
BEDD
  8
ALPHA
 66
     1
 10
0.0
 20
0.0
 30
0.0
 70
   128
  0
VERTEX
  5
CB96
  8
ALPHA
 10
58.113013
 20
60.632095
 30
0.0
  0
VERTEX
  5
CB97
  8
ALPHA
 10
58.292644
 20
60.198199
 30
0.0
  0
VERTEX
  5
CB98
  8
ALPHA
 10
58.712918
 20
59.981817
 30
0.0
  0
SEQEND
  5
CB99
  8
ALPHA
  0
POLYLINE
  5
BEDE
  8
ALPHA
 66
     1
 10
0.0
 20
0.0
 30
0.0
 70
   128
  0
VERTEX
  5
CB9A
  8
ALPHA
 10
58.11302
 20
59.332094
 30
0.0
  0
VERTEX
  5
CB9B
  8
ALPHA
 10
58.292777
 20
58.898057
 30
0.0
  0
VERTEX
  5
CB9C
  8
ALPHA
 10
58.713325
 20
58.681718
 30
0.0
  0
SEQEND
  5
CB9D
  8
ALPHA
  0
POLYLINE
  5
BEDF
  8
ALPHA
 66
     1
 10
0.0
 20
0.0
 30
0.0
 70
   128
  0
VERTEX
  5
CB9E
  8
ALPHA
 10
58.113027
 20
58.032094
 30
0.0
  0
VERTEX
  5
CB9F
  8
ALPHA
 10
58.292741
 20
57.598081
 30
0.0
  0
VERTEX
  5
CBA0
  8
ALPHA
 10
58.713266
 20
57.381732
 30
0.0
  0
SEQEND
  5
CBA1
  8
ALPHA
  0
POLYLINE
  5
BEE0
  8
ALPHA
 66
     1
 10
0.0
 20
0.0
 30
0.0
 70
   128
  0
VERTEX
  5
CBA2
  8
ALPHA
 10
59.109003
 20
62.653666
 30
0.0
  0
VERTEX
  5
CBA3
  8
ALPHA
 10
58.452479
 20
62.487928
 30
0.0
  0
VERTEX
  5
CBA4
  8
ALPHA
 10
58.112846
 20
61.932075
 30
0.0
  0
SEQEND
  5
CBA5
  8
ALPHA
  0
POLYLINE
  5
BEE1
  8
ALPHA
 66
     1
 10
0.0
 20
0.0
 30
0.0
 70
   128
  0
VERTEX
  5
CBA6
  8
ALPHA
 10
59.197762
 20
61.365768
 30
0.0
  0
VERTEX
  5
CBA7
  8
ALPHA
 10
58.492515
 20
61.208222
 30
0.0
  0
VERTEX
  5
CBA8
  8
ALPHA
 10
58.219817
 20
60.97492
 30
0.0
  0
VERTEX
  5
CBA9
  8
ALPHA
 10
58.112896
 20
60.632071
 30
0.0
  0
SEQEND
  5
CBAA
  8
ALPHA
  0
POLYLINE
  5
BEE2
  8
ALPHA
 66
     1
 10
0.0
 20
0.0
 30
0.0
 70
   128
  0
VERTEX
  5
CBAB
  8
ALPHA
 10
59.02722
 20
60.041677
 30
0.0
  0
VERTEX
  5
CBAC
  8
ALPHA
 10
58.416795
 20
59.86699
 30
0.0
  0
VERTEX
  5
CBAD
  8
ALPHA
 10
58.112894
 20
59.332071
 30
0.0
  0
SEQEND
  5
CBAE
  8
ALPHA
  0
POLYLINE
  5
BEE3
  8
ALPHA
 66
     1
 10
0.0
 20
0.0
 30
0.0
 70
   128
  0
VERTEX
  5
CBAF
  8
ALPHA
 10
59.188723
 20
58.764571
 30
0.0
  0
VERTEX
  5
CBB0
  8
ALPHA
 10
58.488374
 20
58.60625
 30
0.0
  0
VERTEX
  5
CBB1
  8
ALPHA
 10
58.218541
 20
58.373
 30
0.0
  0
VERTEX
  5
CBB2
  8
ALPHA
 10
58.112876
 20
58.032072
 30
0.0
  0
SEQEND
  5
CBB3
  8
ALPHA
  0
POLYLINE
  5
BEE4
  8
ALPHA
 66
     1
 10
0.0
 20
0.0
 30
0.0
 70
   128
  0
VERTEX
  5
CBB4
  8
ALPHA
 10
58.113001
 20
56.732093
 30
0.0
  0
VERTEX
  5
CBB5
  8
ALPHA
 10
58.292761
 20
56.298077
 30
0.0
  0
VERTEX
  5
CBB6
  8
ALPHA
 10
58.713294
 20
56.081725
 30
0.0
  0
SEQEND
  5
CBB7
  8
ALPHA
  0
POLYLINE
  5
BEE5
  8
ALPHA
 66
     1
 10
0.0
 20
0.0
 30
0.0
 70
   128
  0
VERTEX
  5
CBB8
  8
ALPHA
 10
58.113021
 20
55.432095
 30
0.0
  0
VERTEX
  5
CBB9
  8
ALPHA
 10
58.292972
 20
54.997843
 30
0.0
  0
VERTEX
  5
CBBA
  8
ALPHA
 10
58.713908
 20
54.781577
 30
0.0
  0
SEQEND
  5
CBBB
  8
ALPHA
  0
POLYLINE
  5
BEE6
  8
ALPHA
 66
     1
 10
0.0
 20
0.0
 30
0.0
 70
   128
  0
VERTEX
  5
CBBC
  8
ALPHA
 10
58.113021
 20
54.132094
 30
0.0
  0
VERTEX
  5
CBBD
  8
ALPHA
 10
58.292771
 20
53.698063
 30
0.0
  0
VERTEX
  5
CBBE
  8
ALPHA
 10
58.713295
 20
53.481725
 30
0.0
  0
SEQEND
  5
CBBF
  8
ALPHA
  0
POLYLINE
  5
BEE7
  8
ALPHA
 66
     1
 10
0.0
 20
0.0
 30
0.0
 70
   128
  0
VERTEX
  5
CBC0
  8
ALPHA
 10
58.112984
 20
52.832089
 30
0.0
  0
VERTEX
  5
CBC1
  8
ALPHA
 10
58.292681
 20
52.39816
 30
0.0
  0
VERTEX
  5
CBC2
  8
ALPHA
 10
58.713081
 20
52.181773
 30
0.0
  0
SEQEND
  5
CBC3
  8
ALPHA
  0
POLYLINE
  5
BEE8
  8
ALPHA
 66
     1
 10
0.0
 20
0.0
 30
0.0
 70
   128
  0
VERTEX
  5
CBC4
  8
ALPHA
 10
59.144406
 20
54.858593
 30
0.0
  0
VERTEX
  5
CBC5
  8
ALPHA
 10
58.468306
 20
54.696314
 30
0.0
  0
VERTEX
  5
CBC6
  8
ALPHA
 10
58.112865
 20
54.132073
 30
0.0
  0
SEQEND
  5
CBC7
  8
ALPHA
  0
POLYLINE
  5
BEE9
  8
ALPHA
 66
     1
 10
0.0
 20
0.0
 30
0.0
 70
   128
  0
VERTEX
  5
CBC8
  8
ALPHA
 10
59.199378
 20
57.465981
 30
0.0
  0
VERTEX
  5
CBC9
  8
ALPHA
 10
58.493272
 20
57.308584
 30
0.0
  0
VERTEX
  5
CBCA
  8
ALPHA
 10
58.220059
 20
57.075275
 30
0.0
  0
VERTEX
  5
CBCB
  8
ALPHA
 10
58.112912
 20
56.732069
 30
0.0
  0
SEQEND
  5
CBCC
  8
ALPHA
  0
POLYLINE
  5
BEEA
  8
ALPHA
 66
     1
 10
0.0
 20
0.0
 30
0.0
 70
   128
  0
VERTEX
  5
CBCD
  8
ALPHA
 10
59.196834
 20
56.165646
 30
0.0
  0
VERTEX
  5
CBCE
  8
ALPHA
 10
58.492075
 20
56.00801
 30
0.0
  0
VERTEX
  5
CBCF
  8
ALPHA
 10
58.219668
 20
55.774703
 30
0.0
  0
VERTEX
  5
CBD0
  8
ALPHA
 10
58.112886
 20
55.432072
 30
0.0
  0
SEQEND
  5
CBD1
  8
ALPHA
  0
POLYLINE
  5
BEEB
  8
ALPHA
 66
     1
 10
0.0
 20
0.0
 30
0.0
 70
   128
  0
VERTEX
  5
CBD2
  8
ALPHA
 10
59.198504
 20
53.565864
 30
0.0
  0
VERTEX
  5
CBD3
  8
ALPHA
 10
58.492829
 20
53.408353
 30
0.0
  0
VERTEX
  5
CBD4
  8
ALPHA
 10
58.219897
 20
53.175053
 30
0.0
  0
VERTEX
  5
CBD5
  8
ALPHA
 10
58.11287
 20
52.832072
 30
0.0
  0
SEQEND
  5
CBD6
  8
ALPHA
  0
LINE
  5
BEEC
  8
ALPHA
 10
59.040203
 20
52.243644
 30
0.0
 11
58.862853
 21
52.214135
 31
0.0
  0
LINE
  5
BEED
  8
ALPHA
 10
59.884054
 20
53.641755
 30
0.0
 11
59.923008
 21
53.748778
 31
0.0
  0
LINE
  5
BEEE
  8
ALPHA
 10
59.39185
 20
52.289435
 30
0.0
 11
59.430062
 21
52.39442
 31
0.0
  0
LINE
  5
BEEF
  8
ALPHA
 10
62.36144
 20
53.861296
 30
0.0
 11
62.325069
 21
53.961224
 31
0.0
  0
LINE
  5
BEF0
  8
ALPHA
 10
58.989577
 20
62.721603
 30
0.0
 11
61.347527
 21
62.975128
 31
0.0
  0
LINE
  5
BEF1
  8
ALPHA
 10
58.990084
 20
61.421443
 30
0.0
 11
61.458801
 21
61.684552
 31
0.0
  0
LINE
  5
BEF2
  8
ALPHA
 10
61.457225
 20
62.879599
 30
0.0
 11
59.109003
 21
62.653666
 31
0.0
  0
LINE
  5
BEF3
  8
ALPHA
 10
61.438575
 20
61.578011
 30
0.0
 11
59.197762
 21
61.365768
 31
0.0
  0
LINE
  5
BEF4
  8
ALPHA
 10
61.347527
 20
62.975128
 30
0.0
 11
61.623417
 21
62.998576
 31
0.0
  0
LINE
  5
BEF5
  8
ALPHA
 10
61.46776
 20
61.5805
 30
0.0
 11
61.438575
 21
61.578011
 31
0.0
  0
POLYLINE
  5
BEF6
  8
ALPHA
 66
     1
 10
0.0
 20
0.0
 30
0.0
 70
   128
  0
VERTEX
  5
CBD7
  8
ALPHA
 10
59.132659
 20
87.356975
 30
0.0
  0
VERTEX
  5
CBD8
  8
ALPHA
 10
58.463048
 20
87.193585
 30
0.0
  0
VERTEX
  5
CBD9
  8
ALPHA
 10
58.112856
 20
86.632074
 30
0.0
  0
SEQEND
  5
CBDA
  8
ALPHA
  0
POLYLINE
  5
BEF7
  8
ALPHA
 66
     1
 10
0.0
 20
0.0
 30
0.0
 70
   128
  0
VERTEX
  5
CBDB
  8
ALPHA
 10
59.206209
 20
75.666878
 30
0.0
  0
VERTEX
  5
CBDC
  8
ALPHA
 10
58.496369
 20
75.510012
 30
0.0
  0
VERTEX
  5
CBDD
  8
ALPHA
 10
58.220994
 20
75.276691
 30
0.0
  0
VERTEX
  5
CBDE
  8
ALPHA
 10
58.112885
 20
74.932072
 30
0.0
  0
SEQEND
  5
CBDF
  8
ALPHA
  0
POLYLINE
  5
BEF8
  8
ALPHA
 66
     1
 10
0.0
 20
0.0
 30
0.0
 70
   128
  0
VERTEX
  5
CBE0
  8
ALPHA
 10
58.112979
 20
71.032089
 30
0.0
  0
VERTEX
  5
CBE1
  8
ALPHA
 10
58.292842
 20
70.597995
 30
0.0
  0
VERTEX
  5
CBE2
  8
ALPHA
 10
58.713623
 20
70.381646
 30
0.0
  0
SEQEND
  5
CBE3
  8
ALPHA
  0
POLYLINE
  5
BEF9
  8
ALPHA
 66
     1
 10
0.0
 20
0.0
 30
0.0
 70
   128
  0
VERTEX
  5
CBE4
  8
ALPHA
 10
58.113016
 20
69.732094
 30
0.0
  0
VERTEX
  5
CBE5
  8
ALPHA
 10
58.292912
 20
69.297918
 30
0.0
  0
VERTEX
  5
CBE6
  8
ALPHA
 10
58.713668
 20
69.081633
 30
0.0
  0
SEQEND
  5
CBE7
  8
ALPHA
  0
POLYLINE
  5
BEFA
  8
ALPHA
 66
     1
 10
0.0
 20
0.0
 30
0.0
 70
   128
  0
VERTEX
  5
CBE8
  8
ALPHA
 10
59.187152
 20
73.064363
 30
0.0
  0
VERTEX
  5
CBE9
  8
ALPHA
 10
58.487661
 20
72.905913
 30
0.0
  0
VERTEX
  5
CBEA
  8
ALPHA
 10
58.218323
 20
72.672668
 30
0.0
  0
VERTEX
  5
CBEB
  8
ALPHA
 10
58.112881
 20
72.332072
 30
0.0
  0
SEQEND
  5
CBEC
  8
ALPHA
  0
POLYLINE
  5
BEFB
  8
ALPHA
 66
     1
 10
0.0
 20
0.0
 30
0.0
 70
   128
  0
VERTEX
  5
CBED
  8
ALPHA
 10
58.112975
 20
68.432087
 30
0.0
  0
VERTEX
  5
CBEE
  8
ALPHA
 10
58.292846
 20
67.99799
 30
0.0
  0
VERTEX
  5
CBEF
  8
ALPHA
 10
58.713598
 20
67.781649
 30
0.0
  0
SEQEND
  5
CBF0
  8
ALPHA
  0
POLYLINE
  5
BEFC
  8
ALPHA
 66
     1
 10
0.0
 20
0.0
 30
0.0
 70
   128
  0
VERTEX
  5
CBF1
  8
ALPHA
 10
59.204798
 20
74.366692
 30
0.0
  0
VERTEX
  5
CBF2
  8
ALPHA
 10
58.495751
 20
74.209737
 30
0.0
  0
VERTEX
  5
CBF3
  8
ALPHA
 10
58.220823
 20
73.97642
 30
0.0
  0
VERTEX
  5
CBF4
  8
ALPHA
 10
58.112909
 20
73.632068
 30
0.0
  0
SEQEND
  5
CBF5
  8
ALPHA
  0
POLYLINE
  5
BEFD
  8
ALPHA
 66
     1
 10
0.0
 20
0.0
 30
0.0
 70
   128
  0
VERTEX
  5
CBF6
  8
ALPHA
 10
59.175615
 20
69.162824
 30
0.0
  0
VERTEX
  5
CBF7
  8
ALPHA
 10
58.482414
 20
69.003382
 30
0.0
  0
VERTEX
  5
CBF8
  8
ALPHA
 10
58.21672
 20
68.770219
 30
0.0
  0
VERTEX
  5
CBF9
  8
ALPHA
 10
58.112884
 20
68.432071
 30
0.0
  0
SEQEND
  5
CBFA
  8
ALPHA
  0
POLYLINE
  5
BEFE
  8
ALPHA
 66
     1
 10
0.0
 20
0.0
 30
0.0
 70
   128
  0
VERTEX
  5
CBFB
  8
ALPHA
 10
58.112944
 20
72.332085
 30
0.0
  0
VERTEX
  5
CBFC
  8
ALPHA
 10
58.254436
 20
71.941809
 30
0.0
  0
VERTEX
  5
CBFD
  8
ALPHA
 10
58.601624
 20
71.713184
 30
0.0
  0
SEQEND
  5
CBFE
  8
ALPHA
  0
POLYLINE
  5
BEFF
  8
ALPHA
 66
     1
 10
0.0
 20
0.0
 30
0.0
 70
   128
  0
VERTEX
  5
CBFF
  8
ALPHA
 10
58.112981
 20
73.632088
 30
0.0
  0
VERTEX
  5
CC00
  8
ALPHA
 10
58.293085
 20
73.19774
 30
0.0
  0
VERTEX
  5
CC01
  8
ALPHA
 10
58.714229
 20
72.981493
 30
0.0
  0
SEQEND
  5
CC02
  8
ALPHA
  0
POLYLINE
  5
BF00
  8
ALPHA
 66
     1
 10
0.0
 20
0.0
 30
0.0
 70
   128
  0
VERTEX
  5
CC03
  8
ALPHA
 10
58.112986
 20
74.93209
 30
0.0
  0
VERTEX
  5
CC04
  8
ALPHA
 10
58.292731
 20
74.498109
 30
0.0
  0
VERTEX
  5
CC05
  8
ALPHA
 10
58.713281
 20
74.281729
 30
0.0
  0
SEQEND
  5
CC06
  8
ALPHA
  0
POLYLINE
  5
BF01
  8
ALPHA
 66
     1
 10
0.0
 20
0.0
 30
0.0
 70
   128
  0
VERTEX
  5
CC07
  8
ALPHA
 10
58.570633
 20
71.640327
 30
0.0
  0
VERTEX
  5
CC08
  8
ALPHA
 10
58.244394
 20
71.409317
 30
0.0
  0
VERTEX
  5
CC09
  8
ALPHA
 10
58.112898
 20
71.032071
 30
0.0
  0
SEQEND
  5
CC0A
  8
ALPHA
  0
POLYLINE
  5
BF02
  8
ALPHA
 66
     1
 10
0.0
 20
0.0
 30
0.0
 70
   128
  0
VERTEX
  5
CC0B
  8
ALPHA
 10
59.176805
 20
70.462984
 30
0.0
  0
VERTEX
  5
CC0C
  8
ALPHA
 10
58.482973
 20
70.303659
 30
0.0
  0
VERTEX
  5
CC0D
  8
ALPHA
 10
58.216908
 20
70.070502
 30
0.0
  0
VERTEX
  5
CC0E
  8
ALPHA
 10
58.112889
 20
69.732071
 30
0.0
  0
SEQEND
  5
CC0F
  8
ALPHA
  0
POLYLINE
  5
BF03
  8
ALPHA
 66
     1
 10
0.0
 20
0.0
 30
0.0
 70
   128
  0
VERTEX
  5
CC10
  8
ALPHA
 10
58.113003
 20
67.132092
 30
0.0
  0
VERTEX
  5
CC11
  8
ALPHA
 10
58.293063
 20
66.69776
 30
0.0
  0
VERTEX
  5
CC12
  8
ALPHA
 10
58.714158
 20
66.481515
 30
0.0
  0
SEQEND
  5
CC13
  8
ALPHA
  0
POLYLINE
  5
BF04
  8
ALPHA
 66
     1
 10
0.0
 20
0.0
 30
0.0
 70
   128
  0
VERTEX
  5
CC14
  8
ALPHA
 10
58.113022
 20
65.832096
 30
0.0
  0
VERTEX
  5
CC15
  8
ALPHA
 10
58.292748
 20
65.398089
 30
0.0
  0
VERTEX
  5
CC16
  8
ALPHA
 10
58.713203
 20
65.181748
 30
0.0
  0
SEQEND
  5
CC17
  8
ALPHA
  0
POLYLINE
  5
BF05
  8
ALPHA
 66
     1
 10
0.0
 20
0.0
 30
0.0
 70
   128
  0
VERTEX
  5
CC18
  8
ALPHA
 10
58.113006
 20
64.532092
 30
0.0
  0
VERTEX
  5
CC19
  8
ALPHA
 10
58.292542
 20
64.098293
 30
0.0
  0
VERTEX
  5
CC1A
  8
ALPHA
 10
58.712756
 20
63.881858
 30
0.0
  0
SEQEND
  5
CC1B
  8
ALPHA
  0
POLYLINE
  5
BF06
  8
ALPHA
 66
     1
 10
0.0
 20
0.0
 30
0.0
 70
   128
  0
VERTEX
  5
CC1C
  8
ALPHA
 10
59.206079
 20
67.86686
 30
0.0
  0
VERTEX
  5
CC1D
  8
ALPHA
 10
58.496314
 20
67.70999
 30
0.0
  0
VERTEX
  5
CC1E
  8
ALPHA
 10
58.220977
 20
67.476664
 30
0.0
  0
VERTEX
  5
CC1F
  8
ALPHA
 10
58.112891
 20
67.132071
 30
0.0
  0
SEQEND
  5
CC20
  8
ALPHA
  0
POLYLINE
  5
BF07
  8
ALPHA
 66
     1
 10
0.0
 20
0.0
 30
0.0
 70
   128
  0
VERTEX
  5
CC21
  8
ALPHA
 10
59.115045
 20
66.554518
 30
0.0
  0
VERTEX
  5
CC22
  8
ALPHA
 10
58.455248
 20
66.389443
 30
0.0
  0
VERTEX
  5
CC23
  8
ALPHA
 10
58.112878
 20
65.832071
 30
0.0
  0
SEQEND
  5
CC24
  8
ALPHA
  0
POLYLINE
  5
BF08
  8
ALPHA
 66
     1
 10
0.0
 20
0.0
 30
0.0
 70
   128
  0
VERTEX
  5
CC25
  8
ALPHA
 10
59.189775
 20
65.264712
 30
0.0
  0
VERTEX
  5
CC26
  8
ALPHA
 10
58.488844
 20
65.106475
 30
0.0
  0
VERTEX
  5
CC27
  8
ALPHA
 10
58.218673
 20
64.873203
 30
0.0
  0
VERTEX
  5
CC28
  8
ALPHA
 10
58.112877
 20
64.532072
 30
0.0
  0
SEQEND
  5
CC29
  8
ALPHA
  0
LINE
  5
BF09
  8
ALPHA
 10
59.072324
 20
67.940573
 30
0.0
 11
59.403164
 21
67.991155
 31
0.0
  0
LINE
  5
BF0A
  8
ALPHA
 10
58.989579
 20
67.921399
 30
0.0
 11
59.072324
 21
67.940573
 31
0.0
  0
LINE
  5
BF0B
  8
ALPHA
 10
58.993747
 20
66.623468
 30
0.0
 11
59.375083
 21
66.687539
 31
0.0
  0
LINE
  5
BF0C
  8
ALPHA
 10
59.284872
 20
67.876915
 30
0.0
 11
59.206079
 21
67.86686
 31
0.0
  0
LINE
  5
BF0D
  8
ALPHA
 10
59.312548
 20
66.580327
 30
0.0
 11
59.115045
 21
66.554518
 31
0.0
  0
LINE
  5
BF0E
  8
ALPHA
 10
59.537431
 20
66.606256
 30
0.0
 11
59.312548
 21
66.580327
 31
0.0
  0
LINE
  5
BF0F
  8
ALPHA
 10
58.595977
 20
71.715059
 30
0.0
 11
58.715085
 21
71.681261
 31
0.0
  0
LINE
  5
BF10
  8
ALPHA
 10
59.205087
 20
71.766731
 30
0.0
 11
58.570633
 21
71.640327
 31
0.0
  0
POLYLINE
  5
BF11
  8
ALPHA
 66
     1
 10
0.0
 20
0.0
 30
0.0
 70
   128
  0
VERTEX
  5
CC2A
  8
ALPHA
 10
59.028035
 20
76.941803
 30
0.0
  0
VERTEX
  5
CC2B
  8
ALPHA
 10
58.417161
 20
76.767212
 30
0.0
  0
VERTEX
  5
CC2C
  8
ALPHA
 10
58.112903
 20
76.232071
 30
0.0
  0
SEQEND
  5
CC2D
  8
ALPHA
  0
POLYLINE
  5
BF12
  8
ALPHA
 66
     1
 10
0.0
 20
0.0
 30
0.0
 70
   128
  0
VERTEX
  5
CC2E
  8
ALPHA
 10
58.112987
 20
76.232091
 30
0.0
  0
VERTEX
  5
CC2F
  8
ALPHA
 10
58.292943
 20
75.797889
 30
0.0
  0
VERTEX
  5
CC30
  8
ALPHA
 10
58.713823
 20
75.581595
 30
0.0
  0
SEQEND
  5
CC31
  8
ALPHA
  0
POLYLINE
  5
BF13
  8
ALPHA
 66
     1
 10
0.0
 20
0.0
 30
0.0
 70
   128
  0
VERTEX
  5
CC32
  8
ALPHA
 10
59.212619
 20
78.267715
 30
0.0
  0
VERTEX
  5
CC33
  8
ALPHA
 10
58.499315
 20
78.111378
 30
0.0
  0
VERTEX
  5
CC34
  8
ALPHA
 10
58.221897
 20
77.878034
 30
0.0
  0
VERTEX
  5
CC35
  8
ALPHA
 10
58.112899
 20
77.53207
 30
0.0
  0
SEQEND
  5
CC36
  8
ALPHA
  0
POLYLINE
  5
BF14
  8
ALPHA
 66
     1
 10
0.0
 20
0.0
 30
0.0
 70
   128
  0
VERTEX
  5
CC37
  8
ALPHA
 10
59.16115
 20
79.560876
 30
0.0
  0
VERTEX
  5
CC38
  8
ALPHA
 10
58.475866
 20
79.400149
 30
0.0
  0
VERTEX
  5
CC39
  8
ALPHA
 10
58.214736
 20
79.167159
 30
0.0
  0
VERTEX
  5
CC3A
  8
ALPHA
 10
58.112877
 20
78.832071
 30
0.0
  0
SEQEND
  5
CC3B
  8
ALPHA
  0
POLYLINE
  5
BF15
  8
ALPHA
 66
     1
 10
0.0
 20
0.0
 30
0.0
 70
   128
  0
VERTEX
  5
CC3C
  8
ALPHA
 10
59.210437
 20
80.867431
 30
0.0
  0
VERTEX
  5
CC3D
  8
ALPHA
 10
58.498303
 20
80.710903
 30
0.0
  0
VERTEX
  5
CC3E
  8
ALPHA
 10
58.221584
 20
80.477574
 30
0.0
  0
VERTEX
  5
CC3F
  8
ALPHA
 10
58.112882
 20
80.132072
 30
0.0
  0
SEQEND
  5
CC40
  8
ALPHA
  0
POLYLINE
  5
BF16
  8
ALPHA
 66
     1
 10
0.0
 20
0.0
 30
0.0
 70
   128
  0
VERTEX
  5
CC41
  8
ALPHA
 10
59.207852
 20
82.167093
 30
0.0
  0
VERTEX
  5
CC42
  8
ALPHA
 10
58.497146
 20
82.010383
 30
0.0
  0
VERTEX
  5
CC43
  8
ALPHA
 10
58.221248
 20
81.77706
 30
0.0
  0
VERTEX
  5
CC44
  8
ALPHA
 10
58.112906
 20
81.43207
 30
0.0
  0
SEQEND
  5
CC45
  8
ALPHA
  0
POLYLINE
  5
BF17
  8
ALPHA
 66
     1
 10
0.0
 20
0.0
 30
0.0
 70
   128
  0
VERTEX
  5
CC46
  8
ALPHA
 10
58.112913
 20
77.53208
 30
0.0
  0
VERTEX
  5
CC47
  8
ALPHA
 10
58.292915
 20
77.097929
 30
0.0
  0
VERTEX
  5
CC48
  8
ALPHA
 10
58.713889
 20
76.881575
 30
0.0
  0
SEQEND
  5
CC49
  8
ALPHA
  0
POLYLINE
  5
BF18
  8
ALPHA
 66
     1
 10
0.0
 20
0.0
 30
0.0
 70
   128
  0
VERTEX
  5
CC4A
  8
ALPHA
 10
58.112981
 20
78.832088
 30
0.0
  0
VERTEX
  5
CC4B
  8
ALPHA
 10
58.292464
 20
78.398387
 30
0.0
  0
VERTEX
  5
CC4C
  8
ALPHA
 10
58.71256
 20
78.181905
 30
0.0
  0
SEQEND
  5
CC4D
  8
ALPHA
  0
POLYLINE
  5
BF19
  8
ALPHA
 66
     1
 10
0.0
 20
0.0
 30
0.0
 70
   128
  0
VERTEX
  5
CC4E
  8
ALPHA
 10
58.113008
 20
80.132092
 30
0.0
  0
VERTEX
  5
CC4F
  8
ALPHA
 10
58.292806
 20
79.698018
 30
0.0
  0
VERTEX
  5
CC50
  8
ALPHA
 10
58.713491
 20
79.481679
 30
0.0
  0
SEQEND
  5
CC51
  8
ALPHA
  0
POLYLINE
  5
BF1A
  8
ALPHA
 66
     1
 10
0.0
 20
0.0
 30
0.0
 70
   128
  0
VERTEX
  5
CC52
  8
ALPHA
 10
58.113007
 20
81.432094
 30
0.0
  0
VERTEX
  5
CC53
  8
ALPHA
 10
58.292851
 20
80.997982
 30
0.0
  0
VERTEX
  5
CC54
  8
ALPHA
 10
58.713527
 20
80.781668
 30
0.0
  0
SEQEND
  5
CC55
  8
ALPHA
  0
POLYLINE
  5
BF1B
  8
ALPHA
 66
     1
 10
0.0
 20
0.0
 30
0.0
 70
   128
  0
VERTEX
  5
CC56
  8
ALPHA
 10
59.219775
 20
83.468645
 30
0.0
  0
VERTEX
  5
CC57
  8
ALPHA
 10
58.502616
 20
83.312892
 30
0.0
  0
VERTEX
  5
CC58
  8
ALPHA
 10
58.222917
 20
83.079537
 30
0.0
  0
VERTEX
  5
CC59
  8
ALPHA
 10
58.112921
 20
82.732068
 30
0.0
  0
SEQEND
  5
CC5A
  8
ALPHA
  0
POLYLINE
  5
BF1C
  8
ALPHA
 66
     1
 10
0.0
 20
0.0
 30
0.0
 70
   128
  0
VERTEX
  5
CC5B
  8
ALPHA
 10
59.137066
 20
84.757583
 30
0.0
  0
VERTEX
  5
CC5C
  8
ALPHA
 10
58.46505
 20
84.594635
 30
0.0
  0
VERTEX
  5
CC5D
  8
ALPHA
 10
58.11287
 20
84.032071
 30
0.0
  0
SEQEND
  5
CC5E
  8
ALPHA
  0
POLYLINE
  5
BF1D
  8
ALPHA
 66
     1
 10
0.0
 20
0.0
 30
0.0
 70
   128
  0
VERTEX
  5
CC5F
  8
ALPHA
 10
59.231116
 20
86.070113
 30
0.0
  0
VERTEX
  5
CC60
  8
ALPHA
 10
58.507843
 20
85.915231
 30
0.0
  0
VERTEX
  5
CC61
  8
ALPHA
 10
58.224545
 20
85.681934
 30
0.0
  0
VERTEX
  5
CC62
  8
ALPHA
 10
58.112912
 20
85.332069
 30
0.0
  0
SEQEND
  5
CC63
  8
ALPHA
  0
POLYLINE
  5
BF1E
  8
ALPHA
 66
     1
 10
0.0
 20
0.0
 30
0.0
 70
   128
  0
VERTEX
  5
CC64
  8
ALPHA
 10
58.112957
 20
82.732086
 30
0.0
  0
VERTEX
  5
CC65
  8
ALPHA
 10
58.293051
 20
82.297779
 30
0.0
  0
VERTEX
  5
CC66
  8
ALPHA
 10
58.714176
 20
82.081504
 30
0.0
  0
SEQEND
  5
CC67
  8
ALPHA
  0
POLYLINE
  5
BF1F
  8
ALPHA
 66
     1
 10
0.0
 20
0.0
 30
0.0
 70
   128
  0
VERTEX
  5
CC68
  8
ALPHA
 10
58.113028
 20
84.032094
 30
0.0
  0
VERTEX
  5
CC69
  8
ALPHA
 10
58.292639
 20
83.598187
 30
0.0
  0
VERTEX
  5
CC6A
  8
ALPHA
 10
58.712983
 20
83.381801
 30
0.0
  0
SEQEND
  5
CC6B
  8
ALPHA
  0
POLYLINE
  5
BF20
  8
ALPHA
 66
     1
 10
0.0
 20
0.0
 30
0.0
 70
   128
  0
VERTEX
  5
CC6C
  8
ALPHA
 10
58.112975
 20
85.332089
 30
0.0
  0
VERTEX
  5
CC6D
  8
ALPHA
 10
58.293306
 20
84.897512
 30
0.0
  0
VERTEX
  5
CC6E
  8
ALPHA
 10
58.714853
 20
84.681342
 30
0.0
  0
SEQEND
  5
CC6F
  8
ALPHA
  0
POLYLINE
  5
BF21
  8
ALPHA
 66
     1
 10
0.0
 20
0.0
 30
0.0
 70
   128
  0
VERTEX
  5
CC70
  8
ALPHA
 10
58.113024
 20
86.632095
 30
0.0
  0
VERTEX
  5
CC71
  8
ALPHA
 10
58.292418
 20
86.198419
 30
0.0
  0
VERTEX
  5
CC72
  8
ALPHA
 10
58.712385
 20
85.98195
 30
0.0
  0
SEQEND
  5
CC73
  8
ALPHA
  0
POLYLINE
  5
BF22
  8
ALPHA
 66
     1
 10
0.0
 20
0.0
 30
0.0
 70
   128
  0
VERTEX
  5
CC74
  8
ALPHA
 10
59.169533
 20
99.062007
 30
0.0
  0
VERTEX
  5
CC75
  8
ALPHA
 10
58.479646
 20
98.902016
 30
0.0
  0
VERTEX
  5
CC76
  8
ALPHA
 10
58.215878
 20
98.668931
 30
0.0
  0
VERTEX
  5
CC77
  8
ALPHA
 10
58.112866
 20
98.332072
 30
0.0
  0
SEQEND
  5
CC78
  8
ALPHA
  0
POLYLINE
  5
BF23
  8
ALPHA
 66
     1
 10
0.0
 20
0.0
 30
0.0
 70
   128
  0
VERTEX
  5
CC79
  8
ALPHA
 10
58.869157
 20
88.615301
 30
0.0
  0
VERTEX
  5
CC7A
  8
ALPHA
 10
58.351519
 20
88.42017
 30
0.0
  0
VERTEX
  5
CC7B
  8
ALPHA
 10
58.112963
 20
87.932063
 30
0.0
  0
SEQEND
  5
CC7C
  8
ALPHA
  0
POLYLINE
  5
BF24
  8
ALPHA
 66
     1
 10
0.0
 20
0.0
 30
0.0
 70
   128
  0
VERTEX
  5
CC7D
  8
ALPHA
 10
59.199924
 20
89.966052
 30
0.0
  0
VERTEX
  5
CC7E
  8
ALPHA
 10
58.493484
 20
89.808667
 30
0.0
  0
VERTEX
  5
CC7F
  8
ALPHA
 10
58.220098
 20
89.575352
 30
0.0
  0
VERTEX
  5
CC80
  8
ALPHA
 10
58.112881
 20
89.232072
 30
0.0
  0
SEQEND
  5
CC81
  8
ALPHA
  0
POLYLINE
  5
BF25
  8
ALPHA
 66
     1
 10
0.0
 20
0.0
 30
0.0
 70
   128
  0
VERTEX
  5
CC82
  8
ALPHA
 10
59.167119
 20
91.261684
 30
0.0
  0
VERTEX
  5
CC83
  8
ALPHA
 10
58.478552
 20
91.101478
 30
0.0
  0
VERTEX
  5
CC84
  8
ALPHA
 10
58.215545
 20
90.868419
 30
0.0
  0
VERTEX
  5
CC85
  8
ALPHA
 10
58.112865
 20
90.532074
 30
0.0
  0
SEQEND
  5
CC86
  8
ALPHA
  0
POLYLINE
  5
BF26
  8
ALPHA
 66
     1
 10
0.0
 20
0.0
 30
0.0
 70
   128
  0
VERTEX
  5
CC87
  8
ALPHA
 10
59.225656
 20
92.569408
 30
0.0
  0
VERTEX
  5
CC88
  8
ALPHA
 10
58.505311
 20
92.414095
 30
0.0
  0
VERTEX
  5
CC89
  8
ALPHA
 10
58.223748
 20
92.180773
 30
0.0
  0
VERTEX
  5
CC8A
  8
ALPHA
 10
58.1129
 20
91.832071
 30
0.0
  0
SEQEND
  5
CC8B
  8
ALPHA
  0
POLYLINE
  5
BF27
  8
ALPHA
 66
     1
 10
0.0
 20
0.0
 30
0.0
 70
   128
  0
VERTEX
  5
CC8C
  8
ALPHA
 10
58.112999
 20
87.93209
 30
0.0
  0
VERTEX
  5
CC8D
  8
ALPHA
 10
58.292921
 20
87.497908
 30
0.0
  0
VERTEX
  5
CC8E
  8
ALPHA
 10
58.713814
 20
87.281599
 30
0.0
  0
SEQEND
  5
CC8F
  8
ALPHA
  0
POLYLINE
  5
BF28
  8
ALPHA
 66
     1
 10
0.0
 20
0.0
 30
0.0
 70
   128
  0
VERTEX
  5
CC90
  8
ALPHA
 10
58.113029
 20
89.232095
 30
0.0
  0
VERTEX
  5
CC91
  8
ALPHA
 10
58.292535
 20
88.798297
 30
0.0
  0
VERTEX
  5
CC92
  8
ALPHA
 10
58.712638
 20
88.581886
 30
0.0
  0
SEQEND
  5
CC93
  8
ALPHA
  0
POLYLINE
  5
BF29
  8
ALPHA
 66
     1
 10
0.0
 20
0.0
 30
0.0
 70
   128
  0
VERTEX
  5
CC94
  8
ALPHA
 10
58.113001
 20
90.532095
 30
0.0
  0
VERTEX
  5
CC95
  8
ALPHA
 10
58.29279
 20
90.098049
 30
0.0
  0
VERTEX
  5
CC96
  8
ALPHA
 10
58.713218
 20
89.881745
 30
0.0
  0
SEQEND
  5
CC97
  8
ALPHA
  0
POLYLINE
  5
BF2A
  8
ALPHA
 66
     1
 10
0.0
 20
0.0
 30
0.0
 70
   128
  0
VERTEX
  5
CC98
  8
ALPHA
 10
58.112994
 20
91.832091
 30
0.0
  0
VERTEX
  5
CC99
  8
ALPHA
 10
58.292951
 20
91.397879
 30
0.0
  0
VERTEX
  5
CC9A
  8
ALPHA
 10
58.713913
 20
91.181575
 30
0.0
  0
SEQEND
  5
CC9B
  8
ALPHA
  0
POLYLINE
  5
BF2B
  8
ALPHA
 66
     1
 10
0.0
 20
0.0
 30
0.0
 70
   128
  0
VERTEX
  5
CC9C
  8
ALPHA
 10
59.228759
 20
93.869807
 30
0.0
  0
VERTEX
  5
CC9D
  8
ALPHA
 10
58.506733
 20
93.714725
 30
0.0
  0
VERTEX
  5
CC9E
  8
ALPHA
 10
58.224184
 20
93.481416
 30
0.0
  0
VERTEX
  5
CC9F
  8
ALPHA
 10
58.112891
 20
93.13207
 30
0.0
  0
SEQEND
  5
CCA0
  8
ALPHA
  0
POLYLINE
  5
BF2C
  8
ALPHA
 66
     1
 10
0.0
 20
0.0
 30
0.0
 70
   128
  0
VERTEX
  5
CCA1
  8
ALPHA
 10
59.225717
 20
95.169416
 30
0.0
  0
VERTEX
  5
CCA2
  8
ALPHA
 10
58.50536
 20
95.014123
 30
0.0
  0
VERTEX
  5
CCA3
  8
ALPHA
 10
58.223782
 20
94.78081
 30
0.0
  0
VERTEX
  5
CCA4
  8
ALPHA
 10
58.112915
 20
94.432068
 30
0.0
  0
SEQEND
  5
CCA5
  8
ALPHA
  0
POLYLINE
  5
BF2D
  8
ALPHA
 66
     1
 10
0.0
 20
0.0
 30
0.0
 70
   128
  0
VERTEX
  5
CCA6
  8
ALPHA
 10
59.146762
 20
96.458918
 30
0.0
  0
VERTEX
  5
CCA7
  8
ALPHA
 10
58.469382
 20
96.296878
 30
0.0
  0
VERTEX
  5
CCA8
  8
ALPHA
 10
58.112884
 20
95.732072
 30
0.0
  0
SEQEND
  5
CCA9
  8
ALPHA
  0
POLYLINE
  5
BF2E
  8
ALPHA
 66
     1
 10
0.0
 20
0.0
 30
0.0
 70
   128
  0
VERTEX
  5
CCAA
  8
ALPHA
 10
59.172076
 20
97.76235
 30
0.0
  0
VERTEX
  5
CCAB
  8
ALPHA
 10
58.480806
 20
97.602594
 30
0.0
  0
VERTEX
  5
CCAC
  8
ALPHA
 10
58.216233
 20
97.369475
 30
0.0
  0
VERTEX
  5
CCAD
  8
ALPHA
 10
58.112877
 20
97.032073
 30
0.0
  0
SEQEND
  5
CCAE
  8
ALPHA
  0
POLYLINE
  5
BF2F
  8
ALPHA
 66
     1
 10
0.0
 20
0.0
 30
0.0
 70
   128
  0
VERTEX
  5
CCAF
  8
ALPHA
 10
58.112998
 20
93.132091
 30
0.0
  0
VERTEX
  5
CCB0
  8
ALPHA
 10
58.292659
 20
92.698182
 30
0.0
  0
VERTEX
  5
CCB1
  8
ALPHA
 10
58.713013
 20
92.481792
 30
0.0
  0
SEQEND
  5
CCB2
  8
ALPHA
  0
POLYLINE
  5
BF30
  8
ALPHA
 66
     1
 10
0.0
 20
0.0
 30
0.0
 70
   128
  0
VERTEX
  5
CCB3
  8
ALPHA
 10
58.113027
 20
94.432095
 30
0.0
  0
VERTEX
  5
CCB4
  8
ALPHA
 10
58.292571
 20
93.99826
 30
0.0
  0
VERTEX
  5
CCB5
  8
ALPHA
 10
58.712764
 20
93.781856
 30
0.0
  0
SEQEND
  5
CCB6
  8
ALPHA
  0
POLYLINE
  5
BF31
  8
ALPHA
 66
     1
 10
0.0
 20
0.0
 30
0.0
 70
   128
  0
VERTEX
  5
CCB7
  8
ALPHA
 10
58.11301
 20
95.732094
 30
0.0
  0
VERTEX
  5
CCB8
  8
ALPHA
 10
58.292656
 20
95.298186
 30
0.0
  0
VERTEX
  5
CCB9
  8
ALPHA
 10
58.712973
 20
95.081804
 30
0.0
  0
SEQEND
  5
CCBA
  8
ALPHA
  0
POLYLINE
  5
BF32
  8
ALPHA
 66
     1
 10
0.0
 20
0.0
 30
0.0
 70
   128
  0
VERTEX
  5
CCBB
  8
ALPHA
 10
58.113011
 20
97.032093
 30
0.0
  0
VERTEX
  5
CCBC
  8
ALPHA
 10
58.292745
 20
96.598081
 30
0.0
  0
VERTEX
  5
CCBD
  8
ALPHA
 10
58.713329
 20
96.381718
 30
0.0
  0
SEQEND
  5
CCBE
  8
ALPHA
  0
POLYLINE
  5
BF33
  8
ALPHA
 66
     1
 10
0.0
 20
0.0
 30
0.0
 70
   128
  0
VERTEX
  5
CCBF
  8
ALPHA
 10
58.113006
 20
98.332091
 30
0.0
  0
VERTEX
  5
CCC0
  8
ALPHA
 10
58.292746
 20
97.89808
 30
0.0
  0
VERTEX
  5
CCC1
  8
ALPHA
 10
58.713326
 20
97.681718
 30
0.0
  0
SEQEND
  5
CCC2
  8
ALPHA
  0
LINE
  5
BF34
  8
ALPHA
 10
62.533037
 20
92.878507
 30
0.0
 11
59.225656
 21
92.569408
 31
0.0
  0
LINE
  5
BF35
  8
ALPHA
 10
62.512921
 20
91.576428
 30
0.0
 11
59.167119
 21
91.261684
 31
0.0
  0
LINE
  5
BF36
  8
ALPHA
 10
58.990101
 20
91.321418
 30
0.0
 11
62.575191
 21
91.685565
 31
0.0
  0
LINE
  5
BF37
  8
ALPHA
 10
59.045115
 20
88.644379
 30
0.0
 11
58.869157
 21
88.615301
 31
0.0
  0
LINE
  5
BF38
  8
ALPHA
 10
58.989978
 20
92.621432
 30
0.0
 11
62.365571
 21
92.964999
 31
0.0
  0
LINE
  5
BF39
  8
ALPHA
 10
60.146984
 20
96.566649
 30
0.0
 11
59.146762
 21
96.458918
 31
0.0
  0
LINE
  5
BF3A
  8
ALPHA
 10
60.467167
 20
96.595274
 30
0.0
 11
60.146984
 21
96.566649
 31
0.0
  0
LINE
  5
BF3B
  8
ALPHA
 10
60.286761
 20
97.879314
 30
0.0
 11
59.172076
 21
97.76235
 31
0.0
  0
LINE
  5
BF3C
  8
ALPHA
 10
58.990143
 20
96.52146
 30
0.0
 11
60.3012
 21
96.68485
 31
0.0
  0
LINE
  5
BF3D
  8
ALPHA
 10
60.17915
 20
97.973602
 30
0.0
 11
60.419274
 21
97.995496
 31
0.0
  0
LINE
  5
BF3E
  8
ALPHA
 10
58.989588
 20
97.821398
 30
0.0
 11
60.17915
 21
97.973602
 31
0.0
  0
POLYLINE
  5
BF3F
  8
ALPHA
 66
     1
 10
0.0
 20
0.0
 30
0.0
 70
   128
  0
VERTEX
  5
CCC3
  8
ALPHA
 10
59.226813
 20
100.369557
 30
0.0
  0
VERTEX
  5
CCC4
  8
ALPHA
 10
58.505842
 20
100.21433
 30
0.0
  0
VERTEX
  5
CCC5
  8
ALPHA
 10
58.223913
 20
99.981016
 30
0.0
  0
VERTEX
  5
CCC6
  8
ALPHA
 10
58.112895
 20
99.63207
 30
0.0
  0
SEQEND
  5
CCC7
  8
ALPHA
  0
POLYLINE
  5
BF40
  8
ALPHA
 66
     1
 10
0.0
 20
0.0
 30
0.0
 70
   128
  0
VERTEX
  5
CCC8
  8
ALPHA
 10
59.176987
 20
101.663009
 30
0.0
  0
VERTEX
  5
CCC9
  8
ALPHA
 10
58.483051
 20
101.503697
 30
0.0
  0
VERTEX
  5
CCCA
  8
ALPHA
 10
58.216927
 20
101.270532
 30
0.0
  0
VERTEX
  5
CCCB
  8
ALPHA
 10
58.11289
 20
100.932072
 30
0.0
  0
SEQEND
  5
CCCC
  8
ALPHA
  0
POLYLINE
  5
BF41
  8
ALPHA
 66
     1
 10
0.0
 20
0.0
 30
0.0
 70
   128
  0
VERTEX
  5
CCCD
  8
ALPHA
 10
58.601598
 20
102.850957
 30
0.0
  0
VERTEX
  5
CCCE
  8
ALPHA
 10
58.254458
 20
102.622395
 30
0.0
  0
VERTEX
  5
CCCF
  8
ALPHA
 10
58.112884
 20
102.232071
 30
0.0
  0
SEQEND
  5
CCD0
  8
ALPHA
  0
POLYLINE
  5
BF42
  8
ALPHA
 66
     1
 10
0.0
 20
0.0
 30
0.0
 70
   128
  0
VERTEX
  5
CCD1
  8
ALPHA
 10
58.113005
 20
99.632092
 30
0.0
  0
VERTEX
  5
CCD2
  8
ALPHA
 10
58.293123
 20
99.197698
 30
0.0
  0
VERTEX
  5
CCD3
  8
ALPHA
 10
58.714294
 20
98.981479
 30
0.0
  0
SEQEND
  5
CCD4
  8
ALPHA
  0
POLYLINE
  5
BF43
  8
ALPHA
 66
     1
 10
0.0
 20
0.0
 30
0.0
 70
   128
  0
VERTEX
  5
CCD5
  8
ALPHA
 10
58.112978
 20
100.932089
 30
0.0
  0
VERTEX
  5
CCD6
  8
ALPHA
 10
58.292574
 20
100.498274
 30
0.0
  0
VERTEX
  5
CCD7
  8
ALPHA
 10
58.712878
 20
100.281828
 30
0.0
  0
SEQEND
  5
CCD8
  8
ALPHA
  0
POLYLINE
  5
BF44
  8
ALPHA
 66
     1
 10
0.0
 20
0.0
 30
0.0
 70
   128
  0
VERTEX
  5
CCD9
  8
ALPHA
 10
58.112983
 20
102.232089
 30
0.0
  0
VERTEX
  5
CCDA
  8
ALPHA
 10
58.292897
 20
101.797936
 30
0.0
  0
VERTEX
  5
CCDB
  8
ALPHA
 10
58.713773
 20
101.581609
 30
0.0
  0
SEQEND
  5
CCDC
  8
ALPHA
  0
POLYLINE
  5
BF45
  8
ALPHA
 66
     1
 10
0.0
 20
0.0
 30
0.0
 70
   128
  0
VERTEX
  5
CCDD
  8
ALPHA
 10
59.201129
 20
104.26621
 30
0.0
  0
VERTEX
  5
CCDE
  8
ALPHA
 10
58.493991
 20
104.10892
 30
0.0
  0
VERTEX
  5
CCDF
  8
ALPHA
 10
58.220314
 20
103.875575
 30
0.0
  0
VERTEX
  5
CCE0
  8
ALPHA
 10
58.113113
 20
103.532049
 30
0.0
  0
SEQEND
  5
CCE1
  8
ALPHA
  0
POLYLINE
  5
BF46
  8
ALPHA
 66
     1
 10
0.0
 20
0.0
 30
0.0
 70
   128
  0
VERTEX
  5
CCE2
  8
ALPHA
 10
59.186066
 20
105.56422
 30
0.0
  0
VERTEX
  5
CCE3
  8
ALPHA
 10
58.487219
 20
105.405723
 30
0.0
  0
VERTEX
  5
CCE4
  8
ALPHA
 10
58.218245
 20
105.172488
 30
0.0
  0
VERTEX
  5
CCE5
  8
ALPHA
 10
58.112993
 20
104.83206
 30
0.0
  0
SEQEND
  5
CCE6
  8
ALPHA
  0
POLYLINE
  5
BF47
  8
ALPHA
 66
     1
 10
0.0
 20
0.0
 30
0.0
 70
   128
  0
VERTEX
  5
CCE7
  8
ALPHA
 10
59.147189
 20
106.858976
 30
0.0
  0
VERTEX
  5
CCE8
  8
ALPHA
 10
58.469623
 20
106.697006
 30
0.0
  0
VERTEX
  5
CCE9
  8
ALPHA
 10
58.112984
 20
106.132061
 30
0.0
  0
SEQEND
  5
CCEA
  8
ALPHA
  0
POLYLINE
  5
BF48
  8
ALPHA
 66
     1
 10
0.0
 20
0.0
 30
0.0
 70
   128
  0
VERTEX
  5
CCEB
  8
ALPHA
 10
58.112974
 20
103.532088
 30
0.0
  0
VERTEX
  5
CCEC
  8
ALPHA
 10
58.284655
 20
103.106678
 30
0.0
  0
VERTEX
  5
CCED
  8
ALPHA
 10
58.690448
 20
102.887461
 30
0.0
  0
SEQEND
  5
CCEE
  8
ALPHA
  0
POLYLINE
  5
BF49
  8
ALPHA
 66
     1
 10
0.0
 20
0.0
 30
0.0
 70
   128
  0
VERTEX
  5
CCEF
  8
ALPHA
 10
58.113024
 20
104.832094
 30
0.0
  0
VERTEX
  5
CCF0
  8
ALPHA
 10
58.292432
 20
104.398405
 30
0.0
  0
VERTEX
  5
CCF1
  8
ALPHA
 10
58.712408
 20
104.181943
 30
0.0
  0
SEQEND
  5
CCF2
  8
ALPHA
  0
POLYLINE
  5
BF4A
  8
ALPHA
 66
     1
 10
0.0
 20
0.0
 30
0.0
 70
   128
  0
VERTEX
  5
CCF3
  8
ALPHA
 10
58.112988
 20
106.13209
 30
0.0
  0
VERTEX
  5
CCF4
  8
ALPHA
 10
58.292598
 20
105.698248
 30
0.0
  0
VERTEX
  5
CCF5
  8
ALPHA
 10
58.712933
 20
105.481815
 30
0.0
  0
SEQEND
  5
CCF6
  8
ALPHA
  0
POLYLINE
  5
BF4B
  8
ALPHA
 66
     1
 10
0.0
 20
0.0
 30
0.0
 70
   128
  0
VERTEX
  5
CCF7
  8
ALPHA
 10
59.188504
 20
108.164543
 30
0.0
  0
VERTEX
  5
CCF8
  8
ALPHA
 10
58.488268
 20
108.006197
 30
0.0
  0
VERTEX
  5
CCF9
  8
ALPHA
 10
58.218505
 20
107.772949
 30
0.0
  0
VERTEX
  5
CCFA
  8
ALPHA
 10
58.112871
 20
107.432073
 30
0.0
  0
SEQEND
  5
CCFB
  8
ALPHA
  0
POLYLINE
  5
BF4C
  8
ALPHA
 66
     1
 10
0.0
 20
0.0
 30
0.0
 70
   128
  0
VERTEX
  5
CCFC
  8
ALPHA
 10
59.174573
 20
109.462684
 30
0.0
  0
VERTEX
  5
CCFD
  8
ALPHA
 10
58.481963
 20
109.303165
 30
0.0
  0
VERTEX
  5
CCFE
  8
ALPHA
 10
58.216606
 20
109.070038
 30
0.0
  0
VERTEX
  5
CCFF
  8
ALPHA
 10
58.112886
 20
108.73207
 30
0.0
  0
SEQEND
  5
CD00
  8
ALPHA
  0
POLYLINE
  5
BF4D
  8
ALPHA
 66
     1
 10
0.0
 20
0.0
 30
0.0
 70
   128
  0
VERTEX
  5
CD01
  8
ALPHA
 10
58.112985
 20
107.432089
 30
0.0
  0
VERTEX
  5
CD02
  8
ALPHA
 10
58.29286
 20
106.997974
 30
0.0
  0
VERTEX
  5
CD03
  8
ALPHA
 10
58.713627
 20
106.781643
 30
0.0
  0
SEQEND
  5
CD04
  8
ALPHA
  0
POLYLINE
  5
BF4E
  8
ALPHA
 66
     1
 10
0.0
 20
0.0
 30
0.0
 70
   128
  0
VERTEX
  5
CD05
  8
ALPHA
 10
58.112977
 20
108.732092
 30
0.0
  0
VERTEX
  5
CD06
  8
ALPHA
 10
58.293285
 20
108.297537
 30
0.0
  0
VERTEX
  5
CD07
  8
ALPHA
 10
58.714485
 20
108.08143
 30
0.0
  0
SEQEND
  5
CD08
  8
ALPHA
  0
LINE
  5
BF4F
  8
ALPHA
 10
58.892182
 20
102.919479
 30
0.0
 11
58.595996
 21
102.849111
 31
0.0
  0
LINE
  5
BF50
  8
ALPHA
 10
59.125887
 20
102.956034
 30
0.0
 11
58.892182
 21
102.919479
 31
0.0
  0
LINE
  5
BF51
  8
ALPHA
 10
58.690448
 20
102.887461
 30
0.0
 11
58.714844
 21
102.881342
 31
0.0
  0
LINE
  5
BF52
  8
ALPHA
 10
59.351243
 20
106.885006
 30
0.0
 11
59.147189
 21
106.858976
 31
0.0
  0
POLYLINE
  5
BF53
  8
ALPHA
 66
     1
 10
0.0
 20
0.0
 30
0.0
 70
   128
  0
VERTEX
  5
CD09
  8
ALPHA
 10
63.155649
 20
63.152114
 30
0.0
  0
VERTEX
  5
CD0A
  8
ALPHA
 10
63.845696
 20
63.312089
 30
0.0
  0
VERTEX
  5
CD0B
  8
ALPHA
 10
64.109488
 20
63.545238
 30
0.0
  0
VERTEX
  5
CD0C
  8
ALPHA
 10
64.212418
 20
63.882089
 30
0.0
  0
SEQEND
  5
CD0D
  8
ALPHA
  0
ARC
  5
BF54
  8
ALPHA
 10
64.162701
 20
42.282076
 30
0.0
 40
4.0
 50
295.869732
 51
88.623278
  0
LINE
  5
BF55
  8
ALPHA
 10
67.862701
 20
30.282076
 30
0.0
 11
67.862701
 21
28.132076
 31
0.0
  0
LINE
  5
BF56
  8
ALPHA
 10
64.340305
 20
30.282076
 30
0.0
 11
64.340305
 21
28.132076
 31
0.0
  0
LINE
  5
BF57
  8
ALPHA
 10
64.235349
 20
30.282076
 30
0.0
 11
64.235349
 21
28.132076
 31
0.0
  0
LINE
  5
BF58
  8
ALPHA
 10
64.211102
 20
28.132076
 30
0.0
 11
64.211102
 21
30.282076
 31
0.0
  0
LINE
  5
BF59
  8
ALPHA
 10
64.09042
 20
28.132076
 30
0.0
 11
64.09042
 21
30.282076
 31
0.0
  0
LINE
  5
BF5A
  8
ALPHA
 10
63.898136
 20
28.132076
 30
0.0
 11
63.898136
 21
30.282076
 31
0.0
  0
LINE
  5
BF5B
  8
ALPHA
 10
63.689087
 20
28.132076
 30
0.0
 11
63.689087
 21
30.282076
 31
0.0
  0
LINE
  5
BF5C
  8
ALPHA
 10
63.279246
 20
28.132076
 30
0.0
 11
63.279246
 21
30.282076
 31
0.0
  0
LINE
  5
BF5D
  8
ALPHA
 10
63.086696
 20
28.132076
 30
0.0
 11
63.086696
 21
30.282076
 31
0.0
  0
LINE
  5
BF5E
  8
ALPHA
 10
62.705375
 20
30.282076
 30
0.0
 11
62.705375
 21
28.132076
 31
0.0
  0
LINE
  5
BF5F
  8
ALPHA
 10
66.662701
 20
28.132076
 30
0.0
 11
66.662701
 21
26.832076
 31
0.0
  0
LINE
  5
BF60
  8
ALPHA
 10
67.512701
 20
23.682076
 30
0.0
 11
67.212701
 21
22.682076
 31
0.0
  0
ARC
  5
BF61
  8
ALPHA
 10
67.162701
 20
25.082076
 30
0.0
 40
0.5
 50
270.0
 51
90.0
  0
LINE
  5
BF62
  8
ALPHA
 10
67.512701
 20
24.482076
 30
0.0
 11
67.512701
 21
23.682076
 31
0.0
  0
LINE
  5
BF63
  8
ALPHA
 10
67.512701
 20
26.832076
 30
0.0
 11
67.512701
 21
25.682076
 31
0.0
  0
LINE
  5
BF64
  8
ALPHA
 10
66.762701
 20
24.582076
 30
0.0
 11
66.762701
 21
24.482076
 31
0.0
  0
LINE
  5
BF65
  8
ALPHA
 10
66.762701
 20
25.682076
 30
0.0
 11
66.762701
 21
25.582076
 31
0.0
  0
ARC
  5
BF66
  8
ALPHA
 10
66.252708
 20
37.972083
 30
0.0
 40
0.790007
 50
115.869732
 51
270.0
  0
LINE
  5
BF67
  8
ALPHA
 10
68.662701
 20
33.882076
 30
0.0
 11
68.662701
 21
36.082076
 31
0.0
  0
LINE
  5
BF68
  8
ALPHA
 10
69.162701
 20
31.282076
 30
0.0
 11
68.662701
 21
31.782076
 31
0.0
  0
ARC
  5
BF69
  8
ALPHA
 10
68.162701
 20
33.082076
 30
0.0
 40
0.6
 50
216.035534
 51
270.0
  0
ARC
  5
BF6A
  8
ALPHA
 10
68.162701
 20
33.082076
 30
0.0
 40
0.6
 50
90.0
 51
143.964466
  0
ARC
  5
BF6B
  8
ALPHA
 10
68.462701
 20
31.982076
 30
0.0
 40
0.2
 50
270.0
 51
0.0
  0
ARC
  5
BF6C
  8
ALPHA
 10
68.462701
 20
32.282076
 30
0.0
 40
0.2
 50
0.0
 51
90.0
  0
ARC
  5
BF6D
  8
ALPHA
 10
68.462701
 20
33.882076
 30
0.0
 40
0.2
 50
270.0
 51
0.0
  0
ARC
  5
BF6E
  8
ALPHA
 10
67.912701
 20
33.082076
 30
0.0
 40
0.35
 50
270.0
 51
90.0
  0
LINE
  5
BF6F
  8
ALPHA
 10
68.662701
 20
31.982076
 30
0.0
 11
68.662701
 21
32.282076
 31
0.0
  0
LINE
  5
BF70
  8
ALPHA
 10
69.162701
 20
30.282076
 30
0.0
 11
69.162701
 21
31.282076
 31
0.0
  0
ARC
  5
BF71
  8
ALPHA
 10
67.562701
 20
36.082076
 30
0.0
 40
1.1
 50
0.0
 51
90.0
  0
POLYLINE
  5
BF72
  8
ALPHA
 66
     1
 10
0.0
 20
0.0
 30
0.0
 70
   128
  0
VERTEX
  5
CD0E
  8
ALPHA
 10
63.121508
 20
51.447579
 30
0.0
  0
VERTEX
  5
CD0F
  8
ALPHA
 10
63.830125
 20
51.604632
 30
0.0
  0
VERTEX
  5
CD10
  8
ALPHA
 10
64.104716
 20
51.838001
 30
0.0
  0
VERTEX
  5
CD11
  8
ALPHA
 10
64.212394
 20
52.182093
 30
0.0
  0
SEQEND
  5
CD12
  8
ALPHA
  0
POLYLINE
  5
BF73
  8
ALPHA
 66
     1
 10
0.0
 20
0.0
 30
0.0
 70
   128
  0
VERTEX
  5
CD13
  8
ALPHA
 10
63.114461
 20
50.146657
 30
0.0
  0
VERTEX
  5
CD14
  8
ALPHA
 10
63.826921
 20
50.303159
 30
0.0
  0
VERTEX
  5
CD15
  8
ALPHA
 10
64.103744
 20
50.536538
 30
0.0
  0
VERTEX
  5
CD16
  8
ALPHA
 10
64.212415
 20
50.882091
 30
0.0
  0
SEQEND
  5
CD17
  8
ALPHA
  0
POLYLINE
  5
BF74
  8
ALPHA
 66
     1
 10
0.0
 20
0.0
 30
0.0
 70
   128
  0
VERTEX
  5
CD18
  8
ALPHA
 10
63.16423
 20
48.853273
 30
0.0
  0
VERTEX
  5
CD19
  8
ALPHA
 10
63.849578
 20
49.014016
 30
0.0
  0
VERTEX
  5
CD1A
  8
ALPHA
 10
64.110666
 20
49.24706
 30
0.0
  0
VERTEX
  5
CD1B
  8
ALPHA
 10
64.212422
 20
49.582089
 30
0.0
  0
SEQEND
  5
CD1C
  8
ALPHA
  0
POLYLINE
  5
BF75
  8
ALPHA
 66
     1
 10
0.0
 20
0.0
 30
0.0
 70
   128
  0
VERTEX
  5
CD1D
  8
ALPHA
 10
63.106846
 20
47.545664
 30
0.0
  0
VERTEX
  5
CD1E
  8
ALPHA
 10
63.823427
 20
47.701557
 30
0.0
  0
VERTEX
  5
CD1F
  8
ALPHA
 10
64.102676
 20
47.93495
 30
0.0
  0
VERTEX
  5
CD20
  8
ALPHA
 10
64.212407
 20
48.282089
 30
0.0
  0
SEQEND
  5
CD21
  8
ALPHA
  0
POLYLINE
  5
BF76
  8
ALPHA
 66
     1
 10
0.0
 20
0.0
 30
0.0
 70
   128
  0
VERTEX
  5
CD22
  8
ALPHA
 10
64.212484
 20
50.882069
 30
0.0
  0
VERTEX
  5
CD23
  8
ALPHA
 10
64.032888
 20
51.31583
 30
0.0
  0
VERTEX
  5
CD24
  8
ALPHA
 10
63.612829
 20
51.53225
 30
0.0
  0
SEQEND
  5
CD25
  8
ALPHA
  0
POLYLINE
  5
BF77
  8
ALPHA
 66
     1
 10
0.0
 20
0.0
 30
0.0
 70
   128
  0
VERTEX
  5
CD26
  8
ALPHA
 10
64.212529
 20
49.582072
 30
0.0
  0
VERTEX
  5
CD27
  8
ALPHA
 10
64.032361
 20
50.016358
 30
0.0
  0
VERTEX
  5
CD28
  8
ALPHA
 10
63.611365
 20
50.232613
 30
0.0
  0
SEQEND
  5
CD29
  8
ALPHA
  0
POLYLINE
  5
BF78
  8
ALPHA
 66
     1
 10
0.0
 20
0.0
 30
0.0
 70
   128
  0
VERTEX
  5
CD2A
  8
ALPHA
 10
64.212535
 20
48.282072
 30
0.0
  0
VERTEX
  5
CD2B
  8
ALPHA
 10
64.032094
 20
48.716635
 30
0.0
  0
VERTEX
  5
CD2C
  8
ALPHA
 10
63.61064
 20
48.932789
 30
0.0
  0
SEQEND
  5
CD2D
  8
ALPHA
  0
LINE
  5
BF79
  8
ALPHA
 10
64.131834
 20
47.282073
 30
0.0
 11
63.612065
 21
47.632441
 31
0.0
  0
ARC
  5
BF7A
  8
ALPHA
 10
64.26361
 20
46.480864
 30
0.0
 40
0.2
 50
216.869898
 51
268.623278
  0
LINE
  5
BF7B
  8
ALPHA
 10
63.162701
 20
47.55351
 30
0.0
 11
63.162701
 21
47.457608
 31
0.0
  0
LINE
  5
BF7C
  8
ALPHA
 10
63.162701
 20
48.85308
 30
0.0
 11
63.162701
 21
48.757759
 31
0.0
  0
LINE
  5
BF7D
  8
ALPHA
 10
63.162701
 20
50.153477
 30
0.0
 11
63.162701
 21
50.057805
 31
0.0
  0
LINE
  5
BF7E
  8
ALPHA
 10
63.162701
 20
51.453433
 30
0.0
 11
63.162701
 21
51.357634
 31
0.0
  0
LINE
  5
BF7F
  8
ALPHA
 10
64.10361
 20
46.360864
 30
0.0
 11
63.412701
 21
47.282076
 31
0.0
  0
POLYLINE
  5
BF80
  8
ALPHA
 66
     1
 10
0.0
 20
0.0
 30
0.0
 70
   128
  0
VERTEX
  5
CD2E
  8
ALPHA
 10
64.212532
 20
57.382073
 30
0.0
  0
VERTEX
  5
CD2F
  8
ALPHA
 10
64.032327
 20
57.816392
 30
0.0
  0
VERTEX
  5
CD30
  8
ALPHA
 10
63.611265
 20
58.032637
 30
0.0
  0
SEQEND
  5
CD31
  8
ALPHA
  0
POLYLINE
  5
BF81
  8
ALPHA
 66
     1
 10
0.0
 20
0.0
 30
0.0
 70
   128
  0
VERTEX
  5
CD32
  8
ALPHA
 10
63.417572
 20
56.691906
 30
0.0
  0
VERTEX
  5
CD33
  8
ALPHA
 10
63.958536
 20
56.881755
 30
0.0
  0
VERTEX
  5
CD34
  8
ALPHA
 10
64.21258
 20
57.382073
 30
0.0
  0
SEQEND
  5
CD35
  8
ALPHA
  0
LINE
  5
BF82
  8
ALPHA
 10
63.143063
 20
56.650429
 30
0.0
 11
63.418126
 21
56.691991
 31
0.0
  0
POLYLINE
  5
BF83
  8
ALPHA
 66
     1
 10
0.0
 20
0.0
 30
0.0
 70
   128
  0
VERTEX
  5
CD36
  8
ALPHA
 10
63.148537
 20
55.351161
 30
0.0
  0
VERTEX
  5
CD37
  8
ALPHA
 10
63.84244
 20
55.510491
 30
0.0
  0
VERTEX
  5
CD38
  8
ALPHA
 10
64.108485
 20
55.743709
 30
0.0
  0
VERTEX
  5
CD39
  8
ALPHA
 10
64.212393
 20
56.082094
 30
0.0
  0
SEQEND
  5
CD3A
  8
ALPHA
  0
POLYLINE
  5
BF84
  8
ALPHA
 66
     1
 10
0.0
 20
0.0
 30
0.0
 70
   128
  0
VERTEX
  5
CD3B
  8
ALPHA
 10
63.292195
 20
54.071565
 30
0.0
  0
VERTEX
  5
CD3C
  8
ALPHA
 10
63.906051
 20
54.245604
 30
0.0
  0
VERTEX
  5
CD3D
  8
ALPHA
 10
64.21238
 20
54.782094
 30
0.0
  0
SEQEND
  5
CD3E
  8
ALPHA
  0
POLYLINE
  5
BF85
  8
ALPHA
 66
     1
 10
0.0
 20
0.0
 30
0.0
 70
   128
  0
VERTEX
  5
CD3F
  8
ALPHA
 10
63.634421
 20
52.837324
 30
0.0
  0
VERTEX
  5
CD40
  8
ALPHA
 10
64.040548
 20
53.056463
 30
0.0
  0
VERTEX
  5
CD41
  8
ALPHA
 10
64.212416
 20
53.482089
 30
0.0
  0
SEQEND
  5
CD42
  8
ALPHA
  0
LINE
  5
BF86
  8
ALPHA
 10
63.336608
 20
52.778445
 30
0.0
 11
63.634421
 21
52.837324
 31
0.0
  0
LINE
  5
BF87
  8
ALPHA
 10
63.148687
 20
52.751179
 30
0.0
 11
63.336608
 21
52.778445
 31
0.0
  0
POLYLINE
  5
BF88
  8
ALPHA
 66
     1
 10
0.0
 20
0.0
 30
0.0
 70
   128
  0
VERTEX
  5
CD43
  8
ALPHA
 10
64.212638
 20
54.78208
 30
0.0
  0
VERTEX
  5
CD44
  8
ALPHA
 10
64.032042
 20
55.216668
 30
0.0
  0
VERTEX
  5
CD45
  8
ALPHA
 10
63.610451
 20
55.432837
 30
0.0
  0
SEQEND
  5
CD46
  8
ALPHA
  0
LINE
  5
BF89
  8
ALPHA
 10
63.625296
 20
56.729153
 30
0.0
 11
63.612211
 21
56.732403
 31
0.0
  0
POLYLINE
  5
BF8A
  8
ALPHA
 66
     1
 10
0.0
 20
0.0
 30
0.0
 70
   128
  0
VERTEX
  5
CD47
  8
ALPHA
 10
64.212523
 20
56.082073
 30
0.0
  0
VERTEX
  5
CD48
  8
ALPHA
 10
64.03734
 20
56.511124
 30
0.0
  0
VERTEX
  5
CD49
  8
ALPHA
 10
63.625296
 20
56.729153
 30
0.0
  0
SEQEND
  5
CD4A
  8
ALPHA
  0
POLYLINE
  5
BF8B
  8
ALPHA
 66
     1
 10
0.0
 20
0.0
 30
0.0
 70
   128
  0
VERTEX
  5
CD4B
  8
ALPHA
 10
64.212522
 20
53.482071
 30
0.0
  0
VERTEX
  5
CD4C
  8
ALPHA
 10
64.032696
 20
53.916012
 30
0.0
  0
VERTEX
  5
CD4D
  8
ALPHA
 10
63.612335
 20
54.132373
 30
0.0
  0
SEQEND
  5
CD4E
  8
ALPHA
  0
LINE
  5
BF8C
  8
ALPHA
 10
63.303503
 20
56.584287
 30
0.0
 11
63.236718
 21
56.570431
 31
0.0
  0
LINE
  5
BF8D
  8
ALPHA
 10
63.335288
 20
56.5927
 30
0.0
 11
63.303503
 21
56.584287
 31
0.0
  0
POLYLINE
  5
BF8E
  8
ALPHA
 66
     1
 10
0.0
 20
0.0
 30
0.0
 70
   128
  0
VERTEX
  5
CD4F
  8
ALPHA
 10
64.212497
 20
52.18207
 30
0.0
  0
VERTEX
  5
CD50
  8
ALPHA
 10
64.032564
 20
52.616157
 30
0.0
  0
VERTEX
  5
CD51
  8
ALPHA
 10
63.611928
 20
52.83247
 30
0.0
  0
SEQEND
  5
CD52
  8
ALPHA
  0
LINE
  5
BF8F
  8
ALPHA
 10
62.816798
 20
52.610211
 30
0.0
 11
62.781384
 21
52.707508
 31
0.0
  0
POLYLINE
  5
BF90
  8
ALPHA
 66
     1
 10
0.0
 20
0.0
 30
0.0
 70
   128
  0
VERTEX
  5
CD53
  8
ALPHA
 10
63.126772
 20
61.84827
 30
0.0
  0
VERTEX
  5
CD54
  8
ALPHA
 10
63.832566
 20
62.005805
 30
0.0
  0
VERTEX
  5
CD55
  8
ALPHA
 10
64.10553
 20
62.239143
 30
0.0
  0
VERTEX
  5
CD56
  8
ALPHA
 10
64.212529
 20
62.582078
 30
0.0
  0
SEQEND
  5
CD57
  8
ALPHA
  0
POLYLINE
  5
BF91
  8
ALPHA
 66
     1
 10
0.0
 20
0.0
 30
0.0
 70
   128
  0
VERTEX
  5
CD58
  8
ALPHA
 10
64.212509
 20
62.58207
 30
0.0
  0
VERTEX
  5
CD59
  8
ALPHA
 10
64.032285
 20
63.016445
 30
0.0
  0
VERTEX
  5
CD5A
  8
ALPHA
 10
63.611217
 20
63.232646
 30
0.0
  0
SEQEND
  5
CD5B
  8
ALPHA
  0
POLYLINE
  5
BF92
  8
ALPHA
 66
     1
 10
0.0
 20
0.0
 30
0.0
 70
   128
  0
VERTEX
  5
CD5C
  8
ALPHA
 10
63.177513
 20
60.555082
 30
0.0
  0
VERTEX
  5
CD5D
  8
ALPHA
 10
63.85557
 20
60.717047
 30
0.0
  0
VERTEX
  5
CD5E
  8
ALPHA
 10
64.212431
 20
61.282089
 30
0.0
  0
SEQEND
  5
CD5F
  8
ALPHA
  0
POLYLINE
  5
BF93
  8
ALPHA
 66
     1
 10
0.0
 20
0.0
 30
0.0
 70
   128
  0
VERTEX
  5
CD60
  8
ALPHA
 10
63.124154
 20
59.247926
 30
0.0
  0
VERTEX
  5
CD61
  8
ALPHA
 10
63.831337
 20
59.405197
 30
0.0
  0
VERTEX
  5
CD62
  8
ALPHA
 10
64.105089
 20
59.638559
 30
0.0
  0
VERTEX
  5
CD63
  8
ALPHA
 10
64.212396
 20
59.982093
 30
0.0
  0
SEQEND
  5
CD64
  8
ALPHA
  0
POLYLINE
  5
BF94
  8
ALPHA
 66
     1
 10
0.0
 20
0.0
 30
0.0
 70
   128
  0
VERTEX
  5
CD65
  8
ALPHA
 10
63.117214
 20
57.947015
 30
0.0
  0
VERTEX
  5
CD66
  8
ALPHA
 10
63.828185
 20
58.10374
 30
0.0
  0
VERTEX
  5
CD67
  8
ALPHA
 10
64.104133
 20
58.337116
 30
0.0
  0
VERTEX
  5
CD68
  8
ALPHA
 10
64.212416
 20
58.682089
 30
0.0
  0
SEQEND
  5
CD69
  8
ALPHA
  0
POLYLINE
  5
BF95
  8
ALPHA
 66
     1
 10
0.0
 20
0.0
 30
0.0
 70
   128
  0
VERTEX
  5
CD6A
  8
ALPHA
 10
64.212498
 20
61.282071
 30
0.0
  0
VERTEX
  5
CD6B
  8
ALPHA
 10
64.032715
 20
61.715998
 30
0.0
  0
VERTEX
  5
CD6C
  8
ALPHA
 10
63.612289
 20
61.932382
 30
0.0
  0
SEQEND
  5
CD6D
  8
ALPHA
  0
POLYLINE
  5
BF96
  8
ALPHA
 66
     1
 10
0.0
 20
0.0
 30
0.0
 70
   128
  0
VERTEX
  5
CD6E
  8
ALPHA
 10
64.212503
 20
59.98207
 30
0.0
  0
VERTEX
  5
CD6F
  8
ALPHA
 10
64.032117
 20
60.41662
 30
0.0
  0
VERTEX
  5
CD70
  8
ALPHA
 10
63.610714
 20
60.632771
 30
0.0
  0
SEQEND
  5
CD71
  8
ALPHA
  0
POLYLINE
  5
BF97
  8
ALPHA
 66
     1
 10
0.0
 20
0.0
 30
0.0
 70
   128
  0
VERTEX
  5
CD72
  8
ALPHA
 10
64.212485
 20
58.682068
 30
0.0
  0
VERTEX
  5
CD73
  8
ALPHA
 10
64.032867
 20
59.115849
 30
0.0
  0
VERTEX
  5
CD74
  8
ALPHA
 10
63.612769
 20
59.332263
 30
0.0
  0
SEQEND
  5
CD75
  8
ALPHA
  0
LINE
  5
BF98
  8
ALPHA
 10
63.329684
 20
57.889961
 30
0.0
 11
63.239408
 21
57.871177
 31
0.0
  0
POLYLINE
  5
BF99
  8
ALPHA
 66
     1
 10
0.0
 20
0.0
 30
0.0
 70
   128
  0
VERTEX
  5
CD76
  8
ALPHA
 10
63.155203
 20
86.552055
 30
0.0
  0
VERTEX
  5
CD77
  8
ALPHA
 10
63.845478
 20
86.712017
 30
0.0
  0
VERTEX
  5
CD78
  8
ALPHA
 10
64.109435
 20
86.945099
 30
0.0
  0
VERTEX
  5
CD79
  8
ALPHA
 10
64.212526
 20
87.28197
 30
0.0
  0
SEQEND
  5
CD7A
  8
ALPHA
  0
POLYLINE
  5
BF9A
  8
ALPHA
 66
     1
 10
0.0
 20
0.0
 30
0.0
 70
   128
  0
VERTEX
  5
CD7B
  8
ALPHA
 10
63.13558
 20
74.849435
 30
0.0
  0
VERTEX
  5
CD7C
  8
ALPHA
 10
63.836586
 20
75.007684
 30
0.0
  0
VERTEX
  5
CD7D
  8
ALPHA
 10
64.106711
 20
75.240992
 30
0.0
  0
VERTEX
  5
CD7E
  8
ALPHA
 10
64.212427
 20
75.582089
 30
0.0
  0
SEQEND
  5
CD7F
  8
ALPHA
  0
POLYLINE
  5
BF9B
  8
ALPHA
 66
     1
 10
0.0
 20
0.0
 30
0.0
 70
   128
  0
VERTEX
  5
CD80
  8
ALPHA
 10
64.21252
 20
69.082071
 30
0.0
  0
VERTEX
  5
CD81
  8
ALPHA
 10
64.032247
 20
69.51648
 30
0.0
  0
VERTEX
  5
CD82
  8
ALPHA
 10
63.611079
 20
69.73268
 30
0.0
  0
SEQEND
  5
CD83
  8
ALPHA
  0
POLYLINE
  5
BF9C
  8
ALPHA
 66
     1
 10
0.0
 20
0.0
 30
0.0
 70
   128
  0
VERTEX
  5
CD84
  8
ALPHA
 10
63.139223
 20
67.049917
 30
0.0
  0
VERTEX
  5
CD85
  8
ALPHA
 10
63.838237
 20
67.208466
 30
0.0
  0
VERTEX
  5
CD86
  8
ALPHA
 10
64.107215
 20
67.441759
 30
0.0
  0
VERTEX
  5
CD87
  8
ALPHA
 10
64.212415
 20
67.782089
 30
0.0
  0
SEQEND
  5
CD88
  8
ALPHA
  0
POLYLINE
  5
BF9D
  8
ALPHA
 66
     1
 10
0.0
 20
0.0
 30
0.0
 70
   128
  0
VERTEX
  5
CD89
  8
ALPHA
 10
63.101645
 20
68.34499
 30
0.0
  0
VERTEX
  5
CD8A
  8
ALPHA
 10
63.821034
 20
68.500479
 30
0.0
  0
VERTEX
  5
CD8B
  8
ALPHA
 10
64.101932
 20
68.733852
 30
0.0
  0
VERTEX
  5
CD8C
  8
ALPHA
 10
64.212411
 20
69.082089
 30
0.0
  0
SEQEND
  5
CD8D
  8
ALPHA
  0
POLYLINE
  5
BF9E
  8
ALPHA
 66
     1
 10
0.0
 20
0.0
 30
0.0
 70
   128
  0
VERTEX
  5
CD8E
  8
ALPHA
 10
64.212486
 20
67.782068
 30
0.0
  0
VERTEX
  5
CD8F
  8
ALPHA
 10
64.032792
 20
68.215921
 30
0.0
  0
VERTEX
  5
CD90
  8
ALPHA
 10
63.612604
 20
68.432305
 30
0.0
  0
SEQEND
  5
CD91
  8
ALPHA
  0
POLYLINE
  5
BF9F
  8
ALPHA
 66
     1
 10
0.0
 20
0.0
 30
0.0
 70
   128
  0
VERTEX
  5
CD92
  8
ALPHA
 10
63.121871
 20
65.747627
 30
0.0
  0
VERTEX
  5
CD93
  8
ALPHA
 10
63.830298
 20
65.904714
 30
0.0
  0
VERTEX
  5
CD94
  8
ALPHA
 10
64.104772
 20
66.138082
 30
0.0
  0
VERTEX
  5
CD95
  8
ALPHA
 10
64.2124
 20
66.482093
 30
0.0
  0
SEQEND
  5
CD96
  8
ALPHA
  0
POLYLINE
  5
BFA0
  8
ALPHA
 66
     1
 10
0.0
 20
0.0
 30
0.0
 70
   128
  0
VERTEX
  5
CD97
  8
ALPHA
 10
63.148297
 20
64.451128
 30
0.0
  0
VERTEX
  5
CD98
  8
ALPHA
 10
63.84234
 20
64.610442
 30
0.0
  0
VERTEX
  5
CD99
  8
ALPHA
 10
64.108458
 20
64.843665
 30
0.0
  0
VERTEX
  5
CD9A
  8
ALPHA
 10
64.212398
 20
65.182093
 30
0.0
  0
SEQEND
  5
CD9B
  8
ALPHA
  0
POLYLINE
  5
BFA1
  8
ALPHA
 66
     1
 10
0.0
 20
0.0
 30
0.0
 70
   128
  0
VERTEX
  5
CD9C
  8
ALPHA
 10
64.212513
 20
66.482072
 30
0.0
  0
VERTEX
  5
CD9D
  8
ALPHA
 10
64.032417
 20
66.916306
 30
0.0
  0
VERTEX
  5
CD9E
  8
ALPHA
 10
63.611516
 20
67.132575
 30
0.0
  0
SEQEND
  5
CD9F
  8
ALPHA
  0
POLYLINE
  5
BFA2
  8
ALPHA
 66
     1
 10
0.0
 20
0.0
 30
0.0
 70
   128
  0
VERTEX
  5
CDA0
  8
ALPHA
 10
64.21251
 20
65.182071
 30
0.0
  0
VERTEX
  5
CDA1
  8
ALPHA
 10
64.032493
 20
65.616229
 30
0.0
  0
VERTEX
  5
CDA2
  8
ALPHA
 10
63.611782
 20
65.832509
 30
0.0
  0
SEQEND
  5
CDA3
  8
ALPHA
  0
POLYLINE
  5
BFA3
  8
ALPHA
 66
     1
 10
0.0
 20
0.0
 30
0.0
 70
   128
  0
VERTEX
  5
CDA4
  8
ALPHA
 10
64.212516
 20
63.882071
 30
0.0
  0
VERTEX
  5
CDA5
  8
ALPHA
 10
64.032386
 20
64.316335
 30
0.0
  0
VERTEX
  5
CDA6
  8
ALPHA
 10
63.61143
 20
64.532594
 30
0.0
  0
SEQEND
  5
CDA7
  8
ALPHA
  0
POLYLINE
  5
BFA4
  8
ALPHA
 66
     1
 10
0.0
 20
0.0
 30
0.0
 70
   128
  0
VERTEX
  5
CDA8
  8
ALPHA
 10
63.150918
 20
69.65148
 30
0.0
  0
VERTEX
  5
CDA9
  8
ALPHA
 10
63.843561
 20
69.811046
 30
0.0
  0
VERTEX
  5
CDAA
  8
ALPHA
 10
64.108841
 20
70.044241
 30
0.0
  0
VERTEX
  5
CDAB
  8
ALPHA
 10
64.212426
 20
70.382089
 30
0.0
  0
SEQEND
  5
CDAC
  8
ALPHA
  0
POLYLINE
  5
BFA5
  8
ALPHA
 66
     1
 10
0.0
 20
0.0
 30
0.0
 70
   128
  0
VERTEX
  5
CDAD
  8
ALPHA
 10
63.116326
 20
70.946901
 30
0.0
  0
VERTEX
  5
CDAE
  8
ALPHA
 10
63.82777
 20
71.10354
 30
0.0
  0
VERTEX
  5
CDAF
  8
ALPHA
 10
64.10401
 20
71.336938
 30
0.0
  0
VERTEX
  5
CDB0
  8
ALPHA
 10
64.212399
 20
71.682092
 30
0.0
  0
SEQEND
  5
CDB1
  8
ALPHA
  0
POLYLINE
  5
BFA6
  8
ALPHA
 66
     1
 10
0.0
 20
0.0
 30
0.0
 70
   128
  0
VERTEX
  5
CDB2
  8
ALPHA
 10
64.212537
 20
72.982072
 30
0.0
  0
VERTEX
  5
CDB3
  8
ALPHA
 10
64.032503
 20
73.416209
 30
0.0
  0
VERTEX
  5
CDB4
  8
ALPHA
 10
63.61178
 20
73.63251
 30
0.0
  0
SEQEND
  5
CDB5
  8
ALPHA
  0
POLYLINE
  5
BFA7
  8
ALPHA
 66
     1
 10
0.0
 20
0.0
 30
0.0
 70
   128
  0
VERTEX
  5
CDB6
  8
ALPHA
 10
64.212504
 20
74.28207
 30
0.0
  0
VERTEX
  5
CDB7
  8
ALPHA
 10
64.032425
 20
74.716299
 30
0.0
  0
VERTEX
  5
CDB8
  8
ALPHA
 10
63.611549
 20
74.932564
 30
0.0
  0
SEQEND
  5
CDB9
  8
ALPHA
  0
POLYLINE
  5
BFA8
  8
ALPHA
 66
     1
 10
0.0
 20
0.0
 30
0.0
 70
   128
  0
VERTEX
  5
CDBA
  8
ALPHA
 10
64.212504
 20
71.682071
 30
0.0
  0
VERTEX
  5
CDBB
  8
ALPHA
 10
64.032523
 20
72.1162
 30
0.0
  0
VERTEX
  5
CDBC
  8
ALPHA
 10
63.611869
 20
72.332487
 30
0.0
  0
SEQEND
  5
CDBD
  8
ALPHA
  0
POLYLINE
  5
BFA9
  8
ALPHA
 66
     1
 10
0.0
 20
0.0
 30
0.0
 70
   128
  0
VERTEX
  5
CDBE
  8
ALPHA
 10
64.21252
 20
70.382072
 30
0.0
  0
VERTEX
  5
CDBF
  8
ALPHA
 10
64.032826
 20
70.815877
 30
0.0
  0
VERTEX
  5
CDC0
  8
ALPHA
 10
63.612643
 20
71.032297
 30
0.0
  0
SEQEND
  5
CDC1
  8
ALPHA
  0
POLYLINE
  5
BFAA
  8
ALPHA
 66
     1
 10
0.0
 20
0.0
 30
0.0
 70
   128
  0
VERTEX
  5
CDC2
  8
ALPHA
 10
63.128239
 20
72.248463
 30
0.0
  0
VERTEX
  5
CDC3
  8
ALPHA
 10
63.833228
 20
72.406088
 30
0.0
  0
VERTEX
  5
CDC4
  8
ALPHA
 10
64.105682
 20
72.63944
 30
0.0
  0
VERTEX
  5
CDC5
  8
ALPHA
 10
64.212413
 20
72.982089
 30
0.0
  0
SEQEND
  5
CDC6
  8
ALPHA
  0
POLYLINE
  5
BFAB
  8
ALPHA
 66
     1
 10
0.0
 20
0.0
 30
0.0
 70
   128
  0
VERTEX
  5
CDC7
  8
ALPHA
 10
63.092694
 20
73.543835
 30
0.0
  0
VERTEX
  5
CDC8
  8
ALPHA
 10
63.816914
 20
73.698639
 30
0.0
  0
VERTEX
  5
CDC9
  8
ALPHA
 10
64.100665
 20
73.931988
 30
0.0
  0
VERTEX
  5
CDCA
  8
ALPHA
 10
64.212412
 20
74.282089
 30
0.0
  0
SEQEND
  5
CDCB
  8
ALPHA
  0
POLYLINE
  5
BFAC
  8
ALPHA
 66
     1
 10
0.0
 20
0.0
 30
0.0
 70
   128
  0
VERTEX
  5
CDCC
  8
ALPHA
 10
64.21252
 20
80.782073
 30
0.0
  0
VERTEX
  5
CDCD
  8
ALPHA
 10
64.032517
 20
81.216199
 30
0.0
  0
VERTEX
  5
CDCE
  8
ALPHA
 10
63.611787
 20
81.432508
 30
0.0
  0
SEQEND
  5
CDCF
  8
ALPHA
  0
POLYLINE
  5
BFAD
  8
ALPHA
 66
     1
 10
0.0
 20
0.0
 30
0.0
 70
   128
  0
VERTEX
  5
CDD0
  8
ALPHA
 10
64.212497
 20
75.582071
 30
0.0
  0
VERTEX
  5
CDD1
  8
ALPHA
 10
64.032711
 20
76.016003
 30
0.0
  0
VERTEX
  5
CDD2
  8
ALPHA
 10
63.612304
 20
76.232378
 30
0.0
  0
SEQEND
  5
CDD3
  8
ALPHA
  0
POLYLINE
  5
BFAE
  8
ALPHA
 66
     1
 10
0.0
 20
0.0
 30
0.0
 70
   128
  0
VERTEX
  5
CDD4
  8
ALPHA
 10
64.21253
 20
76.882073
 30
0.0
  0
VERTEX
  5
CDD5
  8
ALPHA
 10
64.032489
 20
77.316224
 30
0.0
  0
VERTEX
  5
CDD6
  8
ALPHA
 10
63.611701
 20
77.532531
 30
0.0
  0
SEQEND
  5
CDD7
  8
ALPHA
  0
POLYLINE
  5
BFAF
  8
ALPHA
 66
     1
 10
0.0
 20
0.0
 30
0.0
 70
   128
  0
VERTEX
  5
CDD8
  8
ALPHA
 10
63.141359
 20
76.150203
 30
0.0
  0
VERTEX
  5
CDD9
  8
ALPHA
 10
63.839194
 20
76.308924
 30
0.0
  0
VERTEX
  5
CDDA
  8
ALPHA
 10
64.107497
 20
76.542196
 30
0.0
  0
VERTEX
  5
CDDB
  8
ALPHA
 10
64.212407
 20
76.882092
 30
0.0
  0
SEQEND
  5
CDDC
  8
ALPHA
  0
POLYLINE
  5
BFB0
  8
ALPHA
 66
     1
 10
0.0
 20
0.0
 30
0.0
 70
   128
  0
VERTEX
  5
CDDD
  8
ALPHA
 10
64.212502
 20
78.182069
 30
0.0
  0
VERTEX
  5
CDDE
  8
ALPHA
 10
64.032562
 20
78.616155
 30
0.0
  0
VERTEX
  5
CDDF
  8
ALPHA
 10
63.61191
 20
78.832474
 30
0.0
  0
SEQEND
  5
CDE0
  8
ALPHA
  0
POLYLINE
  5
BFB1
  8
ALPHA
 66
     1
 10
0.0
 20
0.0
 30
0.0
 70
   128
  0
VERTEX
  5
CDE1
  8
ALPHA
 10
64.212536
 20
79.482073
 30
0.0
  0
VERTEX
  5
CDE2
  8
ALPHA
 10
64.032396
 20
79.916317
 30
0.0
  0
VERTEX
  5
CDE3
  8
ALPHA
 10
63.611396
 20
80.132602
 30
0.0
  0
SEQEND
  5
CDE4
  8
ALPHA
  0
POLYLINE
  5
BFB2
  8
ALPHA
 66
     1
 10
0.0
 20
0.0
 30
0.0
 70
   128
  0
VERTEX
  5
CDE5
  8
ALPHA
 10
63.120036
 20
77.447385
 30
0.0
  0
VERTEX
  5
CDE6
  8
ALPHA
 10
63.829446
 20
77.604312
 30
0.0
  0
VERTEX
  5
CDE7
  8
ALPHA
 10
64.104508
 20
77.837691
 30
0.0
  0
VERTEX
  5
CDE8
  8
ALPHA
 10
64.212385
 20
78.182093
 30
0.0
  0
SEQEND
  5
CDE9
  8
ALPHA
  0
POLYLINE
  5
BFB3
  8
ALPHA
 66
     1
 10
0.0
 20
0.0
 30
0.0
 70
   128
  0
VERTEX
  5
CDEA
  8
ALPHA
 10
63.45036
 20
78.79777
 30
0.0
  0
VERTEX
  5
CDEB
  8
ALPHA
 10
63.971613
 20
78.992144
 30
0.0
  0
VERTEX
  5
CDEC
  8
ALPHA
 10
64.21237
 20
79.482095
 30
0.0
  0
SEQEND
  5
CDED
  8
ALPHA
  0
LINE
  5
BFB4
  8
ALPHA
 10
63.272751
 20
78.768648
 30
0.0
 11
63.45036
 21
78.79777
 31
0.0
  0
POLYLINE
  5
BFB5
  8
ALPHA
 66
     1
 10
0.0
 20
0.0
 30
0.0
 70
   128
  0
VERTEX
  5
CDEE
  8
ALPHA
 10
63.143242
 20
80.050454
 30
0.0
  0
VERTEX
  5
CDEF
  8
ALPHA
 10
63.840061
 20
80.209343
 30
0.0
  0
VERTEX
  5
CDF0
  8
ALPHA
 10
64.107768
 20
80.442605
 30
0.0
  0
VERTEX
  5
CDF1
  8
ALPHA
 10
64.212413
 20
80.782091
 30
0.0
  0
SEQEND
  5
CDF2
  8
ALPHA
  0
POLYLINE
  5
BFB6
  8
ALPHA
 66
     1
 10
0.0
 20
0.0
 30
0.0
 70
   128
  0
VERTEX
  5
CDF3
  8
ALPHA
 10
64.212527
 20
82.082072
 30
0.0
  0
VERTEX
  5
CDF4
  8
ALPHA
 10
64.032303
 20
82.516422
 30
0.0
  0
VERTEX
  5
CDF5
  8
ALPHA
 10
63.611233
 20
82.732644
 30
0.0
  0
SEQEND
  5
CDF6
  8
ALPHA
  0
POLYLINE
  5
BFB7
  8
ALPHA
 66
     1
 10
0.0
 20
0.0
 30
0.0
 70
   128
  0
VERTEX
  5
CDF7
  8
ALPHA
 10
63.451968
 20
81.398065
 30
0.0
  0
VERTEX
  5
CDF8
  8
ALPHA
 10
63.972241
 20
81.592644
 30
0.0
  0
VERTEX
  5
CDF9
  8
ALPHA
 10
64.212372
 20
82.082096
 30
0.0
  0
SEQEND
  5
CDFA
  8
ALPHA
  0
LINE
  5
BFB8
  8
ALPHA
 10
63.272841
 20
81.368662
 30
0.0
 11
63.451968
 21
81.398065
 31
0.0
  0
POLYLINE
  5
BFB9
  8
ALPHA
 66
     1
 10
0.0
 20
0.0
 30
0.0
 70
   128
  0
VERTEX
  5
CDFB
  8
ALPHA
 10
64.212505
 20
83.382069
 30
0.0
  0
VERTEX
  5
CDFC
  8
ALPHA
 10
64.032522
 20
83.816199
 30
0.0
  0
VERTEX
  5
CDFD
  8
ALPHA
 10
63.611869
 20
84.032486
 30
0.0
  0
SEQEND
  5
CDFE
  8
ALPHA
  0
POLYLINE
  5
BFBA
  8
ALPHA
 66
     1
 10
0.0
 20
0.0
 30
0.0
 70
   128
  0
VERTEX
  5
CDFF
  8
ALPHA
 10
64.212513
 20
84.682071
 30
0.0
  0
VERTEX
  5
CE00
  8
ALPHA
 10
64.032397
 20
85.116325
 30
0.0
  0
VERTEX
  5
CE01
  8
ALPHA
 10
63.611468
 20
85.332586
 30
0.0
  0
SEQEND
  5
CE02
  8
ALPHA
  0
POLYLINE
  5
BFBB
  8
ALPHA
 66
     1
 10
0.0
 20
0.0
 30
0.0
 70
   128
  0
VERTEX
  5
CE03
  8
ALPHA
 10
64.212496
 20
85.98207
 30
0.0
  0
VERTEX
  5
CE04
  8
ALPHA
 10
64.03221
 20
86.416527
 30
0.0
  0
VERTEX
  5
CE05
  8
ALPHA
 10
63.611001
 20
86.632699
 30
0.0
  0
SEQEND
  5
CE06
  8
ALPHA
  0
POLYLINE
  5
BFBC
  8
ALPHA
 66
     1
 10
0.0
 20
0.0
 30
0.0
 70
   128
  0
VERTEX
  5
CE07
  8
ALPHA
 10
63.134553
 20
82.649297
 30
0.0
  0
VERTEX
  5
CE08
  8
ALPHA
 10
63.836099
 20
82.807444
 30
0.0
  0
VERTEX
  5
CE09
  8
ALPHA
 10
64.106554
 20
83.040757
 30
0.0
  0
VERTEX
  5
CE0A
  8
ALPHA
 10
64.212415
 20
83.382089
 30
0.0
  0
SEQEND
  5
CE0B
  8
ALPHA
  0
POLYLINE
  5
BFBD
  8
ALPHA
 66
     1
 10
0.0
 20
0.0
 30
0.0
 70
   128
  0
VERTEX
  5
CE0C
  8
ALPHA
 10
63.126222
 20
83.948198
 30
0.0
  0
VERTEX
  5
CE0D
  8
ALPHA
 10
63.832316
 20
84.105664
 30
0.0
  0
VERTEX
  5
CE0E
  8
ALPHA
 10
64.105409
 20
84.339025
 30
0.0
  0
VERTEX
  5
CE0F
  8
ALPHA
 10
64.212421
 20
84.682089
 30
0.0
  0
SEQEND
  5
CE10
  8
ALPHA
  0
POLYLINE
  5
BFBE
  8
ALPHA
 66
     1
 10
0.0
 20
0.0
 30
0.0
 70
   128
  0
VERTEX
  5
CE11
  8
ALPHA
 10
63.154669
 20
85.251984
 30
0.0
  0
VERTEX
  5
CE12
  8
ALPHA
 10
63.845231
 20
85.411856
 30
0.0
  0
VERTEX
  5
CE13
  8
ALPHA
 10
64.109342
 20
85.645023
 30
0.0
  0
VERTEX
  5
CE14
  8
ALPHA
 10
64.212396
 20
85.982093
 30
0.0
  0
SEQEND
  5
CE15
  8
ALPHA
  0
POLYLINE
  5
BFBF
  8
ALPHA
 66
     1
 10
0.0
 20
0.0
 30
0.0
 70
   128
  0
VERTEX
  5
CE16
  8
ALPHA
 10
63.138571
 20
98.249831
 30
0.0
  0
VERTEX
  5
CE17
  8
ALPHA
 10
63.837934
 20
98.408319
 30
0.0
  0
VERTEX
  5
CE18
  8
ALPHA
 10
64.107118
 20
98.641615
 30
0.0
  0
VERTEX
  5
CE19
  8
ALPHA
 10
64.212411
 20
98.98209
 30
0.0
  0
SEQEND
  5
CE1A
  8
ALPHA
  0
POLYLINE
  5
BFC0
  8
ALPHA
 66
     1
 10
0.0
 20
0.0
 30
0.0
 70
   128
  0
VERTEX
  5
CE1B
  8
ALPHA
 10
64.212533
 20
92.482073
 30
0.0
  0
VERTEX
  5
CE1C
  8
ALPHA
 10
64.032676
 20
92.916027
 30
0.0
  0
VERTEX
  5
CE1D
  8
ALPHA
 10
63.612211
 20
93.132403
 30
0.0
  0
SEQEND
  5
CE1E
  8
ALPHA
  0
LINE
  5
BFC1
  8
ALPHA
 10
63.335604
 20
91.692737
 30
0.0
 11
62.705271
 21
91.597111
 31
0.0
  0
POLYLINE
  5
BFC2
  8
ALPHA
 66
     1
 10
0.0
 20
0.0
 30
0.0
 70
   128
  0
VERTEX
  5
CE1F
  8
ALPHA
 10
64.212518
 20
87.282103
 30
0.0
  0
VERTEX
  5
CE20
  8
ALPHA
 10
64.032304
 20
87.716422
 30
0.0
  0
VERTEX
  5
CE21
  8
ALPHA
 10
63.61127
 20
87.932634
 30
0.0
  0
SEQEND
  5
CE22
  8
ALPHA
  0
POLYLINE
  5
BFC3
  8
ALPHA
 66
     1
 10
0.0
 20
0.0
 30
0.0
 70
   128
  0
VERTEX
  5
CE23
  8
ALPHA
 10
64.212523
 20
88.582071
 30
0.0
  0
VERTEX
  5
CE24
  8
ALPHA
 10
64.032447
 20
89.016271
 30
0.0
  0
VERTEX
  5
CE25
  8
ALPHA
 10
63.611636
 20
89.232544
 30
0.0
  0
SEQEND
  5
CE26
  8
ALPHA
  0
POLYLINE
  5
BFC4
  8
ALPHA
 66
     1
 10
0.0
 20
0.0
 30
0.0
 70
   128
  0
VERTEX
  5
CE27
  8
ALPHA
 10
64.212517
 20
89.882071
 30
0.0
  0
VERTEX
  5
CE28
  8
ALPHA
 10
64.032598
 20
90.316117
 30
0.0
  0
VERTEX
  5
CE29
  8
ALPHA
 10
63.612068
 20
90.532439
 30
0.0
  0
SEQEND
  5
CE2A
  8
ALPHA
  0
POLYLINE
  5
BFC5
  8
ALPHA
 66
     1
 10
0.0
 20
0.0
 30
0.0
 70
   128
  0
VERTEX
  5
CE2B
  8
ALPHA
 10
64.212531
 20
91.182074
 30
0.0
  0
VERTEX
  5
CE2C
  8
ALPHA
 10
64.032321
 20
91.616399
 30
0.0
  0
VERTEX
  5
CE2D
  8
ALPHA
 10
63.611221
 20
91.832648
 30
0.0
  0
SEQEND
  5
CE2E
  8
ALPHA
  0
POLYLINE
  5
BFC6
  8
ALPHA
 66
     1
 10
0.0
 20
0.0
 30
0.0
 70
   128
  0
VERTEX
  5
CE2F
  8
ALPHA
 10
63.142381
 20
87.850337
 30
0.0
  0
VERTEX
  5
CE30
  8
ALPHA
 10
63.839643
 20
88.009135
 30
0.0
  0
VERTEX
  5
CE31
  8
ALPHA
 10
64.10763
 20
88.242401
 30
0.0
  0
VERTEX
  5
CE32
  8
ALPHA
 10
64.212394
 20
88.582092
 30
0.0
  0
SEQEND
  5
CE33
  8
ALPHA
  0
POLYLINE
  5
BFC7
  8
ALPHA
 66
     1
 10
0.0
 20
0.0
 30
0.0
 70
   128
  0
VERTEX
  5
CE34
  8
ALPHA
 10
63.127225
 20
89.14833
 30
0.0
  0
VERTEX
  5
CE35
  8
ALPHA
 10
63.832744
 20
89.305855
 30
0.0
  0
VERTEX
  5
CE36
  8
ALPHA
 10
64.105525
 20
89.539212
 30
0.0
  0
VERTEX
  5
CE37
  8
ALPHA
 10
64.212395
 20
89.882093
 30
0.0
  0
SEQEND
  5
CE38
  8
ALPHA
  0
POLYLINE
  5
BFC8
  8
ALPHA
 66
     1
 10
0.0
 20
0.0
 30
0.0
 70
   128
  0
VERTEX
  5
CE39
  8
ALPHA
 10
63.1182
 20
90.447146
 30
0.0
  0
VERTEX
  5
CE3A
  8
ALPHA
 10
63.828648
 20
90.60395
 30
0.0
  0
VERTEX
  5
CE3B
  8
ALPHA
 10
64.10427
 20
90.83734
 30
0.0
  0
VERTEX
  5
CE3C
  8
ALPHA
 10
64.212372
 20
91.182095
 30
0.0
  0
SEQEND
  5
CE3D
  8
ALPHA
  0
POLYLINE
  5
BFC9
  8
ALPHA
 66
     1
 10
0.0
 20
0.0
 30
0.0
 70
   128
  0
VERTEX
  5
CE3E
  8
ALPHA
 10
63.145505
 20
91.750755
 30
0.0
  0
VERTEX
  5
CE3F
  8
ALPHA
 10
63.841079
 20
91.909831
 30
0.0
  0
VERTEX
  5
CE40
  8
ALPHA
 10
64.108075
 20
92.143076
 30
0.0
  0
VERTEX
  5
CE41
  8
ALPHA
 10
64.212404
 20
92.482091
 30
0.0
  0
SEQEND
  5
CE42
  8
ALPHA
  0
POLYLINE
  5
BFCA
  8
ALPHA
 66
     1
 10
0.0
 20
0.0
 30
0.0
 70
   128
  0
VERTEX
  5
CE43
  8
ALPHA
 10
64.212493
 20
93.782068
 30
0.0
  0
VERTEX
  5
CE44
  8
ALPHA
 10
64.033026
 20
94.215675
 30
0.0
  0
VERTEX
  5
CE45
  8
ALPHA
 10
63.61322
 20
94.432153
 30
0.0
  0
SEQEND
  5
CE46
  8
ALPHA
  0
POLYLINE
  5
BFCB
  8
ALPHA
 66
     1
 10
0.0
 20
0.0
 30
0.0
 70
   128
  0
VERTEX
  5
CE47
  8
ALPHA
 10
64.212522
 20
95.082072
 30
0.0
  0
VERTEX
  5
CE48
  8
ALPHA
 10
64.032276
 20
95.516449
 30
0.0
  0
VERTEX
  5
CE49
  8
ALPHA
 10
63.611137
 20
95.732669
 30
0.0
  0
SEQEND
  5
CE4A
  8
ALPHA
  0
POLYLINE
  5
BFCC
  8
ALPHA
 66
     1
 10
0.0
 20
0.0
 30
0.0
 70
   128
  0
VERTEX
  5
CE4B
  8
ALPHA
 10
64.212529
 20
96.382073
 30
0.0
  0
VERTEX
  5
CE4C
  8
ALPHA
 10
64.032155
 20
96.816575
 30
0.0
  0
VERTEX
  5
CE4D
  8
ALPHA
 10
63.610813
 20
97.032748
 30
0.0
  0
SEQEND
  5
CE4E
  8
ALPHA
  0
POLYLINE
  5
BFCD
  8
ALPHA
 66
     1
 10
0.0
 20
0.0
 30
0.0
 70
   128
  0
VERTEX
  5
CE4F
  8
ALPHA
 10
63.099056
 20
93.044655
 30
0.0
  0
VERTEX
  5
CE50
  8
ALPHA
 10
63.819814
 20
93.199921
 30
0.0
  0
VERTEX
  5
CE51
  8
ALPHA
 10
64.101539
 20
93.433286
 30
0.0
  0
VERTEX
  5
CE52
  8
ALPHA
 10
64.212386
 20
93.782093
 30
0.0
  0
SEQEND
  5
CE53
  8
ALPHA
  0
LINE
  5
BFCE
  8
ALPHA
 10
62.625424
 20
92.990686
 30
0.0
 11
63.099056
 21
93.044655
 31
0.0
  0
POLYLINE
  5
BFCF
  8
ALPHA
 66
     1
 10
0.0
 20
0.0
 30
0.0
 70
   128
  0
VERTEX
  5
CE54
  8
ALPHA
 10
63.092964
 20
94.34387
 30
0.0
  0
VERTEX
  5
CE55
  8
ALPHA
 10
63.817031
 20
94.498689
 30
0.0
  0
VERTEX
  5
CE56
  8
ALPHA
 10
64.100694
 20
94.732036
 30
0.0
  0
VERTEX
  5
CE57
  8
ALPHA
 10
64.212406
 20
95.082091
 30
0.0
  0
SEQEND
  5
CE58
  8
ALPHA
  0
POLYLINE
  5
BFD0
  8
ALPHA
 66
     1
 10
0.0
 20
0.0
 30
0.0
 70
   128
  0
VERTEX
  5
CE59
  8
ALPHA
 10
63.142168
 20
95.650311
 30
0.0
  0
VERTEX
  5
CE5A
  8
ALPHA
 10
63.839586
 20
95.809118
 30
0.0
  0
VERTEX
  5
CE5B
  8
ALPHA
 10
64.10763
 20
96.04239
 30
0.0
  0
VERTEX
  5
CE5C
  8
ALPHA
 10
64.212423
 20
96.382089
 30
0.0
  0
SEQEND
  5
CE5D
  8
ALPHA
  0
POLYLINE
  5
BFD1
  8
ALPHA
 66
     1
 10
0.0
 20
0.0
 30
0.0
 70
   128
  0
VERTEX
  5
CE5E
  8
ALPHA
 10
64.212538
 20
97.682073
 30
0.0
  0
VERTEX
  5
CE5F
  8
ALPHA
 10
64.032256
 20
98.116466
 30
0.0
  0
VERTEX
  5
CE60
  8
ALPHA
 10
63.611093
 20
98.332678
 30
0.0
  0
SEQEND
  5
CE61
  8
ALPHA
  0
POLYLINE
  5
BFD2
  8
ALPHA
 66
     1
 10
0.0
 20
0.0
 30
0.0
 70
   128
  0
VERTEX
  5
CE62
  8
ALPHA
 10
63.152532
 20
96.951695
 30
0.0
  0
VERTEX
  5
CE63
  8
ALPHA
 10
63.844331
 20
97.111438
 30
0.0
  0
VERTEX
  5
CE64
  8
ALPHA
 10
64.109098
 20
97.344618
 30
0.0
  0
VERTEX
  5
CE65
  8
ALPHA
 10
64.212456
 20
97.682084
 30
0.0
  0
SEQEND
  5
CE66
  8
ALPHA
  0
POLYLINE
  5
BFD3
  8
ALPHA
 66
     1
 10
0.0
 20
0.0
 30
0.0
 70
   128
  0
VERTEX
  5
CE67
  8
ALPHA
 10
64.212339
 20
104.182053
 30
0.0
  0
VERTEX
  5
CE68
  8
ALPHA
 10
64.03231
 20
104.61642
 30
0.0
  0
VERTEX
  5
CE69
  8
ALPHA
 10
63.611353
 20
104.83261
 30
0.0
  0
SEQEND
  5
CE6A
  8
ALPHA
  0
POLYLINE
  5
BFD4
  8
ALPHA
 66
     1
 10
0.0
 20
0.0
 30
0.0
 70
   128
  0
VERTEX
  5
CE6B
  8
ALPHA
 10
64.212532
 20
98.982072
 30
0.0
  0
VERTEX
  5
CE6C
  8
ALPHA
 10
64.032419
 20
99.416295
 30
0.0
  0
VERTEX
  5
CE6D
  8
ALPHA
 10
63.611492
 20
99.63258
 30
0.0
  0
SEQEND
  5
CE6E
  8
ALPHA
  0
POLYLINE
  5
BFD5
  8
ALPHA
 66
     1
 10
0.0
 20
0.0
 30
0.0
 70
   128
  0
VERTEX
  5
CE6F
  8
ALPHA
 10
64.212525
 20
100.282073
 30
0.0
  0
VERTEX
  5
CE70
  8
ALPHA
 10
64.032418
 20
100.716298
 30
0.0
  0
VERTEX
  5
CE71
  8
ALPHA
 10
63.611467
 20
100.932585
 30
0.0
  0
SEQEND
  5
CE72
  8
ALPHA
  0
POLYLINE
  5
BFD6
  8
ALPHA
 66
     1
 10
0.0
 20
0.0
 30
0.0
 70
   128
  0
VERTEX
  5
CE73
  8
ALPHA
 10
64.212504
 20
101.582071
 30
0.0
  0
VERTEX
  5
CE74
  8
ALPHA
 10
64.032758
 20
102.015953
 30
0.0
  0
VERTEX
  5
CE75
  8
ALPHA
 10
63.612458
 20
102.232342
 30
0.0
  0
SEQEND
  5
CE76
  8
ALPHA
  0
POLYLINE
  5
BFD7
  8
ALPHA
 66
     1
 10
0.0
 20
0.0
 30
0.0
 70
   128
  0
VERTEX
  5
CE77
  8
ALPHA
 10
63.449611
 20
99.597634
 30
0.0
  0
VERTEX
  5
CE78
  8
ALPHA
 10
63.971305
 20
99.79189
 30
0.0
  0
VERTEX
  5
CE79
  8
ALPHA
 10
64.21237
 20
100.282096
 30
0.0
  0
SEQEND
  5
CE7A
  8
ALPHA
  0
LINE
  5
BFD8
  8
ALPHA
 10
63.269643
 20
99.568188
 30
0.0
 11
63.449611
 21
99.597634
 31
0.0
  0
POLYLINE
  5
BFD9
  8
ALPHA
 66
     1
 10
0.0
 20
0.0
 30
0.0
 70
   128
  0
VERTEX
  5
CE7B
  8
ALPHA
 10
63.134544
 20
100.849298
 30
0.0
  0
VERTEX
  5
CE7C
  8
ALPHA
 10
63.836091
 20
101.007453
 30
0.0
  0
VERTEX
  5
CE7D
  8
ALPHA
 10
64.106573
 20
101.240749
 30
0.0
  0
VERTEX
  5
CE7E
  8
ALPHA
 10
64.212486
 20
101.582084
 30
0.0
  0
SEQEND
  5
CE7F
  8
ALPHA
  0
POLYLINE
  5
BFDA
  8
ALPHA
 66
     1
 10
0.0
 20
0.0
 30
0.0
 70
   128
  0
VERTEX
  5
CE80
  8
ALPHA
 10
64.21239
 20
102.882055
 30
0.0
  0
VERTEX
  5
CE81
  8
ALPHA
 10
64.032699
 20
103.316022
 30
0.0
  0
VERTEX
  5
CE82
  8
ALPHA
 10
63.612566
 20
103.532313
 30
0.0
  0
SEQEND
  5
CE83
  8
ALPHA
  0
POLYLINE
  5
BFDB
  8
ALPHA
 66
     1
 10
0.0
 20
0.0
 30
0.0
 70
   128
  0
VERTEX
  5
CE84
  8
ALPHA
 10
63.142589
 20
102.150365
 30
0.0
  0
VERTEX
  5
CE85
  8
ALPHA
 10
63.839779
 20
102.309205
 30
0.0
  0
VERTEX
  5
CE86
  8
ALPHA
 10
64.107698
 20
102.542492
 30
0.0
  0
VERTEX
  5
CE87
  8
ALPHA
 10
64.212413
 20
102.882088
 30
0.0
  0
SEQEND
  5
CE88
  8
ALPHA
  0
POLYLINE
  5
BFDC
  8
ALPHA
 66
     1
 10
0.0
 20
0.0
 30
0.0
 70
   128
  0
VERTEX
  5
CE89
  8
ALPHA
 10
63.151805
 20
103.451598
 30
0.0
  0
VERTEX
  5
CE8A
  8
ALPHA
 10
63.843931
 20
103.611216
 30
0.0
  0
VERTEX
  5
CE8B
  8
ALPHA
 10
64.108946
 20
103.844414
 30
0.0
  0
VERTEX
  5
CE8C
  8
ALPHA
 10
64.212394
 20
104.182092
 30
0.0
  0
SEQEND
  5
CE8D
  8
ALPHA
  0
POLYLINE
  5
BFDD
  8
ALPHA
 66
     1
 10
0.0
 20
0.0
 30
0.0
 70
   128
  0
VERTEX
  5
CE8E
  8
ALPHA
 10
64.212403
 20
105.482061
 30
0.0
  0
VERTEX
  5
CE8F
  8
ALPHA
 10
64.032361
 20
105.916368
 30
0.0
  0
VERTEX
  5
CE90
  8
ALPHA
 10
63.611498
 20
106.13258
 30
0.0
  0
SEQEND
  5
CE91
  8
ALPHA
  0
POLYLINE
  5
BFDE
  8
ALPHA
 66
     1
 10
0.0
 20
0.0
 30
0.0
 70
   128
  0
VERTEX
  5
CE92
  8
ALPHA
 10
64.212321
 20
106.782054
 30
0.0
  0
VERTEX
  5
CE93
  8
ALPHA
 10
64.032835
 20
107.215884
 30
0.0
  0
VERTEX
  5
CE94
  8
ALPHA
 10
63.612717
 20
107.432277
 30
0.0
  0
SEQEND
  5
CE95
  8
ALPHA
  0
POLYLINE
  5
BFDF
  8
ALPHA
 66
     1
 10
0.0
 20
0.0
 30
0.0
 70
   128
  0
VERTEX
  5
CE96
  8
ALPHA
 10
63.168597
 20
104.753866
 30
0.0
  0
VERTEX
  5
CE97
  8
ALPHA
 10
63.851592
 20
104.915073
 30
0.0
  0
VERTEX
  5
CE98
  8
ALPHA
 10
64.111335
 20
105.148023
 30
0.0
  0
VERTEX
  5
CE99
  8
ALPHA
 10
64.212557
 20
105.482076
 30
0.0
  0
SEQEND
  5
CE9A
  8
ALPHA
  0
POLYLINE
  5
BFE0
  8
ALPHA
 66
     1
 10
0.0
 20
0.0
 30
0.0
 70
   128
  0
VERTEX
  5
CE9B
  8
ALPHA
 10
63.133575
 20
106.04917
 30
0.0
  0
VERTEX
  5
CE9C
  8
ALPHA
 10
63.835643
 20
106.207225
 30
0.0
  0
VERTEX
  5
CE9D
  8
ALPHA
 10
64.106413
 20
106.440553
 30
0.0
  0
VERTEX
  5
CE9E
  8
ALPHA
 10
64.212397
 20
106.782093
 30
0.0
  0
SEQEND
  5
CE9F
  8
ALPHA
  0
POLYLINE
  5
BFE1
  8
ALPHA
 66
     1
 10
0.0
 20
0.0
 30
0.0
 70
   128
  0
VERTEX
  5
CEA0
  8
ALPHA
 10
64.212528
 20
108.082072
 30
0.0
  0
VERTEX
  5
CEA1
  8
ALPHA
 10
64.032496
 20
108.516216
 30
0.0
  0
VERTEX
  5
CEA2
  8
ALPHA
 10
63.611726
 20
108.732523
 30
0.0
  0
SEQEND
  5
CEA3
  8
ALPHA
  0
POLYLINE
  5
BFE2
  8
ALPHA
 66
     1
 10
0.0
 20
0.0
 30
0.0
 70
   128
  0
VERTEX
  5
CEA4
  8
ALPHA
 10
63.123414
 20
107.347828
 30
0.0
  0
VERTEX
  5
CEA5
  8
ALPHA
 10
63.831001
 20
107.505038
 30
0.0
  0
VERTEX
  5
CEA6
  8
ALPHA
 10
64.10499
 20
107.738409
 30
0.0
  0
VERTEX
  5
CEA7
  8
ALPHA
 10
64.212394
 20
108.082092
 30
0.0
  0
SEQEND
  5
CEA8
  8
ALPHA
  0
POLYLINE
  5
BFE3
  8
ALPHA
 66
     1
 10
0.0
 20
0.0
 30
0.0
 70
   128
  0
VERTEX
  5
CEA9
  8
ALPHA
 10
63.123636
 20
108.647858
 30
0.0
  0
VERTEX
  5
CEAA
  8
ALPHA
 10
63.83113
 20
108.805103
 30
0.0
  0
VERTEX
  5
CEAB
  8
ALPHA
 10
64.105035
 20
109.038475
 30
0.0
  0
VERTEX
  5
CEAC
  8
ALPHA
 10
64.212394
 20
109.382091
 30
0.0
  0
SEQEND
  5
CEAD
  8
ALPHA
  0
LINE
  5
BFE4
  8
ALPHA
 10
63.335444
 20
111.192705
 30
0.0
 11
59.172576
 21
110.762418
 31
0.0
  0
LINE
  5
BFE5
  8
ALPHA
 10
63.335148
 20
112.492632
 30
0.0
 11
59.156203
 21
112.060206
 31
0.0
  0
LINE
  5
BFE6
  8
ALPHA
 10
58.989536
 20
110.821395
 30
0.0
 11
63.131984
 21
111.248959
 31
0.0
  0
LINE
  5
BFE7
  8
ALPHA
 10
63.335459
 20
113.792732
 30
0.0
 11
59.154815
 21
113.360016
 31
0.0
  0
LINE
  5
BFE8
  8
ALPHA
 10
63.334982
 20
115.092699
 30
0.0
 11
59.199918
 21
114.666051
 31
0.0
  0
LINE
  5
BFE9
  8
ALPHA
 10
63.33543
 20
116.392712
 30
0.0
 11
59.186168
 21
115.964233
 31
0.0
  0
LINE
  5
BFEA
  8
ALPHA
 10
63.334848
 20
117.692641
 30
0.0
 11
59.040203
 21
117.243644
 31
0.0
  0
LINE
  5
BFEB
  8
ALPHA
 10
58.989599
 20
112.121399
 30
0.0
 11
63.106846
 21
112.545664
 31
0.0
  0
LINE
  5
BFEC
  8
ALPHA
 10
58.989507
 20
113.421392
 30
0.0
 11
63.16423
 21
113.853273
 31
0.0
  0
LINE
  5
BFED
  8
ALPHA
 10
58.989559
 20
114.721399
 30
0.0
 11
63.114461
 21
115.146657
 31
0.0
  0
LINE
  5
BFEE
  8
ALPHA
 10
58.989873
 20
116.021421
 30
0.0
 11
63.121508
 21
116.447579
 31
0.0
  0
LINE
  5
BFEF
  8
ALPHA
 10
63.335554
 20
118.992732
 30
0.0
 11
59.198504
 21
118.565864
 31
0.0
  0
LINE
  5
BFF0
  8
ALPHA
 10
63.236718
 20
121.570431
 30
0.0
 11
59.196834
 21
121.165646
 31
0.0
  0
LINE
  5
BFF1
  8
ALPHA
 10
63.237435
 20
122.870383
 30
0.0
 11
59.199378
 21
122.465981
 31
0.0
  0
LINE
  5
BFF2
  8
ALPHA
 10
63.335309
 20
120.292686
 30
0.0
 11
59.144406
 21
119.858593
 31
0.0
  0
LINE
  5
BFF3
  8
ALPHA
 10
58.989577
 20
117.321373
 30
0.0
 11
63.148687
 21
117.751179
 31
0.0
  0
LINE
  5
BFF4
  8
ALPHA
 10
58.990065
 20
118.621444
 30
0.0
 11
63.292195
 21
119.071565
 31
0.0
  0
LINE
  5
BFF5
  8
ALPHA
 10
58.989919
 20
119.92142
 30
0.0
 11
63.148537
 21
120.351161
 31
0.0
  0
LINE
  5
BFF6
  8
ALPHA
 10
58.98951
 20
121.221472
 30
0.0
 11
63.143063
 21
121.650429
 31
0.0
  0
LINE
  5
BFF7
  8
ALPHA
 10
63.335407
 20
124.192707
 30
0.0
 11
59.188723
 21
123.764571
 31
0.0
  0
LINE
  5
BFF8
  8
ALPHA
 10
63.335141
 20
125.49269
 30
0.0
 11
59.02722
 21
125.041677
 31
0.0
  0
LINE
  5
BFF9
  8
ALPHA
 10
63.335024
 20
126.792671
 30
0.0
 11
61.467756
 21
126.580499
 31
0.0
  0
LINE
  5
BFFA
  8
ALPHA
 10
58.989541
 20
122.521395
 30
0.0
 11
63.117214
 21
122.947015
 31
0.0
  0
LINE
  5
BFFB
  8
ALPHA
 10
58.98985
 20
123.821417
 30
0.0
 11
63.124154
 21
124.247926
 31
0.0
  0
LINE
  5
BFFC
  8
ALPHA
 10
58.989437
 20
125.121374
 30
0.0
 11
63.177513
 21
125.555082
 31
0.0
  0
LINE
  5
BFFD
  8
ALPHA
 10
63.334843
 20
128.092081
 30
0.0
 11
61.457227
 21
127.8796
 31
0.0
  0
LINE
  5
BFFE
  8
ALPHA
 10
63.334638
 20
129.392637
 30
0.0
 11
59.187978
 21
128.964472
 31
0.0
  0
LINE
  5
BFFF
  8
ALPHA
 10
63.335958
 20
130.692674
 30
0.0
 11
59.189775
 21
130.264712
 31
0.0
  0
LINE
  5
C000
  8
ALPHA
 10
63.334761
 20
131.992631
 30
0.0
 11
59.537431
 21
131.606256
 31
0.0
  0
LINE
  5
C001
  8
ALPHA
 10
61.458797
 20
126.684552
 30
0.0
 11
63.126772
 21
126.84827
 31
0.0
  0
LINE
  5
C002
  8
ALPHA
 10
61.623417
 20
127.998576
 30
0.0
 11
63.155649
 21
128.152114
 31
0.0
  0
LINE
  5
C003
  8
ALPHA
 10
58.989804
 20
129.021366
 30
0.0
 11
63.148297
 21
129.451128
 31
0.0
  0
LINE
  5
C004
  8
ALPHA
 10
58.989785
 20
130.321405
 30
0.0
 11
63.121871
 21
130.747627
 31
0.0
  0
LINE
  5
C005
  8
ALPHA
 10
63.334837
 20
133.292662
 30
0.0
 11
59.284719
 21
132.876898
 31
0.0
  0
LINE
  5
C006
  8
ALPHA
 10
63.335054
 20
135.892672
 30
0.0
 11
59.176805
 21
135.462984
 31
0.0
  0
LINE
  5
C007
  8
ALPHA
 10
63.335003
 20
137.192716
 30
0.0
 11
59.205087
 21
136.766731
 31
0.0
  0
LINE
  5
C008
  8
ALPHA
 10
63.335241
 20
134.59266
 30
0.0
 11
59.175615
 21
134.162824
 31
0.0
  0
LINE
  5
C009
  8
ALPHA
 10
59.375363
 20
131.687587
 30
0.0
 11
63.139223
 21
132.049917
 31
0.0
  0
LINE
  5
C00A
  8
ALPHA
 10
59.403164
 20
132.991155
 30
0.0
 11
63.101645
 21
133.34499
 31
0.0
  0
LINE
  5
C00B
  8
ALPHA
 10
58.98944
 20
134.221397
 30
0.0
 11
63.150918
 21
134.65148
 31
0.0
  0
LINE
  5
C00C
  8
ALPHA
 10
58.989717
 20
135.521413
 30
0.0
 11
63.116326
 21
135.946901
 31
0.0
  0
LINE
  5
C00D
  8
ALPHA
 10
63.335422
 20
138.49276
 30
0.0
 11
59.187152
 21
138.064363
 31
0.0
  0
LINE
  5
C00E
  8
ALPHA
 10
63.33471
 20
139.792671
 30
0.0
 11
59.647932
 21
139.418068
 31
0.0
  0
LINE
  5
C00F
  8
ALPHA
 10
63.099942
 20
141.047371
 30
0.0
 11
59.206209
 21
140.666878
 31
0.0
  0
LINE
  5
C010
  8
ALPHA
 10
63.33489
 20
142.392669
 30
0.0
 11
59.028035
 21
141.941803
 31
0.0
  0
LINE
  5
C011
  8
ALPHA
 10
58.989566
 20
136.821396
 30
0.0
 11
63.128239
 21
137.248463
 31
0.0
  0
LINE
  5
C012
  8
ALPHA
 10
58.989542
 20
138.121386
 30
0.0
 11
63.092694
 21
138.543835
 31
0.0
  0
LINE
  5
C013
  8
ALPHA
 10
58.98943
 20
139.421397
 30
0.0
 11
63.13558
 21
139.849435
 31
0.0
  0
LINE
  5
C014
  8
ALPHA
 10
58.989704
 20
140.721396
 30
0.0
 11
63.141359
 21
141.150203
 31
0.0
  0
LINE
  5
C015
  8
ALPHA
 10
63.335009
 20
143.692667
 30
0.0
 11
59.212619
 21
143.267715
 31
0.0
  0
LINE
  5
C016
  8
ALPHA
 10
63.335369
 20
144.992711
 30
0.0
 11
59.16115
 21
144.560876
 31
0.0
  0
LINE
  5
C017
  8
ALPHA
 10
63.117454
 20
146.250084
 30
0.0
 11
59.210437
 21
145.867431
 31
0.0
  0
LINE
  5
C018
  8
ALPHA
 10
58.989978
 20
142.021395
 30
0.0
 11
63.120036
 21
142.447385
 31
0.0
  0
LINE
  5
C019
  8
ALPHA
 10
58.990113
 20
143.321458
 30
0.0
 11
63.272751
 21
143.768648
 31
0.0
  0
LINE
  5
C01A
  8
ALPHA
 10
58.990162
 20
145.921456
 30
0.0
 11
63.055931
 21
146.339165
 31
0.0
  0
LINE
  5
C01B
  8
ALPHA
 10
58.989702
 20
144.62141
 30
0.0
 11
63.143242
 21
145.050454
 31
0.0
  0
LINE
  5
C01C
  8
ALPHA
 10
58.362701
 20
149.282076
 30
0.0
 11
63.962701
 21
149.282076
 31
0.0
  0
LINE
  5
C01D
  8
ALPHA
 10
58.162701
 20
149.082076
 30
0.0
 11
64.162701
 21
149.082076
 31
0.0
  0
LINE
  5
C01E
  8
ALPHA
 10
58.162701
 20
147.282076
 30
0.0
 11
64.177481
 21
147.282076
 31
0.0
  0
LINE
  5
C01F
  8
ALPHA
 10
63.112701
 20
146.282076
 30
0.0
 11
62.538842
 21
146.282076
 31
0.0
  0
POLYLINE
  5
C020
  8
ALPHA
 66
     1
 10
0.0
 20
0.0
 30
0.0
 70
   128
  0
VERTEX
  5
CEAE
  8
ALPHA
 10
58.112975
 20
133.432087
 30
0.0
  0
VERTEX
  5
CEAF
  8
ALPHA
 10
58.292846
 20
132.99799
 30
0.0
  0
VERTEX
  5
CEB0
  8
ALPHA
 10
58.713598
 20
132.781649
 30
0.0
  0
SEQEND
  5
CEB1
  8
ALPHA
  0
POLYLINE
  5
C021
  8
ALPHA
 66
     1
 10
0.0
 20
0.0
 30
0.0
 70
   128
  0
VERTEX
  5
CEB2
  8
ALPHA
 10
58.113001
 20
121.732093
 30
0.0
  0
VERTEX
  5
CEB3
  8
ALPHA
 10
58.292761
 20
121.298077
 30
0.0
  0
VERTEX
  5
CEB4
  8
ALPHA
 10
58.713294
 20
121.081725
 30
0.0
  0
SEQEND
  5
CEB5
  8
ALPHA
  0
POLYLINE
  5
C022
  8
ALPHA
 66
     1
 10
0.0
 20
0.0
 30
0.0
 70
   128
  0
VERTEX
  5
CEB6
  8
ALPHA
 10
59.172576
 20
110.762418
 30
0.0
  0
VERTEX
  5
CEB7
  8
ALPHA
 10
58.481026
 20
110.602702
 30
0.0
  0
VERTEX
  5
CEB8
  8
ALPHA
 10
58.216291
 20
110.369565
 30
0.0
  0
VERTEX
  5
CEB9
  8
ALPHA
 10
58.112877
 20
110.032073
 30
0.0
  0
SEQEND
  5
CEBA
  8
ALPHA
  0
POLYLINE
  5
C023
  8
ALPHA
 66
     1
 10
0.0
 20
0.0
 30
0.0
 70
   128
  0
VERTEX
  5
CEBB
  8
ALPHA
 10
59.156203
 20
112.060206
 30
0.0
  0
VERTEX
  5
CEBC
  8
ALPHA
 10
58.473638
 20
111.899032
 30
0.0
  0
VERTEX
  5
CEBD
  8
ALPHA
 10
58.214071
 20
111.666126
 30
0.0
  0
VERTEX
  5
CEBE
  8
ALPHA
 10
58.112872
 20
111.332073
 30
0.0
  0
SEQEND
  5
CEBF
  8
ALPHA
  0
POLYLINE
  5
C024
  8
ALPHA
 66
     1
 10
0.0
 20
0.0
 30
0.0
 70
   128
  0
VERTEX
  5
CEC0
  8
ALPHA
 10
58.112976
 20
111.33209
 30
0.0
  0
VERTEX
  5
CEC1
  8
ALPHA
 10
58.293114
 20
110.897712
 30
0.0
  0
VERTEX
  5
CEC2
  8
ALPHA
 10
58.714301
 20
110.681476
 30
0.0
  0
SEQEND
  5
CEC3
  8
ALPHA
  0
POLYLINE
  5
C025
  8
ALPHA
 66
     1
 10
0.0
 20
0.0
 30
0.0
 70
   128
  0
VERTEX
  5
CEC4
  8
ALPHA
 10
59.154815
 20
113.360016
 30
0.0
  0
VERTEX
  5
CEC5
  8
ALPHA
 10
58.472993
 20
113.198701
 30
0.0
  0
VERTEX
  5
CEC6
  8
ALPHA
 10
58.213858
 20
112.965798
 30
0.0
  0
VERTEX
  5
CEC7
  8
ALPHA
 10
58.112866
 20
112.632073
 30
0.0
  0
SEQEND
  5
CEC8
  8
ALPHA
  0
POLYLINE
  5
C026
  8
ALPHA
 66
     1
 10
0.0
 20
0.0
 30
0.0
 70
   128
  0
VERTEX
  5
CEC9
  8
ALPHA
 10
59.199918
 20
114.666051
 30
0.0
  0
VERTEX
  5
CECA
  8
ALPHA
 10
58.493503
 20
114.508687
 30
0.0
  0
VERTEX
  5
CECB
  8
ALPHA
 10
58.220119
 20
114.275372
 30
0.0
  0
VERTEX
  5
CECC
  8
ALPHA
 10
58.1129
 20
113.932069
 30
0.0
  0
SEQEND
  5
CECD
  8
ALPHA
  0
POLYLINE
  5
C027
  8
ALPHA
 66
     1
 10
0.0
 20
0.0
 30
0.0
 70
   128
  0
VERTEX
  5
CECE
  8
ALPHA
 10
59.186168
 20
115.964233
 30
0.0
  0
VERTEX
  5
CECF
  8
ALPHA
 10
58.487209
 20
115.805694
 30
0.0
  0
VERTEX
  5
CED0
  8
ALPHA
 10
58.218185
 20
115.572461
 30
0.0
  0
VERTEX
  5
CED1
  8
ALPHA
 10
58.112874
 20
115.232073
 30
0.0
  0
SEQEND
  5
CED2
  8
ALPHA
  0
POLYLINE
  5
C028
  8
ALPHA
 66
     1
 10
0.0
 20
0.0
 30
0.0
 70
   128
  0
VERTEX
  5
CED3
  8
ALPHA
 10
58.862853
 20
117.214135
 30
0.0
  0
VERTEX
  5
CED4
  8
ALPHA
 10
58.349023
 20
117.018128
 30
0.0
  0
VERTEX
  5
CED5
  8
ALPHA
 10
58.112905
 20
116.532071
 30
0.0
  0
SEQEND
  5
CED6
  8
ALPHA
  0
POLYLINE
  5
C029
  8
ALPHA
 66
     1
 10
0.0
 20
0.0
 30
0.0
 70
   128
  0
VERTEX
  5
CED7
  8
ALPHA
 10
58.112998
 20
112.63209
 30
0.0
  0
VERTEX
  5
CED8
  8
ALPHA
 10
58.292882
 20
112.197948
 30
0.0
  0
VERTEX
  5
CED9
  8
ALPHA
 10
58.71371
 20
111.981624
 30
0.0
  0
SEQEND
  5
CEDA
  8
ALPHA
  0
POLYLINE
  5
C02A
  8
ALPHA
 66
     1
 10
0.0
 20
0.0
 30
0.0
 70
   128
  0
VERTEX
  5
CEDB
  8
ALPHA
 10
58.113016
 20
113.932093
 30
0.0
  0
VERTEX
  5
CEDC
  8
ALPHA
 10
58.292955
 20
113.497871
 30
0.0
  0
VERTEX
  5
CEDD
  8
ALPHA
 10
58.713837
 20
113.281593
 30
0.0
  0
SEQEND
  5
CEDE
  8
ALPHA
  0
POLYLINE
  5
C02B
  8
ALPHA
 66
     1
 10
0.0
 20
0.0
 30
0.0
 70
   128
  0
VERTEX
  5
CEDF
  8
ALPHA
 10
58.113023
 20
115.232095
 30
0.0
  0
VERTEX
  5
CEE0
  8
ALPHA
 10
58.292635
 20
114.798194
 30
0.0
  0
VERTEX
  5
CEE1
  8
ALPHA
 10
58.712978
 20
114.581804
 30
0.0
  0
SEQEND
  5
CEE2
  8
ALPHA
  0
POLYLINE
  5
C02C
  8
ALPHA
 66
     1
 10
0.0
 20
0.0
 30
0.0
 70
   128
  0
VERTEX
  5
CEE3
  8
ALPHA
 10
58.113018
 20
116.532095
 30
0.0
  0
VERTEX
  5
CEE4
  8
ALPHA
 10
58.292798
 20
116.098036
 30
0.0
  0
VERTEX
  5
CEE5
  8
ALPHA
 10
58.713388
 20
115.881704
 30
0.0
  0
SEQEND
  5
CEE6
  8
ALPHA
  0
POLYLINE
  5
C02D
  8
ALPHA
 66
     1
 10
0.0
 20
0.0
 30
0.0
 70
   128
  0
VERTEX
  5
CEE7
  8
ALPHA
 10
59.198504
 20
118.565864
 30
0.0
  0
VERTEX
  5
CEE8
  8
ALPHA
 10
58.492829
 20
118.408353
 30
0.0
  0
VERTEX
  5
CEE9
  8
ALPHA
 10
58.219897
 20
118.175053
 30
0.0
  0
VERTEX
  5
CEEA
  8
ALPHA
 10
58.11287
 20
117.832072
 30
0.0
  0
SEQEND
  5
CEEB
  8
ALPHA
  0
POLYLINE
  5
C02E
  8
ALPHA
 66
     1
 10
0.0
 20
0.0
 30
0.0
 70
   128
  0
VERTEX
  5
CEEC
  8
ALPHA
 10
59.196834
 20
121.165646
 30
0.0
  0
VERTEX
  5
CEED
  8
ALPHA
 10
58.492075
 20
121.00801
 30
0.0
  0
VERTEX
  5
CEEE
  8
ALPHA
 10
58.219668
 20
120.774703
 30
0.0
  0
VERTEX
  5
CEEF
  8
ALPHA
 10
58.112886
 20
120.432072
 30
0.0
  0
SEQEND
  5
CEF0
  8
ALPHA
  0
POLYLINE
  5
C02F
  8
ALPHA
 66
     1
 10
0.0
 20
0.0
 30
0.0
 70
   128
  0
VERTEX
  5
CEF1
  8
ALPHA
 10
59.144406
 20
119.858593
 30
0.0
  0
VERTEX
  5
CEF2
  8
ALPHA
 10
58.468306
 20
119.696314
 30
0.0
  0
VERTEX
  5
CEF3
  8
ALPHA
 10
58.112865
 20
119.132073
 30
0.0
  0
SEQEND
  5
CEF4
  8
ALPHA
  0
POLYLINE
  5
C030
  8
ALPHA
 66
     1
 10
0.0
 20
0.0
 30
0.0
 70
   128
  0
VERTEX
  5
CEF5
  8
ALPHA
 10
58.112984
 20
117.832089
 30
0.0
  0
VERTEX
  5
CEF6
  8
ALPHA
 10
58.292681
 20
117.39816
 30
0.0
  0
VERTEX
  5
CEF7
  8
ALPHA
 10
58.713081
 20
117.181773
 30
0.0
  0
SEQEND
  5
CEF8
  8
ALPHA
  0
POLYLINE
  5
C031
  8
ALPHA
 66
     1
 10
0.0
 20
0.0
 30
0.0
 70
   128
  0
VERTEX
  5
CEF9
  8
ALPHA
 10
58.113021
 20
119.132094
 30
0.0
  0
VERTEX
  5
CEFA
  8
ALPHA
 10
58.292771
 20
118.698063
 30
0.0
  0
VERTEX
  5
CEFB
  8
ALPHA
 10
58.713295
 20
118.481725
 30
0.0
  0
SEQEND
  5
CEFC
  8
ALPHA
  0
POLYLINE
  5
C032
  8
ALPHA
 66
     1
 10
0.0
 20
0.0
 30
0.0
 70
   128
  0
VERTEX
  5
CEFD
  8
ALPHA
 10
58.113021
 20
120.432095
 30
0.0
  0
VERTEX
  5
CEFE
  8
ALPHA
 10
58.292972
 20
119.997843
 30
0.0
  0
VERTEX
  5
CEFF
  8
ALPHA
 10
58.713908
 20
119.781577
 30
0.0
  0
SEQEND
  5
CF00
  8
ALPHA
  0
LINE
  5
C033
  8
ALPHA
 10
59.040203
 20
117.243644
 30
0.0
 11
58.862853
 21
117.214135
 31
0.0
  0
POLYLINE
  5
C034
  8
ALPHA
 66
     1
 10
0.0
 20
0.0
 30
0.0
 70
   128
  0
VERTEX
  5
CF01
  8
ALPHA
 10
59.199378
 20
122.465981
 30
0.0
  0
VERTEX
  5
CF02
  8
ALPHA
 10
58.493272
 20
122.308584
 30
0.0
  0
VERTEX
  5
CF03
  8
ALPHA
 10
58.220059
 20
122.075275
 30
0.0
  0
VERTEX
  5
CF04
  8
ALPHA
 10
58.112912
 20
121.732069
 30
0.0
  0
SEQEND
  5
CF05
  8
ALPHA
  0
POLYLINE
  5
C035
  8
ALPHA
 66
     1
 10
0.0
 20
0.0
 30
0.0
 70
   128
  0
VERTEX
  5
CF06
  8
ALPHA
 10
59.188723
 20
123.764571
 30
0.0
  0
VERTEX
  5
CF07
  8
ALPHA
 10
58.488374
 20
123.60625
 30
0.0
  0
VERTEX
  5
CF08
  8
ALPHA
 10
58.218541
 20
123.373
 30
0.0
  0
VERTEX
  5
CF09
  8
ALPHA
 10
58.112876
 20
123.032072
 30
0.0
  0
SEQEND
  5
CF0A
  8
ALPHA
  0
POLYLINE
  5
C036
  8
ALPHA
 66
     1
 10
0.0
 20
0.0
 30
0.0
 70
   128
  0
VERTEX
  5
CF0B
  8
ALPHA
 10
59.02722
 20
125.041677
 30
0.0
  0
VERTEX
  5
CF0C
  8
ALPHA
 10
58.416795
 20
124.86699
 30
0.0
  0
VERTEX
  5
CF0D
  8
ALPHA
 10
58.112894
 20
124.332071
 30
0.0
  0
SEQEND
  5
CF0E
  8
ALPHA
  0
POLYLINE
  5
C037
  8
ALPHA
 66
     1
 10
0.0
 20
0.0
 30
0.0
 70
   128
  0
VERTEX
  5
CF0F
  8
ALPHA
 10
59.197762
 20
126.365768
 30
0.0
  0
VERTEX
  5
CF10
  8
ALPHA
 10
58.492515
 20
126.208222
 30
0.0
  0
VERTEX
  5
CF11
  8
ALPHA
 10
58.219817
 20
125.97492
 30
0.0
  0
VERTEX
  5
CF12
  8
ALPHA
 10
58.112896
 20
125.632071
 30
0.0
  0
SEQEND
  5
CF13
  8
ALPHA
  0
POLYLINE
  5
C038
  8
ALPHA
 66
     1
 10
0.0
 20
0.0
 30
0.0
 70
   128
  0
VERTEX
  5
CF14
  8
ALPHA
 10
59.109003
 20
127.653666
 30
0.0
  0
VERTEX
  5
CF15
  8
ALPHA
 10
58.452479
 20
127.487928
 30
0.0
  0
VERTEX
  5
CF16
  8
ALPHA
 10
58.112846
 20
126.932075
 30
0.0
  0
SEQEND
  5
CF17
  8
ALPHA
  0
POLYLINE
  5
C039
  8
ALPHA
 66
     1
 10
0.0
 20
0.0
 30
0.0
 70
   128
  0
VERTEX
  5
CF18
  8
ALPHA
 10
58.113027
 20
123.032094
 30
0.0
  0
VERTEX
  5
CF19
  8
ALPHA
 10
58.292741
 20
122.598081
 30
0.0
  0
VERTEX
  5
CF1A
  8
ALPHA
 10
58.713266
 20
122.381732
 30
0.0
  0
SEQEND
  5
CF1B
  8
ALPHA
  0
POLYLINE
  5
C03A
  8
ALPHA
 66
     1
 10
0.0
 20
0.0
 30
0.0
 70
   128
  0
VERTEX
  5
CF1C
  8
ALPHA
 10
58.11302
 20
124.332094
 30
0.0
  0
VERTEX
  5
CF1D
  8
ALPHA
 10
58.292777
 20
123.898057
 30
0.0
  0
VERTEX
  5
CF1E
  8
ALPHA
 10
58.713325
 20
123.681718
 30
0.0
  0
SEQEND
  5
CF1F
  8
ALPHA
  0
POLYLINE
  5
C03B
  8
ALPHA
 66
     1
 10
0.0
 20
0.0
 30
0.0
 70
   128
  0
VERTEX
  5
CF20
  8
ALPHA
 10
58.113013
 20
125.632095
 30
0.0
  0
VERTEX
  5
CF21
  8
ALPHA
 10
58.292644
 20
125.198199
 30
0.0
  0
VERTEX
  5
CF22
  8
ALPHA
 10
58.712918
 20
124.981817
 30
0.0
  0
SEQEND
  5
CF23
  8
ALPHA
  0
POLYLINE
  5
C03C
  8
ALPHA
 66
     1
 10
0.0
 20
0.0
 30
0.0
 70
   128
  0
VERTEX
  5
CF24
  8
ALPHA
 10
58.113026
 20
126.932095
 30
0.0
  0
VERTEX
  5
CF25
  8
ALPHA
 10
58.292767
 20
126.498055
 30
0.0
  0
VERTEX
  5
CF26
  8
ALPHA
 10
58.713342
 20
126.281715
 30
0.0
  0
SEQEND
  5
CF27
  8
ALPHA
  0
POLYLINE
  5
C03D
  8
ALPHA
 66
     1
 10
0.0
 20
0.0
 30
0.0
 70
   128
  0
VERTEX
  5
CF28
  8
ALPHA
 10
59.187978
 20
128.964472
 30
0.0
  0
VERTEX
  5
CF29
  8
ALPHA
 10
58.48807
 20
128.806123
 30
0.0
  0
VERTEX
  5
CF2A
  8
ALPHA
 10
58.218467
 20
128.572866
 30
0.0
  0
VERTEX
  5
CF2B
  8
ALPHA
 10
58.112912
 20
128.232068
 30
0.0
  0
SEQEND
  5
CF2C
  8
ALPHA
  0
POLYLINE
  5
C03E
  8
ALPHA
 66
     1
 10
0.0
 20
0.0
 30
0.0
 70
   128
  0
VERTEX
  5
CF2D
  8
ALPHA
 10
59.189775
 20
130.264712
 30
0.0
  0
VERTEX
  5
CF2E
  8
ALPHA
 10
58.488844
 20
130.106475
 30
0.0
  0
VERTEX
  5
CF2F
  8
ALPHA
 10
58.218673
 20
129.873203
 30
0.0
  0
VERTEX
  5
CF30
  8
ALPHA
 10
58.112877
 20
129.532072
 30
0.0
  0
SEQEND
  5
CF31
  8
ALPHA
  0
POLYLINE
  5
C03F
  8
ALPHA
 66
     1
 10
0.0
 20
0.0
 30
0.0
 70
   128
  0
VERTEX
  5
CF32
  8
ALPHA
 10
59.115045
 20
131.554518
 30
0.0
  0
VERTEX
  5
CF33
  8
ALPHA
 10
58.455248
 20
131.389443
 30
0.0
  0
VERTEX
  5
CF34
  8
ALPHA
 10
58.112878
 20
130.832071
 30
0.0
  0
SEQEND
  5
CF35
  8
ALPHA
  0
POLYLINE
  5
C040
  8
ALPHA
 66
     1
 10
0.0
 20
0.0
 30
0.0
 70
   128
  0
VERTEX
  5
CF36
  8
ALPHA
 10
59.206079
 20
132.86686
 30
0.0
  0
VERTEX
  5
CF37
  8
ALPHA
 10
58.496314
 20
132.70999
 30
0.0
  0
VERTEX
  5
CF38
  8
ALPHA
 10
58.220977
 20
132.476664
 30
0.0
  0
VERTEX
  5
CF39
  8
ALPHA
 10
58.112891
 20
132.132071
 30
0.0
  0
SEQEND
  5
CF3A
  8
ALPHA
  0
POLYLINE
  5
C041
  8
ALPHA
 66
     1
 10
0.0
 20
0.0
 30
0.0
 70
   128
  0
VERTEX
  5
CF3B
  8
ALPHA
 10
58.11299
 20
128.232089
 30
0.0
  0
VERTEX
  5
CF3C
  8
ALPHA
 10
58.293036
 20
127.797789
 30
0.0
  0
VERTEX
  5
CF3D
  8
ALPHA
 10
58.714163
 20
127.581513
 30
0.0
  0
SEQEND
  5
CF3E
  8
ALPHA
  0
POLYLINE
  5
C042
  8
ALPHA
 66
     1
 10
0.0
 20
0.0
 30
0.0
 70
   128
  0
VERTEX
  5
CF3F
  8
ALPHA
 10
58.113006
 20
129.532092
 30
0.0
  0
VERTEX
  5
CF40
  8
ALPHA
 10
58.292542
 20
129.098293
 30
0.0
  0
VERTEX
  5
CF41
  8
ALPHA
 10
58.712756
 20
128.881858
 30
0.0
  0
SEQEND
  5
CF42
  8
ALPHA
  0
POLYLINE
  5
C043
  8
ALPHA
 66
     1
 10
0.0
 20
0.0
 30
0.0
 70
   128
  0
VERTEX
  5
CF43
  8
ALPHA
 10
58.113022
 20
130.832096
 30
0.0
  0
VERTEX
  5
CF44
  8
ALPHA
 10
58.292748
 20
130.398089
 30
0.0
  0
VERTEX
  5
CF45
  8
ALPHA
 10
58.713203
 20
130.181748
 30
0.0
  0
SEQEND
  5
CF46
  8
ALPHA
  0
POLYLINE
  5
C044
  8
ALPHA
 66
     1
 10
0.0
 20
0.0
 30
0.0
 70
   128
  0
VERTEX
  5
CF47
  8
ALPHA
 10
58.113003
 20
132.132092
 30
0.0
  0
VERTEX
  5
CF48
  8
ALPHA
 10
58.293063
 20
131.69776
 30
0.0
  0
VERTEX
  5
CF49
  8
ALPHA
 10
58.714158
 20
131.481515
 30
0.0
  0
SEQEND
  5
CF4A
  8
ALPHA
  0
LINE
  5
C045
  8
ALPHA
 10
61.438575
 20
126.578011
 30
0.0
 11
59.197762
 21
126.365768
 31
0.0
  0
LINE
  5
C046
  8
ALPHA
 10
58.990084
 20
126.421443
 30
0.0
 11
61.458801
 21
126.684552
 31
0.0
  0
LINE
  5
C047
  8
ALPHA
 10
61.467756
 20
126.580499
 30
0.0
 11
61.438575
 21
126.578011
 31
0.0
  0
LINE
  5
C048
  8
ALPHA
 10
61.457225
 20
127.879599
 30
0.0
 11
59.109003
 21
127.653666
 31
0.0
  0
LINE
  5
C049
  8
ALPHA
 10
58.989577
 20
127.721603
 30
0.0
 11
61.347527
 21
127.975128
 31
0.0
  0
LINE
  5
C04A
  8
ALPHA
 10
59.312548
 20
131.580327
 30
0.0
 11
59.115045
 21
131.554518
 31
0.0
  0
LINE
  5
C04B
  8
ALPHA
 10
59.537431
 20
131.606256
 30
0.0
 11
59.312548
 21
131.580327
 31
0.0
  0
LINE
  5
C04C
  8
ALPHA
 10
59.284872
 20
132.876915
 30
0.0
 11
59.206079
 21
132.86686
 31
0.0
  0
LINE
  5
C04D
  8
ALPHA
 10
58.993747
 20
131.623468
 30
0.0
 11
59.375083
 21
131.687539
 31
0.0
  0
LINE
  5
C04E
  8
ALPHA
 10
59.072324
 20
132.940573
 30
0.0
 11
59.403164
 21
132.991155
 31
0.0
  0
LINE
  5
C04F
  8
ALPHA
 10
58.989579
 20
132.921399
 30
0.0
 11
59.072324
 21
132.940573
 31
0.0
  0
LINE
  5
C050
  8
ALPHA
 10
61.347527
 20
127.975128
 30
0.0
 11
61.623417
 21
127.998576
 31
0.0
  0
POLYLINE
  5
C051
  8
ALPHA
 66
     1
 10
0.0
 20
0.0
 30
0.0
 70
   128
  0
VERTEX
  5
CF4B
  8
ALPHA
 10
58.113008
 20
145.132092
 30
0.0
  0
VERTEX
  5
CF4C
  8
ALPHA
 10
58.292806
 20
144.698018
 30
0.0
  0
VERTEX
  5
CF4D
  8
ALPHA
 10
58.713491
 20
144.481679
 30
0.0
  0
SEQEND
  5
CF4E
  8
ALPHA
  0
POLYLINE
  5
C052
  8
ALPHA
 66
     1
 10
0.0
 20
0.0
 30
0.0
 70
   128
  0
VERTEX
  5
CF4F
  8
ALPHA
 10
59.176805
 20
135.462984
 30
0.0
  0
VERTEX
  5
CF50
  8
ALPHA
 10
58.482973
 20
135.303659
 30
0.0
  0
VERTEX
  5
CF51
  8
ALPHA
 10
58.216908
 20
135.070502
 30
0.0
  0
VERTEX
  5
CF52
  8
ALPHA
 10
58.112889
 20
134.732071
 30
0.0
  0
SEQEND
  5
CF53
  8
ALPHA
  0
POLYLINE
  5
C053
  8
ALPHA
 66
     1
 10
0.0
 20
0.0
 30
0.0
 70
   128
  0
VERTEX
  5
CF54
  8
ALPHA
 10
58.570633
 20
136.640327
 30
0.0
  0
VERTEX
  5
CF55
  8
ALPHA
 10
58.244394
 20
136.409317
 30
0.0
  0
VERTEX
  5
CF56
  8
ALPHA
 10
58.112898
 20
136.032071
 30
0.0
  0
SEQEND
  5
CF57
  8
ALPHA
  0
POLYLINE
  5
C054
  8
ALPHA
 66
     1
 10
0.0
 20
0.0
 30
0.0
 70
   128
  0
VERTEX
  5
CF58
  8
ALPHA
 10
59.175615
 20
134.162824
 30
0.0
  0
VERTEX
  5
CF59
  8
ALPHA
 10
58.482414
 20
134.003382
 30
0.0
  0
VERTEX
  5
CF5A
  8
ALPHA
 10
58.21672
 20
133.770219
 30
0.0
  0
VERTEX
  5
CF5B
  8
ALPHA
 10
58.112884
 20
133.432071
 30
0.0
  0
SEQEND
  5
CF5C
  8
ALPHA
  0
POLYLINE
  5
C055
  8
ALPHA
 66
     1
 10
0.0
 20
0.0
 30
0.0
 70
   128
  0
VERTEX
  5
CF5D
  8
ALPHA
 10
58.113016
 20
134.732094
 30
0.0
  0
VERTEX
  5
CF5E
  8
ALPHA
 10
58.292912
 20
134.297918
 30
0.0
  0
VERTEX
  5
CF5F
  8
ALPHA
 10
58.713668
 20
134.081633
 30
0.0
  0
SEQEND
  5
CF60
  8
ALPHA
  0
POLYLINE
  5
C056
  8
ALPHA
 66
     1
 10
0.0
 20
0.0
 30
0.0
 70
   128
  0
VERTEX
  5
CF61
  8
ALPHA
 10
58.112979
 20
136.032089
 30
0.0
  0
VERTEX
  5
CF62
  8
ALPHA
 10
58.292842
 20
135.597995
 30
0.0
  0
VERTEX
  5
CF63
  8
ALPHA
 10
58.713623
 20
135.381646
 30
0.0
  0
SEQEND
  5
CF64
  8
ALPHA
  0
POLYLINE
  5
C057
  8
ALPHA
 66
     1
 10
0.0
 20
0.0
 30
0.0
 70
   128
  0
VERTEX
  5
CF65
  8
ALPHA
 10
59.187152
 20
138.064363
 30
0.0
  0
VERTEX
  5
CF66
  8
ALPHA
 10
58.487661
 20
137.905913
 30
0.0
  0
VERTEX
  5
CF67
  8
ALPHA
 10
58.218323
 20
137.672668
 30
0.0
  0
VERTEX
  5
CF68
  8
ALPHA
 10
58.112881
 20
137.332072
 30
0.0
  0
SEQEND
  5
CF69
  8
ALPHA
  0
POLYLINE
  5
C058
  8
ALPHA
 66
     1
 10
0.0
 20
0.0
 30
0.0
 70
   128
  0
VERTEX
  5
CF6A
  8
ALPHA
 10
59.204798
 20
139.366692
 30
0.0
  0
VERTEX
  5
CF6B
  8
ALPHA
 10
58.495751
 20
139.209737
 30
0.0
  0
VERTEX
  5
CF6C
  8
ALPHA
 10
58.220823
 20
138.97642
 30
0.0
  0
VERTEX
  5
CF6D
  8
ALPHA
 10
58.112909
 20
138.632068
 30
0.0
  0
SEQEND
  5
CF6E
  8
ALPHA
  0
POLYLINE
  5
C059
  8
ALPHA
 66
     1
 10
0.0
 20
0.0
 30
0.0
 70
   128
  0
VERTEX
  5
CF6F
  8
ALPHA
 10
59.206209
 20
140.666878
 30
0.0
  0
VERTEX
  5
CF70
  8
ALPHA
 10
58.496369
 20
140.510012
 30
0.0
  0
VERTEX
  5
CF71
  8
ALPHA
 10
58.220994
 20
140.276691
 30
0.0
  0
VERTEX
  5
CF72
  8
ALPHA
 10
58.112885
 20
139.932072
 30
0.0
  0
SEQEND
  5
CF73
  8
ALPHA
  0
POLYLINE
  5
C05A
  8
ALPHA
 66
     1
 10
0.0
 20
0.0
 30
0.0
 70
   128
  0
VERTEX
  5
CF74
  8
ALPHA
 10
59.028035
 20
141.941803
 30
0.0
  0
VERTEX
  5
CF75
  8
ALPHA
 10
58.417161
 20
141.767212
 30
0.0
  0
VERTEX
  5
CF76
  8
ALPHA
 10
58.112903
 20
141.232071
 30
0.0
  0
SEQEND
  5
CF77
  8
ALPHA
  0
POLYLINE
  5
C05B
  8
ALPHA
 66
     1
 10
0.0
 20
0.0
 30
0.0
 70
   128
  0
VERTEX
  5
CF78
  8
ALPHA
 10
58.112944
 20
137.332085
 30
0.0
  0
VERTEX
  5
CF79
  8
ALPHA
 10
58.254436
 20
136.941809
 30
0.0
  0
VERTEX
  5
CF7A
  8
ALPHA
 10
58.601624
 20
136.713184
 30
0.0
  0
SEQEND
  5
CF7B
  8
ALPHA
  0
POLYLINE
  5
C05C
  8
ALPHA
 66
     1
 10
0.0
 20
0.0
 30
0.0
 70
   128
  0
VERTEX
  5
CF7C
  8
ALPHA
 10
58.112981
 20
138.632088
 30
0.0
  0
VERTEX
  5
CF7D
  8
ALPHA
 10
58.293085
 20
138.19774
 30
0.0
  0
VERTEX
  5
CF7E
  8
ALPHA
 10
58.714229
 20
137.981493
 30
0.0
  0
SEQEND
  5
CF7F
  8
ALPHA
  0
POLYLINE
  5
C05D
  8
ALPHA
 66
     1
 10
0.0
 20
0.0
 30
0.0
 70
   128
  0
VERTEX
  5
CF80
  8
ALPHA
 10
58.112986
 20
139.93209
 30
0.0
  0
VERTEX
  5
CF81
  8
ALPHA
 10
58.292731
 20
139.498109
 30
0.0
  0
VERTEX
  5
CF82
  8
ALPHA
 10
58.713281
 20
139.281729
 30
0.0
  0
SEQEND
  5
CF83
  8
ALPHA
  0
POLYLINE
  5
C05E
  8
ALPHA
 66
     1
 10
0.0
 20
0.0
 30
0.0
 70
   128
  0
VERTEX
  5
CF84
  8
ALPHA
 10
58.112987
 20
141.232091
 30
0.0
  0
VERTEX
  5
CF85
  8
ALPHA
 10
58.292943
 20
140.797889
 30
0.0
  0
VERTEX
  5
CF86
  8
ALPHA
 10
58.713823
 20
140.581595
 30
0.0
  0
SEQEND
  5
CF87
  8
ALPHA
  0
POLYLINE
  5
C05F
  8
ALPHA
 66
     1
 10
0.0
 20
0.0
 30
0.0
 70
   128
  0
VERTEX
  5
CF88
  8
ALPHA
 10
59.212619
 20
143.267715
 30
0.0
  0
VERTEX
  5
CF89
  8
ALPHA
 10
58.499315
 20
143.111378
 30
0.0
  0
VERTEX
  5
CF8A
  8
ALPHA
 10
58.221897
 20
142.878034
 30
0.0
  0
VERTEX
  5
CF8B
  8
ALPHA
 10
58.112899
 20
142.53207
 30
0.0
  0
SEQEND
  5
CF8C
  8
ALPHA
  0
POLYLINE
  5
C060
  8
ALPHA
 66
     1
 10
0.0
 20
0.0
 30
0.0
 70
   128
  0
VERTEX
  5
CF8D
  8
ALPHA
 10
59.16115
 20
144.560876
 30
0.0
  0
VERTEX
  5
CF8E
  8
ALPHA
 10
58.475866
 20
144.400149
 30
0.0
  0
VERTEX
  5
CF8F
  8
ALPHA
 10
58.214736
 20
144.167159
 30
0.0
  0
VERTEX
  5
CF90
  8
ALPHA
 10
58.112877
 20
143.832071
 30
0.0
  0
SEQEND
  5
CF91
  8
ALPHA
  0
POLYLINE
  5
C061
  8
ALPHA
 66
     1
 10
0.0
 20
0.0
 30
0.0
 70
   128
  0
VERTEX
  5
CF92
  8
ALPHA
 10
58.112913
 20
142.53208
 30
0.0
  0
VERTEX
  5
CF93
  8
ALPHA
 10
58.292915
 20
142.097929
 30
0.0
  0
VERTEX
  5
CF94
  8
ALPHA
 10
58.713889
 20
141.881575
 30
0.0
  0
SEQEND
  5
CF95
  8
ALPHA
  0
POLYLINE
  5
C062
  8
ALPHA
 66
     1
 10
0.0
 20
0.0
 30
0.0
 70
   128
  0
VERTEX
  5
CF96
  8
ALPHA
 10
58.112981
 20
143.832088
 30
0.0
  0
VERTEX
  5
CF97
  8
ALPHA
 10
58.292464
 20
143.398387
 30
0.0
  0
VERTEX
  5
CF98
  8
ALPHA
 10
58.71256
 20
143.181905
 30
0.0
  0
SEQEND
  5
CF99
  8
ALPHA
  0
LINE
  5
C063
  8
ALPHA
 10
59.205087
 20
136.766731
 30
0.0
 11
58.570633
 21
136.640327
 31
0.0
  0
LINE
  5
C064
  8
ALPHA
 10
58.595977
 20
136.715059
 30
0.0
 11
58.715085
 21
136.681261
 31
0.0
  0
LINE
  5
C065
  8
ALPHA
 10
59.647932
 20
139.418068
 30
0.0
 11
59.204798
 21
139.366692
 31
0.0
  0
LINE
  5
C066
  8
ALPHA
 10
59.288935
 20
140.676988
 30
0.0
 11
59.263489
 21
140.771953
 31
0.0
  0
LINE
  5
C067
  8
ALPHA
 10
59.626917
 20
139.415621
 30
0.0
 11
59.600381
 21
139.514655
 31
0.0
  0
LINE
  5
C068
  8
ALPHA
 10
59.212701
 20
142.064564
 30
0.0
 11
59.212701
 21
141.967481
 31
0.0
  0
LINE
  5
C069
  8
ALPHA
 10
59.212701
 20
143.364373
 30
0.0
 11
59.212701
 21
143.267725
 31
0.0
  0
LINE
  5
C06A
  8
ALPHA
 10
59.212701
 20
144.664346
 30
0.0
 11
59.212701
 21
144.567377
 31
0.0
  0
LINE
  5
C06B
  8
ALPHA
 10
62.36368
 20
140.961499
 30
0.0
 11
61.186221
 21
140.961499
 31
0.0
  0
POLYLINE
  5
C06C
  8
ALPHA
 66
     1
 10
0.0
 20
0.0
 30
0.0
 70
   128
  0
VERTEX
  5
CF9A
  8
ALPHA
 10
59.210437
 20
145.867431
 30
0.0
  0
VERTEX
  5
CF9B
  8
ALPHA
 10
58.498303
 20
145.710903
 30
0.0
  0
VERTEX
  5
CF9C
  8
ALPHA
 10
58.221584
 20
145.477574
 30
0.0
  0
VERTEX
  5
CF9D
  8
ALPHA
 10
58.112882
 20
145.132072
 30
0.0
  0
SEQEND
  5
CF9E
  8
ALPHA
  0
POLYLINE
  5
C06D
  8
ALPHA
 66
     1
 10
0.0
 20
0.0
 30
0.0
 70
   128
  0
VERTEX
  5
CF9F
  8
ALPHA
 10
59.207852
 20
147.167093
 30
0.0
  0
VERTEX
  5
CFA0
  8
ALPHA
 10
58.497146
 20
147.010383
 30
0.0
  0
VERTEX
  5
CFA1
  8
ALPHA
 10
58.221248
 20
146.77706
 30
0.0
  0
VERTEX
  5
CFA2
  8
ALPHA
 10
58.112906
 20
146.43207
 30
0.0
  0
SEQEND
  5
CFA3
  8
ALPHA
  0
POLYLINE
  5
C06E
  8
ALPHA
 66
     1
 10
0.0
 20
0.0
 30
0.0
 70
   128
  0
VERTEX
  5
CFA4
  8
ALPHA
 10
58.113007
 20
146.432094
 30
0.0
  0
VERTEX
  5
CFA5
  8
ALPHA
 10
58.292851
 20
145.997982
 30
0.0
  0
VERTEX
  5
CFA6
  8
ALPHA
 10
58.713527
 20
145.781668
 30
0.0
  0
SEQEND
  5
CFA7
  8
ALPHA
  0
LINE
  5
C06F
  8
ALPHA
 10
58.308646
 20
147.282078
 30
0.0
 11
58.712752
 21
147.081859
 31
0.0
  0
LINE
  5
C070
  8
ALPHA
 10
58.162701
 20
147.282076
 30
0.0
 11
58.162701
 21
149.082076
 31
0.0
  0
LINE
  5
C071
  8
ALPHA
 10
58.162701
 20
149.082076
 30
0.0
 11
58.362701
 21
149.282076
 31
0.0
  0
LINE
  5
C072
  8
ALPHA
 10
59.275669
 20
147.175768
 30
0.0
 11
59.207852
 21
147.167093
 31
0.0
  0
LINE
  5
C073
  8
ALPHA
 10
59.434718
 20
147.194772
 30
0.0
 11
59.275669
 21
147.175768
 31
0.0
  0
LINE
  5
C074
  8
ALPHA
 10
59.450286
 20
147.196547
 30
0.0
 11
59.434718
 21
147.194772
 31
0.0
  0
LINE
  5
C075
  8
ALPHA
 10
60.317663
 20
147.282076
 30
0.0
 11
59.450286
 21
147.196547
 31
0.0
  0
LINE
  5
C076
  8
ALPHA
 10
59.264112
 20
147.272267
 30
0.0
 11
59.334068
 21
147.282078
 31
0.0
  0
LINE
  5
C077
  8
ALPHA
 10
58.995089
 20
147.224108
 30
0.0
 11
59.264112
 21
147.272267
 31
0.0
  0
ARC
  5
C078
  8
ALPHA
 10
59.262701
 20
147.082076
 30
0.0
 40
0.2
 50
34.251843
 51
79.19832
  0
LINE
  5
C079
  8
ALPHA
 10
59.212701
 20
145.964407
 30
0.0
 11
59.212701
 21
145.867707
 31
0.0
  0
POLYLINE
  5
C07A
  8
ALPHA
 66
     1
 10
0.0
 20
0.0
 30
0.0
 70
   128
  0
VERTEX
  5
CFA8
  8
ALPHA
 10
64.212486
 20
132.782068
 30
0.0
  0
VERTEX
  5
CFA9
  8
ALPHA
 10
64.032792
 20
133.215921
 30
0.0
  0
VERTEX
  5
CFAA
  8
ALPHA
 10
63.612604
 20
133.432305
 30
0.0
  0
SEQEND
  5
CFAB
  8
ALPHA
  0
LINE
  5
C07B
  8
ALPHA
 10
63.335288
 20
121.5927
 30
0.0
 11
63.303503
 21
121.584287
 31
0.0
  0
POLYLINE
  5
C07C
  8
ALPHA
 66
     1
 10
0.0
 20
0.0
 30
0.0
 70
   128
  0
VERTEX
  5
CFAC
  8
ALPHA
 10
64.212523
 20
121.082073
 30
0.0
  0
VERTEX
  5
CFAD
  8
ALPHA
 10
64.03734
 20
121.511124
 30
0.0
  0
VERTEX
  5
CFAE
  8
ALPHA
 10
63.625296
 20
121.729153
 30
0.0
  0
SEQEND
  5
CFAF
  8
ALPHA
  0
POLYLINE
  5
C07D
  8
ALPHA
 66
     1
 10
0.0
 20
0.0
 30
0.0
 70
   128
  0
VERTEX
  5
CFB0
  8
ALPHA
 10
63.114461
 20
115.146657
 30
0.0
  0
VERTEX
  5
CFB1
  8
ALPHA
 10
63.826921
 20
115.303159
 30
0.0
  0
VERTEX
  5
CFB2
  8
ALPHA
 10
64.103744
 20
115.536538
 30
0.0
  0
VERTEX
  5
CFB3
  8
ALPHA
 10
64.212415
 20
115.882091
 30
0.0
  0
SEQEND
  5
CFB4
  8
ALPHA
  0
POLYLINE
  5
C07E
  8
ALPHA
 66
     1
 10
0.0
 20
0.0
 30
0.0
 70
   128
  0
VERTEX
  5
CFB5
  8
ALPHA
 10
64.212539
 20
110.682074
 30
0.0
  0
VERTEX
  5
CFB6
  8
ALPHA
 10
64.032274
 20
111.116448
 30
0.0
  0
VERTEX
  5
CFB7
  8
ALPHA
 10
63.611136
 20
111.332669
 30
0.0
  0
SEQEND
  5
CFB8
  8
ALPHA
  0
POLYLINE
  5
C07F
  8
ALPHA
 66
     1
 10
0.0
 20
0.0
 30
0.0
 70
   128
  0
VERTEX
  5
CFB9
  8
ALPHA
 10
64.212552
 20
111.982075
 30
0.0
  0
VERTEX
  5
CFBA
  8
ALPHA
 10
64.03247
 20
112.41624
 30
0.0
  0
VERTEX
  5
CFBB
  8
ALPHA
 10
63.611676
 20
112.632538
 30
0.0
  0
SEQEND
  5
CFBC
  8
ALPHA
  0
POLYLINE
  5
C080
  8
ALPHA
 66
     1
 10
0.0
 20
0.0
 30
0.0
 70
   128
  0
VERTEX
  5
CFBD
  8
ALPHA
 10
63.131984
 20
111.248959
 30
0.0
  0
VERTEX
  5
CFBE
  8
ALPHA
 10
63.834937
 20
111.406896
 30
0.0
  0
VERTEX
  5
CFBF
  8
ALPHA
 10
64.106205
 20
111.640228
 30
0.0
  0
VERTEX
  5
CFC0
  8
ALPHA
 10
64.212418
 20
111.98209
 30
0.0
  0
SEQEND
  5
CFC1
  8
ALPHA
  0
POLYLINE
  5
C081
  8
ALPHA
 66
     1
 10
0.0
 20
0.0
 30
0.0
 70
   128
  0
VERTEX
  5
CFC2
  8
ALPHA
 10
64.212535
 20
113.282072
 30
0.0
  0
VERTEX
  5
CFC3
  8
ALPHA
 10
64.032094
 20
113.716635
 30
0.0
  0
VERTEX
  5
CFC4
  8
ALPHA
 10
63.61064
 20
113.932789
 30
0.0
  0
SEQEND
  5
CFC5
  8
ALPHA
  0
POLYLINE
  5
C082
  8
ALPHA
 66
     1
 10
0.0
 20
0.0
 30
0.0
 70
   128
  0
VERTEX
  5
CFC6
  8
ALPHA
 10
64.212529
 20
114.582072
 30
0.0
  0
VERTEX
  5
CFC7
  8
ALPHA
 10
64.032361
 20
115.016358
 30
0.0
  0
VERTEX
  5
CFC8
  8
ALPHA
 10
63.611365
 20
115.232613
 30
0.0
  0
SEQEND
  5
CFC9
  8
ALPHA
  0
POLYLINE
  5
C083
  8
ALPHA
 66
     1
 10
0.0
 20
0.0
 30
0.0
 70
   128
  0
VERTEX
  5
CFCA
  8
ALPHA
 10
63.106846
 20
112.545664
 30
0.0
  0
VERTEX
  5
CFCB
  8
ALPHA
 10
63.823427
 20
112.701557
 30
0.0
  0
VERTEX
  5
CFCC
  8
ALPHA
 10
64.102676
 20
112.93495
 30
0.0
  0
VERTEX
  5
CFCD
  8
ALPHA
 10
64.212407
 20
113.282089
 30
0.0
  0
SEQEND
  5
CFCE
  8
ALPHA
  0
POLYLINE
  5
C084
  8
ALPHA
 66
     1
 10
0.0
 20
0.0
 30
0.0
 70
   128
  0
VERTEX
  5
CFCF
  8
ALPHA
 10
63.16423
 20
113.853273
 30
0.0
  0
VERTEX
  5
CFD0
  8
ALPHA
 10
63.849578
 20
114.014016
 30
0.0
  0
VERTEX
  5
CFD1
  8
ALPHA
 10
64.110666
 20
114.24706
 30
0.0
  0
VERTEX
  5
CFD2
  8
ALPHA
 10
64.212422
 20
114.582089
 30
0.0
  0
SEQEND
  5
CFD3
  8
ALPHA
  0
POLYLINE
  5
C085
  8
ALPHA
 66
     1
 10
0.0
 20
0.0
 30
0.0
 70
   128
  0
VERTEX
  5
CFD4
  8
ALPHA
 10
64.212484
 20
115.882069
 30
0.0
  0
VERTEX
  5
CFD5
  8
ALPHA
 10
64.032888
 20
116.31583
 30
0.0
  0
VERTEX
  5
CFD6
  8
ALPHA
 10
63.612829
 20
116.53225
 30
0.0
  0
SEQEND
  5
CFD7
  8
ALPHA
  0
POLYLINE
  5
C086
  8
ALPHA
 66
     1
 10
0.0
 20
0.0
 30
0.0
 70
   128
  0
VERTEX
  5
CFD8
  8
ALPHA
 10
64.212497
 20
117.18207
 30
0.0
  0
VERTEX
  5
CFD9
  8
ALPHA
 10
64.032564
 20
117.616157
 30
0.0
  0
VERTEX
  5
CFDA
  8
ALPHA
 10
63.611928
 20
117.83247
 30
0.0
  0
SEQEND
  5
CFDB
  8
ALPHA
  0
POLYLINE
  5
C087
  8
ALPHA
 66
     1
 10
0.0
 20
0.0
 30
0.0
 70
   128
  0
VERTEX
  5
CFDC
  8
ALPHA
 10
63.121508
 20
116.447579
 30
0.0
  0
VERTEX
  5
CFDD
  8
ALPHA
 10
63.830125
 20
116.604632
 30
0.0
  0
VERTEX
  5
CFDE
  8
ALPHA
 10
64.104716
 20
116.838001
 30
0.0
  0
VERTEX
  5
CFDF
  8
ALPHA
 10
64.212394
 20
117.182093
 30
0.0
  0
SEQEND
  5
CFE0
  8
ALPHA
  0
LINE
  5
C088
  8
ALPHA
 10
63.303503
 20
121.584287
 30
0.0
 11
63.236718
 21
121.570431
 31
0.0
  0
POLYLINE
  5
C089
  8
ALPHA
 66
     1
 10
0.0
 20
0.0
 30
0.0
 70
   128
  0
VERTEX
  5
CFE1
  8
ALPHA
 10
64.212522
 20
118.482071
 30
0.0
  0
VERTEX
  5
CFE2
  8
ALPHA
 10
64.032696
 20
118.916012
 30
0.0
  0
VERTEX
  5
CFE3
  8
ALPHA
 10
63.612335
 20
119.132373
 30
0.0
  0
SEQEND
  5
CFE4
  8
ALPHA
  0
POLYLINE
  5
C08A
  8
ALPHA
 66
     1
 10
0.0
 20
0.0
 30
0.0
 70
   128
  0
VERTEX
  5
CFE5
  8
ALPHA
 10
64.212638
 20
119.78208
 30
0.0
  0
VERTEX
  5
CFE6
  8
ALPHA
 10
64.032042
 20
120.216668
 30
0.0
  0
VERTEX
  5
CFE7
  8
ALPHA
 10
63.610451
 20
120.432837
 30
0.0
  0
SEQEND
  5
CFE8
  8
ALPHA
  0
POLYLINE
  5
C08B
  8
ALPHA
 66
     1
 10
0.0
 20
0.0
 30
0.0
 70
   128
  0
VERTEX
  5
CFE9
  8
ALPHA
 10
63.634421
 20
117.837324
 30
0.0
  0
VERTEX
  5
CFEA
  8
ALPHA
 10
64.040548
 20
118.056463
 30
0.0
  0
VERTEX
  5
CFEB
  8
ALPHA
 10
64.212416
 20
118.482089
 30
0.0
  0
SEQEND
  5
CFEC
  8
ALPHA
  0
LINE
  5
C08C
  8
ALPHA
 10
63.336608
 20
117.778445
 30
0.0
 11
63.634421
 21
117.837324
 31
0.0
  0
LINE
  5
C08D
  8
ALPHA
 10
63.148687
 20
117.751179
 30
0.0
 11
63.336608
 21
117.778445
 31
0.0
  0
POLYLINE
  5
C08E
  8
ALPHA
 66
     1
 10
0.0
 20
0.0
 30
0.0
 70
   128
  0
VERTEX
  5
CFED
  8
ALPHA
 10
63.292195
 20
119.071565
 30
0.0
  0
VERTEX
  5
CFEE
  8
ALPHA
 10
63.906051
 20
119.245604
 30
0.0
  0
VERTEX
  5
CFEF
  8
ALPHA
 10
64.21238
 20
119.782094
 30
0.0
  0
SEQEND
  5
CFF0
  8
ALPHA
  0
POLYLINE
  5
C08F
  8
ALPHA
 66
     1
 10
0.0
 20
0.0
 30
0.0
 70
   128
  0
VERTEX
  5
CFF1
  8
ALPHA
 10
63.148537
 20
120.351161
 30
0.0
  0
VERTEX
  5
CFF2
  8
ALPHA
 10
63.84244
 20
120.510491
 30
0.0
  0
VERTEX
  5
CFF3
  8
ALPHA
 10
64.108485
 20
120.743709
 30
0.0
  0
VERTEX
  5
CFF4
  8
ALPHA
 10
64.212393
 20
121.082094
 30
0.0
  0
SEQEND
  5
CFF5
  8
ALPHA
  0
POLYLINE
  5
C090
  8
ALPHA
 66
     1
 10
0.0
 20
0.0
 30
0.0
 70
   128
  0
VERTEX
  5
CFF6
  8
ALPHA
 10
63.126772
 20
126.84827
 30
0.0
  0
VERTEX
  5
CFF7
  8
ALPHA
 10
63.832566
 20
127.005805
 30
0.0
  0
VERTEX
  5
CFF8
  8
ALPHA
 10
64.10553
 20
127.239143
 30
0.0
  0
VERTEX
  5
CFF9
  8
ALPHA
 10
64.212529
 20
127.582078
 30
0.0
  0
SEQEND
  5
CFFA
  8
ALPHA
  0
LINE
  5
C091
  8
ALPHA
 10
63.625296
 20
121.729153
 30
0.0
 11
63.612211
 21
121.732403
 31
0.0
  0
LINE
  5
C092
  8
ALPHA
 10
63.143063
 20
121.650429
 30
0.0
 11
63.418126
 21
121.691991
 31
0.0
  0
LINE
  5
C093
  8
ALPHA
 10
63.329684
 20
122.889961
 30
0.0
 11
63.239408
 21
122.871177
 31
0.0
  0
POLYLINE
  5
C094
  8
ALPHA
 66
     1
 10
0.0
 20
0.0
 30
0.0
 70
   128
  0
VERTEX
  5
CFFB
  8
ALPHA
 10
64.212532
 20
122.382073
 30
0.0
  0
VERTEX
  5
CFFC
  8
ALPHA
 10
64.032327
 20
122.816392
 30
0.0
  0
VERTEX
  5
CFFD
  8
ALPHA
 10
63.611265
 20
123.032637
 30
0.0
  0
SEQEND
  5
CFFE
  8
ALPHA
  0
POLYLINE
  5
C095
  8
ALPHA
 66
     1
 10
0.0
 20
0.0
 30
0.0
 70
   128
  0
VERTEX
  5
CFFF
  8
ALPHA
 10
64.212485
 20
123.682068
 30
0.0
  0
VERTEX
  5
D000
  8
ALPHA
 10
64.032867
 20
124.115849
 30
0.0
  0
VERTEX
  5
D001
  8
ALPHA
 10
63.612769
 20
124.332263
 30
0.0
  0
SEQEND
  5
D002
  8
ALPHA
  0
POLYLINE
  5
C096
  8
ALPHA
 66
     1
 10
0.0
 20
0.0
 30
0.0
 70
   128
  0
VERTEX
  5
D003
  8
ALPHA
 10
64.212503
 20
124.98207
 30
0.0
  0
VERTEX
  5
D004
  8
ALPHA
 10
64.032117
 20
125.41662
 30
0.0
  0
VERTEX
  5
D005
  8
ALPHA
 10
63.610714
 20
125.632771
 30
0.0
  0
SEQEND
  5
D006
  8
ALPHA
  0
POLYLINE
  5
C097
  8
ALPHA
 66
     1
 10
0.0
 20
0.0
 30
0.0
 70
   128
  0
VERTEX
  5
D007
  8
ALPHA
 10
64.212498
 20
126.282071
 30
0.0
  0
VERTEX
  5
D008
  8
ALPHA
 10
64.032715
 20
126.715998
 30
0.0
  0
VERTEX
  5
D009
  8
ALPHA
 10
63.612289
 20
126.932382
 30
0.0
  0
SEQEND
  5
D00A
  8
ALPHA
  0
POLYLINE
  5
C098
  8
ALPHA
 66
     1
 10
0.0
 20
0.0
 30
0.0
 70
   128
  0
VERTEX
  5
D00B
  8
ALPHA
 10
63.117214
 20
122.947015
 30
0.0
  0
VERTEX
  5
D00C
  8
ALPHA
 10
63.828185
 20
123.10374
 30
0.0
  0
VERTEX
  5
D00D
  8
ALPHA
 10
64.104133
 20
123.337116
 30
0.0
  0
VERTEX
  5
D00E
  8
ALPHA
 10
64.212416
 20
123.682089
 30
0.0
  0
SEQEND
  5
D00F
  8
ALPHA
  0
POLYLINE
  5
C099
  8
ALPHA
 66
     1
 10
0.0
 20
0.0
 30
0.0
 70
   128
  0
VERTEX
  5
D010
  8
ALPHA
 10
63.124154
 20
124.247926
 30
0.0
  0
VERTEX
  5
D011
  8
ALPHA
 10
63.831337
 20
124.405197
 30
0.0
  0
VERTEX
  5
D012
  8
ALPHA
 10
64.105089
 20
124.638559
 30
0.0
  0
VERTEX
  5
D013
  8
ALPHA
 10
64.212396
 20
124.982093
 30
0.0
  0
SEQEND
  5
D014
  8
ALPHA
  0
POLYLINE
  5
C09A
  8
ALPHA
 66
     1
 10
0.0
 20
0.0
 30
0.0
 70
   128
  0
VERTEX
  5
D015
  8
ALPHA
 10
63.177513
 20
125.555082
 30
0.0
  0
VERTEX
  5
D016
  8
ALPHA
 10
63.85557
 20
125.717047
 30
0.0
  0
VERTEX
  5
D017
  8
ALPHA
 10
64.212431
 20
126.282089
 30
0.0
  0
SEQEND
  5
D018
  8
ALPHA
  0
POLYLINE
  5
C09B
  8
ALPHA
 66
     1
 10
0.0
 20
0.0
 30
0.0
 70
   128
  0
VERTEX
  5
D019
  8
ALPHA
 10
63.417572
 20
121.691906
 30
0.0
  0
VERTEX
  5
D01A
  8
ALPHA
 10
63.958536
 20
121.881755
 30
0.0
  0
VERTEX
  5
D01B
  8
ALPHA
 10
64.21258
 20
122.382073
 30
0.0
  0
SEQEND
  5
D01C
  8
ALPHA
  0
POLYLINE
  5
C09C
  8
ALPHA
 66
     1
 10
0.0
 20
0.0
 30
0.0
 70
   128
  0
VERTEX
  5
D01D
  8
ALPHA
 10
64.212509
 20
127.58207
 30
0.0
  0
VERTEX
  5
D01E
  8
ALPHA
 10
64.032285
 20
128.016445
 30
0.0
  0
VERTEX
  5
D01F
  8
ALPHA
 10
63.611217
 20
128.232646
 30
0.0
  0
SEQEND
  5
D020
  8
ALPHA
  0
POLYLINE
  5
C09D
  8
ALPHA
 66
     1
 10
0.0
 20
0.0
 30
0.0
 70
   128
  0
VERTEX
  5
D021
  8
ALPHA
 10
64.212516
 20
128.882071
 30
0.0
  0
VERTEX
  5
D022
  8
ALPHA
 10
64.032386
 20
129.316335
 30
0.0
  0
VERTEX
  5
D023
  8
ALPHA
 10
63.61143
 20
129.532594
 30
0.0
  0
SEQEND
  5
D024
  8
ALPHA
  0
POLYLINE
  5
C09E
  8
ALPHA
 66
     1
 10
0.0
 20
0.0
 30
0.0
 70
   128
  0
VERTEX
  5
D025
  8
ALPHA
 10
64.21251
 20
130.182071
 30
0.0
  0
VERTEX
  5
D026
  8
ALPHA
 10
64.032493
 20
130.616229
 30
0.0
  0
VERTEX
  5
D027
  8
ALPHA
 10
63.611782
 20
130.832509
 30
0.0
  0
SEQEND
  5
D028
  8
ALPHA
  0
POLYLINE
  5
C09F
  8
ALPHA
 66
     1
 10
0.0
 20
0.0
 30
0.0
 70
   128
  0
VERTEX
  5
D029
  8
ALPHA
 10
64.212513
 20
131.482072
 30
0.0
  0
VERTEX
  5
D02A
  8
ALPHA
 10
64.032417
 20
131.916306
 30
0.0
  0
VERTEX
  5
D02B
  8
ALPHA
 10
63.611516
 20
132.132575
 30
0.0
  0
SEQEND
  5
D02C
  8
ALPHA
  0
POLYLINE
  5
C0A0
  8
ALPHA
 66
     1
 10
0.0
 20
0.0
 30
0.0
 70
   128
  0
VERTEX
  5
D02D
  8
ALPHA
 10
63.155649
 20
128.152114
 30
0.0
  0
VERTEX
  5
D02E
  8
ALPHA
 10
63.845696
 20
128.312089
 30
0.0
  0
VERTEX
  5
D02F
  8
ALPHA
 10
64.109488
 20
128.545238
 30
0.0
  0
VERTEX
  5
D030
  8
ALPHA
 10
64.212418
 20
128.882089
 30
0.0
  0
SEQEND
  5
D031
  8
ALPHA
  0
POLYLINE
  5
C0A1
  8
ALPHA
 66
     1
 10
0.0
 20
0.0
 30
0.0
 70
   128
  0
VERTEX
  5
D032
  8
ALPHA
 10
63.148297
 20
129.451128
 30
0.0
  0
VERTEX
  5
D033
  8
ALPHA
 10
63.84234
 20
129.610442
 30
0.0
  0
VERTEX
  5
D034
  8
ALPHA
 10
64.108458
 20
129.843665
 30
0.0
  0
VERTEX
  5
D035
  8
ALPHA
 10
64.212398
 20
130.182093
 30
0.0
  0
SEQEND
  5
D036
  8
ALPHA
  0
POLYLINE
  5
C0A2
  8
ALPHA
 66
     1
 10
0.0
 20
0.0
 30
0.0
 70
   128
  0
VERTEX
  5
D037
  8
ALPHA
 10
63.121871
 20
130.747627
 30
0.0
  0
VERTEX
  5
D038
  8
ALPHA
 10
63.830298
 20
130.904714
 30
0.0
  0
VERTEX
  5
D039
  8
ALPHA
 10
64.104772
 20
131.138082
 30
0.0
  0
VERTEX
  5
D03A
  8
ALPHA
 10
64.2124
 20
131.482093
 30
0.0
  0
SEQEND
  5
D03B
  8
ALPHA
  0
POLYLINE
  5
C0A3
  8
ALPHA
 66
     1
 10
0.0
 20
0.0
 30
0.0
 70
   128
  0
VERTEX
  5
D03C
  8
ALPHA
 10
63.139223
 20
132.049917
 30
0.0
  0
VERTEX
  5
D03D
  8
ALPHA
 10
63.838237
 20
132.208466
 30
0.0
  0
VERTEX
  5
D03E
  8
ALPHA
 10
64.107215
 20
132.441759
 30
0.0
  0
VERTEX
  5
D03F
  8
ALPHA
 10
64.212415
 20
132.782089
 30
0.0
  0
SEQEND
  5
D040
  8
ALPHA
  0
POLYLINE
  5
C0A4
  8
ALPHA
 66
     1
 10
0.0
 20
0.0
 30
0.0
 70
   128
  0
VERTEX
  5
D041
  8
ALPHA
 10
64.212536
 20
144.482073
 30
0.0
  0
VERTEX
  5
D042
  8
ALPHA
 10
64.032396
 20
144.916317
 30
0.0
  0
VERTEX
  5
D043
  8
ALPHA
 10
63.611396
 20
145.132602
 30
0.0
  0
SEQEND
  5
D044
  8
ALPHA
  0
POLYLINE
  5
C0A5
  8
ALPHA
 66
     1
 10
0.0
 20
0.0
 30
0.0
 70
   128
  0
VERTEX
  5
D045
  8
ALPHA
 10
63.092694
 20
138.543835
 30
0.0
  0
VERTEX
  5
D046
  8
ALPHA
 10
63.816914
 20
138.698639
 30
0.0
  0
VERTEX
  5
D047
  8
ALPHA
 10
64.100665
 20
138.931988
 30
0.0
  0
VERTEX
  5
D048
  8
ALPHA
 10
64.212412
 20
139.282089
 30
0.0
  0
SEQEND
  5
D049
  8
ALPHA
  0
POLYLINE
  5
C0A6
  8
ALPHA
 66
     1
 10
0.0
 20
0.0
 30
0.0
 70
   128
  0
VERTEX
  5
D04A
  8
ALPHA
 10
64.21252
 20
134.082071
 30
0.0
  0
VERTEX
  5
D04B
  8
ALPHA
 10
64.032247
 20
134.51648
 30
0.0
  0
VERTEX
  5
D04C
  8
ALPHA
 10
63.611079
 20
134.73268
 30
0.0
  0
SEQEND
  5
D04D
  8
ALPHA
  0
POLYLINE
  5
C0A7
  8
ALPHA
 66
     1
 10
0.0
 20
0.0
 30
0.0
 70
   128
  0
VERTEX
  5
D04E
  8
ALPHA
 10
64.21252
 20
135.382072
 30
0.0
  0
VERTEX
  5
D04F
  8
ALPHA
 10
64.032826
 20
135.815877
 30
0.0
  0
VERTEX
  5
D050
  8
ALPHA
 10
63.612643
 20
136.032297
 30
0.0
  0
SEQEND
  5
D051
  8
ALPHA
  0
POLYLINE
  5
C0A8
  8
ALPHA
 66
     1
 10
0.0
 20
0.0
 30
0.0
 70
   128
  0
VERTEX
  5
D052
  8
ALPHA
 10
64.212504
 20
136.682071
 30
0.0
  0
VERTEX
  5
D053
  8
ALPHA
 10
64.032523
 20
137.1162
 30
0.0
  0
VERTEX
  5
D054
  8
ALPHA
 10
63.611869
 20
137.332487
 30
0.0
  0
SEQEND
  5
D055
  8
ALPHA
  0
POLYLINE
  5
C0A9
  8
ALPHA
 66
     1
 10
0.0
 20
0.0
 30
0.0
 70
   128
  0
VERTEX
  5
D056
  8
ALPHA
 10
63.101645
 20
133.34499
 30
0.0
  0
VERTEX
  5
D057
  8
ALPHA
 10
63.821034
 20
133.500479
 30
0.0
  0
VERTEX
  5
D058
  8
ALPHA
 10
64.101932
 20
133.733852
 30
0.0
  0
VERTEX
  5
D059
  8
ALPHA
 10
64.212411
 20
134.082089
 30
0.0
  0
SEQEND
  5
D05A
  8
ALPHA
  0
POLYLINE
  5
C0AA
  8
ALPHA
 66
     1
 10
0.0
 20
0.0
 30
0.0
 70
   128
  0
VERTEX
  5
D05B
  8
ALPHA
 10
63.150918
 20
134.65148
 30
0.0
  0
VERTEX
  5
D05C
  8
ALPHA
 10
63.843561
 20
134.811046
 30
0.0
  0
VERTEX
  5
D05D
  8
ALPHA
 10
64.108841
 20
135.044241
 30
0.0
  0
VERTEX
  5
D05E
  8
ALPHA
 10
64.212426
 20
135.382089
 30
0.0
  0
SEQEND
  5
D05F
  8
ALPHA
  0
POLYLINE
  5
C0AB
  8
ALPHA
 66
     1
 10
0.0
 20
0.0
 30
0.0
 70
   128
  0
VERTEX
  5
D060
  8
ALPHA
 10
63.116326
 20
135.946901
 30
0.0
  0
VERTEX
  5
D061
  8
ALPHA
 10
63.82777
 20
136.10354
 30
0.0
  0
VERTEX
  5
D062
  8
ALPHA
 10
64.10401
 20
136.336938
 30
0.0
  0
VERTEX
  5
D063
  8
ALPHA
 10
64.212399
 20
136.682092
 30
0.0
  0
SEQEND
  5
D064
  8
ALPHA
  0
POLYLINE
  5
C0AC
  8
ALPHA
 66
     1
 10
0.0
 20
0.0
 30
0.0
 70
   128
  0
VERTEX
  5
D065
  8
ALPHA
 10
64.212537
 20
137.982072
 30
0.0
  0
VERTEX
  5
D066
  8
ALPHA
 10
64.032503
 20
138.416209
 30
0.0
  0
VERTEX
  5
D067
  8
ALPHA
 10
63.61178
 20
138.63251
 30
0.0
  0
SEQEND
  5
D068
  8
ALPHA
  0
POLYLINE
  5
C0AD
  8
ALPHA
 66
     1
 10
0.0
 20
0.0
 30
0.0
 70
   128
  0
VERTEX
  5
D069
  8
ALPHA
 10
63.128239
 20
137.248463
 30
0.0
  0
VERTEX
  5
D06A
  8
ALPHA
 10
63.833228
 20
137.406088
 30
0.0
  0
VERTEX
  5
D06B
  8
ALPHA
 10
64.105682
 20
137.63944
 30
0.0
  0
VERTEX
  5
D06C
  8
ALPHA
 10
64.212413
 20
137.982089
 30
0.0
  0
SEQEND
  5
D06D
  8
ALPHA
  0
LINE
  5
C0AE
  8
ALPHA
 10
63.335241
 20
141.092686
 30
0.0
 11
63.099942
 21
141.047371
 31
0.0
  0
POLYLINE
  5
C0AF
  8
ALPHA
 66
     1
 10
0.0
 20
0.0
 30
0.0
 70
   128
  0
VERTEX
  5
D06E
  8
ALPHA
 10
64.212504
 20
139.28207
 30
0.0
  0
VERTEX
  5
D06F
  8
ALPHA
 10
64.032425
 20
139.716299
 30
0.0
  0
VERTEX
  5
D070
  8
ALPHA
 10
63.611549
 20
139.932564
 30
0.0
  0
SEQEND
  5
D071
  8
ALPHA
  0
POLYLINE
  5
C0B0
  8
ALPHA
 66
     1
 10
0.0
 20
0.0
 30
0.0
 70
   128
  0
VERTEX
  5
D072
  8
ALPHA
 10
64.212497
 20
140.582071
 30
0.0
  0
VERTEX
  5
D073
  8
ALPHA
 10
64.032711
 20
141.016003
 30
0.0
  0
VERTEX
  5
D074
  8
ALPHA
 10
63.612304
 20
141.232378
 30
0.0
  0
SEQEND
  5
D075
  8
ALPHA
  0
POLYLINE
  5
C0B1
  8
ALPHA
 66
     1
 10
0.0
 20
0.0
 30
0.0
 70
   128
  0
VERTEX
  5
D076
  8
ALPHA
 10
64.21253
 20
141.882073
 30
0.0
  0
VERTEX
  5
D077
  8
ALPHA
 10
64.032489
 20
142.316224
 30
0.0
  0
VERTEX
  5
D078
  8
ALPHA
 10
63.611701
 20
142.532531
 30
0.0
  0
SEQEND
  5
D079
  8
ALPHA
  0
POLYLINE
  5
C0B2
  8
ALPHA
 66
     1
 10
0.0
 20
0.0
 30
0.0
 70
   128
  0
VERTEX
  5
D07A
  8
ALPHA
 10
63.13558
 20
139.849435
 30
0.0
  0
VERTEX
  5
D07B
  8
ALPHA
 10
63.836586
 20
140.007684
 30
0.0
  0
VERTEX
  5
D07C
  8
ALPHA
 10
64.106711
 20
140.240992
 30
0.0
  0
VERTEX
  5
D07D
  8
ALPHA
 10
64.212427
 20
140.582089
 30
0.0
  0
SEQEND
  5
D07E
  8
ALPHA
  0
POLYLINE
  5
C0B3
  8
ALPHA
 66
     1
 10
0.0
 20
0.0
 30
0.0
 70
   128
  0
VERTEX
  5
D07F
  8
ALPHA
 10
63.141359
 20
141.150203
 30
0.0
  0
VERTEX
  5
D080
  8
ALPHA
 10
63.839194
 20
141.308924
 30
0.0
  0
VERTEX
  5
D081
  8
ALPHA
 10
64.107497
 20
141.542196
 30
0.0
  0
VERTEX
  5
D082
  8
ALPHA
 10
64.212407
 20
141.882092
 30
0.0
  0
SEQEND
  5
D083
  8
ALPHA
  0
POLYLINE
  5
C0B4
  8
ALPHA
 66
     1
 10
0.0
 20
0.0
 30
0.0
 70
   128
  0
VERTEX
  5
D084
  8
ALPHA
 10
64.212502
 20
143.182069
 30
0.0
  0
VERTEX
  5
D085
  8
ALPHA
 10
64.032562
 20
143.616155
 30
0.0
  0
VERTEX
  5
D086
  8
ALPHA
 10
63.61191
 20
143.832474
 30
0.0
  0
SEQEND
  5
D087
  8
ALPHA
  0
POLYLINE
  5
C0B5
  8
ALPHA
 66
     1
 10
0.0
 20
0.0
 30
0.0
 70
   128
  0
VERTEX
  5
D088
  8
ALPHA
 10
63.120036
 20
142.447385
 30
0.0
  0
VERTEX
  5
D089
  8
ALPHA
 10
63.829446
 20
142.604312
 30
0.0
  0
VERTEX
  5
D08A
  8
ALPHA
 10
64.104508
 20
142.837691
 30
0.0
  0
VERTEX
  5
D08B
  8
ALPHA
 10
64.212385
 20
143.182093
 30
0.0
  0
SEQEND
  5
D08C
  8
ALPHA
  0
POLYLINE
  5
C0B6
  8
ALPHA
 66
     1
 10
0.0
 20
0.0
 30
0.0
 70
   128
  0
VERTEX
  5
D08D
  8
ALPHA
 10
63.45036
 20
143.79777
 30
0.0
  0
VERTEX
  5
D08E
  8
ALPHA
 10
63.971613
 20
143.992144
 30
0.0
  0
VERTEX
  5
D08F
  8
ALPHA
 10
64.21237
 20
144.482095
 30
0.0
  0
SEQEND
  5
D090
  8
ALPHA
  0
LINE
  5
C0B7
  8
ALPHA
 10
63.272751
 20
143.768648
 30
0.0
 11
63.45036
 21
143.79777
 31
0.0
  0
LINE
  5
C0B8
  8
ALPHA
 10
63.112701
 20
141.146649
 30
0.0
 11
63.112701
 21
141.049754
 31
0.0
  0
LINE
  5
C0B9
  8
ALPHA
 10
63.112701
 20
142.446488
 30
0.0
 11
63.112701
 21
142.349638
 31
0.0
  0
LINE
  5
C0BA
  8
ALPHA
 10
63.112701
 20
143.746835
 30
0.0
 11
63.112701
 21
143.649699
 31
0.0
  0
LINE
  5
C0BB
  8
ALPHA
 10
62.776129
 20
139.705398
 30
0.0
 11
62.804159
 21
139.810005
 31
0.0
  0
LINE
  5
C0BC
  8
ALPHA
 10
63.33532
 20
146.292698
 30
0.0
 11
63.117454
 21
146.250084
 31
0.0
  0
POLYLINE
  5
C0BD
  8
ALPHA
 66
     1
 10
0.0
 20
0.0
 30
0.0
 70
   128
  0
VERTEX
  5
D091
  8
ALPHA
 10
64.21252
 20
145.782073
 30
0.0
  0
VERTEX
  5
D092
  8
ALPHA
 10
64.032517
 20
146.216199
 30
0.0
  0
VERTEX
  5
D093
  8
ALPHA
 10
63.611787
 20
146.432508
 30
0.0
  0
SEQEND
  5
D094
  8
ALPHA
  0
LINE
  5
C0BE
  8
ALPHA
 10
64.212527
 20
147.082072
 30
0.0
 11
64.177396
 21
147.282102
 31
0.0
  0
POLYLINE
  5
C0BF
  8
ALPHA
 66
     1
 10
0.0
 20
0.0
 30
0.0
 70
   128
  0
VERTEX
  5
D095
  8
ALPHA
 10
63.451968
 20
146.398065
 30
0.0
  0
VERTEX
  5
D096
  8
ALPHA
 10
63.972241
 20
146.592644
 30
0.0
  0
VERTEX
  5
D097
  8
ALPHA
 10
64.212372
 20
147.082096
 30
0.0
  0
SEQEND
  5
D098
  8
ALPHA
  0
LINE
  5
C0C0
  8
ALPHA
 10
63.272841
 20
146.368662
 30
0.0
 11
63.451968
 21
146.398065
 31
0.0
  0
LINE
  5
C0C1
  8
ALPHA
 10
63.067103
 20
146.340572
 30
0.0
 11
63.272841
 21
146.368662
 31
0.0
  0
LINE
  5
C0C2
  8
ALPHA
 10
63.055931
 20
146.339165
 30
0.0
 11
63.067103
 21
146.340572
 31
0.0
  0
POLYLINE
  5
C0C3
  8
ALPHA
 66
     1
 10
0.0
 20
0.0
 30
0.0
 70
   128
  0
VERTEX
  5
D099
  8
ALPHA
 10
63.143242
 20
145.050454
 30
0.0
  0
VERTEX
  5
D09A
  8
ALPHA
 10
63.840061
 20
145.209343
 30
0.0
  0
VERTEX
  5
D09B
  8
ALPHA
 10
64.107768
 20
145.442605
 30
0.0
  0
VERTEX
  5
D09C
  8
ALPHA
 10
64.212413
 20
145.782091
 30
0.0
  0
SEQEND
  5
D09D
  8
ALPHA
  0
ARC
  5
C0C4
  8
ALPHA
 10
63.062701
 20
146.482076
 30
0.0
 40
0.2
 50
232.102394
 51
270.0
  0
LINE
  5
C0C5
  8
ALPHA
 10
64.162701
 20
149.082076
 30
0.0
 11
63.962701
 21
149.282076
 31
0.0
  0
LINE
  5
C0C6
  8
ALPHA
 10
64.162701
 20
147.282076
 30
0.0
 11
64.162701
 21
149.082076
 31
0.0
  0
LINE
  5
C0C7
  8
ALPHA
 10
63.112701
 20
145.046659
 30
0.0
 11
63.112701
 21
144.949729
 31
0.0
  0
LINE
  5
C0C8
  8
ALPHA
 10
63.112701
 20
146.282076
 30
0.0
 11
63.112701
 21
146.249755
 31
0.0
  0
VIEWPORT
  5
494D
 67
     1
  8
0
 10
4.995325
 20
6.556512
 30
0.0
 40
22.70986
 41
13.988421
 68
    -1
 69
     1
1001
ACAD
1000
MVIEW
1002
{
1070
    16
1010
0.0
1020
0.0
1030
0.0
1010
0.0
1020
0.0
1030
1.0
1040
0.0
1040
13.988421
1040
4.995325
1040
6.556512
1040
50.0
1040
0.0
1040
0.0
1070
     0
1070
   100
1070
     1
1070
     1
1070
     0
1070
     0
1070
     0
1070
     0
1040
0.0
1040
0.0
1040
0.0
1040
10.0
1040
10.0
1040
10.0
1040
10.0
1070
     0
1002
{
1002
}
1002
}
  0
ENDSEC
  0
EOF
