  0
SECTION
  2
HEADER
  9
$ACADVER
  1
AC1009
  9
$INSBASE
 10
402.590624
 20
-1.041018
 30
0.0
  9
$EXTMIN
 10
-13.140526
 20
12.076179
 30
0.0
  9
$EXTMAX
 10
39.474994
 20
152.862333
 30
0.0
  9
$LIMMIN
 10
-407.970438
 20
-367.832444
  9
$LIMMAX
 10
429.804077
 20
234.370848
  9
$ORTHOMODE
 70
     0
  9
$REGENMODE
 70
     1
  9
$FILLMODE
 70
     1
  9
$QTEXTMODE
 70
     0
  9
$MIRRTEXT
 70
     1
  9
$DRAGMODE
 70
     2
  9
$LTSCALE
 40
10.0
  9
$OSMODE
 70
    35
  9
$ATTMODE
 70
     1
  9
$TEXTSIZE
 40
6.0
  9
$TRACEWID
 40
1.0
  9
$TEXTSTYLE
  7
ROMANS
  9
$CLAYER
  8
ALPHA
  9
$CELTYPE
  6
BYLAYER
  9
$CECOLOR
 62
   256
  9
$DIMSCALE
 40
1.0
  9
$DIMASZ
 40
5.0
  9
$DIMEXO
 40
2.0
  9
$DIMDLI
 40
0.38
  9
$DIMRND
 40
0.0
  9
$DIMDLE
 40
0.0
  9
$DIMEXE
 40
2.5
  9
$DIMTP
 40
0.0
  9
$DIMTM
 40
0.0
  9
$DIMTXT
 40
2.5
  9
$DIMCEN
 40
0.0
  9
$DIMTSZ
 40
0.0
  9
$DIMTOL
 70
     0
  9
$DIMLIM
 70
     0
  9
$DIMTIH
 70
     1
  9
$DIMTOH
 70
     1
  9
$DIMSE1
 70
     0
  9
$DIMSE2
 70
     0
  9
$DIMTAD
 70
     1
  9
$DIMZIN
 70
    12
  9
$DIMBLK
  1
OPEN30
  9
$DIMASO
 70
     1
  9
$DIMSHO
 70
     1
  9
$DIMPOST
  1

  9
$DIMAPOST
  1

  9
$DIMALT
 70
     0
  9
$DIMALTD
 70
     2
  9
$DIMALTF
 40
25.4
  9
$DIMLFAC
 40
1.0
  9
$DIMTOFL
 70
     0
  9
$DIMTVP
 40
0.0
  9
$DIMTIX
 70
     0
  9
$DIMSOXD
 70
     0
  9
$DIMSAH
 70
     0
  9
$DIMBLK1
  1

  9
$DIMBLK2
  1

  9
$DIMSTYLE
  2
SC_DEFAUT
  9
$DIMCLRD
 70
     0
  9
$DIMCLRE
 70
     0
  9
$DIMCLRT
 70
     0
  9
$DIMTFAC
 40
1.0
  9
$DIMGAP
 40
2.0
  9
$LUNITS
 70
     2
  9
$LUPREC
 70
     1
  9
$SKETCHINC
 40
0.1
  9
$FILLETRAD
 40
0.0
  9
$AUNITS
 70
     0
  9
$AUPREC
 70
     0
  9
$MENU
  1
acad
  9
$ELEVATION
 40
0.0
  9
$PELEVATION
 40
0.0
  9
$THICKNESS
 40
0.0
  9
$LIMCHECK
 70
     0
  9
$BLIPMODE
 70
     0
  9
$CHAMFERA
 40
0.0
  9
$CHAMFERB
 40
0.0
  9
$SKPOLY
 70
     0
  9
$TDCREATE
 40
2450373.687919
  9
$TDUPDATE
 40
2453032.663106
  9
$TDINDWG
 40
1.111771
  9
$TDUSRTIMER
 40
1.111771
  9
$USRTIMER
 70
     1
  9
$ANGBASE
 50
0.0
  9
$ANGDIR
 70
     0
  9
$PDMODE
 70
    32
  9
$PDSIZE
 40
0.0
  9
$PLINEWID
 40
0.0
  9
$COORDS
 70
     1
  9
$SPLFRAME
 70
     0
  9
$SPLINETYPE
 70
     6
  9
$SPLINESEGS
 70
     8
  9
$ATTDIA
 70
     0
  9
$ATTREQ
 70
     1
  9
$HANDLING
 70
     1
  9
$HANDSEED
  5
C798
  9
$SURFTAB1
 70
     6
  9
$SURFTAB2
 70
     6
  9
$SURFTYPE
 70
     6
  9
$SURFU
 70
     6
  9
$SURFV
 70
     6
  9
$UCSNAME
  2

  9
$UCSORG
 10
0.0
 20
0.0
 30
0.0
  9
$UCSXDIR
 10
1.0
 20
0.0
 30
0.0
  9
$UCSYDIR
 10
0.0
 20
1.0
 30
0.0
  9
$PUCSNAME
  2

  9
$PUCSORG
 10
0.0
 20
0.0
 30
0.0
  9
$PUCSXDIR
 10
1.0
 20
0.0
 30
0.0
  9
$PUCSYDIR
 10
0.0
 20
1.0
 30
0.0
  9
$USERI1
 70
     0
  9
$USERI2
 70
     0
  9
$USERI3
 70
     0
  9
$USERI4
 70
     0
  9
$USERI5
 70
     0
  9
$USERR1
 40
0.0
  9
$USERR2
 40
0.0
  9
$USERR3
 40
0.0
  9
$USERR4
 40
0.0
  9
$USERR5
 40
0.0
  9
$WORLDVIEW
 70
     1
  9
$SHADEDGE
 70
     3
  9
$SHADEDIF
 70
    70
  9
$TILEMODE
 70
     1
  9
$MAXACTVP
 70
    16
  9
$PLIMCHECK
 70
     0
  9
$PEXTMIN
 10
-1.452248
 20
-0.437698
 30
0.0
  9
$PEXTMAX
 10
12.749749
 20
8.310198
 30
0.0
  9
$PLIMMIN
 10
0.0
 20
0.0
  9
$PLIMMAX
 10
12.0
 20
9.0
  9
$UNITMODE
 70
     0
  9
$VISRETAIN
 70
     0
  9
$PLINEGEN
 70
     0
  9
$PSLTSCALE
 70
     0
  0
ENDSEC
  0
SECTION
  2
TABLES
  0
TABLE
  2
VPORT
 70
     2
  0
VPORT
  2
*ACTIVE
 70
     0
 10
0.0
 20
0.0
 11
1.0
 21
1.0
 12
13.153921
 22
82.473854
 13
0.0
 23
0.0
 14
1.0
 24
1.0
 15
10.0
 25
10.0
 16
0.0
 26
0.0
 36
1.0
 17
0.0
 27
0.0
 37
0.0
 40
141.834093
 41
1.466346
 42
50.0
 43
0.0
 44
0.0
 50
0.0
 51
0.0
 71
     0
 72
   100
 73
     1
 74
     0
 75
     0
 76
     0
 77
     0
 78
     0
  0
ENDTAB
  0
TABLE
  2
LTYPE
 70
     2
  0
LTYPE
  2
CONTINUOUS
 70
     0
  3
Solid line
 72
    65
 73
     0
 40
0.0
  0
LTYPE
  2
AXES2
 70
     0
  3
___ _ ___ _ ___ _ ___ _ ___ _ ___ _ ___ _ ___ _
 72
    65
 73
     4
 40
1.125
 49
0.75
 49
-0.125
 49
0.125
 49
-0.125
  0
ENDTAB
  0
TABLE
  2
LAYER
 70
     5
  0
LAYER
  2
0
 70
     0
 62
   255
  6
CONTINUOUS
  0
LAYER
  2
COTATION1
 70
     0
 62
     2
  6
CONTINUOUS
  0
LAYER
  2
AXE
 70
     0
 62
    80
  6
AXES2
  0
LAYER
  2
DEFPOINTS
 70
     0
 62
     7
  6
CONTINUOUS
  0
LAYER
  2
ALPHA
 70
     0
 62
   254
  6
CONTINUOUS
  0
ENDTAB
  0
TABLE
  2
STYLE
 70
     2
  0
STYLE
  2
ROMANS
 70
     0
 40
0.0
 41
1.0
 50
0.0
 71
     0
 42
6.0
  3
romans
  4

  0
STYLE
  2
STANDARD
 70
     0
 40
0.0
 41
1.0
 50
0.0
 71
     0
 42
0.2
  3
txt
  4

  0
ENDTAB
  0
TABLE
  2
VIEW
 70
     0
  0
ENDTAB
  0
TABLE
  2
UCS
 70
     0
  0
ENDTAB
  0
TABLE
  2
APPID
 70
     1
  0
APPID
  2
ACAD
 70
     0
  0
ENDTAB
  0
TABLE
  2
DIMSTYLE
 70
     2
  0
DIMSTYLE
  2
SC_DEFAUT
 70
     0
  3

  4

  5
OPEN30
  6

  7

 40
1.0
 41
5.0
 42
2.0
 43
0.38
 44
2.5
 45
0.0
 46
0.0
 47
0.0
 48
0.0
140
2.5
141
0.0
142
0.0
143
25.4
144
1.0
145
0.0
146
1.0
147
2.0
 71
     0
 72
     0
 73
     1
 74
     1
 75
     0
 76
     0
 77
     1
 78
    12
170
     0
171
     2
172
     0
173
     0
174
     0
175
     0
176
     0
177
     0
178
     0
  0
DIMSTYLE
  2
STANDARD
 70
     0
  3

  4

  5

  6

  7

 40
1.0
 41
0.18
 42
0.0625
 43
0.38
 44
0.18
 45
0.0
 46
0.0
 47
0.0
 48
0.0
140
0.18
141
0.09
142
0.0
143
25.4
144
1.0
145
0.0
146
1.0
147
0.09
 71
     0
 72
     0
 73
     1
 74
     1
 75
     0
 76
     0
 77
     0
 78
     0
170
     0
171
     2
172
     0
173
     0
174
     0
175
     0
176
     0
177
     0
178
     0
  0
ENDTAB
  0
ENDSEC
  0
SECTION
  2
BLOCKS
  0
BLOCK
  8
0
  2
$MODEL_SPACE
 70
     0
 10
0.0
 20
0.0
 30
0.0
  3
$MODEL_SPACE
  1

  0
ENDBLK
  5
C787
  8
0
  0
BLOCK
 67
     1
  8
0
  2
$PAPER_SPACE
 70
     0
 10
0.0
 20
0.0
 30
0.0
  3
$PAPER_SPACE
  1

  0
ENDBLK
  5
C785
 67
     1
  8
0
  0
BLOCK
  8
0
  2
COTE
 70
     0
 10
0.0
 20
0.0
 30
0.0
  3
COTE
  1

  0
ENDBLK
  5
F
  8
0
  0
BLOCK
  8
0
  2
FOND
 70
     0
 10
0.0
 20
0.0
 30
0.0
  3
FOND
  1

  0
ENDBLK
  5
75
  8
0
  0
BLOCK
  8
0
  2
_OPEN30
 70
     0
 10
0.0
 20
0.0
 30
0.0
  3
_OPEN30
  1

  0
LINE
  5
4B05
  8
COTATION1
 62
     0
 10
-1.0
 20
0.267949
 30
0.0
 11
0.0
 21
0.0
 31
0.0
1001
ACAD
1000
RTLwPs
1070
   158
  0
LINE
  5
4B06
  8
COTATION1
 62
     0
 10
0.0
 20
0.0
 30
0.0
 11
-1.0
 21
-0.267949
 31
0.0
1001
ACAD
1000
RTLwPs
1070
   158
  0
LINE
  5
4B07
  8
COTATION1
 62
     0
 10
0.0
 20
0.0
 30
0.0
 11
-1.0
 21
0.0
 31
0.0
1001
ACAD
1000
RTLwPs
1070
   158
  0
ENDBLK
  5
4B09
  8
0
  0
BLOCK
  8
0
  2
*D3
 70
     1
 10
0.0
 20
0.0
 30
0.0
  3
*D3
  1

  0
LINE
  5
C6C0
  8
COTATION1
 62
     0
 10
23.097878
 20
40.862333
 30
0.0
 11
23.097878
 21
28.230131
 31
0.0
1001
ACAD
1000
RTLwPs
1070
   158
  0
LINE
  5
C6C1
  8
COTATION1
 62
     0
 10
29.474994
 20
42.362333
 30
0.0
 11
29.474994
 21
28.230131
 31
0.0
1001
ACAD
1000
RTLwPs
1070
   158
  0
LINE
  5
C6C2
  8
COTATION1
 62
     0
 10
18.097878
 20
30.730131
 30
0.0
 11
13.097878
 21
30.730131
 31
0.0
1001
ACAD
1000
RTLwPs
1070
   158
  0
LINE
  5
C6C3
  8
COTATION1
 62
     0
 10
34.474994
 20
30.730131
 30
0.0
 11
39.474994
 21
30.730131
 31
0.0
1001
ACAD
1000
RTLwPs
1070
   158
  0
TEXT
  5
C6C4
  8
COTATION1
 62
     0
 10
11.639034
 20
32.51131
 30
0.0
 40
2.5
  1
6.4
1001
ACAD
1000
MTEXTBEGIN
1070
    73
1070
     1
1070
    44
1040
1.0
1070
    74
1070
     0
1000
MTEXTEND
  0
INSERT
  5
C6C5
  8
COTATION1
 62
     0
  2
_OPEN30
 10
23.097878
 20
30.730131
 30
0.0
 41
5.0
 42
5.0
 43
5.0
1001
ACAD
1000
RTLwPs
1070
   158
  0
INSERT
  5
C6C6
  8
COTATION1
 62
     0
  2
_OPEN30
 10
29.474994
 20
30.730131
 30
0.0
 41
5.0
 42
5.0
 43
5.0
 50
180.0
1001
ACAD
1000
RTLwPs
1070
   158
  0
POINT
  5
C6C7
  8
DEFPOINTS
 62
     0
 10
23.097878
 20
42.862333
 30
0.0
  0
POINT
  5
C6C8
  8
DEFPOINTS
 62
     0
 10
29.474994
 20
44.362333
 30
0.0
  0
POINT
  5
C6C9
  8
DEFPOINTS
 62
     0
 10
29.474994
 20
30.730131
 30
0.0
  0
ENDBLK
  5
C4DD
  8
0
  0
ENDSEC
  0
SECTION
  2
ENTITIES
  0
INSERT
  5
A
  8
0
  2
COTE
 10
0.0
 20
0.0
 30
0.0
  0
INSERT
  5
17
  8
0
  2
COTE
 10
284.010391
 20
6.373258
 30
0.0
  0
INSERT
  5
72
  8
0
  2
FOND
 10
0.0
 20
0.0
 30
0.0
  0
LINE
  5
9A33
  8
COTATION1
 10
20.597878
 20
77.565107
 30
0.0
 11
13.359474
 21
77.565107
 31
0.0
  0
LINE
  5
9A4A
  8
COTATION1
 10
23.097878
 20
81.581008
 30
0.0
 11
23.097878
 21
60.862333
 31
0.0
  0
SOLID
  5
9A78
  8
COTATION1
 10
23.097878
 20
76.121731
 30
0.0
 11
23.097878
 21
79.008482
 31
0.0
 12
20.597878
 22
77.565107
 32
0.0
 13
20.597878
 23
77.565107
 33
0.0
  0
LINE
  5
9B48
  8
COTATION1
 10
-13.140526
 20
80.065107
 30
0.0
 11
13.359474
 21
80.065107
 31
0.0
  0
LINE
  5
9B49
  8
COTATION1
 10
13.359474
 20
75.065107
 30
0.0
 11
-13.140526
 21
75.065107
 31
0.0
  0
TEXT
  5
9B4A
  8
COTATION1
 10
-11.890526
 20
76.315107
 30
0.0
 40
2.5
  1
PLANE_TO_LINE_UP
 41
0.626087
  7
STANDARD
 72
     5
 11
12.109474
 21
76.315107
 31
0.0
  0
LINE
  5
9B4B
  8
COTATION1
 10
-13.140526
 20
75.065107
 30
0.0
 11
-13.140526
 21
80.065107
 31
0.0
  0
LINE
  5
9B4C
  8
COTATION1
 10
13.359474
 20
80.065107
 30
0.0
 11
13.359474
 21
75.065107
 31
0.0
  0
LINE
  5
C059
  8
ALPHA
 10
28.097878
 20
58.862333
 30
0.0
 11
28.097878
 21
147.862333
 31
0.0
  0
LINE
  5
C05A
  8
ALPHA
 10
25.097878
 20
58.862333
 30
0.0
 11
25.097878
 21
147.862333
 31
0.0
  0
LINE
  5
C05D
  8
ALPHA
 10
28.097878
 20
22.862333
 30
0.0
 11
28.097878
 21
42.862333
 31
0.0
  0
LINE
  5
C05E
  8
ALPHA
 10
25.097878
 20
22.862333
 30
0.0
 11
25.097878
 21
42.862333
 31
0.0
  0
LINE
  5
C05F
  8
ALPHA
 10
25.097878
 20
22.862333
 30
0.0
 11
28.097878
 21
22.862333
 31
0.0
  0
LINE
  5
C060
  8
ALPHA
 10
29.427854
 20
58.862333
 30
0.0
 11
28.019708
 21
58.862333
 31
0.0
  0
LINE
  5
C061
  8
ALPHA
 10
29.474994
 20
57.362333
 30
0.0
 11
27.097878
 21
57.362333
 31
0.0
  0
LINE
  5
C062
  8
ALPHA
 10
29.474994
 20
44.362333
 30
0.0
 11
27.097878
 21
44.362333
 31
0.0
  0
LINE
  5
C063
  8
ALPHA
 10
29.427854
 20
42.862333
 30
0.0
 11
28.019703
 21
42.862333
 31
0.0
  0
LINE
  5
C064
  8
ALPHA
 10
27.097878
 20
42.862541
 30
0.0
 11
27.097878
 21
58.862124
 31
0.0
  0
LINE
  5
C065
  8
ALPHA
 10
25.897878
 20
58.862124
 30
0.0
 11
25.897878
 21
42.862541
 31
0.0
  0
LINE
  5
C066
  8
ALPHA
 10
24.541254
 20
57.362333
 30
0.0
 11
24.541254
 21
44.362333
 31
0.0
  0
LINE
  5
C067
  8
ALPHA
 10
23.097878
 20
58.862333
 30
0.0
 11
23.097878
 21
42.862333
 31
0.0
  0
POLYLINE
  5
C068
  8
ALPHA
 66
     1
 10
0.0
 20
0.0
 30
0.0
 70
   128
  0
VERTEX
  5
C78D
  8
ALPHA
 10
23.675229
 20
42.862333
 30
0.0
  0
VERTEX
  5
C78E
  8
ALPHA
 10
24.096835
 20
43.052373
 30
0.0
  0
VERTEX
  5
C78F
  8
ALPHA
 10
24.359164
 20
43.442128
 30
0.0
  0
VERTEX
  5
C790
  8
ALPHA
 10
24.541254
 20
44.362333
 30
0.0
  0
SEQEND
  5
C791
  8
ALPHA
  0
LINE
  5
C069
  8
ALPHA
 10
23.097878
 20
42.862333
 30
0.0
 11
25.176054
 21
42.862333
 31
0.0
  0
LINE
  5
C06A
  8
ALPHA
 10
25.272878
 20
42.862541
 30
0.0
 11
25.176054
 21
42.862333
 31
0.0
  0
LINE
  5
C06B
  8
ALPHA
 10
25.897878
 20
44.362333
 30
0.0
 11
24.541254
 21
44.362333
 31
0.0
  0
LINE
  5
C06C
  8
ALPHA
 10
25.897878
 20
42.862541
 30
0.0
 11
25.272878
 21
42.862541
 31
0.0
  0
LINE
  5
C06D
  8
ALPHA
 10
28.019703
 20
42.862333
 30
0.0
 11
27.922878
 21
42.862541
 31
0.0
  0
LINE
  5
C06E
  8
ALPHA
 10
27.922878
 20
42.862541
 30
0.0
 11
27.097878
 21
42.862541
 31
0.0
  0
POLYLINE
  5
C06F
  8
ALPHA
 66
     1
 10
0.0
 20
0.0
 30
0.0
 70
   128
  0
VERTEX
  5
C792
  8
ALPHA
 10
24.541254
 20
57.362333
 30
0.0
  0
VERTEX
  5
C793
  8
ALPHA
 10
24.359164
 20
58.282538
 30
0.0
  0
VERTEX
  5
C794
  8
ALPHA
 10
24.096835
 20
58.672293
 30
0.0
  0
VERTEX
  5
C795
  8
ALPHA
 10
23.675229
 20
58.862333
 30
0.0
  0
SEQEND
  5
C796
  8
ALPHA
  0
LINE
  5
C070
  8
ALPHA
 10
23.097878
 20
58.862333
 30
0.0
 11
25.176048
 21
58.862333
 31
0.0
  0
LINE
  5
C071
  8
ALPHA
 10
25.176054
 20
58.862333
 30
0.0
 11
25.272878
 21
58.862124
 31
0.0
  0
LINE
  5
C072
  8
ALPHA
 10
25.272878
 20
58.862124
 30
0.0
 11
25.897878
 21
58.862124
 31
0.0
  0
LINE
  5
C073
  8
ALPHA
 10
25.897878
 20
57.362333
 30
0.0
 11
24.541254
 21
57.362333
 31
0.0
  0
LINE
  5
C074
  8
ALPHA
 10
27.922878
 20
58.862124
 30
0.0
 11
28.019703
 21
58.862333
 31
0.0
  0
LINE
  5
C075
  8
ALPHA
 10
27.097878
 20
58.862124
 30
0.0
 11
27.922878
 21
58.862124
 31
0.0
  0
LINE
  5
C076
  8
ALPHA
 10
29.474994
 20
57.362333
 30
0.0
 11
29.474994
 21
44.362333
 31
0.0
  0
LINE
  5
C077
  8
ALPHA
 10
29.474994
 20
44.362333
 30
0.0
 11
29.427854
 21
42.862333
 31
0.0
  0
LINE
  5
C078
  8
ALPHA
 10
29.427854
 20
58.862333
 30
0.0
 11
29.474994
 21
57.362333
 31
0.0
  0
LINE
  5
C423
  8
ALPHA
 10
25.097878
 20
147.862333
 30
0.0
 11
28.097878
 21
147.862333
 31
0.0
  0
TEXT
  5
C461
  8
AXE
 10
35.427375
 20
51.862333
 30
0.0
 40
5.0
  1
Z
 72
     2
 11
39.474994
 21
51.862333
 31
0.0
  0
LINE
  5
C462
  8
AXE
 10
18.097878
 20
50.862333
 30
0.0
 11
39.474994
 21
50.862333
 31
0.0
  0
LINE
  5
C466
  8
AXE
 10
26.597878
 20
12.076179
 30
0.0
 11
26.597878
 21
152.862333
 31
0.0
  0
TEXT
  5
C467
  8
AXE
 10
21.550259
 20
12.076179
 30
0.0
 40
5.0
  1
Y
 72
     2
 11
25.597878
 21
12.076179
 31
0.0
  0
DIMENSION
  5
C4D1
  8
COTATION1
  2
*D3
 10
29.474994
 20
30.730131
 30
0.0
 11
14.734272
 21
33.76131
 31
0.0
 70
   128
 13
23.097878
 23
42.862333
 33
0.0
 14
29.474994
 24
44.362333
 34
0.0
  0
VIEWPORT
  5
494D
 67
     1
  8
0
 10
4.995325
 20
6.556512
 30
0.0
 40
22.70986
 41
13.988421
 68
    -1
 69
     1
1001
ACAD
1000
MVIEW
1002
{
1070
    16
1010
0.0
1020
0.0
1030
0.0
1010
0.0
1020
0.0
1030
1.0
1040
0.0
1040
13.988421
1040
4.995325
1040
6.556512
1040
50.0
1040
0.0
1040
0.0
1070
     0
1070
   100
1070
     1
1070
     1
1070
     0
1070
     0
1070
     0
1070
     0
1040
0.0
1040
0.0
1040
0.0
1040
10.0
1040
10.0
1040
10.0
1040
10.0
1070
     0
1002
{
1002
}
1002
}
  0
ENDSEC
  0
EOF
