  0
SECTION
  2
HEADER
  9
$ACADVER
  1
AC1009
  9
$INSBASE
 10
402.590624
 20
-1.041018
 30
0.0
  9
$EXTMIN
 10
105.979402
 20
1.180429
 30
0.0
  9
$EXTMAX
 10
185.98083
 20
151.180429
 30
0.0
  9
$LIMMIN
 10
-407.970438
 20
-367.832444
  9
$LIMMAX
 10
429.804077
 20
234.370848
  9
$ORTHOMODE
 70
     0
  9
$REGENMODE
 70
     1
  9
$FILLMODE
 70
     1
  9
$QTEXTMODE
 70
     0
  9
$MIRRTEXT
 70
     1
  9
$DRAGMODE
 70
     2
  9
$LTSCALE
 40
10.0
  9
$OSMODE
 70
    35
  9
$ATTMODE
 70
     1
  9
$TEXTSIZE
 40
6.0
  9
$TRACEWID
 40
1.0
  9
$TEXTSTYLE
  7
ROMANS
  9
$CLAYER
  8
ALPHA
  9
$CELTYPE
  6
BYLAYER
  9
$CECOLOR
 62
   256
  9
$DIMSCALE
 40
1.0
  9
$DIMASZ
 40
5.0
  9
$DIMEXO
 40
2.0
  9
$DIMDLI
 40
0.38
  9
$DIMRND
 40
0.0
  9
$DIMDLE
 40
0.0
  9
$DIMEXE
 40
2.5
  9
$DIMTP
 40
0.0
  9
$DIMTM
 40
0.0
  9
$DIMTXT
 40
2.5
  9
$DIMCEN
 40
0.0
  9
$DIMTSZ
 40
0.0
  9
$DIMTOL
 70
     0
  9
$DIMLIM
 70
     0
  9
$DIMTIH
 70
     1
  9
$DIMTOH
 70
     1
  9
$DIMSE1
 70
     0
  9
$DIMSE2
 70
     0
  9
$DIMTAD
 70
     1
  9
$DIMZIN
 70
    12
  9
$DIMBLK
  1
OPEN30
  9
$DIMASO
 70
     1
  9
$DIMSHO
 70
     1
  9
$DIMPOST
  1

  9
$DIMAPOST
  1

  9
$DIMALT
 70
     0
  9
$DIMALTD
 70
     2
  9
$DIMALTF
 40
25.4
  9
$DIMLFAC
 40
1.0
  9
$DIMTOFL
 70
     0
  9
$DIMTVP
 40
0.0
  9
$DIMTIX
 70
     0
  9
$DIMSOXD
 70
     0
  9
$DIMSAH
 70
     0
  9
$DIMBLK1
  1

  9
$DIMBLK2
  1

  9
$DIMSTYLE
  2
SC_DEFAUT
  9
$DIMCLRD
 70
     0
  9
$DIMCLRE
 70
     0
  9
$DIMCLRT
 70
     0
  9
$DIMTFAC
 40
1.0
  9
$DIMGAP
 40
2.0
  9
$LUNITS
 70
     2
  9
$LUPREC
 70
     1
  9
$SKETCHINC
 40
0.1
  9
$FILLETRAD
 40
0.0
  9
$AUNITS
 70
     0
  9
$AUPREC
 70
     0
  9
$MENU
  1
acad
  9
$ELEVATION
 40
0.0
  9
$PELEVATION
 40
0.0
  9
$THICKNESS
 40
0.0
  9
$LIMCHECK
 70
     0
  9
$BLIPMODE
 70
     0
  9
$CHAMFERA
 40
0.0
  9
$CHAMFERB
 40
0.0
  9
$SKPOLY
 70
     0
  9
$TDCREATE
 40
2450373.687919
  9
$TDUPDATE
 40
2453032.658806
  9
$TDINDWG
 40
1.105956
  9
$TDUSRTIMER
 40
1.105956
  9
$USRTIMER
 70
     1
  9
$ANGBASE
 50
0.0
  9
$ANGDIR
 70
     0
  9
$PDMODE
 70
    32
  9
$PDSIZE
 40
0.0
  9
$PLINEWID
 40
0.0
  9
$COORDS
 70
     1
  9
$SPLFRAME
 70
     0
  9
$SPLINETYPE
 70
     6
  9
$SPLINESEGS
 70
     8
  9
$ATTDIA
 70
     0
  9
$ATTREQ
 70
     1
  9
$HANDLING
 70
     1
  9
$HANDSEED
  5
C679
  9
$SURFTAB1
 70
     6
  9
$SURFTAB2
 70
     6
  9
$SURFTYPE
 70
     6
  9
$SURFU
 70
     6
  9
$SURFV
 70
     6
  9
$UCSNAME
  2

  9
$UCSORG
 10
0.0
 20
0.0
 30
0.0
  9
$UCSXDIR
 10
1.0
 20
0.0
 30
0.0
  9
$UCSYDIR
 10
0.0
 20
1.0
 30
0.0
  9
$PUCSNAME
  2

  9
$PUCSORG
 10
0.0
 20
0.0
 30
0.0
  9
$PUCSXDIR
 10
1.0
 20
0.0
 30
0.0
  9
$PUCSYDIR
 10
0.0
 20
1.0
 30
0.0
  9
$USERI1
 70
     0
  9
$USERI2
 70
     0
  9
$USERI3
 70
     0
  9
$USERI4
 70
     0
  9
$USERI5
 70
     0
  9
$USERR1
 40
0.0
  9
$USERR2
 40
0.0
  9
$USERR3
 40
0.0
  9
$USERR4
 40
0.0
  9
$USERR5
 40
0.0
  9
$WORLDVIEW
 70
     1
  9
$SHADEDGE
 70
     3
  9
$SHADEDIF
 70
    70
  9
$TILEMODE
 70
     1
  9
$MAXACTVP
 70
    16
  9
$PLIMCHECK
 70
     0
  9
$PEXTMIN
 10
-1.452248
 20
-0.437698
 30
0.0
  9
$PEXTMAX
 10
12.749749
 20
8.310198
 30
0.0
  9
$PLIMMIN
 10
0.0
 20
0.0
  9
$PLIMMAX
 10
12.0
 20
9.0
  9
$UNITMODE
 70
     0
  9
$VISRETAIN
 70
     0
  9
$PLINEGEN
 70
     0
  9
$PSLTSCALE
 70
     0
  0
ENDSEC
  0
SECTION
  2
TABLES
  0
TABLE
  2
VPORT
 70
     2
  0
VPORT
  2
*ACTIVE
 70
     0
 10
0.0
 20
0.0
 11
1.0
 21
1.0
 12
145.973703
 22
76.179462
 13
0.0
 23
0.0
 14
1.0
 24
1.0
 15
10.0
 25
10.0
 16
0.0
 26
0.0
 36
1.0
 17
0.0
 27
0.0
 37
0.0
 40
151.089172
 41
1.466346
 42
50.0
 43
0.0
 44
0.0
 50
0.0
 51
0.0
 71
     0
 72
   100
 73
     1
 74
     0
 75
     0
 76
     0
 77
     0
 78
     0
  0
ENDTAB
  0
TABLE
  2
LTYPE
 70
     2
  0
LTYPE
  2
CONTINUOUS
 70
     0
  3
Solid line
 72
    65
 73
     0
 40
0.0
  0
LTYPE
  2
AXES2
 70
     0
  3
___ _ ___ _ ___ _ ___ _ ___ _ ___ _ ___ _ ___ _
 72
    65
 73
     4
 40
1.125
 49
0.75
 49
-0.125
 49
0.125
 49
-0.125
  0
ENDTAB
  0
TABLE
  2
LAYER
 70
     5
  0
LAYER
  2
0
 70
     0
 62
   255
  6
CONTINUOUS
  0
LAYER
  2
COTATION1
 70
     0
 62
     2
  6
CONTINUOUS
  0
LAYER
  2
AXE
 70
     0
 62
    80
  6
AXES2
  0
LAYER
  2
DEFPOINTS
 70
     0
 62
     7
  6
CONTINUOUS
  0
LAYER
  2
ALPHA
 70
     0
 62
   254
  6
CONTINUOUS
  0
ENDTAB
  0
TABLE
  2
STYLE
 70
     2
  0
STYLE
  2
ROMANS
 70
     0
 40
0.0
 41
1.0
 50
0.0
 71
     0
 42
6.0
  3
romans
  4

  0
STYLE
  2
STANDARD
 70
     0
 40
0.0
 41
1.0
 50
0.0
 71
     0
 42
0.2
  3
txt
  4

  0
ENDTAB
  0
TABLE
  2
VIEW
 70
     0
  0
ENDTAB
  0
TABLE
  2
UCS
 70
     0
  0
ENDTAB
  0
TABLE
  2
APPID
 70
     1
  0
APPID
  2
ACAD
 70
     0
  0
ENDTAB
  0
TABLE
  2
DIMSTYLE
 70
     2
  0
DIMSTYLE
  2
SC_DEFAUT
 70
     0
  3

  4

  5
OPEN30
  6

  7

 40
1.0
 41
5.0
 42
2.0
 43
0.38
 44
2.5
 45
0.0
 46
0.0
 47
0.0
 48
0.0
140
2.5
141
0.0
142
0.0
143
25.4
144
1.0
145
0.0
146
1.0
147
2.0
 71
     0
 72
     0
 73
     1
 74
     1
 75
     0
 76
     0
 77
     1
 78
    12
170
     0
171
     2
172
     0
173
     0
174
     0
175
     0
176
     0
177
     0
178
     0
  0
DIMSTYLE
  2
STANDARD
 70
     0
  3

  4

  5

  6

  7

 40
1.0
 41
0.18
 42
0.0625
 43
0.38
 44
0.18
 45
0.0
 46
0.0
 47
0.0
 48
0.0
140
0.18
141
0.09
142
0.0
143
25.4
144
1.0
145
0.0
146
1.0
147
0.09
 71
     0
 72
     0
 73
     1
 74
     1
 75
     0
 76
     0
 77
     0
 78
     0
170
     0
171
     2
172
     0
173
     0
174
     0
175
     0
176
     0
177
     0
178
     0
  0
ENDTAB
  0
ENDSEC
  0
SECTION
  2
BLOCKS
  0
BLOCK
  8
0
  2
$MODEL_SPACE
 70
     0
 10
0.0
 20
0.0
 30
0.0
  3
$MODEL_SPACE
  1

  0
ENDBLK
  5
C672
  8
0
  0
BLOCK
 67
     1
  8
0
  2
$PAPER_SPACE
 70
     0
 10
0.0
 20
0.0
 30
0.0
  3
$PAPER_SPACE
  1

  0
ENDBLK
  5
C670
 67
     1
  8
0
  0
BLOCK
  8
0
  2
COTE
 70
     0
 10
0.0
 20
0.0
 30
0.0
  3
COTE
  1

  0
ENDBLK
  5
F
  8
0
  0
BLOCK
  8
0
  2
FOND
 70
     0
 10
0.0
 20
0.0
 30
0.0
  3
FOND
  1

  0
ENDBLK
  5
75
  8
0
  0
BLOCK
  8
0
  2
_OPEN30
 70
     0
 10
0.0
 20
0.0
 30
0.0
  3
_OPEN30
  1

  0
LINE
  5
4B05
  8
COTATION1
 62
     0
 10
-1.0
 20
0.267949
 30
0.0
 11
0.0
 21
0.0
 31
0.0
1001
ACAD
1000
RTLwPs
1070
   158
  0
LINE
  5
4B06
  8
COTATION1
 62
     0
 10
0.0
 20
0.0
 30
0.0
 11
-1.0
 21
-0.267949
 31
0.0
1001
ACAD
1000
RTLwPs
1070
   158
  0
LINE
  5
4B07
  8
COTATION1
 62
     0
 10
0.0
 20
0.0
 30
0.0
 11
-1.0
 21
0.0
 31
0.0
1001
ACAD
1000
RTLwPs
1070
   158
  0
ENDBLK
  5
4B09
  8
0
  0
BLOCK
  8
0
  2
*D3
 70
     1
 10
0.0
 20
0.0
 30
0.0
  3
*D3
  1

  0
LINE
  5
C588
  8
COTATION1
 62
     0
 10
110.979402
 20
108.680429
 30
0.0
 11
110.979402
 21
149.180429
 31
0.0
1001
ACAD
1000
RTLwPs
1070
   158
  0
LINE
  5
C589
  8
COTATION1
 62
     0
 10
160.979402
 20
108.680429
 30
0.0
 11
160.979402
 21
149.180429
 31
0.0
1001
ACAD
1000
RTLwPs
1070
   158
  0
LINE
  5
C58A
  8
COTATION1
 62
     0
 10
115.979402
 20
146.680429
 30
0.0
 11
155.979402
 21
146.680429
 31
0.0
1001
ACAD
1000
RTLwPs
1070
   158
  0
INSERT
  5
C58B
  8
COTATION1
 62
     0
  2
_OPEN30
 10
110.979402
 20
146.680429
 30
0.0
 41
5.0
 42
5.0
 43
5.0
 50
180.0
1001
ACAD
1000
RTLwPs
1070
   158
  0
INSERT
  5
C58C
  8
COTATION1
 62
     0
  2
_OPEN30
 10
160.979402
 20
146.680429
 30
0.0
 41
5.0
 42
5.0
 43
5.0
1001
ACAD
1000
RTLwPs
1070
   158
  0
TEXT
  5
C58D
  8
COTATION1
 62
     0
 10
132.586544
 20
148.680429
 30
0.0
 40
2.5
  1
%%c
1001
ACAD
1000
MTEXTBEGIN
1070
    73
1070
     1
1070
    44
1040
1.0
1070
    74
1070
     0
1000
MTEXTEND
  0
TEXT
  5
C643
  8
COTATION1
 62
     0
 10
134.848449
 20
148.680429
 30
0.0
 40
2.5
  1
50
1001
ACAD
1000
R13OBJECT
1002
{
1005
C58D
1002
}
  0
POINT
  5
C58E
  8
DEFPOINTS
 62
     0
 10
110.979402
 20
106.680429
 30
0.0
  0
POINT
  5
C58F
  8
DEFPOINTS
 62
     0
 10
160.979402
 20
106.680429
 30
0.0
  0
POINT
  5
C590
  8
DEFPOINTS
 62
     0
 10
160.979402
 20
146.680429
 30
0.0
  0
ENDBLK
  5
C4CA
  8
0
  0
BLOCK
  8
0
  2
*D4
 70
     1
 10
0.0
 20
0.0
 30
0.0
  3
*D4
  1

  0
LINE
  5
C57E
  8
COTATION1
 62
     0
 10
137.979402
 20
131.680429
 30
0.0
 11
183.659402
 21
131.680429
 31
0.0
1001
ACAD
1000
RTLwPs
1070
   158
  0
LINE
  5
C57F
  8
COTATION1
 62
     0
 10
140.479402
 20
11.180429
 30
0.0
 11
183.659402
 21
11.180429
 31
0.0
1001
ACAD
1000
RTLwPs
1070
   158
  0
LINE
  5
C580
  8
COTATION1
 62
     0
 10
181.159402
 20
126.680429
 30
0.0
 11
181.159402
 21
74.680429
 31
0.0
1001
ACAD
1000
RTLwPs
1070
   158
  0
LINE
  5
C581
  8
COTATION1
 62
     0
 10
181.159402
 20
16.180429
 30
0.0
 11
181.159402
 21
68.180429
 31
0.0
1001
ACAD
1000
RTLwPs
1070
   158
  0
INSERT
  5
C582
  8
COTATION1
 62
     0
  2
_OPEN30
 10
181.159402
 20
131.680429
 30
0.0
 41
5.0
 42
5.0
 43
5.0
 50
90.0
1001
ACAD
1000
RTLwPs
1070
   158
  0
INSERT
  5
C583
  8
COTATION1
 62
     0
  2
_OPEN30
 10
181.159402
 20
11.180429
 30
0.0
 41
5.0
 42
5.0
 43
5.0
 50
270.0
1001
ACAD
1000
RTLwPs
1070
   158
  0
TEXT
  5
C584
  8
COTATION1
 62
     0
 10
175.623687
 20
70.180429
 30
0.0
 40
2.5
  1
120.5
1001
ACAD
1000
MTEXTBEGIN
1070
    73
1070
     1
1070
    44
1040
1.0
1070
    74
1070
     0
1000
MTEXTEND
  0
POINT
  5
C585
  8
DEFPOINTS
 62
     0
 10
135.979402
 20
131.680429
 30
0.0
  0
POINT
  5
C586
  8
DEFPOINTS
 62
     0
 10
138.479402
 20
11.180429
 30
0.0
  0
POINT
  5
C587
  8
DEFPOINTS
 62
     0
 10
181.159402
 20
11.180429
 30
0.0
  0
ENDBLK
  5
C4D7
  8
0
  0
ENDSEC
  0
SECTION
  2
ENTITIES
  0
INSERT
  5
A
  8
0
  2
COTE
 10
0.0
 20
0.0
 30
0.0
  0
INSERT
  5
17
  8
0
  2
COTE
 10
284.010391
 20
6.373258
 30
0.0
  0
INSERT
  5
72
  8
0
  2
FOND
 10
0.0
 20
0.0
 30
0.0
  0
ARC
  5
B8BD
  8
ALPHA
 10
135.979402
 20
106.680429
 30
0.0
 40
23.4
 50
42.5
 51
77.5
  0
CIRCLE
  5
B8BE
  8
ALPHA
 10
135.979402
 20
106.680429
 30
0.0
 40
25.0
  0
ARC
  5
B8BF
  8
ALPHA
 10
135.979402
 20
106.680429
 30
0.0
 40
23.4
 50
282.5
 51
317.5
  0
ARC
  5
B8C0
  8
ALPHA
 10
135.979402
 20
106.680429
 30
0.0
 40
21.395108
 50
34.973616
 51
85.026384
  0
ARC
  5
B8C1
  8
ALPHA
 10
135.979402
 20
106.680429
 30
0.0
 40
22.192064
 50
34.668775
 51
85.331225
  0
ARC
  5
B8C2
  8
ALPHA
 10
135.979402
 20
106.680429
 30
0.0
 40
21.395108
 50
274.973616
 51
325.026384
  0
ARC
  5
B8C3
  8
ALPHA
 10
135.979402
 20
106.680429
 30
0.0
 40
22.192064
 50
274.668775
 51
325.331225
  0
ARC
  5
B8C4
  8
ALPHA
 10
135.979402
 20
106.680429
 30
0.0
 40
22.5
 50
34.668775
 51
85.331225
  0
ARC
  5
B8C5
  8
ALPHA
 10
135.979402
 20
106.680429
 30
0.0
 40
22.5
 50
274.668775
 51
325.331225
  0
LINE
  5
B8C6
  8
ALPHA
 10
155.365789
 20
97.629538
 30
0.0
 11
141.487311
 21
105.642281
 31
0.0
  0
LINE
  5
B8C7
  8
ALPHA
 10
155.066134
 20
96.882298
 30
0.0
 11
141.023968
 21
104.989547
 31
0.0
  0
LINE
  5
B8C8
  8
ALPHA
 10
154.912166
 20
96.615618
 30
0.0
 11
140.87
 21
104.722867
 31
0.0
  0
LINE
  5
B8C9
  8
ALPHA
 10
140.12
 20
103.423828
 30
0.0
 11
154.162166
 21
95.31658
 31
0.0
  0
LINE
  5
B8CA
  8
ALPHA
 10
139.966032
 20
103.157148
 30
0.0
 11
154.008198
 21
95.049899
 31
0.0
  0
LINE
  5
B8CB
  8
ALPHA
 10
139.632419
 20
102.429514
 30
0.0
 11
153.510897
 21
94.416771
 31
0.0
  0
LINE
  5
B8CC
  8
ALPHA
 10
141.487311
 20
107.718577
 30
0.0
 11
155.365789
 21
115.731321
 31
0.0
  0
LINE
  5
B8CD
  8
ALPHA
 10
141.023968
 20
108.371311
 30
0.0
 11
155.066134
 21
116.47856
 31
0.0
  0
LINE
  5
B8CE
  8
ALPHA
 10
140.87
 20
108.637992
 30
0.0
 11
154.912166
 21
116.745241
 31
0.0
  0
LINE
  5
B8CF
  8
ALPHA
 10
154.162166
 20
118.044279
 30
0.0
 11
140.12
 21
109.93703
 31
0.0
  0
LINE
  5
B8D0
  8
ALPHA
 10
154.008198
 20
118.310959
 30
0.0
 11
139.966032
 21
110.20371
 31
0.0
  0
LINE
  5
B8D1
  8
ALPHA
 10
153.510897
 20
118.944087
 30
0.0
 11
139.632419
 21
110.931344
 31
0.0
  0
ARC
  5
B8E1
  8
ALPHA
 10
135.979402
 20
106.680429
 30
0.0
 40
24.0
 50
212.07067
 51
222.5
  0
ARC
  5
B8E2
  8
ALPHA
 10
135.979402
 20
106.680429
 30
0.0
 40
21.395108
 50
214.973616
 51
265.026384
  0
ARC
  5
B8E3
  8
ALPHA
 10
135.979402
 20
106.680429
 30
0.0
 40
22.192064
 50
214.668775
 51
265.331225
  0
ARC
  5
B8E4
  8
ALPHA
 10
135.979402
 20
106.680429
 30
0.0
 40
22.5
 50
214.668775
 51
265.331225
  0
LINE
  5
B8E8
  8
ALPHA
 10
137.834293
 20
85.365879
 30
0.0
 11
137.834293
 21
101.391366
 31
0.0
  0
LINE
  5
B8E9
  8
ALPHA
 10
137.037338
 20
85.251768
 30
0.0
 11
137.037338
 21
101.466266
 31
0.0
  0
LINE
  5
B8EA
  8
ALPHA
 10
136.729402
 20
85.251768
 30
0.0
 11
136.729402
 21
101.466266
 31
0.0
  0
LINE
  5
B8EB
  8
ALPHA
 10
135.229402
 20
101.466266
 30
0.0
 11
135.229402
 21
85.251768
 31
0.0
  0
LINE
  5
B8EC
  8
ALPHA
 10
134.921466
 20
101.466266
 30
0.0
 11
134.921466
 21
85.251768
 31
0.0
  0
LINE
  5
B8ED
  8
ALPHA
 10
134.12451
 20
101.391366
 30
0.0
 11
134.12451
 21
85.365879
 31
0.0
  0
ARC
  5
B8EE
  8
ALPHA
 10
135.979402
 20
106.680429
 30
0.0
 40
23.4
 50
222.5
 51
257.5
  0
LINE
  5
B8EF
  8
ALPHA
 10
118.284746
 20
90.466264
 30
0.0
 11
118.727112
 21
90.871618
 31
0.0
  0
LINE
  5
B900
  8
ALPHA
 10
139.435468
 20
46.574363
 30
0.0
 11
139.106178
 21
46.245074
 31
0.0
  0
LINE
  5
B901
  8
ALPHA
 10
143.479402
 20
16.180429
 30
0.0
 11
143.479402
 21
81.259247
 31
0.0
  0
LINE
  5
B902
  8
ALPHA
 10
128.479402
 20
81.259247
 30
0.0
 11
128.479402
 21
16.180429
 31
0.0
  0
LINE
  5
B903
  8
ALPHA
 10
132.852625
 20
46.245074
 30
0.0
 11
132.523336
 21
46.574363
 31
0.0
  0
ARC
  5
B904
  8
ALPHA
 10
135.979402
 20
23.180429
 30
0.0
 40
3.5
 50
186.842628
 51
353.157372
  0
LINE
  5
B905
  8
ALPHA
 10
133.479402
 20
11.180429
 30
0.0
 11
138.479402
 21
11.180429
 31
0.0
  0
LINE
  5
B906
  8
ALPHA
 10
132.852625
 20
23.245074
 30
0.0
 11
132.523336
 21
23.574363
 31
0.0
  0
ARC
  5
B907
  8
ALPHA
 10
133.479402
 20
16.180429
 30
0.0
 40
5.0
 50
180.0
 51
270.0
  0
LINE
  5
B908
  8
ALPHA
 10
132.523336
 20
22.786495
 30
0.0
 11
132.852625
 21
23.115785
 31
0.0
  0
ARC
  5
B909
  8
ALPHA
 10
132.629402
 20
22.680429
 30
0.0
 40
0.15
 50
135.0
 51
146.392657
  0
ARC
  5
B90A
  8
ALPHA
 10
132.78798
 20
23.180429
 30
0.0
 40
0.091421
 50
315.0
 51
45.0
  0
LINE
  5
B90B
  8
ALPHA
 10
132.523336
 20
34.786495
 30
0.0
 11
132.852625
 21
35.115785
 31
0.0
  0
ARC
  5
B90C
  8
ALPHA
 10
132.78798
 20
29.180429
 30
0.0
 40
0.091421
 50
315.0
 51
45.0
  0
LINE
  5
B90D
  8
ALPHA
 10
132.523336
 20
23.786495
 30
0.0
 11
132.852625
 21
24.115785
 31
0.0
  0
LINE
  5
B90E
  8
ALPHA
 10
132.523336
 20
24.786495
 30
0.0
 11
132.852625
 21
25.115785
 31
0.0
  0
LINE
  5
B90F
  8
ALPHA
 10
132.523336
 20
25.786495
 30
0.0
 11
132.852625
 21
26.115785
 31
0.0
  0
LINE
  5
B910
  8
ALPHA
 10
132.523336
 20
26.786495
 30
0.0
 11
132.852625
 21
27.115785
 31
0.0
  0
LINE
  5
B911
  8
ALPHA
 10
132.523336
 20
27.786495
 30
0.0
 11
132.852625
 21
28.115785
 31
0.0
  0
LINE
  5
B912
  8
ALPHA
 10
132.523336
 20
28.786495
 30
0.0
 11
132.852625
 21
29.115785
 31
0.0
  0
LINE
  5
B913
  8
ALPHA
 10
132.852625
 20
28.245074
 30
0.0
 11
132.523336
 21
28.574363
 31
0.0
  0
LINE
  5
B914
  8
ALPHA
 10
132.852625
 20
27.245074
 30
0.0
 11
132.523336
 21
27.574363
 31
0.0
  0
LINE
  5
B915
  8
ALPHA
 10
132.852625
 20
26.245074
 30
0.0
 11
132.523336
 21
26.574363
 31
0.0
  0
LINE
  5
B916
  8
ALPHA
 10
132.852625
 20
25.245074
 30
0.0
 11
132.523336
 21
25.574363
 31
0.0
  0
LINE
  5
B917
  8
ALPHA
 10
132.852625
 20
24.245074
 30
0.0
 11
132.523336
 21
24.574363
 31
0.0
  0
ARC
  5
B918
  8
ALPHA
 10
132.629402
 20
28.680429
 30
0.0
 40
0.15
 50
135.0
 51
225.0
  0
ARC
  5
B919
  8
ALPHA
 10
132.629402
 20
27.680429
 30
0.0
 40
0.15
 50
135.0
 51
225.0
  0
ARC
  5
B91A
  8
ALPHA
 10
132.629402
 20
26.680429
 30
0.0
 40
0.15
 50
135.0
 51
225.0
  0
ARC
  5
B91B
  8
ALPHA
 10
132.629402
 20
25.680429
 30
0.0
 40
0.15
 50
135.0
 51
225.0
  0
ARC
  5
B91C
  8
ALPHA
 10
132.629402
 20
24.680429
 30
0.0
 40
0.15
 50
135.0
 51
225.0
  0
ARC
  5
B91D
  8
ALPHA
 10
132.629402
 20
23.680429
 30
0.0
 40
0.15
 50
135.0
 51
225.0
  0
ARC
  5
B91E
  8
ALPHA
 10
132.78798
 20
28.180429
 30
0.0
 40
0.091421
 50
315.0
 51
45.0
  0
ARC
  5
B91F
  8
ALPHA
 10
132.78798
 20
27.180429
 30
0.0
 40
0.091421
 50
315.0
 51
45.0
  0
ARC
  5
B920
  8
ALPHA
 10
132.78798
 20
26.180429
 30
0.0
 40
0.091421
 50
315.0
 51
45.0
  0
ARC
  5
B921
  8
ALPHA
 10
132.78798
 20
25.180429
 30
0.0
 40
0.091421
 50
315.0
 51
45.0
  0
ARC
  5
B922
  8
ALPHA
 10
132.78798
 20
24.180429
 30
0.0
 40
0.091421
 50
315.0
 51
45.0
  0
LINE
  5
B923
  8
ALPHA
 10
132.523336
 20
29.786495
 30
0.0
 11
132.852625
 21
30.115785
 31
0.0
  0
LINE
  5
B924
  8
ALPHA
 10
132.523336
 20
30.786495
 30
0.0
 11
132.852625
 21
31.115785
 31
0.0
  0
LINE
  5
B925
  8
ALPHA
 10
132.523336
 20
31.786495
 30
0.0
 11
132.852625
 21
32.115785
 31
0.0
  0
LINE
  5
B926
  8
ALPHA
 10
132.523336
 20
32.786495
 30
0.0
 11
132.852625
 21
33.115785
 31
0.0
  0
LINE
  5
B927
  8
ALPHA
 10
132.523336
 20
33.786495
 30
0.0
 11
132.852625
 21
34.115785
 31
0.0
  0
LINE
  5
B928
  8
ALPHA
 10
132.852625
 20
34.245074
 30
0.0
 11
132.523336
 21
34.574363
 31
0.0
  0
LINE
  5
B929
  8
ALPHA
 10
132.852625
 20
33.245074
 30
0.0
 11
132.523336
 21
33.574363
 31
0.0
  0
LINE
  5
B92A
  8
ALPHA
 10
132.852625
 20
32.245074
 30
0.0
 11
132.523336
 21
32.574363
 31
0.0
  0
LINE
  5
B92B
  8
ALPHA
 10
132.852625
 20
31.245074
 30
0.0
 11
132.523336
 21
31.574363
 31
0.0
  0
LINE
  5
B92C
  8
ALPHA
 10
132.852625
 20
30.245074
 30
0.0
 11
132.523336
 21
30.574363
 31
0.0
  0
LINE
  5
B92D
  8
ALPHA
 10
132.852625
 20
29.245074
 30
0.0
 11
132.523336
 21
29.574363
 31
0.0
  0
ARC
  5
B92E
  8
ALPHA
 10
132.629402
 20
34.680429
 30
0.0
 40
0.15
 50
135.0
 51
225.0
  0
ARC
  5
B92F
  8
ALPHA
 10
132.629402
 20
33.680429
 30
0.0
 40
0.15
 50
135.0
 51
225.0
  0
ARC
  5
B930
  8
ALPHA
 10
132.629402
 20
32.680429
 30
0.0
 40
0.15
 50
135.0
 51
225.0
  0
ARC
  5
B931
  8
ALPHA
 10
132.629402
 20
31.680429
 30
0.0
 40
0.15
 50
135.0
 51
225.0
  0
ARC
  5
B932
  8
ALPHA
 10
132.629402
 20
30.680429
 30
0.0
 40
0.15
 50
135.0
 51
225.0
  0
ARC
  5
B933
  8
ALPHA
 10
132.629402
 20
29.680429
 30
0.0
 40
0.15
 50
135.0
 51
225.0
  0
ARC
  5
B934
  8
ALPHA
 10
132.78798
 20
34.180429
 30
0.0
 40
0.091421
 50
315.0
 51
45.0
  0
ARC
  5
B935
  8
ALPHA
 10
132.78798
 20
33.180429
 30
0.0
 40
0.091421
 50
315.0
 51
45.0
  0
ARC
  5
B936
  8
ALPHA
 10
132.78798
 20
32.180429
 30
0.0
 40
0.091421
 50
315.0
 51
45.0
  0
ARC
  5
B937
  8
ALPHA
 10
132.78798
 20
31.180429
 30
0.0
 40
0.091421
 50
315.0
 51
45.0
  0
ARC
  5
B938
  8
ALPHA
 10
132.78798
 20
30.180429
 30
0.0
 40
0.091421
 50
315.0
 51
45.0
  0
ARC
  5
B939
  8
ALPHA
 10
132.629402
 20
40.680429
 30
0.0
 40
0.15
 50
135.0
 51
225.0
  0
LINE
  5
B93A
  8
ALPHA
 10
132.523336
 20
35.786495
 30
0.0
 11
132.852625
 21
36.115785
 31
0.0
  0
LINE
  5
B93B
  8
ALPHA
 10
132.523336
 20
36.786495
 30
0.0
 11
132.852625
 21
37.115785
 31
0.0
  0
LINE
  5
B93C
  8
ALPHA
 10
132.523336
 20
37.786495
 30
0.0
 11
132.852625
 21
38.115785
 31
0.0
  0
LINE
  5
B93D
  8
ALPHA
 10
132.523336
 20
38.786495
 30
0.0
 11
132.852625
 21
39.115785
 31
0.0
  0
LINE
  5
B93E
  8
ALPHA
 10
132.523336
 20
39.786495
 30
0.0
 11
132.852625
 21
40.115785
 31
0.0
  0
LINE
  5
B93F
  8
ALPHA
 10
132.852625
 20
40.245074
 30
0.0
 11
132.523336
 21
40.574363
 31
0.0
  0
LINE
  5
B940
  8
ALPHA
 10
132.852625
 20
39.245074
 30
0.0
 11
132.523336
 21
39.574363
 31
0.0
  0
LINE
  5
B941
  8
ALPHA
 10
132.852625
 20
38.245074
 30
0.0
 11
132.523336
 21
38.574363
 31
0.0
  0
LINE
  5
B942
  8
ALPHA
 10
132.852625
 20
37.245074
 30
0.0
 11
132.523336
 21
37.574363
 31
0.0
  0
LINE
  5
B943
  8
ALPHA
 10
132.852625
 20
36.245074
 30
0.0
 11
132.523336
 21
36.574363
 31
0.0
  0
LINE
  5
B944
  8
ALPHA
 10
132.852625
 20
35.245074
 30
0.0
 11
132.523336
 21
35.574363
 31
0.0
  0
ARC
  5
B945
  8
ALPHA
 10
132.629402
 20
39.680429
 30
0.0
 40
0.15
 50
135.0
 51
225.0
  0
ARC
  5
B946
  8
ALPHA
 10
132.629402
 20
38.680429
 30
0.0
 40
0.15
 50
135.0
 51
225.0
  0
ARC
  5
B947
  8
ALPHA
 10
132.629402
 20
37.680429
 30
0.0
 40
0.15
 50
135.0
 51
225.0
  0
ARC
  5
B948
  8
ALPHA
 10
132.629402
 20
36.680429
 30
0.0
 40
0.15
 50
135.0
 51
225.0
  0
ARC
  5
B949
  8
ALPHA
 10
132.629402
 20
35.680429
 30
0.0
 40
0.15
 50
135.0
 51
225.0
  0
ARC
  5
B94A
  8
ALPHA
 10
132.78798
 20
40.180429
 30
0.0
 40
0.091421
 50
315.0
 51
45.0
  0
ARC
  5
B94B
  8
ALPHA
 10
132.78798
 20
39.180429
 30
0.0
 40
0.091421
 50
315.0
 51
45.0
  0
ARC
  5
B94C
  8
ALPHA
 10
132.78798
 20
38.180429
 30
0.0
 40
0.091421
 50
315.0
 51
45.0
  0
ARC
  5
B94D
  8
ALPHA
 10
132.78798
 20
37.180429
 30
0.0
 40
0.091421
 50
315.0
 51
45.0
  0
ARC
  5
B94E
  8
ALPHA
 10
132.78798
 20
36.180429
 30
0.0
 40
0.091421
 50
315.0
 51
45.0
  0
ARC
  5
B94F
  8
ALPHA
 10
132.78798
 20
35.180429
 30
0.0
 40
0.091421
 50
315.0
 51
45.0
  0
LINE
  5
B950
  8
ALPHA
 10
132.523336
 20
40.786495
 30
0.0
 11
132.852625
 21
41.115785
 31
0.0
  0
LINE
  5
B951
  8
ALPHA
 10
132.523336
 20
41.786495
 30
0.0
 11
132.852625
 21
42.115785
 31
0.0
  0
LINE
  5
B952
  8
ALPHA
 10
132.523336
 20
42.786495
 30
0.0
 11
132.852625
 21
43.115785
 31
0.0
  0
LINE
  5
B953
  8
ALPHA
 10
132.523336
 20
43.786495
 30
0.0
 11
132.852625
 21
44.115785
 31
0.0
  0
LINE
  5
B954
  8
ALPHA
 10
132.523336
 20
44.786495
 30
0.0
 11
132.852625
 21
45.115785
 31
0.0
  0
LINE
  5
B955
  8
ALPHA
 10
132.523336
 20
45.786495
 30
0.0
 11
132.852625
 21
46.115785
 31
0.0
  0
LINE
  5
B956
  8
ALPHA
 10
132.852625
 20
45.245074
 30
0.0
 11
132.523336
 21
45.574363
 31
0.0
  0
LINE
  5
B957
  8
ALPHA
 10
132.852625
 20
44.245074
 30
0.0
 11
132.523336
 21
44.574363
 31
0.0
  0
LINE
  5
B958
  8
ALPHA
 10
132.852625
 20
43.245074
 30
0.0
 11
132.523336
 21
43.574363
 31
0.0
  0
LINE
  5
B959
  8
ALPHA
 10
132.852625
 20
42.245074
 30
0.0
 11
132.523336
 21
42.574363
 31
0.0
  0
LINE
  5
B95A
  8
ALPHA
 10
132.852625
 20
41.245074
 30
0.0
 11
132.523336
 21
41.574363
 31
0.0
  0
ARC
  5
B95B
  8
ALPHA
 10
132.629402
 20
45.680429
 30
0.0
 40
0.15
 50
135.0
 51
225.0
  0
ARC
  5
B95C
  8
ALPHA
 10
132.629402
 20
44.680429
 30
0.0
 40
0.15
 50
135.0
 51
225.0
  0
ARC
  5
B95D
  8
ALPHA
 10
132.629402
 20
43.680429
 30
0.0
 40
0.15
 50
135.0
 51
225.0
  0
ARC
  5
B95E
  8
ALPHA
 10
132.629402
 20
42.680429
 30
0.0
 40
0.15
 50
135.0
 51
225.0
  0
ARC
  5
B95F
  8
ALPHA
 10
132.629402
 20
41.680429
 30
0.0
 40
0.15
 50
135.0
 51
225.0
  0
ARC
  5
B960
  8
ALPHA
 10
132.78798
 20
46.180429
 30
0.0
 40
0.091421
 50
315.0
 51
45.0
  0
ARC
  5
B961
  8
ALPHA
 10
132.78798
 20
45.180429
 30
0.0
 40
0.091421
 50
315.0
 51
45.0
  0
ARC
  5
B962
  8
ALPHA
 10
132.78798
 20
44.180429
 30
0.0
 40
0.091421
 50
315.0
 51
45.0
  0
ARC
  5
B963
  8
ALPHA
 10
132.78798
 20
43.180429
 30
0.0
 40
0.091421
 50
315.0
 51
45.0
  0
ARC
  5
B964
  8
ALPHA
 10
132.78798
 20
42.180429
 30
0.0
 40
0.091421
 50
315.0
 51
45.0
  0
ARC
  5
B965
  8
ALPHA
 10
132.78798
 20
41.180429
 30
0.0
 40
0.091421
 50
315.0
 51
45.0
  0
LINE
  5
B966
  8
ALPHA
 10
139.435468
 20
23.574363
 30
0.0
 11
139.106178
 21
23.245074
 31
0.0
  0
ARC
  5
B967
  8
ALPHA
 10
138.479402
 20
16.180429
 30
0.0
 40
5.0
 50
270.0
 51
0.0
  0
ARC
  5
B968
  8
ALPHA
 10
139.170823
 20
23.180429
 30
0.0
 40
0.091421
 50
135.0
 51
225.0
  0
ARC
  5
B969
  8
ALPHA
 10
139.329402
 20
22.680429
 30
0.0
 40
0.15
 50
33.607343
 51
45.0
  0
LINE
  5
B96A
  8
ALPHA
 10
139.106178
 20
23.115785
 30
0.0
 11
139.435468
 21
22.786495
 31
0.0
  0
LINE
  5
B96B
  8
ALPHA
 10
139.106178
 20
35.115785
 30
0.0
 11
139.435468
 21
34.786495
 31
0.0
  0
ARC
  5
B96C
  8
ALPHA
 10
139.170823
 20
29.180429
 30
0.0
 40
0.091421
 50
135.0
 51
225.0
  0
ARC
  5
B96D
  8
ALPHA
 10
139.170823
 20
28.180429
 30
0.0
 40
0.091421
 50
135.0
 51
225.0
  0
ARC
  5
B96E
  8
ALPHA
 10
139.170823
 20
27.180429
 30
0.0
 40
0.091421
 50
135.0
 51
225.0
  0
ARC
  5
B96F
  8
ALPHA
 10
139.170823
 20
26.180429
 30
0.0
 40
0.091421
 50
135.0
 51
225.0
  0
ARC
  5
B970
  8
ALPHA
 10
139.170823
 20
25.180429
 30
0.0
 40
0.091421
 50
135.0
 51
225.0
  0
ARC
  5
B971
  8
ALPHA
 10
139.170823
 20
24.180429
 30
0.0
 40
0.091421
 50
135.0
 51
225.0
  0
ARC
  5
B972
  8
ALPHA
 10
139.329402
 20
28.680429
 30
0.0
 40
0.15
 50
315.0
 51
45.0
  0
ARC
  5
B973
  8
ALPHA
 10
139.329402
 20
27.680429
 30
0.0
 40
0.15
 50
315.0
 51
45.0
  0
ARC
  5
B974
  8
ALPHA
 10
139.329402
 20
26.680429
 30
0.0
 40
0.15
 50
315.0
 51
45.0
  0
ARC
  5
B975
  8
ALPHA
 10
139.329402
 20
25.680429
 30
0.0
 40
0.15
 50
315.0
 51
45.0
  0
ARC
  5
B976
  8
ALPHA
 10
139.329402
 20
24.680429
 30
0.0
 40
0.15
 50
315.0
 51
45.0
  0
ARC
  5
B977
  8
ALPHA
 10
139.329402
 20
23.680429
 30
0.0
 40
0.15
 50
315.0
 51
45.0
  0
LINE
  5
B978
  8
ALPHA
 10
139.435468
 20
24.574363
 30
0.0
 11
139.106178
 21
24.245074
 31
0.0
  0
LINE
  5
B979
  8
ALPHA
 10
139.435468
 20
25.574363
 30
0.0
 11
139.106178
 21
25.245074
 31
0.0
  0
LINE
  5
B97A
  8
ALPHA
 10
139.435468
 20
26.574363
 30
0.0
 11
139.106178
 21
26.245074
 31
0.0
  0
LINE
  5
B97B
  8
ALPHA
 10
139.435468
 20
27.574363
 30
0.0
 11
139.106178
 21
27.245074
 31
0.0
  0
LINE
  5
B97C
  8
ALPHA
 10
139.435468
 20
28.574363
 30
0.0
 11
139.106178
 21
28.245074
 31
0.0
  0
LINE
  5
B97D
  8
ALPHA
 10
139.106178
 20
29.115785
 30
0.0
 11
139.435468
 21
28.786495
 31
0.0
  0
LINE
  5
B97E
  8
ALPHA
 10
139.106178
 20
28.115785
 30
0.0
 11
139.435468
 21
27.786495
 31
0.0
  0
LINE
  5
B97F
  8
ALPHA
 10
139.106178
 20
27.115785
 30
0.0
 11
139.435468
 21
26.786495
 31
0.0
  0
LINE
  5
B980
  8
ALPHA
 10
139.106178
 20
26.115785
 30
0.0
 11
139.435468
 21
25.786495
 31
0.0
  0
LINE
  5
B981
  8
ALPHA
 10
139.106178
 20
25.115785
 30
0.0
 11
139.435468
 21
24.786495
 31
0.0
  0
LINE
  5
B982
  8
ALPHA
 10
139.106178
 20
24.115785
 30
0.0
 11
139.435468
 21
23.786495
 31
0.0
  0
ARC
  5
B983
  8
ALPHA
 10
139.170823
 20
34.180429
 30
0.0
 40
0.091421
 50
135.0
 51
225.0
  0
ARC
  5
B984
  8
ALPHA
 10
139.170823
 20
33.180429
 30
0.0
 40
0.091421
 50
135.0
 51
225.0
  0
ARC
  5
B985
  8
ALPHA
 10
139.170823
 20
32.180429
 30
0.0
 40
0.091421
 50
135.0
 51
225.0
  0
ARC
  5
B986
  8
ALPHA
 10
139.170823
 20
31.180429
 30
0.0
 40
0.091421
 50
135.0
 51
225.0
  0
ARC
  5
B987
  8
ALPHA
 10
139.170823
 20
30.180429
 30
0.0
 40
0.091421
 50
135.0
 51
225.0
  0
ARC
  5
B988
  8
ALPHA
 10
139.329402
 20
34.680429
 30
0.0
 40
0.15
 50
315.0
 51
45.0
  0
ARC
  5
B989
  8
ALPHA
 10
139.329402
 20
33.680429
 30
0.0
 40
0.15
 50
315.0
 51
45.0
  0
ARC
  5
B98A
  8
ALPHA
 10
139.329402
 20
32.680429
 30
0.0
 40
0.15
 50
315.0
 51
45.0
  0
ARC
  5
B98B
  8
ALPHA
 10
139.329402
 20
31.680429
 30
0.0
 40
0.15
 50
315.0
 51
45.0
  0
ARC
  5
B98C
  8
ALPHA
 10
139.329402
 20
30.680429
 30
0.0
 40
0.15
 50
315.0
 51
45.0
  0
ARC
  5
B98D
  8
ALPHA
 10
139.329402
 20
29.680429
 30
0.0
 40
0.15
 50
315.0
 51
45.0
  0
LINE
  5
B98E
  8
ALPHA
 10
139.435468
 20
29.574363
 30
0.0
 11
139.106178
 21
29.245074
 31
0.0
  0
LINE
  5
B98F
  8
ALPHA
 10
139.435468
 20
30.574363
 30
0.0
 11
139.106178
 21
30.245074
 31
0.0
  0
LINE
  5
B990
  8
ALPHA
 10
139.435468
 20
31.574363
 30
0.0
 11
139.106178
 21
31.245074
 31
0.0
  0
LINE
  5
B991
  8
ALPHA
 10
139.435468
 20
32.574363
 30
0.0
 11
139.106178
 21
32.245074
 31
0.0
  0
LINE
  5
B992
  8
ALPHA
 10
139.435468
 20
33.574363
 30
0.0
 11
139.106178
 21
33.245074
 31
0.0
  0
LINE
  5
B993
  8
ALPHA
 10
139.435468
 20
34.574363
 30
0.0
 11
139.106178
 21
34.245074
 31
0.0
  0
LINE
  5
B994
  8
ALPHA
 10
139.106178
 20
34.115785
 30
0.0
 11
139.435468
 21
33.786495
 31
0.0
  0
LINE
  5
B995
  8
ALPHA
 10
139.106178
 20
33.115785
 30
0.0
 11
139.435468
 21
32.786495
 31
0.0
  0
LINE
  5
B996
  8
ALPHA
 10
139.106178
 20
32.115785
 30
0.0
 11
139.435468
 21
31.786495
 31
0.0
  0
LINE
  5
B997
  8
ALPHA
 10
139.106178
 20
31.115785
 30
0.0
 11
139.435468
 21
30.786495
 31
0.0
  0
LINE
  5
B998
  8
ALPHA
 10
139.106178
 20
30.115785
 30
0.0
 11
139.435468
 21
29.786495
 31
0.0
  0
ARC
  5
B999
  8
ALPHA
 10
139.329402
 20
40.680429
 30
0.0
 40
0.15
 50
315.0
 51
45.0
  0
ARC
  5
B99A
  8
ALPHA
 10
139.170823
 20
40.180429
 30
0.0
 40
0.091421
 50
135.0
 51
225.0
  0
ARC
  5
B99B
  8
ALPHA
 10
139.170823
 20
39.180429
 30
0.0
 40
0.091421
 50
135.0
 51
225.0
  0
ARC
  5
B99C
  8
ALPHA
 10
139.170823
 20
38.180429
 30
0.0
 40
0.091421
 50
135.0
 51
225.0
  0
ARC
  5
B99D
  8
ALPHA
 10
139.170823
 20
37.180429
 30
0.0
 40
0.091421
 50
135.0
 51
225.0
  0
ARC
  5
B99E
  8
ALPHA
 10
139.170823
 20
36.180429
 30
0.0
 40
0.091421
 50
135.0
 51
225.0
  0
ARC
  5
B99F
  8
ALPHA
 10
139.170823
 20
35.180429
 30
0.0
 40
0.091421
 50
135.0
 51
225.0
  0
ARC
  5
B9A0
  8
ALPHA
 10
139.329402
 20
39.680429
 30
0.0
 40
0.15
 50
315.0
 51
45.0
  0
ARC
  5
B9A1
  8
ALPHA
 10
139.329402
 20
38.680429
 30
0.0
 40
0.15
 50
315.0
 51
45.0
  0
ARC
  5
B9A2
  8
ALPHA
 10
139.329402
 20
37.680429
 30
0.0
 40
0.15
 50
315.0
 51
45.0
  0
ARC
  5
B9A3
  8
ALPHA
 10
139.329402
 20
36.680429
 30
0.0
 40
0.15
 50
315.0
 51
45.0
  0
ARC
  5
B9A4
  8
ALPHA
 10
139.329402
 20
35.680429
 30
0.0
 40
0.15
 50
315.0
 51
45.0
  0
LINE
  5
B9A5
  8
ALPHA
 10
139.435468
 20
35.574363
 30
0.0
 11
139.106178
 21
35.245074
 31
0.0
  0
LINE
  5
B9A6
  8
ALPHA
 10
139.435468
 20
36.574363
 30
0.0
 11
139.106178
 21
36.245074
 31
0.0
  0
LINE
  5
B9A7
  8
ALPHA
 10
139.435468
 20
37.574363
 30
0.0
 11
139.106178
 21
37.245074
 31
0.0
  0
LINE
  5
B9A8
  8
ALPHA
 10
139.435468
 20
38.574363
 30
0.0
 11
139.106178
 21
38.245074
 31
0.0
  0
LINE
  5
B9A9
  8
ALPHA
 10
139.435468
 20
39.574363
 30
0.0
 11
139.106178
 21
39.245074
 31
0.0
  0
LINE
  5
B9AA
  8
ALPHA
 10
139.435468
 20
40.574363
 30
0.0
 11
139.106178
 21
40.245074
 31
0.0
  0
LINE
  5
B9AB
  8
ALPHA
 10
139.106178
 20
40.115785
 30
0.0
 11
139.435468
 21
39.786495
 31
0.0
  0
LINE
  5
B9AC
  8
ALPHA
 10
139.106178
 20
39.115785
 30
0.0
 11
139.435468
 21
38.786495
 31
0.0
  0
LINE
  5
B9AD
  8
ALPHA
 10
139.106178
 20
38.115785
 30
0.0
 11
139.435468
 21
37.786495
 31
0.0
  0
LINE
  5
B9AE
  8
ALPHA
 10
139.106178
 20
37.115785
 30
0.0
 11
139.435468
 21
36.786495
 31
0.0
  0
LINE
  5
B9AF
  8
ALPHA
 10
139.106178
 20
36.115785
 30
0.0
 11
139.435468
 21
35.786495
 31
0.0
  0
ARC
  5
B9B0
  8
ALPHA
 10
139.170823
 20
46.180429
 30
0.0
 40
0.091421
 50
135.0
 51
225.0
  0
ARC
  5
B9B1
  8
ALPHA
 10
139.170823
 20
45.180429
 30
0.0
 40
0.091421
 50
135.0
 51
225.0
  0
ARC
  5
B9B2
  8
ALPHA
 10
139.170823
 20
44.180429
 30
0.0
 40
0.091421
 50
135.0
 51
225.0
  0
ARC
  5
B9B3
  8
ALPHA
 10
139.170823
 20
43.180429
 30
0.0
 40
0.091421
 50
135.0
 51
225.0
  0
ARC
  5
B9B4
  8
ALPHA
 10
139.170823
 20
42.180429
 30
0.0
 40
0.091421
 50
135.0
 51
225.0
  0
ARC
  5
B9B5
  8
ALPHA
 10
139.170823
 20
41.180429
 30
0.0
 40
0.091421
 50
135.0
 51
225.0
  0
ARC
  5
B9B6
  8
ALPHA
 10
139.329402
 20
45.680429
 30
0.0
 40
0.15
 50
315.0
 51
45.0
  0
ARC
  5
B9B7
  8
ALPHA
 10
139.329402
 20
44.680429
 30
0.0
 40
0.15
 50
315.0
 51
45.0
  0
ARC
  5
B9B8
  8
ALPHA
 10
139.329402
 20
43.680429
 30
0.0
 40
0.15
 50
315.0
 51
45.0
  0
ARC
  5
B9B9
  8
ALPHA
 10
139.329402
 20
42.680429
 30
0.0
 40
0.15
 50
315.0
 51
45.0
  0
ARC
  5
B9BA
  8
ALPHA
 10
139.329402
 20
41.680429
 30
0.0
 40
0.15
 50
315.0
 51
45.0
  0
LINE
  5
B9BB
  8
ALPHA
 10
139.435468
 20
41.574363
 30
0.0
 11
139.106178
 21
41.245074
 31
0.0
  0
LINE
  5
B9BC
  8
ALPHA
 10
139.435468
 20
42.574363
 30
0.0
 11
139.106178
 21
42.245074
 31
0.0
  0
LINE
  5
B9BD
  8
ALPHA
 10
139.435468
 20
43.574363
 30
0.0
 11
139.106178
 21
43.245074
 31
0.0
  0
LINE
  5
B9BE
  8
ALPHA
 10
139.435468
 20
44.574363
 30
0.0
 11
139.106178
 21
44.245074
 31
0.0
  0
LINE
  5
B9BF
  8
ALPHA
 10
139.435468
 20
45.574363
 30
0.0
 11
139.106178
 21
45.245074
 31
0.0
  0
LINE
  5
B9C0
  8
ALPHA
 10
139.106178
 20
46.115785
 30
0.0
 11
139.435468
 21
45.786495
 31
0.0
  0
LINE
  5
B9C1
  8
ALPHA
 10
139.106178
 20
45.115785
 30
0.0
 11
139.435468
 21
44.786495
 31
0.0
  0
LINE
  5
B9C2
  8
ALPHA
 10
139.106178
 20
44.115785
 30
0.0
 11
139.435468
 21
43.786495
 31
0.0
  0
LINE
  5
B9C3
  8
ALPHA
 10
139.106178
 20
43.115785
 30
0.0
 11
139.435468
 21
42.786495
 31
0.0
  0
LINE
  5
B9C4
  8
ALPHA
 10
139.106178
 20
42.115785
 30
0.0
 11
139.435468
 21
41.786495
 31
0.0
  0
LINE
  5
B9C5
  8
ALPHA
 10
139.106178
 20
41.115785
 30
0.0
 11
139.435468
 21
40.786495
 31
0.0
  0
LINE
  5
B9C6
  8
ALPHA
 10
134.670489
 20
84.778419
 30
0.0
 11
134.921466
 21
85.251768
 31
0.0
  0
ARC
  5
B9C7
  8
ALPHA
 10
135.979402
 20
106.680429
 30
0.0
 40
24.0
 50
257.5
 51
267.92933
  0
ARC
  5
B9C8
  8
ALPHA
 10
134.229402
 20
85.251768
 30
0.0
 40
1.0
 50
265.331225
 51
0.0
  0
ARC
  5
B9C9
  8
ALPHA
 10
135.979402
 20
63.580429
 30
0.0
 40
3.2
 50
200.364135
 51
339.635865
  0
ARC
  5
B9CA
  8
ALPHA
 10
135.979402
 20
71.680429
 30
0.0
 40
5.5
 50
245.380023
 51
294.619977
  0
ARC
  5
B9CB
  8
ALPHA
 10
135.979402
 20
71.680429
 30
0.0
 40
5.5
 50
65.380023
 51
114.619977
  0
ARC
  5
B9CC
  8
ALPHA
 10
134.781405
 20
67.44666
 30
0.0
 40
0.1
 50
74.200498
 51
152.0
  0
ARC
  5
B9CD
  8
ALPHA
 10
134.781405
 20
75.914199
 30
0.0
 40
0.1
 50
208.0
 51
285.799502
  0
ARC
  5
B9CE
  8
ALPHA
 10
132.629402
 20
69.680429
 30
0.0
 40
0.15
 50
135.0
 51
225.0
  0
ARC
  5
B9CF
  8
ALPHA
 10
132.78798
 20
58.180429
 30
0.0
 40
0.091421
 50
315.0
 51
45.0
  0
LINE
  5
B9D0
  8
ALPHA
 10
132.852625
 20
52.245074
 30
0.0
 11
132.523336
 21
52.574363
 31
0.0
  0
LINE
  5
B9D1
  8
ALPHA
 10
132.523336
 20
46.786495
 30
0.0
 11
132.852625
 21
47.115785
 31
0.0
  0
LINE
  5
B9D2
  8
ALPHA
 10
132.523336
 20
47.786495
 30
0.0
 11
132.852625
 21
48.115785
 31
0.0
  0
LINE
  5
B9D3
  8
ALPHA
 10
132.523336
 20
48.786495
 30
0.0
 11
132.852625
 21
49.115785
 31
0.0
  0
LINE
  5
B9D4
  8
ALPHA
 10
132.523336
 20
49.786495
 30
0.0
 11
132.852625
 21
50.115785
 31
0.0
  0
LINE
  5
B9D5
  8
ALPHA
 10
132.523336
 20
50.786495
 30
0.0
 11
132.852625
 21
51.115785
 31
0.0
  0
LINE
  5
B9D6
  8
ALPHA
 10
132.523336
 20
51.786495
 30
0.0
 11
132.852625
 21
52.115785
 31
0.0
  0
LINE
  5
B9D7
  8
ALPHA
 10
132.852625
 20
51.245074
 30
0.0
 11
132.523336
 21
51.574363
 31
0.0
  0
LINE
  5
B9D8
  8
ALPHA
 10
132.852625
 20
50.245074
 30
0.0
 11
132.523336
 21
50.574363
 31
0.0
  0
LINE
  5
B9D9
  8
ALPHA
 10
132.852625
 20
49.245074
 30
0.0
 11
132.523336
 21
49.574363
 31
0.0
  0
LINE
  5
B9DA
  8
ALPHA
 10
132.852625
 20
48.245074
 30
0.0
 11
132.523336
 21
48.574363
 31
0.0
  0
LINE
  5
B9DB
  8
ALPHA
 10
132.852625
 20
47.245074
 30
0.0
 11
132.523336
 21
47.574363
 31
0.0
  0
ARC
  5
B9DC
  8
ALPHA
 10
132.629402
 20
51.680429
 30
0.0
 40
0.15
 50
135.0
 51
225.0
  0
ARC
  5
B9DD
  8
ALPHA
 10
132.629402
 20
50.680429
 30
0.0
 40
0.15
 50
135.0
 51
225.0
  0
ARC
  5
B9DE
  8
ALPHA
 10
132.629402
 20
49.680429
 30
0.0
 40
0.15
 50
135.0
 51
225.0
  0
ARC
  5
B9DF
  8
ALPHA
 10
132.629402
 20
48.680429
 30
0.0
 40
0.15
 50
135.0
 51
225.0
  0
ARC
  5
B9E0
  8
ALPHA
 10
132.629402
 20
47.680429
 30
0.0
 40
0.15
 50
135.0
 51
225.0
  0
ARC
  5
B9E1
  8
ALPHA
 10
132.629402
 20
46.680429
 30
0.0
 40
0.15
 50
135.0
 51
225.0
  0
ARC
  5
B9E2
  8
ALPHA
 10
132.78798
 20
52.180429
 30
0.0
 40
0.091421
 50
315.0
 51
45.0
  0
ARC
  5
B9E3
  8
ALPHA
 10
132.78798
 20
51.180429
 30
0.0
 40
0.091421
 50
315.0
 51
45.0
  0
ARC
  5
B9E4
  8
ALPHA
 10
132.78798
 20
50.180429
 30
0.0
 40
0.091421
 50
315.0
 51
45.0
  0
ARC
  5
B9E5
  8
ALPHA
 10
132.78798
 20
49.180429
 30
0.0
 40
0.091421
 50
315.0
 51
45.0
  0
ARC
  5
B9E6
  8
ALPHA
 10
132.78798
 20
48.180429
 30
0.0
 40
0.091421
 50
315.0
 51
45.0
  0
ARC
  5
B9E7
  8
ALPHA
 10
132.78798
 20
47.180429
 30
0.0
 40
0.091421
 50
315.0
 51
45.0
  0
LINE
  5
B9E8
  8
ALPHA
 10
132.523336
 20
52.786495
 30
0.0
 11
132.852625
 21
53.115785
 31
0.0
  0
LINE
  5
B9E9
  8
ALPHA
 10
132.523336
 20
53.786495
 30
0.0
 11
132.852625
 21
54.115785
 31
0.0
  0
LINE
  5
B9EA
  8
ALPHA
 10
132.523336
 20
54.786495
 30
0.0
 11
132.852625
 21
55.115785
 31
0.0
  0
LINE
  5
B9EB
  8
ALPHA
 10
132.523336
 20
55.786495
 30
0.0
 11
132.852625
 21
56.115785
 31
0.0
  0
LINE
  5
B9EC
  8
ALPHA
 10
132.523336
 20
56.786495
 30
0.0
 11
132.852625
 21
57.115785
 31
0.0
  0
LINE
  5
B9ED
  8
ALPHA
 10
132.523336
 20
57.786495
 30
0.0
 11
132.852625
 21
58.115785
 31
0.0
  0
LINE
  5
B9EE
  8
ALPHA
 10
132.852625
 20
57.245074
 30
0.0
 11
132.523336
 21
57.574363
 31
0.0
  0
LINE
  5
B9EF
  8
ALPHA
 10
132.852625
 20
56.245074
 30
0.0
 11
132.523336
 21
56.574363
 31
0.0
  0
LINE
  5
B9F0
  8
ALPHA
 10
132.852625
 20
55.245074
 30
0.0
 11
132.523336
 21
55.574363
 31
0.0
  0
LINE
  5
B9F1
  8
ALPHA
 10
132.852625
 20
54.245074
 30
0.0
 11
132.523336
 21
54.574363
 31
0.0
  0
LINE
  5
B9F2
  8
ALPHA
 10
132.852625
 20
53.245074
 30
0.0
 11
132.523336
 21
53.574363
 31
0.0
  0
ARC
  5
B9F3
  8
ALPHA
 10
132.629402
 20
57.680429
 30
0.0
 40
0.15
 50
135.0
 51
225.0
  0
ARC
  5
B9F4
  8
ALPHA
 10
132.629402
 20
56.680429
 30
0.0
 40
0.15
 50
135.0
 51
225.0
  0
ARC
  5
B9F5
  8
ALPHA
 10
132.629402
 20
55.680429
 30
0.0
 40
0.15
 50
135.0
 51
225.0
  0
ARC
  5
B9F6
  8
ALPHA
 10
132.629402
 20
54.680429
 30
0.0
 40
0.15
 50
135.0
 51
225.0
  0
ARC
  5
B9F7
  8
ALPHA
 10
132.629402
 20
53.680429
 30
0.0
 40
0.15
 50
135.0
 51
225.0
  0
ARC
  5
B9F8
  8
ALPHA
 10
132.629402
 20
52.680429
 30
0.0
 40
0.15
 50
135.0
 51
225.0
  0
ARC
  5
B9F9
  8
ALPHA
 10
132.78798
 20
57.180429
 30
0.0
 40
0.091421
 50
315.0
 51
45.0
  0
ARC
  5
B9FA
  8
ALPHA
 10
132.78798
 20
56.180429
 30
0.0
 40
0.091421
 50
315.0
 51
45.0
  0
ARC
  5
B9FB
  8
ALPHA
 10
132.78798
 20
55.180429
 30
0.0
 40
0.091421
 50
315.0
 51
45.0
  0
ARC
  5
B9FC
  8
ALPHA
 10
132.78798
 20
54.180429
 30
0.0
 40
0.091421
 50
315.0
 51
45.0
  0
ARC
  5
B9FD
  8
ALPHA
 10
132.78798
 20
53.180429
 30
0.0
 40
0.091421
 50
315.0
 51
45.0
  0
LINE
  5
B9FE
  8
ALPHA
 10
132.523336
 20
63.786495
 30
0.0
 11
132.852625
 21
64.115785
 31
0.0
  0
LINE
  5
B9FF
  8
ALPHA
 10
132.870823
 20
64.133983
 30
0.0
 11
133.076889
 21
63.927917
 31
0.0
  0
LINE
  5
BA00
  8
ALPHA
 10
132.729402
 20
63.992561
 30
0.0
 11
132.935468
 21
63.786495
 31
0.0
  0
LINE
  5
BA01
  8
ALPHA
 10
132.523336
 20
58.786495
 30
0.0
 11
132.852625
 21
59.115785
 31
0.0
  0
LINE
  5
BA02
  8
ALPHA
 10
132.523336
 20
59.786495
 30
0.0
 11
132.852625
 21
60.115785
 31
0.0
  0
LINE
  5
BA03
  8
ALPHA
 10
132.523336
 20
60.786495
 30
0.0
 11
132.852625
 21
61.115785
 31
0.0
  0
LINE
  5
BA04
  8
ALPHA
 10
132.523336
 20
61.786495
 30
0.0
 11
132.852625
 21
62.115785
 31
0.0
  0
LINE
  5
BA05
  8
ALPHA
 10
132.523336
 20
62.786495
 30
0.0
 11
132.852625
 21
63.115785
 31
0.0
  0
LINE
  5
BA06
  8
ALPHA
 10
132.852625
 20
63.245074
 30
0.0
 11
132.523336
 21
63.574363
 31
0.0
  0
LINE
  5
BA07
  8
ALPHA
 10
132.852625
 20
62.245074
 30
0.0
 11
132.523336
 21
62.574363
 31
0.0
  0
LINE
  5
BA08
  8
ALPHA
 10
132.852625
 20
61.245074
 30
0.0
 11
132.523336
 21
61.574363
 31
0.0
  0
LINE
  5
BA09
  8
ALPHA
 10
132.852625
 20
60.245074
 30
0.0
 11
132.523336
 21
60.574363
 31
0.0
  0
LINE
  5
BA0A
  8
ALPHA
 10
132.852625
 20
59.245074
 30
0.0
 11
132.523336
 21
59.574363
 31
0.0
  0
LINE
  5
BA0B
  8
ALPHA
 10
132.852625
 20
58.245074
 30
0.0
 11
132.523336
 21
58.574363
 31
0.0
  0
ARC
  5
BA0C
  8
ALPHA
 10
132.629402
 20
63.680429
 30
0.0
 40
0.15
 50
135.0
 51
225.0
  0
ARC
  5
BA0D
  8
ALPHA
 10
132.629402
 20
62.680429
 30
0.0
 40
0.15
 50
135.0
 51
225.0
  0
ARC
  5
BA0E
  8
ALPHA
 10
132.629402
 20
61.680429
 30
0.0
 40
0.15
 50
135.0
 51
225.0
  0
ARC
  5
BA0F
  8
ALPHA
 10
132.629402
 20
60.680429
 30
0.0
 40
0.15
 50
135.0
 51
225.0
  0
ARC
  5
BA10
  8
ALPHA
 10
132.629402
 20
59.680429
 30
0.0
 40
0.15
 50
135.0
 51
225.0
  0
ARC
  5
BA11
  8
ALPHA
 10
132.629402
 20
58.680429
 30
0.0
 40
0.15
 50
135.0
 51
225.0
  0
ARC
  5
BA12
  8
ALPHA
 10
132.78798
 20
63.180429
 30
0.0
 40
0.091421
 50
315.0
 51
45.0
  0
ARC
  5
BA13
  8
ALPHA
 10
132.78798
 20
62.180429
 30
0.0
 40
0.091421
 50
315.0
 51
45.0
  0
ARC
  5
BA14
  8
ALPHA
 10
132.78798
 20
61.180429
 30
0.0
 40
0.091421
 50
315.0
 51
45.0
  0
ARC
  5
BA15
  8
ALPHA
 10
132.78798
 20
60.180429
 30
0.0
 40
0.091421
 50
315.0
 51
45.0
  0
ARC
  5
BA16
  8
ALPHA
 10
132.78798
 20
59.180429
 30
0.0
 40
0.091421
 50
315.0
 51
45.0
  0
ARC
  5
BA17
  8
ALPHA
 10
132.829402
 20
62.680429
 30
0.0
 40
0.35
 50
0.0
 51
45.0
  0
ARC
  5
BA18
  8
ALPHA
 10
132.829402
 20
63.680429
 30
0.0
 40
0.35
 50
315.0
 51
45.0
  0
ARC
  5
BA19
  8
ALPHA
 10
132.829402
 20
62.680429
 30
0.0
 40
0.15
 50
0.0
 51
45.0
  0
ARC
  5
BA1A
  8
ALPHA
 10
132.829402
 20
63.680429
 30
0.0
 40
0.15
 50
315.0
 51
45.0
  0
ARC
  5
BA1B
  8
ALPHA
 10
135.979402
 20
71.680429
 30
0.0
 40
10.0
 50
251.901635
 51
253.551387
  0
LINE
  5
BA1C
  8
ALPHA
 10
133.076889
 20
62.927917
 30
0.0
 11
132.935468
 21
62.786495
 31
0.0
  0
LINE
  5
BA1D
  8
ALPHA
 10
133.076889
 20
63.432942
 30
0.0
 11
132.870823
 21
63.226876
 31
0.0
  0
LINE
  5
BA1E
  8
ALPHA
 10
132.935468
 20
63.574363
 30
0.0
 11
132.729402
 21
63.368297
 31
0.0
  0
LINE
  5
BA1F
  8
ALPHA
 10
133.076889
 20
63.927917
 30
0.0
 11
132.935468
 21
63.786495
 31
0.0
  0
LINE
  5
BA20
  8
ALPHA
 10
133.179402
 20
62.680429
 30
0.0
 11
133.179402
 21
62.031236
 31
0.0
  0
LINE
  5
BA21
  8
ALPHA
 10
132.979402
 20
62.680429
 30
0.0
 11
132.979402
 21
62.466876
 31
0.0
  0
LINE
  5
BA22
  8
ALPHA
 10
133.076889
 20
63.432942
 30
0.0
 11
132.935468
 21
63.574363
 31
0.0
  0
LINE
  5
BA23
  8
ALPHA
 10
132.870823
 20
63.133983
 30
0.0
 11
133.076889
 21
62.927917
 31
0.0
  0
LINE
  5
BA24
  8
ALPHA
 10
132.729402
 20
62.992561
 30
0.0
 11
132.935468
 21
62.786495
 31
0.0
  0
LINE
  5
BA25
  8
ALPHA
 10
133.179402
 20
62.680429
 30
0.0
 11
132.979402
 21
62.680429
 31
0.0
  0
ARC
  5
BA26
  8
ALPHA
 10
132.843467
 20
67.850493
 30
0.0
 40
0.2
 50
157.206228
 51
230.689536
  0
LINE
  5
BA27
  8
ALPHA
 10
132.543081
 20
68.554617
 30
0.0
 11
132.77203
 21
68.69768
 31
0.0
  0
LINE
  5
BA28
  8
ALPHA
 10
132.523336
 20
64.786495
 30
0.0
 11
132.852625
 21
65.115785
 31
0.0
  0
LINE
  5
BA29
  8
ALPHA
 10
132.523336
 20
65.786495
 30
0.0
 11
132.852625
 21
66.115785
 31
0.0
  0
LINE
  5
BA2A
  8
ALPHA
 10
132.523336
 20
66.786495
 30
0.0
 11
132.852625
 21
67.115785
 31
0.0
  0
LINE
  5
BA2B
  8
ALPHA
 10
132.852625
 20
69.245074
 30
0.0
 11
132.523336
 21
69.574363
 31
0.0
  0
LINE
  5
BA2C
  8
ALPHA
 10
132.523336
 20
67.786495
 30
0.0
 11
132.852625
 21
68.115785
 31
0.0
  0
LINE
  5
BA2D
  8
ALPHA
 10
132.523336
 20
68.786495
 30
0.0
 11
132.852625
 21
69.115785
 31
0.0
  0
LINE
  5
BA2E
  8
ALPHA
 10
132.852625
 20
68.245074
 30
0.0
 11
132.523336
 21
68.574363
 31
0.0
  0
LINE
  5
BA2F
  8
ALPHA
 10
132.852625
 20
67.245074
 30
0.0
 11
132.523336
 21
67.574363
 31
0.0
  0
LINE
  5
BA30
  8
ALPHA
 10
132.852625
 20
66.245074
 30
0.0
 11
132.523336
 21
66.574363
 31
0.0
  0
LINE
  5
BA31
  8
ALPHA
 10
132.852625
 20
65.245074
 30
0.0
 11
132.523336
 21
65.574363
 31
0.0
  0
LINE
  5
BA32
  8
ALPHA
 10
132.852625
 20
64.245074
 30
0.0
 11
132.523336
 21
64.574363
 31
0.0
  0
ARC
  5
BA33
  8
ALPHA
 10
132.629402
 20
68.680429
 30
0.0
 40
0.15
 50
135.0
 51
225.0
  0
ARC
  5
BA34
  8
ALPHA
 10
132.629402
 20
67.680429
 30
0.0
 40
0.15
 50
135.0
 51
225.0
  0
ARC
  5
BA35
  8
ALPHA
 10
132.629402
 20
66.680429
 30
0.0
 40
0.15
 50
135.0
 51
225.0
  0
ARC
  5
BA36
  8
ALPHA
 10
132.629402
 20
65.680429
 30
0.0
 40
0.15
 50
135.0
 51
225.0
  0
ARC
  5
BA37
  8
ALPHA
 10
132.629402
 20
64.680429
 30
0.0
 40
0.15
 50
135.0
 51
225.0
  0
ARC
  5
BA38
  8
ALPHA
 10
132.78798
 20
69.180429
 30
0.0
 40
0.091421
 50
315.0
 51
45.0
  0
ARC
  5
BA39
  8
ALPHA
 10
132.78798
 20
68.180429
 30
0.0
 40
0.091421
 50
315.0
 51
45.0
  0
ARC
  5
BA3A
  8
ALPHA
 10
132.78798
 20
67.180429
 30
0.0
 40
0.091421
 50
315.0
 51
45.0
  0
ARC
  5
BA3B
  8
ALPHA
 10
132.78798
 20
66.180429
 30
0.0
 40
0.091421
 50
315.0
 51
45.0
  0
ARC
  5
BA3C
  8
ALPHA
 10
132.78798
 20
65.180429
 30
0.0
 40
0.091421
 50
315.0
 51
45.0
  0
ARC
  5
BA3D
  8
ALPHA
 10
132.78798
 20
64.180429
 30
0.0
 40
0.091421
 50
315.0
 51
45.0
  0
ARC
  5
BA3E
  8
ALPHA
 10
132.829402
 20
64.680429
 30
0.0
 40
0.35
 50
315.0
 51
45.0
  0
ARC
  5
BA3F
  8
ALPHA
 10
132.829402
 20
65.680429
 30
0.0
 40
0.35
 50
315.0
 51
45.0
  0
ARC
  5
BA40
  8
ALPHA
 10
132.829402
 20
66.680429
 30
0.0
 40
0.35
 50
315.0
 51
0.0
  0
ARC
  5
BA41
  8
ALPHA
 10
132.829402
 20
64.680429
 30
0.0
 40
0.15
 50
315.0
 51
45.0
  0
ARC
  5
BA42
  8
ALPHA
 10
132.829402
 20
65.680429
 30
0.0
 40
0.15
 50
315.0
 51
45.0
  0
ARC
  5
BA43
  8
ALPHA
 10
132.829402
 20
66.680429
 30
0.0
 40
0.15
 50
315.0
 51
0.0
  0
ARC
  5
BA44
  8
ALPHA
 10
134.230547
 20
67.049662
 30
0.0
 40
0.2
 50
249.303621
 51
332.0
  0
ARC
  5
BA45
  8
ALPHA
 10
135.979402
 20
71.680429
 30
0.0
 40
5.15
 50
245.689807
 51
249.310198
  0
ARC
  5
BA46
  8
ALPHA
 10
133.941582
 20
67.169355
 30
0.0
 40
0.2
 50
163.0
 51
245.696522
  0
ARC
  5
BA47
  8
ALPHA
 10
133.832786
 20
67.839591
 30
0.0
 40
0.1
 50
343.0
 51
60.799502
  0
ARC
  5
BA48
  8
ALPHA
 10
135.979402
 20
71.680429
 30
0.0
 40
4.3
 50
239.200498
 51
240.799502
  0
ARC
  5
BA49
  8
ALPHA
 10
133.726446
 20
67.900986
 30
0.0
 40
0.1
 50
59.200498
 51
137.0
  0
ARC
  5
BA4A
  8
ALPHA
 10
133.091607
 20
67.660088
 30
0.0
 40
0.2
 50
234.310082
 51
317.0
  0
ARC
  5
BA4B
  8
ALPHA
 10
135.979402
 20
71.680429
 30
0.0
 40
5.15
 50
230.689536
 51
234.310449
  0
ARC
  5
BA4C
  8
ALPHA
 10
132.911848
 20
68.526049
 30
0.0
 40
0.1
 50
328.0
 51
45.799502
  0
ARC
  5
BA4D
  8
ALPHA
 10
135.979402
 20
71.680429
 30
0.0
 40
4.3
 50
224.200498
 51
225.799502
  0
ARC
  5
BA4E
  8
ALPHA
 10
132.825022
 20
68.612875
 30
0.0
 40
0.1
 50
44.200498
 51
122.0
  0
LINE
  5
BA4F
  8
ALPHA
 10
133.076889
 20
64.432942
 30
0.0
 11
132.870823
 21
64.226876
 31
0.0
  0
LINE
  5
BA50
  8
ALPHA
 10
132.935468
 20
64.574363
 30
0.0
 11
132.729402
 21
64.368297
 31
0.0
  0
LINE
  5
BA51
  8
ALPHA
 10
133.076889
 20
64.927917
 30
0.0
 11
132.935468
 21
64.786495
 31
0.0
  0
LINE
  5
BA52
  8
ALPHA
 10
133.076889
 20
65.432942
 30
0.0
 11
132.870823
 21
65.226876
 31
0.0
  0
LINE
  5
BA53
  8
ALPHA
 10
132.935468
 20
65.574363
 30
0.0
 11
132.729402
 21
65.368297
 31
0.0
  0
LINE
  5
BA54
  8
ALPHA
 10
133.076889
 20
65.927917
 30
0.0
 11
132.935468
 21
65.786495
 31
0.0
  0
LINE
  5
BA55
  8
ALPHA
 10
132.870823
 20
66.226876
 30
0.0
 11
133.076889
 21
66.432942
 31
0.0
  0
LINE
  5
BA56
  8
ALPHA
 10
132.729402
 20
66.368297
 30
0.0
 11
132.935468
 21
66.574363
 31
0.0
  0
LINE
  5
BA57
  8
ALPHA
 10
133.237878
 20
67.523689
 30
0.0
 11
133.653311
 21
67.969186
 31
0.0
  0
LINE
  5
BA58
  8
ALPHA
 10
134.407136
 20
66.955767
 30
0.0
 11
134.693111
 21
67.493607
 31
0.0
  0
LINE
  5
BA59
  8
ALPHA
 10
132.996653
 20
68.473057
 30
0.0
 11
132.853752
 21
68.244369
 31
0.0
  0
LINE
  5
BA5A
  8
ALPHA
 10
133.928416
 20
67.810354
 30
0.0
 11
133.750321
 21
67.227829
 31
0.0
  0
LINE
  5
BA5B
  8
ALPHA
 10
132.935468
 20
66.574363
 30
0.0
 11
133.076889
 21
66.432942
 31
0.0
  0
LINE
  5
BA5C
  8
ALPHA
 10
132.870823
 20
66.133983
 30
0.0
 11
133.076889
 21
65.927917
 31
0.0
  0
LINE
  5
BA5D
  8
ALPHA
 10
132.729402
 20
65.992561
 30
0.0
 11
132.935468
 21
65.786495
 31
0.0
  0
LINE
  5
BA5E
  8
ALPHA
 10
133.076889
 20
65.432942
 30
0.0
 11
132.935468
 21
65.574363
 31
0.0
  0
LINE
  5
BA5F
  8
ALPHA
 10
132.870823
 20
65.133983
 30
0.0
 11
133.076889
 21
64.927917
 31
0.0
  0
LINE
  5
BA60
  8
ALPHA
 10
132.729402
 20
64.992561
 30
0.0
 11
132.935468
 21
64.786495
 31
0.0
  0
LINE
  5
BA61
  8
ALPHA
 10
133.076889
 20
64.432942
 30
0.0
 11
132.935468
 21
64.574363
 31
0.0
  0
LINE
  5
BA62
  8
ALPHA
 10
132.979402
 20
66.680429
 30
0.0
 11
133.688114
 21
66.680429
 31
0.0
  0
ARC
  5
BA63
  8
ALPHA
 10
148.479402
 20
81.259247
 30
0.0
 40
20.0
 50
175.467149
 51
180.0
  0
LINE
  5
BA64
  8
ALPHA
 10
132.852625
 20
81.245074
 30
0.0
 11
132.523336
 21
81.574363
 31
0.0
  0
ARC
  5
BA65
  8
ALPHA
 10
132.843467
 20
75.510366
 30
0.0
 40
0.2
 50
129.310464
 51
202.793772
  0
ARC
  5
BA66
  8
ALPHA
 10
133.832786
 20
75.521268
 30
0.0
 40
0.1
 50
299.200498
 51
17.0
  0
LINE
  5
BA67
  8
ALPHA
 10
133.653311
 20
75.391672
 30
0.0
 11
133.237878
 21
75.83717
 31
0.0
  0
LINE
  5
BA68
  8
ALPHA
 10
132.852625
 20
75.245074
 30
0.0
 11
132.523336
 21
75.574363
 31
0.0
  0
LINE
  5
BA69
  8
ALPHA
 10
132.77203
 20
74.663178
 30
0.0
 11
132.543081
 21
74.806241
 31
0.0
  0
LINE
  5
BA6A
  8
ALPHA
 10
132.852625
 20
74.245074
 30
0.0
 11
132.523336
 21
74.574363
 31
0.0
  0
LINE
  5
BA6B
  8
ALPHA
 10
132.852625
 20
73.245074
 30
0.0
 11
132.523336
 21
73.574363
 31
0.0
  0
LINE
  5
BA6C
  8
ALPHA
 10
132.852625
 20
72.245074
 30
0.0
 11
132.523336
 21
72.574363
 31
0.0
  0
LINE
  5
BA6D
  8
ALPHA
 10
132.852625
 20
71.245074
 30
0.0
 11
132.523336
 21
71.574363
 31
0.0
  0
LINE
  5
BA6E
  8
ALPHA
 10
132.852625
 20
70.245074
 30
0.0
 11
132.523336
 21
70.574363
 31
0.0
  0
LINE
  5
BA6F
  8
ALPHA
 10
132.523336
 20
69.786495
 30
0.0
 11
132.852625
 21
70.115785
 31
0.0
  0
LINE
  5
BA70
  8
ALPHA
 10
132.523336
 20
70.786495
 30
0.0
 11
132.852625
 21
71.115785
 31
0.0
  0
LINE
  5
BA71
  8
ALPHA
 10
132.523336
 20
71.786495
 30
0.0
 11
132.852625
 21
72.115785
 31
0.0
  0
LINE
  5
BA72
  8
ALPHA
 10
132.523336
 20
72.786495
 30
0.0
 11
132.852625
 21
73.115785
 31
0.0
  0
LINE
  5
BA73
  8
ALPHA
 10
132.523336
 20
73.786495
 30
0.0
 11
132.852625
 21
74.115785
 31
0.0
  0
LINE
  5
BA74
  8
ALPHA
 10
132.523336
 20
74.786495
 30
0.0
 11
132.852625
 21
75.115785
 31
0.0
  0
ARC
  5
BA75
  8
ALPHA
 10
132.629402
 20
74.680429
 30
0.0
 40
0.15
 50
135.0
 51
225.0
  0
ARC
  5
BA76
  8
ALPHA
 10
132.629402
 20
73.680429
 30
0.0
 40
0.15
 50
135.0
 51
225.0
  0
ARC
  5
BA77
  8
ALPHA
 10
132.629402
 20
72.680429
 30
0.0
 40
0.15
 50
135.0
 51
225.0
  0
ARC
  5
BA78
  8
ALPHA
 10
132.629402
 20
71.680429
 30
0.0
 40
0.15
 50
135.0
 51
225.0
  0
ARC
  5
BA79
  8
ALPHA
 10
132.629402
 20
70.680429
 30
0.0
 40
0.15
 50
135.0
 51
225.0
  0
ARC
  5
BA7A
  8
ALPHA
 10
132.78798
 20
75.180429
 30
0.0
 40
0.091421
 50
315.0
 51
45.0
  0
ARC
  5
BA7B
  8
ALPHA
 10
132.78798
 20
74.180429
 30
0.0
 40
0.091421
 50
315.0
 51
45.0
  0
ARC
  5
BA7C
  8
ALPHA
 10
132.78798
 20
73.180429
 30
0.0
 40
0.091421
 50
315.0
 51
45.0
  0
ARC
  5
BA7D
  8
ALPHA
 10
132.78798
 20
72.180429
 30
0.0
 40
0.091421
 50
315.0
 51
45.0
  0
ARC
  5
BA7E
  8
ALPHA
 10
132.78798
 20
71.180429
 30
0.0
 40
0.091421
 50
315.0
 51
45.0
  0
ARC
  5
BA7F
  8
ALPHA
 10
132.78798
 20
70.180429
 30
0.0
 40
0.091421
 50
315.0
 51
45.0
  0
ARC
  5
BA80
  8
ALPHA
 10
132.825022
 20
74.747983
 30
0.0
 40
0.1
 50
238.0
 51
315.799502
  0
ARC
  5
BA81
  8
ALPHA
 10
135.979402
 20
71.680429
 30
0.0
 40
4.3
 50
134.200498
 51
135.799502
  0
ARC
  5
BA82
  8
ALPHA
 10
132.911848
 20
74.834809
 30
0.0
 40
0.1
 50
314.200498
 51
32.0
  0
ARC
  5
BA83
  8
ALPHA
 10
133.726446
 20
75.459872
 30
0.0
 40
0.1
 50
223.0
 51
300.799502
  0
ARC
  5
BA84
  8
ALPHA
 10
135.979402
 20
71.680429
 30
0.0
 40
4.3
 50
119.200498
 51
120.799502
  0
LINE
  5
BA85
  8
ALPHA
 10
132.853752
 20
75.116489
 30
0.0
 11
132.996653
 21
74.887801
 31
0.0
  0
LINE
  5
BA86
  8
ALPHA
 10
132.852625
 20
80.245074
 30
0.0
 11
132.523336
 21
80.574363
 31
0.0
  0
LINE
  5
BA87
  8
ALPHA
 10
132.852625
 20
79.245074
 30
0.0
 11
132.523336
 21
79.574363
 31
0.0
  0
LINE
  5
BA88
  8
ALPHA
 10
132.852625
 20
78.245074
 30
0.0
 11
132.523336
 21
78.574363
 31
0.0
  0
LINE
  5
BA89
  8
ALPHA
 10
132.852625
 20
77.245074
 30
0.0
 11
132.523336
 21
77.574363
 31
0.0
  0
LINE
  5
BA8A
  8
ALPHA
 10
132.852625
 20
76.245074
 30
0.0
 11
132.523336
 21
76.574363
 31
0.0
  0
LINE
  5
BA8B
  8
ALPHA
 10
132.523336
 20
75.786495
 30
0.0
 11
132.852625
 21
76.115785
 31
0.0
  0
LINE
  5
BA8C
  8
ALPHA
 10
132.523336
 20
76.786495
 30
0.0
 11
132.852625
 21
77.115785
 31
0.0
  0
LINE
  5
BA8D
  8
ALPHA
 10
132.523336
 20
77.786495
 30
0.0
 11
132.852625
 21
78.115785
 31
0.0
  0
LINE
  5
BA8E
  8
ALPHA
 10
132.523336
 20
78.786495
 30
0.0
 11
132.852625
 21
79.115785
 31
0.0
  0
LINE
  5
BA8F
  8
ALPHA
 10
132.523336
 20
79.786495
 30
0.0
 11
132.852625
 21
80.115785
 31
0.0
  0
LINE
  5
BA90
  8
ALPHA
 10
132.523336
 20
80.786495
 30
0.0
 11
132.852625
 21
81.115785
 31
0.0
  0
ARC
  5
BA91
  8
ALPHA
 10
132.629402
 20
80.680429
 30
0.0
 40
0.15
 50
135.0
 51
225.0
  0
ARC
  5
BA92
  8
ALPHA
 10
132.629402
 20
79.680429
 30
0.0
 40
0.15
 50
135.0
 51
225.0
  0
ARC
  5
BA93
  8
ALPHA
 10
132.629402
 20
78.680429
 30
0.0
 40
0.15
 50
135.0
 51
225.0
  0
ARC
  5
BA94
  8
ALPHA
 10
132.629402
 20
77.680429
 30
0.0
 40
0.15
 50
135.0
 51
225.0
  0
ARC
  5
BA95
  8
ALPHA
 10
132.629402
 20
76.680429
 30
0.0
 40
0.15
 50
135.0
 51
225.0
  0
ARC
  5
BA96
  8
ALPHA
 10
132.629402
 20
75.680429
 30
0.0
 40
0.15
 50
135.0
 51
225.0
  0
ARC
  5
BA97
  8
ALPHA
 10
132.78798
 20
81.180429
 30
0.0
 40
0.091421
 50
315.0
 51
45.0
  0
ARC
  5
BA98
  8
ALPHA
 10
132.78798
 20
80.180429
 30
0.0
 40
0.091421
 50
315.0
 51
45.0
  0
ARC
  5
BA99
  8
ALPHA
 10
132.78798
 20
79.180429
 30
0.0
 40
0.091421
 50
315.0
 51
45.0
  0
ARC
  5
BA9A
  8
ALPHA
 10
132.78798
 20
78.180429
 30
0.0
 40
0.091421
 50
315.0
 51
45.0
  0
ARC
  5
BA9B
  8
ALPHA
 10
132.78798
 20
77.180429
 30
0.0
 40
0.091421
 50
315.0
 51
45.0
  0
ARC
  5
BA9C
  8
ALPHA
 10
132.78798
 20
76.180429
 30
0.0
 40
0.091421
 50
315.0
 51
45.0
  0
ARC
  5
BA9D
  8
ALPHA
 10
132.829402
 20
77.680429
 30
0.0
 40
0.35
 50
315.0
 51
45.0
  0
ARC
  5
BA9E
  8
ALPHA
 10
132.829402
 20
76.680429
 30
0.0
 40
0.35
 50
0.0
 51
45.0
  0
ARC
  5
BA9F
  8
ALPHA
 10
132.829402
 20
80.680429
 30
0.0
 40
0.349999
 50
315.0
 51
0.0
  0
ARC
  5
BAA0
  8
ALPHA
 10
132.829402
 20
79.680429
 30
0.0
 40
0.35
 50
315.0
 51
45.0
  0
ARC
  5
BAA1
  8
ALPHA
 10
132.829402
 20
78.680429
 30
0.0
 40
0.35
 50
315.0
 51
45.0
  0
ARC
  5
BAA2
  8
ALPHA
 10
132.829402
 20
79.680429
 30
0.0
 40
0.15
 50
315.0
 51
45.0
  0
ARC
  5
BAA3
  8
ALPHA
 10
132.829402
 20
78.680429
 30
0.0
 40
0.15
 50
315.0
 51
45.0
  0
ARC
  5
BAA4
  8
ALPHA
 10
132.829402
 20
77.680429
 30
0.0
 40
0.15
 50
315.0
 51
45.0
  0
ARC
  5
BAA5
  8
ALPHA
 10
132.829402
 20
76.680429
 30
0.0
 40
0.15
 50
0.0
 51
45.0
  0
ARC
  5
BAA6
  8
ALPHA
 10
132.829402
 20
80.680429
 30
0.0
 40
0.15
 50
315.0
 51
0.0
  0
ARC
  5
BAA7
  8
ALPHA
 10
135.979402
 20
71.680429
 30
0.0
 40
10.0
 50
106.448613
 51
108.098365
  0
ARC
  5
BAA8
  8
ALPHA
 10
135.979402
 20
79.780429
 30
0.0
 40
3.2
 50
151.044976
 51
159.635865
  0
ARC
  5
BAA9
  8
ALPHA
 10
135.979402
 20
71.680429
 30
0.0
 40
5.15
 50
125.689551
 51
129.310464
  0
ARC
  5
BAAA
  8
ALPHA
 10
133.091607
 20
75.70077
 30
0.0
 40
0.2
 50
43.0
 51
125.689918
  0
ARC
  5
BAAB
  8
ALPHA
 10
133.941582
 20
76.191503
 30
0.0
 40
0.2
 50
114.303478
 51
197.0
  0
ARC
  5
BAAC
  8
ALPHA
 10
135.979402
 20
71.680429
 30
0.0
 40
5.15
 50
110.689802
 51
114.310193
  0
ARC
  5
BAAD
  8
ALPHA
 10
134.230547
 20
76.311197
 30
0.0
 40
0.2
 50
28.0
 51
110.696379
  0
LINE
  5
BAAE
  8
ALPHA
 10
132.979402
 20
80.680429
 30
0.0
 11
133.179402
 21
80.680429
 31
0.0
  0
LINE
  5
BAAF
  8
ALPHA
 10
132.979402
 20
76.680429
 30
0.0
 11
133.688114
 21
76.680429
 31
0.0
  0
LINE
  5
BAB0
  8
ALPHA
 10
134.693111
 20
75.867252
 30
0.0
 11
134.407136
 21
76.405091
 31
0.0
  0
LINE
  5
BAB1
  8
ALPHA
 10
132.935468
 20
80.574363
 30
0.0
 11
133.076889
 21
80.432942
 31
0.0
  0
LINE
  5
BAB2
  8
ALPHA
 10
132.870823
 20
80.133983
 30
0.0
 11
133.076889
 21
79.927917
 31
0.0
  0
LINE
  5
BAB3
  8
ALPHA
 10
132.729402
 20
79.992561
 30
0.0
 11
132.935468
 21
79.786495
 31
0.0
  0
LINE
  5
BAB4
  8
ALPHA
 10
133.076889
 20
79.432942
 30
0.0
 11
132.935468
 21
79.574363
 31
0.0
  0
LINE
  5
BAB5
  8
ALPHA
 10
132.870823
 20
79.133983
 30
0.0
 11
133.076889
 21
78.927917
 31
0.0
  0
LINE
  5
BAB6
  8
ALPHA
 10
132.729402
 20
78.992561
 30
0.0
 11
132.935468
 21
78.786495
 31
0.0
  0
LINE
  5
BAB7
  8
ALPHA
 10
133.076889
 20
78.432942
 30
0.0
 11
132.935468
 21
78.574363
 31
0.0
  0
LINE
  5
BAB8
  8
ALPHA
 10
132.870823
 20
78.133983
 30
0.0
 11
133.076889
 21
77.927917
 31
0.0
  0
LINE
  5
BAB9
  8
ALPHA
 10
132.729402
 20
77.992561
 30
0.0
 11
132.935468
 21
77.786495
 31
0.0
  0
LINE
  5
BABA
  8
ALPHA
 10
133.076889
 20
77.432942
 30
0.0
 11
132.935468
 21
77.574363
 31
0.0
  0
LINE
  5
BABB
  8
ALPHA
 10
132.870823
 20
77.133983
 30
0.0
 11
133.076889
 21
76.927917
 31
0.0
  0
LINE
  5
BABC
  8
ALPHA
 10
132.729402
 20
76.992561
 30
0.0
 11
132.935468
 21
76.786495
 31
0.0
  0
LINE
  5
BABD
  8
ALPHA
 10
133.750321
 20
76.133029
 30
0.0
 11
133.928416
 21
75.550505
 31
0.0
  0
LINE
  5
BABE
  8
ALPHA
 10
133.179402
 20
80.680429
 30
0.0
 11
133.179402
 21
81.329623
 31
0.0
  0
LINE
  5
BABF
  8
ALPHA
 10
132.979402
 20
80.680429
 30
0.0
 11
132.979402
 21
80.893982
 31
0.0
  0
LINE
  5
BAC0
  8
ALPHA
 10
133.076889
 20
76.927917
 30
0.0
 11
132.935468
 21
76.786495
 31
0.0
  0
LINE
  5
BAC1
  8
ALPHA
 10
133.076889
 20
77.432942
 30
0.0
 11
132.870823
 21
77.226876
 31
0.0
  0
LINE
  5
BAC2
  8
ALPHA
 10
132.935468
 20
77.574363
 30
0.0
 11
132.729402
 21
77.368297
 31
0.0
  0
LINE
  5
BAC3
  8
ALPHA
 10
133.076889
 20
77.927917
 30
0.0
 11
132.935468
 21
77.786495
 31
0.0
  0
LINE
  5
BAC4
  8
ALPHA
 10
133.076889
 20
78.432942
 30
0.0
 11
132.870823
 21
78.226876
 31
0.0
  0
LINE
  5
BAC5
  8
ALPHA
 10
132.935468
 20
78.574363
 30
0.0
 11
132.729402
 21
78.368297
 31
0.0
  0
LINE
  5
BAC6
  8
ALPHA
 10
133.076889
 20
78.927917
 30
0.0
 11
132.935468
 21
78.786495
 31
0.0
  0
LINE
  5
BAC7
  8
ALPHA
 10
133.076889
 20
79.432942
 30
0.0
 11
132.870823
 21
79.226876
 31
0.0
  0
LINE
  5
BAC8
  8
ALPHA
 10
132.935468
 20
79.574363
 30
0.0
 11
132.729402
 21
79.368297
 31
0.0
  0
LINE
  5
BAC9
  8
ALPHA
 10
133.076889
 20
79.927917
 30
0.0
 11
132.935468
 21
79.786495
 31
0.0
  0
LINE
  5
BACA
  8
ALPHA
 10
132.870823
 20
80.226876
 30
0.0
 11
133.076889
 21
80.432942
 31
0.0
  0
LINE
  5
BACB
  8
ALPHA
 10
132.729402
 20
80.368297
 30
0.0
 11
132.935468
 21
80.574363
 31
0.0
  0
LINE
  5
BACC
  8
ALPHA
 10
132.523336
 20
81.786495
 30
0.0
 11
132.655033
 21
81.918193
 31
0.0
  0
ARC
  5
BACD
  8
ALPHA
 10
132.629402
 20
81.680429
 30
0.0
 40
0.15
 50
135.0
 51
225.0
  0
LINE
  5
BACE
  8
ALPHA
 10
130.914715
 20
83.835103
 30
0.0
 11
130.784851
 21
83.249325
 31
0.0
  0
LINE
  5
BACF
  8
ALPHA
 10
134.670489
 20
84.778419
 30
0.0
 11
134.173071
 21
84.562001
 31
0.0
  0
LINE
  5
BAD0
  8
ALPHA
 10
134.12451
 20
85.365879
 30
0.0
 11
134.670489
 21
84.778419
 31
0.0
  0
LINE
  5
BAD1
  8
ALPHA
 10
134.148006
 20
84.255087
 30
0.0
 11
134.173071
 21
84.562001
 31
0.0
  0
ARC
  5
BAD2
  8
ALPHA
 10
139.329402
 20
69.680429
 30
0.0
 40
0.15
 50
315.0
 51
45.0
  0
ARC
  5
BAD3
  8
ALPHA
 10
139.170823
 20
58.180429
 30
0.0
 40
0.091421
 50
135.0
 51
225.0
  0
LINE
  5
BAD4
  8
ALPHA
 10
139.435468
 20
52.574363
 30
0.0
 11
139.106178
 21
52.245074
 31
0.0
  0
ARC
  5
BAD5
  8
ALPHA
 10
139.170823
 20
52.180429
 30
0.0
 40
0.091421
 50
135.0
 51
225.0
  0
ARC
  5
BAD6
  8
ALPHA
 10
139.170823
 20
51.180429
 30
0.0
 40
0.091421
 50
135.0
 51
225.0
  0
ARC
  5
BAD7
  8
ALPHA
 10
139.170823
 20
50.180429
 30
0.0
 40
0.091421
 50
135.0
 51
225.0
  0
ARC
  5
BAD8
  8
ALPHA
 10
139.170823
 20
49.180429
 30
0.0
 40
0.091421
 50
135.0
 51
225.0
  0
ARC
  5
BAD9
  8
ALPHA
 10
139.170823
 20
48.180429
 30
0.0
 40
0.091421
 50
135.0
 51
225.0
  0
ARC
  5
BADA
  8
ALPHA
 10
139.170823
 20
47.180429
 30
0.0
 40
0.091421
 50
135.0
 51
225.0
  0
ARC
  5
BADB
  8
ALPHA
 10
139.329402
 20
51.680429
 30
0.0
 40
0.15
 50
315.0
 51
45.0
  0
ARC
  5
BADC
  8
ALPHA
 10
139.329402
 20
50.680429
 30
0.0
 40
0.15
 50
315.0
 51
45.0
  0
ARC
  5
BADD
  8
ALPHA
 10
139.329402
 20
49.680429
 30
0.0
 40
0.15
 50
315.0
 51
45.0
  0
ARC
  5
BADE
  8
ALPHA
 10
139.329402
 20
48.680429
 30
0.0
 40
0.15
 50
315.0
 51
45.0
  0
ARC
  5
BADF
  8
ALPHA
 10
139.329402
 20
47.680429
 30
0.0
 40
0.15
 50
315.0
 51
45.0
  0
ARC
  5
BAE0
  8
ALPHA
 10
139.329402
 20
46.680429
 30
0.0
 40
0.15
 50
315.0
 51
45.0
  0
LINE
  5
BAE1
  8
ALPHA
 10
139.435468
 20
47.574363
 30
0.0
 11
139.106178
 21
47.245074
 31
0.0
  0
LINE
  5
BAE2
  8
ALPHA
 10
139.435468
 20
48.574363
 30
0.0
 11
139.106178
 21
48.245074
 31
0.0
  0
LINE
  5
BAE3
  8
ALPHA
 10
139.435468
 20
49.574363
 30
0.0
 11
139.106178
 21
49.245074
 31
0.0
  0
LINE
  5
BAE4
  8
ALPHA
 10
139.435468
 20
50.574363
 30
0.0
 11
139.106178
 21
50.245074
 31
0.0
  0
LINE
  5
BAE5
  8
ALPHA
 10
139.435468
 20
51.574363
 30
0.0
 11
139.106178
 21
51.245074
 31
0.0
  0
LINE
  5
BAE6
  8
ALPHA
 10
139.106178
 20
52.115785
 30
0.0
 11
139.435468
 21
51.786495
 31
0.0
  0
LINE
  5
BAE7
  8
ALPHA
 10
139.106178
 20
51.115785
 30
0.0
 11
139.435468
 21
50.786495
 31
0.0
  0
LINE
  5
BAE8
  8
ALPHA
 10
139.106178
 20
50.115785
 30
0.0
 11
139.435468
 21
49.786495
 31
0.0
  0
LINE
  5
BAE9
  8
ALPHA
 10
139.106178
 20
49.115785
 30
0.0
 11
139.435468
 21
48.786495
 31
0.0
  0
LINE
  5
BAEA
  8
ALPHA
 10
139.106178
 20
48.115785
 30
0.0
 11
139.435468
 21
47.786495
 31
0.0
  0
LINE
  5
BAEB
  8
ALPHA
 10
139.106178
 20
47.115785
 30
0.0
 11
139.435468
 21
46.786495
 31
0.0
  0
ARC
  5
BAEC
  8
ALPHA
 10
139.170823
 20
57.180429
 30
0.0
 40
0.091421
 50
135.0
 51
225.0
  0
ARC
  5
BAED
  8
ALPHA
 10
139.170823
 20
56.180429
 30
0.0
 40
0.091421
 50
135.0
 51
225.0
  0
ARC
  5
BAEE
  8
ALPHA
 10
139.170823
 20
55.180429
 30
0.0
 40
0.091421
 50
135.0
 51
225.0
  0
ARC
  5
BAEF
  8
ALPHA
 10
139.170823
 20
54.180429
 30
0.0
 40
0.091421
 50
135.0
 51
225.0
  0
ARC
  5
BAF0
  8
ALPHA
 10
139.170823
 20
53.180429
 30
0.0
 40
0.091421
 50
135.0
 51
225.0
  0
ARC
  5
BAF1
  8
ALPHA
 10
139.329402
 20
57.680429
 30
0.0
 40
0.15
 50
315.0
 51
45.0
  0
ARC
  5
BAF2
  8
ALPHA
 10
139.329402
 20
56.680429
 30
0.0
 40
0.15
 50
315.0
 51
45.0
  0
ARC
  5
BAF3
  8
ALPHA
 10
139.329402
 20
55.680429
 30
0.0
 40
0.15
 50
315.0
 51
45.0
  0
ARC
  5
BAF4
  8
ALPHA
 10
139.329402
 20
54.680429
 30
0.0
 40
0.15
 50
315.0
 51
45.0
  0
ARC
  5
BAF5
  8
ALPHA
 10
139.329402
 20
53.680429
 30
0.0
 40
0.15
 50
315.0
 51
45.0
  0
ARC
  5
BAF6
  8
ALPHA
 10
139.329402
 20
52.680429
 30
0.0
 40
0.15
 50
315.0
 51
45.0
  0
LINE
  5
BAF7
  8
ALPHA
 10
139.435468
 20
53.574363
 30
0.0
 11
139.106178
 21
53.245074
 31
0.0
  0
LINE
  5
BAF8
  8
ALPHA
 10
139.435468
 20
54.574363
 30
0.0
 11
139.106178
 21
54.245074
 31
0.0
  0
LINE
  5
BAF9
  8
ALPHA
 10
139.435468
 20
55.574363
 30
0.0
 11
139.106178
 21
55.245074
 31
0.0
  0
LINE
  5
BAFA
  8
ALPHA
 10
139.435468
 20
56.574363
 30
0.0
 11
139.106178
 21
56.245074
 31
0.0
  0
LINE
  5
BAFB
  8
ALPHA
 10
139.435468
 20
57.574363
 30
0.0
 11
139.106178
 21
57.245074
 31
0.0
  0
LINE
  5
BAFC
  8
ALPHA
 10
139.106178
 20
58.115785
 30
0.0
 11
139.435468
 21
57.786495
 31
0.0
  0
LINE
  5
BAFD
  8
ALPHA
 10
139.106178
 20
57.115785
 30
0.0
 11
139.435468
 21
56.786495
 31
0.0
  0
LINE
  5
BAFE
  8
ALPHA
 10
139.106178
 20
56.115785
 30
0.0
 11
139.435468
 21
55.786495
 31
0.0
  0
LINE
  5
BAFF
  8
ALPHA
 10
139.106178
 20
55.115785
 30
0.0
 11
139.435468
 21
54.786495
 31
0.0
  0
LINE
  5
BB00
  8
ALPHA
 10
139.106178
 20
54.115785
 30
0.0
 11
139.435468
 21
53.786495
 31
0.0
  0
LINE
  5
BB01
  8
ALPHA
 10
139.106178
 20
53.115785
 30
0.0
 11
139.435468
 21
52.786495
 31
0.0
  0
ARC
  5
BB02
  8
ALPHA
 10
139.129402
 20
65.680429
 30
0.0
 40
0.35
 50
135.0
 51
225.0
  0
ARC
  5
BB03
  8
ALPHA
 10
139.129402
 20
62.680429
 30
0.0
 40
0.349999
 50
135.0
 51
180.0
  0
ARC
  5
BB04
  8
ALPHA
 10
139.129402
 20
63.680429
 30
0.0
 40
0.35
 50
135.0
 51
225.0
  0
ARC
  5
BB05
  8
ALPHA
 10
139.129402
 20
66.680429
 30
0.0
 40
0.35
 50
180.0
 51
225.0
  0
ARC
  5
BB06
  8
ALPHA
 10
139.129402
 20
64.680429
 30
0.0
 40
0.35
 50
135.0
 51
225.0
  0
ARC
  5
BB07
  8
ALPHA
 10
138.867196
 20
67.660088
 30
0.0
 40
0.2
 50
223.0
 51
305.689918
  0
LINE
  5
BB08
  8
ALPHA
 10
138.270689
 20
66.680429
 30
0.0
 11
138.979402
 21
66.680429
 31
0.0
  0
LINE
  5
BB09
  8
ALPHA
 10
138.979402
 20
62.680429
 30
0.0
 11
138.779402
 21
62.680429
 31
0.0
  0
LINE
  5
BB0A
  8
ALPHA
 10
136.329402
 20
62.980429
 30
0.0
 11
136.329402
 21
65.180429
 31
0.0
  0
LINE
  5
BB0B
  8
ALPHA
 10
135.629402
 20
65.180429
 30
0.0
 11
135.629402
 21
62.980429
 31
0.0
  0
ARC
  5
BB0C
  8
ALPHA
 10
135.979402
 20
62.630429
 30
0.0
 40
0.25
 50
194.663584
 51
345.336416
  0
LINE
  5
BB0D
  8
ALPHA
 10
136.221259
 20
62.567143
 30
0.0
 11
136.329402
 21
62.980429
 31
0.0
  0
LINE
  5
BB0E
  8
ALPHA
 10
135.629402
 20
62.980429
 30
0.0
 11
135.737544
 21
62.567143
 31
0.0
  0
LINE
  5
BB0F
  8
ALPHA
 10
138.779402
 20
62.680429
 30
0.0
 11
138.779402
 21
62.031236
 31
0.0
  0
ARC
  5
BB10
  8
ALPHA
 10
135.979402
 20
71.680429
 30
0.0
 40
5.15
 50
275.68929
 51
279.310531
  0
ARC
  5
BB11
  8
ALPHA
 10
136.470135
 20
66.754814
 30
0.0
 40
0.2
 50
193.0
 51
275.683193
  0
ARC
  5
BB12
  8
ALPHA
 10
136.040797
 20
67.280858
 30
0.0
 40
0.1
 50
13.0
 51
90.799502
  0
ARC
  5
BB13
  8
ALPHA
 10
135.979402
 20
71.680429
 30
0.0
 40
4.3
 50
269.200498
 51
270.799502
  0
ARC
  5
BB14
  8
ALPHA
 10
135.918006
 20
67.280858
 30
0.0
 40
0.1
 50
89.200498
 51
167.0
  0
ARC
  5
BB15
  8
ALPHA
 10
135.488668
 20
66.754814
 30
0.0
 40
0.2
 50
264.316807
 51
347.0
  0
ARC
  5
BB16
  8
ALPHA
 10
135.979402
 20
71.680429
 30
0.0
 40
5.15
 50
260.689469
 51
264.31071
  0
ARC
  5
BB17
  8
ALPHA
 10
135.178571
 20
66.79564
 30
0.0
 40
0.2
 50
178.0
 51
260.687808
  0
ARC
  5
BB18
  8
ALPHA
 10
134.900012
 20
67.414879
 30
0.0
 40
0.1
 50
358.0
 51
75.799502
  0
ARC
  5
BB19
  8
ALPHA
 10
135.979402
 20
71.680429
 30
0.0
 40
4.3
 50
254.200498
 51
255.799502
  0
LINE
  5
BB1A
  8
ALPHA
 10
135.683542
 20
66.709824
 30
0.0
 11
135.820569
 21
67.303353
 31
0.0
  0
LINE
  5
BB1B
  8
ALPHA
 10
136.138234
 20
67.303353
 30
0.0
 11
136.275261
 21
66.709824
 31
0.0
  0
LINE
  5
BB1C
  8
ALPHA
 10
134.999951
 20
67.411389
 30
0.0
 11
134.978692
 21
66.802619
 31
0.0
  0
LINE
  5
BB1D
  8
ALPHA
 10
136.329402
 20
65.180429
 30
0.0
 11
135.629402
 21
65.180429
 31
0.0
  0
ARC
  5
BB1E
  8
ALPHA
 10
138.232357
 20
67.900986
 30
0.0
 40
0.1
 50
43.0
 51
120.799502
  0
ARC
  5
BB1F
  8
ALPHA
 10
135.979402
 20
71.680429
 30
0.0
 40
4.3
 50
299.200498
 51
300.799502
  0
ARC
  5
BB20
  8
ALPHA
 10
138.126018
 20
67.839591
 30
0.0
 40
0.1
 50
119.200498
 51
197.0
  0
ARC
  5
BB21
  8
ALPHA
 10
138.017222
 20
67.169355
 30
0.0
 40
0.2
 50
294.303478
 51
17.0
  0
ARC
  5
BB22
  8
ALPHA
 10
135.979402
 20
71.680429
 30
0.0
 40
5.15
 50
290.689802
 51
294.310193
  0
ARC
  5
BB23
  8
ALPHA
 10
137.728256
 20
67.049662
 30
0.0
 40
0.2
 50
208.0
 51
290.696379
  0
ARC
  5
BB24
  8
ALPHA
 10
137.177398
 20
67.44666
 30
0.0
 40
0.1
 50
28.0
 51
105.799502
  0
ARC
  5
BB25
  8
ALPHA
 10
135.979402
 20
71.680429
 30
0.0
 40
4.3
 50
284.200498
 51
285.799502
  0
ARC
  5
BB26
  8
ALPHA
 10
137.058791
 20
67.414879
 30
0.0
 40
0.1
 50
104.200498
 51
182.0
  0
ARC
  5
BB27
  8
ALPHA
 10
136.780233
 20
66.79564
 30
0.0
 40
0.2
 50
279.312192
 51
2.0
  0
LINE
  5
BB28
  8
ALPHA
 10
138.208483
 20
67.227829
 30
0.0
 11
138.030387
 21
67.810354
 31
0.0
  0
LINE
  5
BB29
  8
ALPHA
 10
136.980111
 20
66.802619
 30
0.0
 11
136.958852
 21
67.411389
 31
0.0
  0
LINE
  5
BB2A
  8
ALPHA
 10
137.265693
 20
67.493607
 30
0.0
 11
137.551667
 21
66.955767
 31
0.0
  0
LINE
  5
BB2B
  8
ALPHA
 10
138.305493
 20
67.969186
 30
0.0
 11
138.720926
 21
67.523689
 31
0.0
  0
LINE
  5
BB2C
  8
ALPHA
 10
139.023336
 20
63.786495
 30
0.0
 11
139.229402
 21
63.992561
 31
0.0
  0
LINE
  5
BB2D
  8
ALPHA
 10
138.881914
 20
63.927917
 30
0.0
 11
139.08798
 21
64.133983
 31
0.0
  0
LINE
  5
BB2E
  8
ALPHA
 10
139.106178
 20
64.115785
 30
0.0
 11
139.435468
 21
63.786495
 31
0.0
  0
ARC
  5
BB2F
  8
ALPHA
 10
139.170823
 20
63.180429
 30
0.0
 40
0.091421
 50
135.0
 51
225.0
  0
ARC
  5
BB30
  8
ALPHA
 10
139.170823
 20
62.180429
 30
0.0
 40
0.091421
 50
135.0
 51
225.0
  0
ARC
  5
BB31
  8
ALPHA
 10
139.170823
 20
61.180429
 30
0.0
 40
0.091421
 50
135.0
 51
225.0
  0
ARC
  5
BB32
  8
ALPHA
 10
139.170823
 20
60.180429
 30
0.0
 40
0.091421
 50
135.0
 51
225.0
  0
ARC
  5
BB33
  8
ALPHA
 10
139.170823
 20
59.180429
 30
0.0
 40
0.091421
 50
135.0
 51
225.0
  0
ARC
  5
BB34
  8
ALPHA
 10
139.329402
 20
63.680429
 30
0.0
 40
0.15
 50
315.0
 51
45.0
  0
ARC
  5
BB35
  8
ALPHA
 10
139.329402
 20
62.680429
 30
0.0
 40
0.15
 50
315.0
 51
45.0
  0
ARC
  5
BB36
  8
ALPHA
 10
139.329402
 20
61.680429
 30
0.0
 40
0.15
 50
315.0
 51
45.0
  0
ARC
  5
BB37
  8
ALPHA
 10
139.329402
 20
60.680429
 30
0.0
 40
0.15
 50
315.0
 51
45.0
  0
ARC
  5
BB38
  8
ALPHA
 10
139.329402
 20
59.680429
 30
0.0
 40
0.15
 50
315.0
 51
45.0
  0
ARC
  5
BB39
  8
ALPHA
 10
139.329402
 20
58.680429
 30
0.0
 40
0.15
 50
315.0
 51
45.0
  0
ARC
  5
BB3A
  8
ALPHA
 10
139.129402
 20
63.680429
 30
0.0
 40
0.15
 50
135.0
 51
225.0
  0
ARC
  5
BB3B
  8
ALPHA
 10
139.129402
 20
62.680429
 30
0.0
 40
0.15
 50
135.0
 51
180.0
  0
ARC
  5
BB3C
  8
ALPHA
 10
135.979402
 20
71.680429
 30
0.0
 40
10.0
 50
286.448613
 51
288.098365
  0
LINE
  5
BB3D
  8
ALPHA
 10
139.435468
 20
58.574363
 30
0.0
 11
139.106178
 21
58.245074
 31
0.0
  0
LINE
  5
BB3E
  8
ALPHA
 10
139.435468
 20
59.574363
 30
0.0
 11
139.106178
 21
59.245074
 31
0.0
  0
LINE
  5
BB3F
  8
ALPHA
 10
139.435468
 20
60.574363
 30
0.0
 11
139.106178
 21
60.245074
 31
0.0
  0
LINE
  5
BB40
  8
ALPHA
 10
139.435468
 20
61.574363
 30
0.0
 11
139.106178
 21
61.245074
 31
0.0
  0
LINE
  5
BB41
  8
ALPHA
 10
139.435468
 20
62.574363
 30
0.0
 11
139.106178
 21
62.245074
 31
0.0
  0
LINE
  5
BB42
  8
ALPHA
 10
139.229402
 20
62.992561
 30
0.0
 11
139.023336
 21
62.786495
 31
0.0
  0
LINE
  5
BB43
  8
ALPHA
 10
139.08798
 20
63.133983
 30
0.0
 11
138.881914
 21
62.927917
 31
0.0
  0
LINE
  5
BB44
  8
ALPHA
 10
139.435468
 20
63.574363
 30
0.0
 11
139.106178
 21
63.245074
 31
0.0
  0
LINE
  5
BB45
  8
ALPHA
 10
138.881914
 20
63.432942
 30
0.0
 11
139.023336
 21
63.574363
 31
0.0
  0
LINE
  5
BB46
  8
ALPHA
 10
138.979402
 20
62.680429
 30
0.0
 11
138.979402
 21
62.466876
 31
0.0
  0
LINE
  5
BB47
  8
ALPHA
 10
138.881914
 20
63.927917
 30
0.0
 11
139.023336
 21
63.786495
 31
0.0
  0
LINE
  5
BB48
  8
ALPHA
 10
139.229402
 20
63.368297
 30
0.0
 11
139.023336
 21
63.574363
 31
0.0
  0
LINE
  5
BB49
  8
ALPHA
 10
139.08798
 20
63.226876
 30
0.0
 11
138.881914
 21
63.432942
 31
0.0
  0
LINE
  5
BB4A
  8
ALPHA
 10
139.106178
 20
63.115785
 30
0.0
 11
139.435468
 21
62.786495
 31
0.0
  0
LINE
  5
BB4B
  8
ALPHA
 10
139.023336
 20
62.786495
 30
0.0
 11
138.881914
 21
62.927917
 31
0.0
  0
LINE
  5
BB4C
  8
ALPHA
 10
139.106178
 20
62.115785
 30
0.0
 11
139.435468
 21
61.786495
 31
0.0
  0
LINE
  5
BB4D
  8
ALPHA
 10
139.106178
 20
61.115785
 30
0.0
 11
139.435468
 21
60.786495
 31
0.0
  0
LINE
  5
BB4E
  8
ALPHA
 10
139.106178
 20
60.115785
 30
0.0
 11
139.435468
 21
59.786495
 31
0.0
  0
LINE
  5
BB4F
  8
ALPHA
 10
139.106178
 20
59.115785
 30
0.0
 11
139.435468
 21
58.786495
 31
0.0
  0
ARC
  5
BB50
  8
ALPHA
 10
139.170823
 20
66.180429
 30
0.0
 40
0.091421
 50
135.0
 51
225.0
  0
ARC
  5
BB51
  8
ALPHA
 10
139.170823
 20
65.180429
 30
0.0
 40
0.091421
 50
135.0
 51
225.0
  0
ARC
  5
BB52
  8
ALPHA
 10
139.170823
 20
64.180429
 30
0.0
 40
0.091421
 50
135.0
 51
225.0
  0
ARC
  5
BB53
  8
ALPHA
 10
139.170823
 20
67.180429
 30
0.0
 40
0.091421
 50
135.0
 51
225.0
  0
ARC
  5
BB54
  8
ALPHA
 10
139.170823
 20
68.180429
 30
0.0
 40
0.091421
 50
135.0
 51
225.0
  0
ARC
  5
BB55
  8
ALPHA
 10
139.170823
 20
69.180429
 30
0.0
 40
0.091421
 50
135.0
 51
225.0
  0
ARC
  5
BB56
  8
ALPHA
 10
139.329402
 20
68.680429
 30
0.0
 40
0.15
 50
315.0
 51
45.0
  0
ARC
  5
BB57
  8
ALPHA
 10
139.329402
 20
67.680429
 30
0.0
 40
0.15
 50
315.0
 51
45.0
  0
ARC
  5
BB58
  8
ALPHA
 10
139.329402
 20
66.680429
 30
0.0
 40
0.15
 50
315.0
 51
45.0
  0
ARC
  5
BB59
  8
ALPHA
 10
139.329402
 20
65.680429
 30
0.0
 40
0.15
 50
315.0
 51
45.0
  0
ARC
  5
BB5A
  8
ALPHA
 10
139.329402
 20
64.680429
 30
0.0
 40
0.15
 50
315.0
 51
45.0
  0
ARC
  5
BB5B
  8
ALPHA
 10
139.129402
 20
64.680429
 30
0.0
 40
0.15
 50
135.0
 51
225.0
  0
ARC
  5
BB5C
  8
ALPHA
 10
139.129402
 20
65.680429
 30
0.0
 40
0.15
 50
135.0
 51
225.0
  0
ARC
  5
BB5D
  8
ALPHA
 10
139.129402
 20
66.680429
 30
0.0
 40
0.15
 50
180.0
 51
225.0
  0
ARC
  5
BB5E
  8
ALPHA
 10
139.133782
 20
68.612875
 30
0.0
 40
0.1
 50
58.0
 51
135.799502
  0
ARC
  5
BB5F
  8
ALPHA
 10
135.979402
 20
71.680429
 30
0.0
 40
4.3
 50
314.200498
 51
315.799502
  0
ARC
  5
BB60
  8
ALPHA
 10
139.046956
 20
68.526049
 30
0.0
 40
0.1
 50
134.200498
 51
212.0
  0
ARC
  5
BB61
  8
ALPHA
 10
139.115336
 20
67.850493
 30
0.0
 40
0.2
 50
309.310464
 51
22.793772
  0
ARC
  5
BB62
  8
ALPHA
 10
135.979402
 20
71.680429
 30
0.0
 40
5.15
 50
305.689551
 51
309.310464
  0
LINE
  5
BB63
  8
ALPHA
 10
139.435468
 20
64.574363
 30
0.0
 11
139.106178
 21
64.245074
 31
0.0
  0
LINE
  5
BB64
  8
ALPHA
 10
138.881914
 20
64.432942
 30
0.0
 11
139.023336
 21
64.574363
 31
0.0
  0
LINE
  5
BB65
  8
ALPHA
 10
139.023336
 20
64.786495
 30
0.0
 11
139.229402
 21
64.992561
 31
0.0
  0
LINE
  5
BB66
  8
ALPHA
 10
138.881914
 20
64.927917
 30
0.0
 11
139.08798
 21
65.133983
 31
0.0
  0
LINE
  5
BB67
  8
ALPHA
 10
139.435468
 20
65.574363
 30
0.0
 11
139.106178
 21
65.245074
 31
0.0
  0
LINE
  5
BB68
  8
ALPHA
 10
138.881914
 20
65.432942
 30
0.0
 11
139.023336
 21
65.574363
 31
0.0
  0
LINE
  5
BB69
  8
ALPHA
 10
139.023336
 20
65.786495
 30
0.0
 11
139.229402
 21
65.992561
 31
0.0
  0
LINE
  5
BB6A
  8
ALPHA
 10
138.881914
 20
65.927917
 30
0.0
 11
139.08798
 21
66.133983
 31
0.0
  0
LINE
  5
BB6B
  8
ALPHA
 10
139.435468
 20
66.574363
 30
0.0
 11
139.106178
 21
66.245074
 31
0.0
  0
LINE
  5
BB6C
  8
ALPHA
 10
138.881914
 20
66.432942
 30
0.0
 11
139.023336
 21
66.574363
 31
0.0
  0
LINE
  5
BB6D
  8
ALPHA
 10
139.435468
 20
67.574363
 30
0.0
 11
139.106178
 21
67.245074
 31
0.0
  0
LINE
  5
BB6E
  8
ALPHA
 10
139.105051
 20
68.244369
 30
0.0
 11
138.962151
 21
68.473057
 31
0.0
  0
LINE
  5
BB6F
  8
ALPHA
 10
139.435468
 20
68.574363
 30
0.0
 11
139.106178
 21
68.245074
 31
0.0
  0
LINE
  5
BB70
  8
ALPHA
 10
139.435468
 20
69.574363
 30
0.0
 11
139.106178
 21
69.245074
 31
0.0
  0
LINE
  5
BB71
  8
ALPHA
 10
139.106178
 20
69.115785
 30
0.0
 11
139.435468
 21
68.786495
 31
0.0
  0
LINE
  5
BB72
  8
ALPHA
 10
139.106178
 20
68.115785
 30
0.0
 11
139.435468
 21
67.786495
 31
0.0
  0
LINE
  5
BB73
  8
ALPHA
 10
139.106178
 20
67.115785
 30
0.0
 11
139.435468
 21
66.786495
 31
0.0
  0
LINE
  5
BB74
  8
ALPHA
 10
139.229402
 20
66.368297
 30
0.0
 11
139.023336
 21
66.574363
 31
0.0
  0
LINE
  5
BB75
  8
ALPHA
 10
139.08798
 20
66.226876
 30
0.0
 11
138.881914
 21
66.432942
 31
0.0
  0
LINE
  5
BB76
  8
ALPHA
 10
139.106178
 20
66.115785
 30
0.0
 11
139.435468
 21
65.786495
 31
0.0
  0
LINE
  5
BB77
  8
ALPHA
 10
138.881914
 20
65.927917
 30
0.0
 11
139.023336
 21
65.786495
 31
0.0
  0
LINE
  5
BB78
  8
ALPHA
 10
139.229402
 20
65.368297
 30
0.0
 11
139.023336
 21
65.574363
 31
0.0
  0
LINE
  5
BB79
  8
ALPHA
 10
139.08798
 20
65.226876
 30
0.0
 11
138.881914
 21
65.432942
 31
0.0
  0
LINE
  5
BB7A
  8
ALPHA
 10
139.106178
 20
65.115785
 30
0.0
 11
139.435468
 21
64.786495
 31
0.0
  0
LINE
  5
BB7B
  8
ALPHA
 10
138.881914
 20
64.927917
 30
0.0
 11
139.023336
 21
64.786495
 31
0.0
  0
LINE
  5
BB7C
  8
ALPHA
 10
139.229402
 20
64.368297
 30
0.0
 11
139.023336
 21
64.574363
 31
0.0
  0
LINE
  5
BB7D
  8
ALPHA
 10
139.08798
 20
64.226876
 30
0.0
 11
138.881914
 21
64.432942
 31
0.0
  0
LINE
  5
BB7E
  8
ALPHA
 10
139.186774
 20
68.69768
 30
0.0
 11
139.415722
 21
68.554617
 31
0.0
  0
LINE
  5
BB7F
  8
ALPHA
 10
139.435468
 20
81.574363
 30
0.0
 11
139.106178
 21
81.245074
 31
0.0
  0
ARC
  5
BB80
  8
ALPHA
 10
139.129402
 20
80.680429
 30
0.0
 40
0.35
 50
180.0
 51
225.0
  0
ARC
  5
BB81
  8
ALPHA
 10
139.129402
 20
76.680429
 30
0.0
 40
0.35
 50
135.0
 51
180.0
  0
ARC
  5
BB82
  8
ALPHA
 10
139.129402
 20
77.680429
 30
0.0
 40
0.35
 50
135.0
 51
225.0
  0
ARC
  5
BB83
  8
ALPHA
 10
139.129402
 20
78.680429
 30
0.0
 40
0.35
 50
135.0
 51
225.0
  0
ARC
  5
BB84
  8
ALPHA
 10
139.129402
 20
79.680429
 30
0.0
 40
0.35
 50
135.0
 51
225.0
  0
ARC
  5
BB85
  8
ALPHA
 10
135.979402
 20
79.780429
 30
0.0
 40
3.2
 50
20.364135
 51
28.955024
  0
ARC
  5
BB86
  8
ALPHA
 10
138.867196
 20
75.70077
 30
0.0
 40
0.2
 50
54.310082
 51
137.0
  0
LINE
  5
BB87
  8
ALPHA
 10
138.779402
 20
80.680429
 30
0.0
 11
138.979402
 21
80.680429
 31
0.0
  0
LINE
  5
BB88
  8
ALPHA
 10
138.979402
 20
76.680429
 30
0.0
 11
138.270689
 21
76.680429
 31
0.0
  0
ARC
  5
BB89
  8
ALPHA
 10
138.126018
 20
75.521268
 30
0.0
 40
0.1
 50
163.0
 51
240.799502
  0
LINE
  5
BB8A
  8
ALPHA
 10
138.720926
 20
75.83717
 30
0.0
 11
138.305493
 21
75.391672
 31
0.0
  0
ARC
  5
BB8B
  8
ALPHA
 10
135.979402
 20
71.680429
 30
0.0
 40
4.3
 50
59.200498
 51
60.799502
  0
ARC
  5
BB8C
  8
ALPHA
 10
138.232357
 20
75.459872
 30
0.0
 40
0.1
 50
239.200498
 51
317.0
  0
ARC
  5
BB8D
  8
ALPHA
 10
135.979402
 20
71.680429
 30
0.0
 40
5.15
 50
80.689469
 51
84.31071
  0
ARC
  5
BB8E
  8
ALPHA
 10
135.979402
 20
80.730429
 30
0.0
 40
0.25
 50
14.663584
 51
165.336416
  0
ARC
  5
BB8F
  8
ALPHA
 10
135.979402
 20
71.680429
 30
0.0
 40
4.3
 50
104.200498
 51
105.799502
  0
ARC
  5
BB90
  8
ALPHA
 10
134.900012
 20
75.945979
 30
0.0
 40
0.1
 50
284.200498
 51
2.0
  0
ARC
  5
BB91
  8
ALPHA
 10
135.178571
 20
76.565219
 30
0.0
 40
0.2
 50
99.312192
 51
182.0
  0
ARC
  5
BB92
  8
ALPHA
 10
135.979402
 20
71.680429
 30
0.0
 40
5.15
 50
95.68929
 51
99.310531
  0
ARC
  5
BB93
  8
ALPHA
 10
135.488668
 20
76.606044
 30
0.0
 40
0.2
 50
13.0
 51
95.683193
  0
ARC
  5
BB94
  8
ALPHA
 10
135.918006
 20
76.080001
 30
0.0
 40
0.1
 50
193.0
 51
270.799502
  0
ARC
  5
BB95
  8
ALPHA
 10
135.979402
 20
71.680429
 30
0.0
 40
4.3
 50
89.200498
 51
90.799502
  0
ARC
  5
BB96
  8
ALPHA
 10
136.040797
 20
76.080001
 30
0.0
 40
0.1
 50
269.200498
 51
347.0
  0
ARC
  5
BB97
  8
ALPHA
 10
136.470135
 20
76.606044
 30
0.0
 40
0.2
 50
84.316807
 51
167.0
  0
LINE
  5
BB98
  8
ALPHA
 10
135.629402
 20
78.180429
 30
0.0
 11
136.329402
 21
78.180429
 31
0.0
  0
LINE
  5
BB99
  8
ALPHA
 10
135.820569
 20
76.057506
 30
0.0
 11
135.683542
 21
76.651034
 31
0.0
  0
LINE
  5
BB9A
  8
ALPHA
 10
136.329402
 20
80.380429
 30
0.0
 11
136.221259
 21
80.793715
 31
0.0
  0
LINE
  5
BB9B
  8
ALPHA
 10
135.737544
 20
80.793715
 30
0.0
 11
135.629402
 21
80.380429
 31
0.0
  0
LINE
  5
BB9C
  8
ALPHA
 10
136.275261
 20
76.651034
 30
0.0
 11
136.138234
 21
76.057506
 31
0.0
  0
LINE
  5
BB9D
  8
ALPHA
 10
136.329402
 20
78.180429
 30
0.0
 11
136.329402
 21
80.380429
 31
0.0
  0
LINE
  5
BB9E
  8
ALPHA
 10
135.629402
 20
80.380429
 30
0.0
 11
135.629402
 21
78.180429
 31
0.0
  0
LINE
  5
BB9F
  8
ALPHA
 10
134.978692
 20
76.558239
 30
0.0
 11
134.999951
 21
75.949469
 31
0.0
  0
ARC
  5
BBA0
  8
ALPHA
 10
136.780233
 20
76.565219
 30
0.0
 40
0.2
 50
358.0
 51
80.687808
  0
ARC
  5
BBA1
  8
ALPHA
 10
137.058791
 20
75.945979
 30
0.0
 40
0.1
 50
178.0
 51
255.799502
  0
ARC
  5
BBA2
  8
ALPHA
 10
135.979402
 20
71.680429
 30
0.0
 40
4.3
 50
74.200498
 51
75.799502
  0
ARC
  5
BBA3
  8
ALPHA
 10
137.177398
 20
75.914199
 30
0.0
 40
0.1
 50
254.200498
 51
332.0
  0
ARC
  5
BBA4
  8
ALPHA
 10
137.728256
 20
76.311197
 30
0.0
 40
0.2
 50
69.303621
 51
152.0
  0
ARC
  5
BBA5
  8
ALPHA
 10
135.979402
 20
71.680429
 30
0.0
 40
5.15
 50
65.689807
 51
69.310198
  0
ARC
  5
BBA6
  8
ALPHA
 10
138.017222
 20
76.191503
 30
0.0
 40
0.2
 50
343.0
 51
65.696522
  0
LINE
  5
BBA7
  8
ALPHA
 10
138.030387
 20
75.550505
 30
0.0
 11
138.208483
 21
76.133029
 31
0.0
  0
LINE
  5
BBA8
  8
ALPHA
 10
136.958852
 20
75.949469
 30
0.0
 11
136.980111
 21
76.558239
 31
0.0
  0
LINE
  5
BBA9
  8
ALPHA
 10
138.779402
 20
80.680429
 30
0.0
 11
138.779402
 21
81.329623
 31
0.0
  0
LINE
  5
BBAA
  8
ALPHA
 10
137.551667
 20
76.405091
 30
0.0
 11
137.265693
 21
75.867252
 31
0.0
  0
ARC
  5
BBAB
  8
ALPHA
 10
139.115336
 20
75.510366
 30
0.0
 40
0.2
 50
337.206228
 51
50.689536
  0
LINE
  5
BBAC
  8
ALPHA
 10
139.435468
 20
75.574363
 30
0.0
 11
139.106178
 21
75.245074
 31
0.0
  0
ARC
  5
BBAD
  8
ALPHA
 10
139.170823
 20
70.180429
 30
0.0
 40
0.091421
 50
135.0
 51
225.0
  0
ARC
  5
BBAE
  8
ALPHA
 10
139.170823
 20
71.180429
 30
0.0
 40
0.091421
 50
135.0
 51
225.0
  0
ARC
  5
BBAF
  8
ALPHA
 10
139.170823
 20
72.180429
 30
0.0
 40
0.091421
 50
135.0
 51
225.0
  0
ARC
  5
BBB0
  8
ALPHA
 10
139.170823
 20
73.180429
 30
0.0
 40
0.091421
 50
135.0
 51
225.0
  0
ARC
  5
BBB1
  8
ALPHA
 10
139.170823
 20
74.180429
 30
0.0
 40
0.091421
 50
135.0
 51
225.0
  0
ARC
  5
BBB2
  8
ALPHA
 10
139.170823
 20
75.180429
 30
0.0
 40
0.091421
 50
135.0
 51
225.0
  0
ARC
  5
BBB3
  8
ALPHA
 10
139.329402
 20
74.680429
 30
0.0
 40
0.15
 50
315.0
 51
45.0
  0
ARC
  5
BBB4
  8
ALPHA
 10
139.329402
 20
73.680429
 30
0.0
 40
0.15
 50
315.0
 51
45.0
  0
ARC
  5
BBB5
  8
ALPHA
 10
139.329402
 20
72.680429
 30
0.0
 40
0.15
 50
315.0
 51
45.0
  0
ARC
  5
BBB6
  8
ALPHA
 10
139.329402
 20
71.680429
 30
0.0
 40
0.15
 50
315.0
 51
45.0
  0
ARC
  5
BBB7
  8
ALPHA
 10
139.329402
 20
70.680429
 30
0.0
 40
0.15
 50
315.0
 51
45.0
  0
ARC
  5
BBB8
  8
ALPHA
 10
139.133782
 20
74.747983
 30
0.0
 40
0.1
 50
224.200498
 51
302.0
  0
ARC
  5
BBB9
  8
ALPHA
 10
139.046956
 20
74.834809
 30
0.0
 40
0.1
 50
148.0
 51
225.799502
  0
ARC
  5
BBBA
  8
ALPHA
 10
135.979402
 20
71.680429
 30
0.0
 40
4.3
 50
44.200498
 51
45.799502
  0
LINE
  5
BBBB
  8
ALPHA
 10
139.106178
 20
75.115785
 30
0.0
 11
139.435468
 21
74.786495
 31
0.0
  0
LINE
  5
BBBC
  8
ALPHA
 10
139.106178
 20
74.115785
 30
0.0
 11
139.435468
 21
73.786495
 31
0.0
  0
LINE
  5
BBBD
  8
ALPHA
 10
139.106178
 20
73.115785
 30
0.0
 11
139.435468
 21
72.786495
 31
0.0
  0
LINE
  5
BBBE
  8
ALPHA
 10
139.106178
 20
72.115785
 30
0.0
 11
139.435468
 21
71.786495
 31
0.0
  0
LINE
  5
BBBF
  8
ALPHA
 10
139.106178
 20
71.115785
 30
0.0
 11
139.435468
 21
70.786495
 31
0.0
  0
LINE
  5
BBC0
  8
ALPHA
 10
139.106178
 20
70.115785
 30
0.0
 11
139.435468
 21
69.786495
 31
0.0
  0
LINE
  5
BBC1
  8
ALPHA
 10
139.435468
 20
70.574363
 30
0.0
 11
139.106178
 21
70.245074
 31
0.0
  0
LINE
  5
BBC2
  8
ALPHA
 10
139.435468
 20
71.574363
 30
0.0
 11
139.106178
 21
71.245074
 31
0.0
  0
LINE
  5
BBC3
  8
ALPHA
 10
139.435468
 20
72.574363
 30
0.0
 11
139.106178
 21
72.245074
 31
0.0
  0
LINE
  5
BBC4
  8
ALPHA
 10
139.435468
 20
73.574363
 30
0.0
 11
139.106178
 21
73.245074
 31
0.0
  0
LINE
  5
BBC5
  8
ALPHA
 10
138.962151
 20
74.887801
 30
0.0
 11
139.105051
 21
75.116489
 31
0.0
  0
LINE
  5
BBC6
  8
ALPHA
 10
139.415722
 20
74.806241
 30
0.0
 11
139.186774
 21
74.663178
 31
0.0
  0
LINE
  5
BBC7
  8
ALPHA
 10
139.435468
 20
74.574363
 30
0.0
 11
139.106178
 21
74.245074
 31
0.0
  0
ARC
  5
BBC8
  8
ALPHA
 10
139.170823
 20
76.180429
 30
0.0
 40
0.091421
 50
135.0
 51
225.0
  0
ARC
  5
BBC9
  8
ALPHA
 10
139.170823
 20
77.180429
 30
0.0
 40
0.091421
 50
135.0
 51
225.0
  0
ARC
  5
BBCA
  8
ALPHA
 10
139.170823
 20
78.180429
 30
0.0
 40
0.091421
 50
135.0
 51
225.0
  0
ARC
  5
BBCB
  8
ALPHA
 10
139.170823
 20
79.180429
 30
0.0
 40
0.091421
 50
135.0
 51
225.0
  0
ARC
  5
BBCC
  8
ALPHA
 10
139.170823
 20
80.180429
 30
0.0
 40
0.091421
 50
135.0
 51
225.0
  0
ARC
  5
BBCD
  8
ALPHA
 10
139.170823
 20
81.180429
 30
0.0
 40
0.091421
 50
135.0
 51
225.0
  0
ARC
  5
BBCE
  8
ALPHA
 10
139.329402
 20
80.680429
 30
0.0
 40
0.15
 50
315.0
 51
45.0
  0
ARC
  5
BBCF
  8
ALPHA
 10
139.329402
 20
79.680429
 30
0.0
 40
0.15
 50
315.0
 51
45.0
  0
ARC
  5
BBD0
  8
ALPHA
 10
139.329402
 20
78.680429
 30
0.0
 40
0.15
 50
315.0
 51
45.0
  0
ARC
  5
BBD1
  8
ALPHA
 10
139.329402
 20
77.680429
 30
0.0
 40
0.15
 50
315.0
 51
45.0
  0
ARC
  5
BBD2
  8
ALPHA
 10
139.329402
 20
76.680429
 30
0.0
 40
0.15
 50
315.0
 51
45.0
  0
ARC
  5
BBD3
  8
ALPHA
 10
139.329402
 20
75.680429
 30
0.0
 40
0.15
 50
315.0
 51
45.0
  0
ARC
  5
BBD4
  8
ALPHA
 10
139.129402
 20
76.680429
 30
0.0
 40
0.15
 50
135.0
 51
180.0
  0
ARC
  5
BBD5
  8
ALPHA
 10
139.129402
 20
77.680429
 30
0.0
 40
0.15
 50
135.0
 51
225.0
  0
ARC
  5
BBD6
  8
ALPHA
 10
139.129402
 20
78.680429
 30
0.0
 40
0.15
 50
135.0
 51
225.0
  0
ARC
  5
BBD7
  8
ALPHA
 10
139.129402
 20
79.680429
 30
0.0
 40
0.15
 50
135.0
 51
225.0
  0
ARC
  5
BBD8
  8
ALPHA
 10
139.129402
 20
80.680429
 30
0.0
 40
0.15
 50
180.0
 51
225.0
  0
ARC
  5
BBD9
  8
ALPHA
 10
135.979402
 20
71.680429
 30
0.0
 40
10.0
 50
71.901635
 51
73.551387
  0
ARC
  5
BBDA
  8
ALPHA
 10
135.979402
 20
71.680429
 30
0.0
 40
5.15
 50
50.689536
 51
54.310449
  0
LINE
  5
BBDB
  8
ALPHA
 10
139.106178
 20
81.115785
 30
0.0
 11
139.435468
 21
80.786495
 31
0.0
  0
LINE
  5
BBDC
  8
ALPHA
 10
139.229402
 20
80.368297
 30
0.0
 11
139.023336
 21
80.574363
 31
0.0
  0
LINE
  5
BBDD
  8
ALPHA
 10
139.08798
 20
80.226876
 30
0.0
 11
138.881914
 21
80.432942
 31
0.0
  0
LINE
  5
BBDE
  8
ALPHA
 10
139.106178
 20
80.115785
 30
0.0
 11
139.435468
 21
79.786495
 31
0.0
  0
LINE
  5
BBDF
  8
ALPHA
 10
138.881914
 20
79.927917
 30
0.0
 11
139.023336
 21
79.786495
 31
0.0
  0
LINE
  5
BBE0
  8
ALPHA
 10
139.229402
 20
79.368297
 30
0.0
 11
139.023336
 21
79.574363
 31
0.0
  0
LINE
  5
BBE1
  8
ALPHA
 10
139.08798
 20
79.226876
 30
0.0
 11
138.881914
 21
79.432942
 31
0.0
  0
LINE
  5
BBE2
  8
ALPHA
 10
139.106178
 20
79.115785
 30
0.0
 11
139.435468
 21
78.786495
 31
0.0
  0
LINE
  5
BBE3
  8
ALPHA
 10
138.881914
 20
78.927917
 30
0.0
 11
139.023336
 21
78.786495
 31
0.0
  0
LINE
  5
BBE4
  8
ALPHA
 10
139.229402
 20
78.368297
 30
0.0
 11
139.023336
 21
78.574363
 31
0.0
  0
LINE
  5
BBE5
  8
ALPHA
 10
139.08798
 20
78.226876
 30
0.0
 11
138.881914
 21
78.432942
 31
0.0
  0
LINE
  5
BBE6
  8
ALPHA
 10
139.106178
 20
78.115785
 30
0.0
 11
139.435468
 21
77.786495
 31
0.0
  0
LINE
  5
BBE7
  8
ALPHA
 10
138.881914
 20
77.927917
 30
0.0
 11
139.023336
 21
77.786495
 31
0.0
  0
LINE
  5
BBE8
  8
ALPHA
 10
139.229402
 20
77.368297
 30
0.0
 11
139.023336
 21
77.574363
 31
0.0
  0
LINE
  5
BBE9
  8
ALPHA
 10
139.08798
 20
77.226876
 30
0.0
 11
138.881914
 21
77.432942
 31
0.0
  0
LINE
  5
BBEA
  8
ALPHA
 10
139.106178
 20
77.115785
 30
0.0
 11
139.435468
 21
76.786495
 31
0.0
  0
LINE
  5
BBEB
  8
ALPHA
 10
139.023336
 20
76.786495
 30
0.0
 11
138.881914
 21
76.927917
 31
0.0
  0
LINE
  5
BBEC
  8
ALPHA
 10
139.106178
 20
76.115785
 30
0.0
 11
139.435468
 21
75.786495
 31
0.0
  0
LINE
  5
BBED
  8
ALPHA
 10
138.979402
 20
80.680429
 30
0.0
 11
138.979402
 21
80.893982
 31
0.0
  0
LINE
  5
BBEE
  8
ALPHA
 10
139.435468
 20
76.574363
 30
0.0
 11
139.106178
 21
76.245074
 31
0.0
  0
LINE
  5
BBEF
  8
ALPHA
 10
139.229402
 20
76.992561
 30
0.0
 11
139.023336
 21
76.786495
 31
0.0
  0
LINE
  5
BBF0
  8
ALPHA
 10
139.08798
 20
77.133983
 30
0.0
 11
138.881914
 21
76.927917
 31
0.0
  0
LINE
  5
BBF1
  8
ALPHA
 10
139.435468
 20
77.574363
 30
0.0
 11
139.106178
 21
77.245074
 31
0.0
  0
LINE
  5
BBF2
  8
ALPHA
 10
138.881914
 20
77.432942
 30
0.0
 11
139.023336
 21
77.574363
 31
0.0
  0
LINE
  5
BBF3
  8
ALPHA
 10
139.023336
 20
77.786495
 30
0.0
 11
139.229402
 21
77.992561
 31
0.0
  0
LINE
  5
BBF4
  8
ALPHA
 10
138.881914
 20
77.927917
 30
0.0
 11
139.08798
 21
78.133983
 31
0.0
  0
LINE
  5
BBF5
  8
ALPHA
 10
139.435468
 20
78.574363
 30
0.0
 11
139.106178
 21
78.245074
 31
0.0
  0
LINE
  5
BBF6
  8
ALPHA
 10
138.881914
 20
78.432942
 30
0.0
 11
139.023336
 21
78.574363
 31
0.0
  0
LINE
  5
BBF7
  8
ALPHA
 10
139.023336
 20
78.786495
 30
0.0
 11
139.229402
 21
78.992561
 31
0.0
  0
LINE
  5
BBF8
  8
ALPHA
 10
138.881914
 20
78.927917
 30
0.0
 11
139.08798
 21
79.133983
 31
0.0
  0
LINE
  5
BBF9
  8
ALPHA
 10
139.435468
 20
79.574363
 30
0.0
 11
139.106178
 21
79.245074
 31
0.0
  0
LINE
  5
BBFA
  8
ALPHA
 10
138.881914
 20
79.432942
 30
0.0
 11
139.023336
 21
79.574363
 31
0.0
  0
LINE
  5
BBFB
  8
ALPHA
 10
139.023336
 20
79.786495
 30
0.0
 11
139.229402
 21
79.992561
 31
0.0
  0
LINE
  5
BBFC
  8
ALPHA
 10
138.881914
 20
79.927917
 30
0.0
 11
139.08798
 21
80.133983
 31
0.0
  0
LINE
  5
BBFD
  8
ALPHA
 10
139.435468
 20
80.574363
 30
0.0
 11
139.106178
 21
80.245074
 31
0.0
  0
LINE
  5
BBFE
  8
ALPHA
 10
138.881914
 20
80.432942
 30
0.0
 11
139.023336
 21
80.574363
 31
0.0
  0
ARC
  5
BBFF
  8
ALPHA
 10
135.979402
 20
106.680429
 30
0.0
 40
24.0
 50
272.07067
 51
282.5
  0
ARC
  5
BC00
  8
ALPHA
 10
137.729402
 20
85.251768
 30
0.0
 40
1.0
 50
180.0
 51
274.668775
  0
LINE
  5
BC01
  8
ALPHA
 10
136.729402
 20
85.251768
 30
0.0
 11
137.037338
 21
85.251768
 31
0.0
  0
LINE
  5
BC02
  8
ALPHA
 10
136.846573
 20
82.696101
 30
0.0
 11
136.120823
 21
83.421851
 31
0.0
  0
ARC
  5
BC03
  8
ALPHA
 10
135.979402
 20
83.280429
 30
0.0
 40
0.2
 50
45.0
 51
135.0
  0
LINE
  5
BC04
  8
ALPHA
 10
135.229402
 20
85.251768
 30
0.0
 11
134.921466
 21
85.251768
 31
0.0
  0
LINE
  5
BC05
  8
ALPHA
 10
135.83798
 20
83.421851
 30
0.0
 11
135.11223
 21
82.696101
 31
0.0
  0
LINE
  5
BC06
  8
ALPHA
 10
137.288314
 20
84.778419
 30
0.0
 11
137.037338
 21
85.251768
 31
0.0
  0
LINE
  5
BC07
  8
ALPHA
 10
137.288314
 20
84.778419
 30
0.0
 11
137.785732
 21
84.562001
 31
0.0
  0
LINE
  5
BC08
  8
ALPHA
 10
137.834293
 20
85.365879
 30
0.0
 11
137.288314
 21
84.778419
 31
0.0
  0
LINE
  5
BC09
  8
ALPHA
 10
137.810797
 20
84.255087
 30
0.0
 11
137.785732
 21
84.562001
 31
0.0
  0
ARC
  5
BC0A
  8
ALPHA
 10
139.329402
 20
81.680429
 30
0.0
 40
0.15
 50
315.0
 51
45.0
  0
LINE
  5
BC0B
  8
ALPHA
 10
139.30377
 20
81.918193
 30
0.0
 11
139.435468
 21
81.786495
 31
0.0
  0
LINE
  5
BC0C
  8
ALPHA
 10
141.173952
 20
83.249325
 30
0.0
 11
141.044089
 21
83.835103
 31
0.0
  0
ARC
  5
BC0D
  8
ALPHA
 10
123.479402
 20
81.259247
 30
0.0
 40
20.0
 50
0.0
 51
4.532851
  0
LINE
  5
BC0E
  8
ALPHA
 10
118.447906
 20
94.416771
 30
0.0
 11
117.66616
 21
94.595872
 31
0.0
  0
LINE
  5
BC0F
  8
ALPHA
 10
118.447906
 20
118.944087
 30
0.0
 11
117.66616
 21
118.764986
 31
0.0
  0
ARC
  5
BC10
  8
ALPHA
 10
135.979402
 20
106.680429
 30
0.0
 40
23.4
 50
102.5
 51
137.5
  0
ARC
  5
BC11
  8
ALPHA
 10
135.979402
 20
106.680429
 30
0.0
 40
22.5
 50
94.668775
 51
145.331225
  0
ARC
  5
BC12
  8
ALPHA
 10
135.979402
 20
106.680429
 30
0.0
 40
21.395108
 50
94.973616
 51
145.026384
  0
ARC
  5
BC13
  8
ALPHA
 10
135.979402
 20
106.680429
 30
0.0
 40
22.192064
 50
94.668775
 51
145.331225
  0
LINE
  5
BC14
  8
ALPHA
 10
131.992772
 20
110.20371
 30
0.0
 11
117.950605
 21
118.310959
 31
0.0
  0
LINE
  5
BC15
  8
ALPHA
 10
131.838804
 20
109.93703
 30
0.0
 11
117.796637
 21
118.044279
 31
0.0
  0
LINE
  5
BC16
  8
ALPHA
 10
117.046637
 20
116.745241
 30
0.0
 11
131.088804
 21
108.637992
 31
0.0
  0
LINE
  5
BC17
  8
ALPHA
 10
116.892669
 20
116.47856
 30
0.0
 11
130.934836
 21
108.371311
 31
0.0
  0
LINE
  5
BC18
  8
ALPHA
 10
116.593014
 20
115.731321
 30
0.0
 11
130.471493
 21
107.718577
 31
0.0
  0
LINE
  5
BC19
  8
ALPHA
 10
118.727112
 20
122.48924
 30
0.0
 11
118.284746
 21
122.894594
 31
0.0
  0
LINE
  5
BC1A
  8
ALPHA
 10
117.950605
 20
95.049899
 30
0.0
 11
131.992772
 21
103.157148
 31
0.0
  0
LINE
  5
BC1B
  8
ALPHA
 10
117.796637
 20
95.31658
 30
0.0
 11
131.838804
 21
103.423828
 31
0.0
  0
LINE
  5
BC1C
  8
ALPHA
 10
131.088804
 20
104.722867
 30
0.0
 11
117.046637
 21
96.615618
 31
0.0
  0
LINE
  5
BC1D
  8
ALPHA
 10
130.934836
 20
104.989547
 30
0.0
 11
116.892669
 21
96.882298
 31
0.0
  0
LINE
  5
BC1E
  8
ALPHA
 10
130.471493
 20
105.642281
 30
0.0
 11
116.593014
 21
97.629538
 31
0.0
  0
LINE
  5
BC29
  8
ALPHA
 10
116.593014
 20
115.731321
 30
0.0
 11
116.357248
 21
116.497883
 31
0.0
  0
ARC
  5
BC2A
  8
ALPHA
 10
135.979402
 20
106.680429
 30
0.0
 40
24.0
 50
152.07067
 51
162.5
  0
ARC
  5
BC2B
  8
ALPHA
 10
135.979402
 20
106.680429
 30
0.0
 40
22.5
 50
154.668775
 51
205.331225
  0
ARC
  5
BC2C
  8
ALPHA
 10
135.979402
 20
106.680429
 30
0.0
 40
22.192064
 50
154.668775
 51
205.331225
  0
ARC
  5
BC2D
  8
ALPHA
 10
135.979402
 20
106.680429
 30
0.0
 40
23.4
 50
162.5
 51
197.5
  0
ARC
  5
BC2E
  8
ALPHA
 10
135.979402
 20
106.680429
 30
0.0
 40
21.395108
 50
154.973616
 51
205.026384
  0
ARC
  5
BC2F
  8
ALPHA
 10
135.979402
 20
106.680429
 30
0.0
 40
24.0
 50
197.5
 51
207.92933
  0
LINE
  5
BC30
  8
ALPHA
 10
113.662425
 20
99.643913
 30
0.0
 11
113.090195
 21
99.46349
 31
0.0
  0
LINE
  5
BC31
  8
ALPHA
 10
116.357248
 20
96.862976
 30
0.0
 11
115.921115
 21
97.185543
 31
0.0
  0
ARC
  5
BC32
  8
ALPHA
 10
116.546637
 20
97.481643
 30
0.0
 40
1.0
 50
205.331225
 51
300.0
  0
ARC
  5
BC33
  8
ALPHA
 10
115.714407
 20
94.980429
 30
0.0
 40
0.2
 50
345.0
 51
75.0
  0
LINE
  5
BC34
  8
ALPHA
 10
115.766171
 20
95.173614
 30
0.0
 11
114.774778
 21
95.439257
 31
0.0
  0
LINE
  5
BC35
  8
ALPHA
 10
115.641949
 20
93.937273
 30
0.0
 11
115.907592
 21
94.928665
 31
0.0
  0
LINE
  5
BC36
  8
ALPHA
 10
115.642788
 20
97.053793
 30
0.0
 11
115.921115
 21
97.185543
 31
0.0
  0
LINE
  5
BC37
  8
ALPHA
 10
117.66616
 20
94.595872
 30
0.0
 11
117.950605
 21
95.049899
 31
0.0
  0
LINE
  5
BC38
  8
ALPHA
 10
117.66616
 20
94.595872
 30
0.0
 11
117.727446
 21
94.056887
 31
0.0
  0
LINE
  5
BC39
  8
ALPHA
 10
116.357248
 20
96.862976
 30
0.0
 11
116.892669
 21
96.882298
 31
0.0
  0
LINE
  5
BC3A
  8
ALPHA
 10
116.593014
 20
97.629538
 30
0.0
 11
116.357248
 21
96.862976
 31
0.0
  0
ARC
  5
BC3B
  8
ALPHA
 10
118.296637
 20
94.450554
 30
0.0
 40
1.0
 50
120.0
 51
214.668775
  0
LINE
  5
BC3C
  8
ALPHA
 10
117.046637
 20
96.615618
 30
0.0
 11
116.892669
 21
96.882298
 31
0.0
  0
LINE
  5
BC3D
  8
ALPHA
 10
117.796637
 20
95.31658
 30
0.0
 11
117.950605
 21
95.049899
 31
0.0
  0
LINE
  5
BC3E
  8
ALPHA
 10
117.474183
 20
93.881723
 30
0.0
 11
117.727446
 21
94.056887
 31
0.0
  0
LINE
  5
BC3F
  8
ALPHA
 10
113.090195
 20
113.897368
 30
0.0
 11
113.662425
 21
113.716945
 31
0.0
  0
ARC
  5
BC40
  8
ALPHA
 10
135.979402
 20
106.680429
 30
0.0
 40
24.0
 50
137.5
 51
147.92933
  0
LINE
  5
BC41
  8
ALPHA
 10
116.357248
 20
116.497883
 30
0.0
 11
115.921115
 21
116.175315
 31
0.0
  0
ARC
  5
BC42
  8
ALPHA
 10
116.546637
 20
115.879215
 30
0.0
 40
1.0
 50
60.0
 51
154.668775
  0
ARC
  5
BC43
  8
ALPHA
 10
115.714407
 20
118.380429
 30
0.0
 40
0.2
 50
285.0
 51
15.0
  0
LINE
  5
BC44
  8
ALPHA
 10
114.774778
 20
117.921601
 30
0.0
 11
115.766171
 21
118.187244
 31
0.0
  0
LINE
  5
BC45
  8
ALPHA
 10
115.642788
 20
116.307066
 30
0.0
 11
115.921115
 21
116.175315
 31
0.0
  0
LINE
  5
BC46
  8
ALPHA
 10
115.907592
 20
118.432193
 30
0.0
 11
115.641949
 21
119.423586
 31
0.0
  0
LINE
  5
BC47
  8
ALPHA
 10
116.357248
 20
116.497883
 30
0.0
 11
116.892669
 21
116.47856
 31
0.0
  0
LINE
  5
BC48
  8
ALPHA
 10
117.66616
 20
118.764986
 30
0.0
 11
117.727446
 21
119.303972
 31
0.0
  0
LINE
  5
BC49
  8
ALPHA
 10
117.66616
 20
118.764986
 30
0.0
 11
117.950605
 21
118.310959
 31
0.0
  0
ARC
  5
BC4A
  8
ALPHA
 10
118.296637
 20
118.910304
 30
0.0
 40
1.0
 50
145.331225
 51
240.0
  0
LINE
  5
BC4B
  8
ALPHA
 10
117.474183
 20
119.479135
 30
0.0
 11
117.727446
 21
119.303972
 31
0.0
  0
LINE
  5
BC4C
  8
ALPHA
 10
117.796637
 20
118.044279
 30
0.0
 11
117.950605
 21
118.310959
 31
0.0
  0
LINE
  5
BC4D
  8
ALPHA
 10
117.046637
 20
116.745241
 30
0.0
 11
116.892669
 21
116.47856
 31
0.0
  0
LINE
  5
BC4E
  8
ALPHA
 10
134.754066
 20
101.858342
 30
0.0
 11
134.449604
 21
102.122363
 31
0.0
  0
LINE
  5
BC4F
  8
ALPHA
 10
134.670489
 20
128.58244
 30
0.0
 11
134.921466
 21
128.10909
 31
0.0
  0
LINE
  5
BC50
  8
ALPHA
 10
134.754066
 20
111.502516
 30
0.0
 11
134.449604
 21
111.238495
 31
0.0
  0
LINE
  5
BC51
  8
ALPHA
 10
134.12451
 20
101.391366
 30
0.0
 11
134.754066
 21
101.858342
 31
0.0
  0
LINE
  5
BC52
  8
ALPHA
 10
134.12451
 20
111.969492
 30
0.0
 11
134.754066
 21
111.502516
 31
0.0
  0
ARC
  5
BC53
  8
ALPHA
 10
135.979402
 20
106.680429
 30
0.0
 40
24.0
 50
92.07067
 51
102.5
  0
ARC
  5
BC54
  8
ALPHA
 10
134.229402
 20
128.10909
 30
0.0
 40
1.0
 50
0.0
 51
94.668775
  0
ARC
  5
BC55
  8
ALPHA
 10
134.229402
 20
111.894593
 30
0.0
 40
1.0
 50
288.553005
 51
0.0
  0
ARC
  5
BC56
  8
ALPHA
 10
134.229402
 20
101.466266
 30
0.0
 40
1.0
 50
0.0
 51
71.446995
  0
CIRCLE
  5
BC57
  8
ALPHA
 10
135.979402
 20
106.680429
 30
0.0
 40
4.5
  0
LINE
  5
BC58
  8
ALPHA
 10
132.326385
 20
110.931344
 30
0.0
 11
118.447906
 21
118.944087
 31
0.0
  0
LINE
  5
BC59
  8
ALPHA
 10
134.12451
 20
127.994979
 30
0.0
 11
134.12451
 21
111.969492
 31
0.0
  0
LINE
  5
BC5A
  8
ALPHA
 10
118.447906
 20
94.416771
 30
0.0
 11
132.326385
 21
102.429514
 31
0.0
  0
LINE
  5
BC5B
  8
ALPHA
 10
132.41602
 20
103.208214
 30
0.0
 11
132.796899
 21
103.076552
 31
0.0
  0
ARC
  5
BC5C
  8
ALPHA
 10
135.979402
 20
106.680429
 30
0.0
 40
5.604892
 50
229.325936
 51
250.674064
  0
ARC
  5
BC5D
  8
ALPHA
 10
132.338804
 20
102.557803
 30
0.0
 40
1.0
 50
48.553005
 51
120.0
  0
LINE
  5
BC5E
  8
ALPHA
 10
132.326385
 20
102.429514
 30
0.0
 11
132.41602
 21
103.208214
 31
0.0
  0
LINE
  5
BC5F
  8
ALPHA
 10
132.41602
 20
103.208214
 30
0.0
 11
131.992772
 21
103.157148
 31
0.0
  0
LINE
  5
BC60
  8
ALPHA
 10
131.838804
 20
103.423828
 30
0.0
 11
131.992772
 21
103.157148
 31
0.0
  0
ARC
  5
BC61
  8
ALPHA
 10
135.979402
 20
106.680429
 30
0.0
 40
4.807936
 50
228.553005
 51
251.446995
  0
LINE
  5
BC62
  8
ALPHA
 10
134.547583
 20
102.414296
 30
0.0
 11
134.449604
 21
102.122363
 31
0.0
  0
LINE
  5
BC63
  8
ALPHA
 10
133.000731
 20
103.307371
 30
0.0
 11
132.796899
 21
103.076552
 31
0.0
  0
LINE
  5
BC64
  8
ALPHA
 10
130.471493
 20
107.718577
 30
0.0
 11
131.190684
 21
108.0303
 31
0.0
  0
LINE
  5
BC65
  8
ALPHA
 10
130.471493
 20
105.642281
 30
0.0
 11
131.190684
 21
105.330558
 31
0.0
  0
ARC
  5
BC66
  8
ALPHA
 10
135.979402
 20
106.680429
 30
0.0
 40
5.604892
 50
169.325936
 51
190.674064
  0
LINE
  5
BC67
  8
ALPHA
 10
132.326385
 20
110.931344
 30
0.0
 11
132.41602
 21
110.152645
 31
0.0
  0
ARC
  5
BC68
  8
ALPHA
 10
135.979402
 20
106.680429
 30
0.0
 40
4.807936
 50
108.553005
 51
131.446995
  0
LINE
  5
BC69
  8
ALPHA
 10
132.41602
 20
110.152645
 30
0.0
 11
132.796899
 21
110.284306
 31
0.0
  0
ARC
  5
BC6A
  8
ALPHA
 10
132.338804
 20
110.803055
 30
0.0
 40
1.0
 50
240.0
 51
311.446995
  0
LINE
  5
BC6B
  8
ALPHA
 10
131.190684
 20
108.0303
 30
0.0
 11
131.267102
 21
107.634619
 31
0.0
  0
LINE
  5
BC6C
  8
ALPHA
 10
131.190684
 20
105.330558
 30
0.0
 11
131.267102
 21
105.72624
 31
0.0
  0
LINE
  5
BC6D
  8
ALPHA
 10
131.190684
 20
105.330558
 30
0.0
 11
130.934836
 21
104.989547
 31
0.0
  0
LINE
  5
BC6E
  8
ALPHA
 10
131.190684
 20
108.0303
 30
0.0
 11
130.934836
 21
108.371311
 31
0.0
  0
LINE
  5
BC6F
  8
ALPHA
 10
132.41602
 20
110.152645
 30
0.0
 11
131.992772
 21
110.20371
 31
0.0
  0
ARC
  5
BC70
  8
ALPHA
 10
130.588804
 20
105.588892
 30
0.0
 40
1.0
 50
300.0
 51
11.422049
  0
ARC
  5
BC71
  8
ALPHA
 10
130.588804
 20
107.771966
 30
0.0
 40
1.0
 50
348.553005
 51
60.0
  0
ARC
  5
BC72
  8
ALPHA
 10
135.979402
 20
106.680429
 30
0.0
 40
4.807936
 50
168.553005
 51
191.446995
  0
LINE
  5
BC73
  8
ALPHA
 10
131.568912
 20
107.573505
 30
0.0
 11
131.267102
 21
107.634619
 31
0.0
  0
LINE
  5
BC74
  8
ALPHA
 10
131.568999
 20
105.786927
 30
0.0
 11
131.267102
 21
105.72624
 31
0.0
  0
LINE
  5
BC75
  8
ALPHA
 10
131.088804
 20
104.722867
 30
0.0
 11
130.934836
 21
104.989547
 31
0.0
  0
LINE
  5
BC76
  8
ALPHA
 10
131.838804
 20
109.93703
 30
0.0
 11
131.992772
 21
110.20371
 31
0.0
  0
LINE
  5
BC77
  8
ALPHA
 10
131.088804
 20
108.637992
 30
0.0
 11
130.934836
 21
108.371311
 31
0.0
  0
LINE
  5
BC78
  8
ALPHA
 10
133.000731
 20
110.053487
 30
0.0
 11
132.796899
 21
110.284306
 31
0.0
  0
ARC
  5
BC79
  8
ALPHA
 10
135.979402
 20
106.680429
 30
0.0
 40
5.604892
 50
109.325936
 51
130.674064
  0
LINE
  5
BC7A
  8
ALPHA
 10
134.547583
 20
110.946563
 30
0.0
 11
134.449604
 21
111.238495
 31
0.0
  0
LINE
  5
BC7B
  8
ALPHA
 10
130.784851
 20
130.111533
 30
0.0
 11
130.914715
 21
129.525756
 31
0.0
  0
LINE
  5
BC7C
  8
ALPHA
 10
134.12451
 20
127.994979
 30
0.0
 11
134.670489
 21
128.58244
 31
0.0
  0
LINE
  5
BC7D
  8
ALPHA
 10
134.670489
 20
128.58244
 30
0.0
 11
134.173071
 21
128.798858
 31
0.0
  0
LINE
  5
BC7E
  8
ALPHA
 10
134.148006
 20
129.105772
 30
0.0
 11
134.173071
 21
128.798858
 31
0.0
  0
LINE
  5
BC7F
  8
ALPHA
 10
137.834293
 20
111.969492
 30
0.0
 11
137.834293
 21
127.994979
 31
0.0
  0
LINE
  5
BC80
  8
ALPHA
 10
137.037338
 20
111.894593
 30
0.0
 11
137.037338
 21
128.10909
 31
0.0
  0
LINE
  5
BC81
  8
ALPHA
 10
136.729402
 20
111.894593
 30
0.0
 11
136.729402
 21
128.10909
 31
0.0
  0
LINE
  5
BC82
  8
ALPHA
 10
135.229402
 20
128.10909
 30
0.0
 11
135.229402
 21
111.894593
 31
0.0
  0
LINE
  5
BC83
  8
ALPHA
 10
134.921466
 20
128.10909
 30
0.0
 11
134.921466
 21
111.894593
 31
0.0
  0
ARC
  5
BC84
  8
ALPHA
 10
135.979402
 20
106.680429
 30
0.0
 40
5.604892
 50
289.325936
 51
310.674064
  0
ARC
  5
BC85
  8
ALPHA
 10
135.979402
 20
106.680429
 30
0.0
 40
4.807936
 50
288.553005
 51
311.446995
  0
ARC
  5
BC86
  8
ALPHA
 10
137.729402
 20
101.466266
 30
0.0
 40
1.0
 50
108.553005
 51
180.0
  0
LINE
  5
BC87
  8
ALPHA
 10
136.729402
 20
101.466266
 30
0.0
 11
137.037338
 21
101.466266
 31
0.0
  0
LINE
  5
BC88
  8
ALPHA
 10
134.754066
 20
101.858342
 30
0.0
 11
134.921466
 21
101.466266
 31
0.0
  0
LINE
  5
BC89
  8
ALPHA
 10
135.229402
 20
101.466266
 30
0.0
 11
134.921466
 21
101.466266
 31
0.0
  0
LINE
  5
BC8A
  8
ALPHA
 10
137.204738
 20
101.858342
 30
0.0
 11
137.509199
 21
102.122363
 31
0.0
  0
LINE
  5
BC8B
  8
ALPHA
 10
137.834293
 20
101.391366
 30
0.0
 11
137.204738
 21
101.858342
 31
0.0
  0
LINE
  5
BC8C
  8
ALPHA
 10
137.204738
 20
101.858342
 30
0.0
 11
137.037338
 21
101.466266
 31
0.0
  0
LINE
  5
BC8D
  8
ALPHA
 10
137.41122
 20
102.414296
 30
0.0
 11
137.509199
 21
102.122363
 31
0.0
  0
LINE
  5
BC8E
  8
ALPHA
 10
139.542783
 20
103.208214
 30
0.0
 11
139.966032
 21
103.157148
 31
0.0
  0
LINE
  5
BC8F
  8
ALPHA
 10
139.632419
 20
102.429514
 30
0.0
 11
139.542783
 21
103.208214
 31
0.0
  0
LINE
  5
BC90
  8
ALPHA
 10
139.542783
 20
103.208214
 30
0.0
 11
139.161904
 21
103.076552
 31
0.0
  0
ARC
  5
BC91
  8
ALPHA
 10
139.62
 20
102.557803
 30
0.0
 40
1.0
 50
60.0
 51
131.446995
  0
LINE
  5
BC92
  8
ALPHA
 10
138.958073
 20
103.307371
 30
0.0
 11
139.161904
 21
103.076552
 31
0.0
  0
LINE
  5
BC93
  8
ALPHA
 10
140.12
 20
103.423828
 30
0.0
 11
139.966032
 21
103.157148
 31
0.0
  0
ARC
  5
BC94
  8
ALPHA
 10
135.979402
 20
106.680429
 30
0.0
 40
5.604892
 50
49.325936
 51
70.674064
  0
ARC
  5
BC95
  8
ALPHA
 10
135.979402
 20
106.680429
 30
0.0
 40
4.807936
 50
48.553005
 51
71.446995
  0
CIRCLE
  5
BC96
  8
ALPHA
 10
135.979402
 20
106.680429
 30
0.0
 40
1.0
  0
ARC
  5
BC97
  8
ALPHA
 10
137.729402
 20
111.894593
 30
0.0
 40
1.0
 50
180.0
 51
251.446995
  0
LINE
  5
BC98
  8
ALPHA
 10
136.729402
 20
111.894593
 30
0.0
 11
137.037338
 21
111.894593
 31
0.0
  0
LINE
  5
BC99
  8
ALPHA
 10
134.754066
 20
111.502516
 30
0.0
 11
134.921466
 21
111.894593
 31
0.0
  0
LINE
  5
BC9A
  8
ALPHA
 10
135.229402
 20
111.894593
 30
0.0
 11
134.921466
 21
111.894593
 31
0.0
  0
LINE
  5
BC9B
  8
ALPHA
 10
137.204738
 20
111.502516
 30
0.0
 11
137.037338
 21
111.894593
 31
0.0
  0
LINE
  5
BC9C
  8
ALPHA
 10
137.834293
 20
111.969492
 30
0.0
 11
137.204738
 21
111.502516
 31
0.0
  0
LINE
  5
BC9D
  8
ALPHA
 10
137.204738
 20
111.502516
 30
0.0
 11
137.509199
 21
111.238495
 31
0.0
  0
LINE
  5
BC9E
  8
ALPHA
 10
137.41122
 20
110.946563
 30
0.0
 11
137.509199
 21
111.238495
 31
0.0
  0
LINE
  5
BC9F
  8
ALPHA
 10
139.632419
 20
110.931344
 30
0.0
 11
139.542783
 21
110.152645
 31
0.0
  0
LINE
  5
BCA0
  8
ALPHA
 10
140.768119
 20
108.0303
 30
0.0
 11
141.023968
 21
108.371311
 31
0.0
  0
LINE
  5
BCA1
  8
ALPHA
 10
140.768119
 20
105.330558
 30
0.0
 11
141.023968
 21
104.989547
 31
0.0
  0
LINE
  5
BCA2
  8
ALPHA
 10
141.487311
 20
107.718577
 30
0.0
 11
140.768119
 21
108.0303
 31
0.0
  0
LINE
  5
BCA3
  8
ALPHA
 10
141.487311
 20
105.642281
 30
0.0
 11
140.768119
 21
105.330558
 31
0.0
  0
ARC
  5
BCA4
  8
ALPHA
 10
141.37
 20
107.771966
 30
0.0
 40
1.0
 50
120.0
 51
191.446995
  0
ARC
  5
BCA5
  8
ALPHA
 10
141.37
 20
105.588892
 30
0.0
 40
1.0
 50
168.577952
 51
240.0
  0
LINE
  5
BCA6
  8
ALPHA
 10
140.768119
 20
105.330558
 30
0.0
 11
140.691702
 21
105.72624
 31
0.0
  0
LINE
  5
BCA7
  8
ALPHA
 10
139.542783
 20
110.152645
 30
0.0
 11
139.161904
 21
110.284306
 31
0.0
  0
LINE
  5
BCA8
  8
ALPHA
 10
139.542783
 20
110.152645
 30
0.0
 11
139.966032
 21
110.20371
 31
0.0
  0
LINE
  5
BCA9
  8
ALPHA
 10
140.768119
 20
108.0303
 30
0.0
 11
140.691702
 21
107.634619
 31
0.0
  0
ARC
  5
BCAA
  8
ALPHA
 10
135.979402
 20
106.680429
 30
0.0
 40
4.807936
 50
348.553005
 51
11.446995
  0
ARC
  5
BCAB
  8
ALPHA
 10
139.62
 20
110.803055
 30
0.0
 40
1.0
 50
228.553005
 51
300.0
  0
LINE
  5
BCAC
  8
ALPHA
 10
140.389804
 20
105.786927
 30
0.0
 11
140.691702
 21
105.72624
 31
0.0
  0
LINE
  5
BCAD
  8
ALPHA
 10
140.389891
 20
107.573505
 30
0.0
 11
140.691702
 21
107.634619
 31
0.0
  0
LINE
  5
BCAE
  8
ALPHA
 10
140.12
 20
109.93703
 30
0.0
 11
139.966032
 21
110.20371
 31
0.0
  0
LINE
  5
BCAF
  8
ALPHA
 10
138.958073
 20
110.053487
 30
0.0
 11
139.161904
 21
110.284306
 31
0.0
  0
ARC
  5
BCB0
  8
ALPHA
 10
135.979402
 20
106.680429
 30
0.0
 40
5.604892
 50
349.325936
 51
10.674064
  0
LINE
  5
BCB1
  8
ALPHA
 10
140.87
 20
108.637992
 30
0.0
 11
141.023968
 21
108.371311
 31
0.0
  0
LINE
  5
BCB2
  8
ALPHA
 10
140.87
 20
104.722867
 30
0.0
 11
141.023968
 21
104.989547
 31
0.0
  0
ARC
  5
BCB3
  8
ALPHA
 10
135.979402
 20
106.680429
 30
0.0
 40
24.0
 50
77.5
 51
87.92933
  0
ARC
  5
BCB4
  8
ALPHA
 10
137.729402
 20
128.10909
 30
0.0
 40
1.0
 50
85.331225
 51
180.0
  0
LINE
  5
BCB5
  8
ALPHA
 10
136.729402
 20
128.10909
 30
0.0
 11
137.037338
 21
128.10909
 31
0.0
  0
LINE
  5
BCB6
  8
ALPHA
 10
136.120823
 20
129.939008
 30
0.0
 11
136.846573
 21
130.664758
 31
0.0
  0
ARC
  5
BCB7
  8
ALPHA
 10
135.979402
 20
130.080429
 30
0.0
 40
0.2
 50
225.0
 51
315.0
  0
LINE
  5
BCB8
  8
ALPHA
 10
135.229402
 20
128.10909
 30
0.0
 11
134.921466
 21
128.10909
 31
0.0
  0
LINE
  5
BCB9
  8
ALPHA
 10
135.11223
 20
130.664758
 30
0.0
 11
135.83798
 21
129.939008
 31
0.0
  0
LINE
  5
BCBA
  8
ALPHA
 10
137.288314
 20
128.58244
 30
0.0
 11
137.785732
 21
128.798858
 31
0.0
  0
LINE
  5
BCBB
  8
ALPHA
 10
137.834293
 20
127.994979
 30
0.0
 11
137.288314
 21
128.58244
 31
0.0
  0
LINE
  5
BCBC
  8
ALPHA
 10
137.288314
 20
128.58244
 30
0.0
 11
137.037338
 21
128.10909
 31
0.0
  0
LINE
  5
BCBD
  8
ALPHA
 10
137.810797
 20
129.105772
 30
0.0
 11
137.785732
 21
128.798858
 31
0.0
  0
LINE
  5
BCBE
  8
ALPHA
 10
141.044089
 20
129.525756
 30
0.0
 11
141.173952
 21
130.111533
 31
0.0
  0
ARC
  5
BCBF
  8
ALPHA
 10
135.979402
 20
106.680429
 30
0.0
 40
24.0
 50
317.5
 51
327.92933
  0
LINE
  5
BCC0
  8
ALPHA
 10
153.231691
 20
90.871618
 30
0.0
 11
153.674058
 21
90.466264
 31
0.0
  0
LINE
  5
BCC1
  8
ALPHA
 10
155.365789
 20
115.731321
 30
0.0
 11
155.601555
 21
116.497883
 31
0.0
  0
ARC
  5
BCC2
  8
ALPHA
 10
135.979402
 20
106.680429
 30
0.0
 40
24.0
 50
17.5
 51
27.92933
  0
ARC
  5
BCC3
  8
ALPHA
 10
135.979402
 20
106.680429
 30
0.0
 40
22.192064
 50
334.668775
 51
25.331225
  0
ARC
  5
BCC4
  8
ALPHA
 10
135.979402
 20
106.680429
 30
0.0
 40
22.5
 50
334.668775
 51
25.331225
  0
ARC
  5
BCC5
  8
ALPHA
 10
135.979402
 20
106.680429
 30
0.0
 40
23.4
 50
342.5
 51
17.5
  0
ARC
  5
BCC6
  8
ALPHA
 10
135.979402
 20
106.680429
 30
0.0
 40
21.395108
 50
334.973616
 51
25.026384
  0
LINE
  5
BCC7
  8
ALPHA
 10
155.601555
 20
96.862976
 30
0.0
 11
155.066134
 21
96.882298
 31
0.0
  0
ARC
  5
BCC8
  8
ALPHA
 10
155.412166
 20
97.481643
 30
0.0
 40
1.0
 50
240.0
 51
334.668775
  0
LINE
  5
BCC9
  8
ALPHA
 10
154.292643
 20
94.595872
 30
0.0
 11
154.008198
 21
95.049899
 31
0.0
  0
LINE
  5
BCCA
  8
ALPHA
 10
154.292643
 20
94.595872
 30
0.0
 11
154.231357
 21
94.056887
 31
0.0
  0
LINE
  5
BCCB
  8
ALPHA
 10
153.510897
 20
94.416771
 30
0.0
 11
154.292643
 21
94.595872
 31
0.0
  0
ARC
  5
BCCC
  8
ALPHA
 10
153.662166
 20
94.450554
 30
0.0
 40
1.0
 50
325.331225
 51
60.0
  0
LINE
  5
BCCD
  8
ALPHA
 10
154.48462
 20
93.881723
 30
0.0
 11
154.231357
 21
94.056887
 31
0.0
  0
LINE
  5
BCCE
  8
ALPHA
 10
154.912166
 20
96.615618
 30
0.0
 11
155.066134
 21
96.882298
 31
0.0
  0
LINE
  5
BCCF
  8
ALPHA
 10
154.162166
 20
95.31658
 30
0.0
 11
154.008198
 21
95.049899
 31
0.0
  0
ARC
  5
BCD0
  8
ALPHA
 10
135.979402
 20
106.680429
 30
0.0
 40
24.0
 50
332.07067
 51
342.5
  0
LINE
  5
BCD1
  8
ALPHA
 10
155.601555
 20
96.862976
 30
0.0
 11
156.037688
 21
97.185543
 31
0.0
  0
LINE
  5
BCD2
  8
ALPHA
 10
155.365789
 20
97.629538
 30
0.0
 11
155.601555
 21
96.862976
 31
0.0
  0
ARC
  5
BCD3
  8
ALPHA
 10
156.244396
 20
94.980429
 30
0.0
 40
0.2
 50
105.0
 51
195.0
  0
LINE
  5
BCD4
  8
ALPHA
 10
156.316016
 20
97.053793
 30
0.0
 11
156.037688
 21
97.185543
 31
0.0
  0
LINE
  5
BCD5
  8
ALPHA
 10
156.051211
 20
94.928665
 30
0.0
 11
156.316854
 21
93.937273
 31
0.0
  0
LINE
  5
BCD6
  8
ALPHA
 10
157.184025
 20
95.439257
 30
0.0
 11
156.192632
 21
95.173614
 31
0.0
  0
LINE
  5
BCD7
  8
ALPHA
 10
158.868608
 20
99.46349
 30
0.0
 11
158.296378
 21
99.643913
 31
0.0
  0
LINE
  5
BCD8
  8
ALPHA
 10
158.296378
 20
113.716945
 30
0.0
 11
158.868608
 21
113.897368
 31
0.0
  0
LINE
  5
BCD9
  8
ALPHA
 10
155.601555
 20
116.497883
 30
0.0
 11
155.066134
 21
116.47856
 31
0.0
  0
ARC
  5
BCDA
  8
ALPHA
 10
135.979402
 20
106.680429
 30
0.0
 40
24.0
 50
32.07067
 51
42.5
  0
ARC
  5
BCDB
  8
ALPHA
 10
155.412166
 20
115.879215
 30
0.0
 40
1.0
 50
25.331225
 51
120.0
  0
LINE
  5
BCDC
  8
ALPHA
 10
154.292643
 20
118.764986
 30
0.0
 11
154.231357
 21
119.303972
 31
0.0
  0
LINE
  5
BCDD
  8
ALPHA
 10
153.510897
 20
118.944087
 30
0.0
 11
154.292643
 21
118.764986
 31
0.0
  0
LINE
  5
BCDE
  8
ALPHA
 10
154.292643
 20
118.764986
 30
0.0
 11
154.008198
 21
118.310959
 31
0.0
  0
ARC
  5
BCDF
  8
ALPHA
 10
153.662166
 20
118.910304
 30
0.0
 40
1.0
 50
300.0
 51
34.668775
  0
LINE
  5
BCE0
  8
ALPHA
 10
154.162166
 20
118.044279
 30
0.0
 11
154.008198
 21
118.310959
 31
0.0
  0
LINE
  5
BCE1
  8
ALPHA
 10
154.912166
 20
116.745241
 30
0.0
 11
155.066134
 21
116.47856
 31
0.0
  0
LINE
  5
BCE2
  8
ALPHA
 10
154.48462
 20
119.479135
 30
0.0
 11
154.231357
 21
119.303972
 31
0.0
  0
LINE
  5
BCE3
  8
ALPHA
 10
153.674058
 20
122.894594
 30
0.0
 11
153.231691
 21
122.48924
 31
0.0
  0
LINE
  5
BCE4
  8
ALPHA
 10
155.601555
 20
116.497883
 30
0.0
 11
156.037688
 21
116.175315
 31
0.0
  0
ARC
  5
BCE5
  8
ALPHA
 10
156.244396
 20
118.380429
 30
0.0
 40
0.2
 50
165.0
 51
255.0
  0
LINE
  5
BCE6
  8
ALPHA
 10
156.192632
 20
118.187244
 30
0.0
 11
157.184025
 21
117.921601
 31
0.0
  0
LINE
  5
BCE7
  8
ALPHA
 10
156.316854
 20
119.423586
 30
0.0
 11
156.051211
 21
118.432193
 31
0.0
  0
LINE
  5
BCE8
  8
ALPHA
 10
156.316016
 20
116.307066
 30
0.0
 11
156.037688
 21
116.175315
 31
0.0
  0
LINE
  5
C4B8
  8
AXE
 10
105.979402
 20
106.680429
 30
0.0
 11
170.979402
 21
106.680429
 31
0.0
  0
TEXT
  5
C4B9
  8
AXE
 10
166.931783
 20
107.680429
 30
0.0
 40
5.0
  1
X
 72
     2
 11
170.979402
 21
107.680429
 31
0.0
  0
LINE
  5
C4BA
  8
AXE
 10
135.979402
 20
1.180429
 30
0.0
 11
135.979402
 21
136.680429
 31
0.0
  0
DIMENSION
  5
C4BC
  8
COTATION1
  2
*D4
 10
181.159402
 20
11.180429
 30
0.0
 11
181.159402
 21
71.430429
 31
0.0
 13
135.979402
 23
131.680429
 33
0.0
 14
138.479402
 24
11.180429
 34
0.0
 50
90.0
  0
DIMENSION
  5
C4BD
  8
COTATION1
  2
*D3
 10
160.979402
 20
146.680429
 30
0.0
 11
135.979402
 21
149.930429
 31
0.0
  1
%%c<>
 13
110.979402
 23
106.680429
 33
0.0
 14
160.979402
 24
106.680429
 34
0.0
  0
LINE
  5
C4BE
  8
AXE
 10
125.803512
 20
71.680429
 30
0.0
 11
146.155291
 21
71.680429
 31
0.0
  0
TEXT
  5
C4F6
  8
AXE
 10
130.931783
 20
1.180429
 30
0.0
 40
5.0
  1
Y
 72
     2
 11
134.979402
 21
1.180429
 31
0.0
  0
VIEWPORT
  5
494D
 67
     1
  8
0
 10
4.995325
 20
6.556512
 30
0.0
 40
22.70986
 41
13.988421
 68
    -1
 69
     1
1001
ACAD
1000
MVIEW
1002
{
1070
    16
1010
0.0
1020
0.0
1030
0.0
1010
0.0
1020
0.0
1030
1.0
1040
0.0
1040
13.988421
1040
4.995325
1040
6.556512
1040
50.0
1040
0.0
1040
0.0
1070
     0
1070
   100
1070
     1
1070
     1
1070
     0
1070
     0
1070
     0
1070
     0
1040
0.0
1040
0.0
1040
0.0
1040
10.0
1040
10.0
1040
10.0
1040
10.0
1070
     0
1002
{
1002
}
1002
}
  0
ENDSEC
  0
EOF
