  0
SECTION
  2
HEADER
  9
$ACADVER
  1
AC1009
  9
$INSBASE
 10
402.590624
 20
-1.041018
 30
0.0
  9
$EXTMIN
 10
78.291104
 20
9.371229
 30
0.0
  9
$EXTMAX
 10
126.840152
 20
81.271229
 30
0.0
  9
$LIMMIN
 10
-407.970438
 20
-367.832444
  9
$LIMMAX
 10
429.804077
 20
234.370848
  9
$ORTHOMODE
 70
     0
  9
$REGENMODE
 70
     1
  9
$FILLMODE
 70
     1
  9
$QTEXTMODE
 70
     0
  9
$MIRRTEXT
 70
     1
  9
$DRAGMODE
 70
     2
  9
$LTSCALE
 40
10.0
  9
$OSMODE
 70
    35
  9
$ATTMODE
 70
     1
  9
$TEXTSIZE
 40
6.0
  9
$TRACEWID
 40
1.0
  9
$TEXTSTYLE
  7
ROMANS
  9
$CLAYER
  8
ALPHA
  9
$CELTYPE
  6
BYLAYER
  9
$CECOLOR
 62
   256
  9
$DIMSCALE
 40
1.0
  9
$DIMASZ
 40
5.0
  9
$DIMEXO
 40
2.0
  9
$DIMDLI
 40
0.38
  9
$DIMRND
 40
0.0
  9
$DIMDLE
 40
0.0
  9
$DIMEXE
 40
2.5
  9
$DIMTP
 40
0.0
  9
$DIMTM
 40
0.0
  9
$DIMTXT
 40
2.5
  9
$DIMCEN
 40
0.0
  9
$DIMTSZ
 40
0.0
  9
$DIMTOL
 70
     0
  9
$DIMLIM
 70
     0
  9
$DIMTIH
 70
     1
  9
$DIMTOH
 70
     1
  9
$DIMSE1
 70
     0
  9
$DIMSE2
 70
     0
  9
$DIMTAD
 70
     1
  9
$DIMZIN
 70
    12
  9
$DIMBLK
  1
OPEN30
  9
$DIMASO
 70
     1
  9
$DIMSHO
 70
     1
  9
$DIMPOST
  1

  9
$DIMAPOST
  1

  9
$DIMALT
 70
     0
  9
$DIMALTD
 70
     2
  9
$DIMALTF
 40
25.4
  9
$DIMLFAC
 40
1.0
  9
$DIMTOFL
 70
     0
  9
$DIMTVP
 40
0.0
  9
$DIMTIX
 70
     0
  9
$DIMSOXD
 70
     0
  9
$DIMSAH
 70
     0
  9
$DIMBLK1
  1

  9
$DIMBLK2
  1

  9
$DIMSTYLE
  2
SC_DEFAUT
  9
$DIMCLRD
 70
     0
  9
$DIMCLRE
 70
     0
  9
$DIMCLRT
 70
     0
  9
$DIMTFAC
 40
1.0
  9
$DIMGAP
 40
2.0
  9
$LUNITS
 70
     2
  9
$LUPREC
 70
     1
  9
$SKETCHINC
 40
0.1
  9
$FILLETRAD
 40
0.0
  9
$AUNITS
 70
     0
  9
$AUPREC
 70
     0
  9
$MENU
  1
acad
  9
$ELEVATION
 40
0.0
  9
$PELEVATION
 40
0.0
  9
$THICKNESS
 40
0.0
  9
$LIMCHECK
 70
     0
  9
$BLIPMODE
 70
     0
  9
$CHAMFERA
 40
0.0
  9
$CHAMFERB
 40
0.0
  9
$SKPOLY
 70
     0
  9
$TDCREATE
 40
2450373.687919
  9
$TDUPDATE
 40
2453032.635337
  9
$TDINDWG
 40
1.053893
  9
$TDUSRTIMER
 40
1.053893
  9
$USRTIMER
 70
     1
  9
$ANGBASE
 50
0.0
  9
$ANGDIR
 70
     0
  9
$PDMODE
 70
    32
  9
$PDSIZE
 40
0.0
  9
$PLINEWID
 40
0.0
  9
$COORDS
 70
     1
  9
$SPLFRAME
 70
     0
  9
$SPLINETYPE
 70
     6
  9
$SPLINESEGS
 70
     8
  9
$ATTDIA
 70
     0
  9
$ATTREQ
 70
     1
  9
$HANDLING
 70
     1
  9
$HANDSEED
  5
A0B7
  9
$SURFTAB1
 70
     6
  9
$SURFTAB2
 70
     6
  9
$SURFTYPE
 70
     6
  9
$SURFU
 70
     6
  9
$SURFV
 70
     6
  9
$UCSNAME
  2

  9
$UCSORG
 10
0.0
 20
0.0
 30
0.0
  9
$UCSXDIR
 10
1.0
 20
0.0
 30
0.0
  9
$UCSYDIR
 10
0.0
 20
1.0
 30
0.0
  9
$PUCSNAME
  2

  9
$PUCSORG
 10
0.0
 20
0.0
 30
0.0
  9
$PUCSXDIR
 10
1.0
 20
0.0
 30
0.0
  9
$PUCSYDIR
 10
0.0
 20
1.0
 30
0.0
  9
$USERI1
 70
     0
  9
$USERI2
 70
     0
  9
$USERI3
 70
     0
  9
$USERI4
 70
     0
  9
$USERI5
 70
     0
  9
$USERR1
 40
0.0
  9
$USERR2
 40
0.0
  9
$USERR3
 40
0.0
  9
$USERR4
 40
0.0
  9
$USERR5
 40
0.0
  9
$WORLDVIEW
 70
     1
  9
$SHADEDGE
 70
     3
  9
$SHADEDIF
 70
    70
  9
$TILEMODE
 70
     1
  9
$MAXACTVP
 70
    16
  9
$PLIMCHECK
 70
     0
  9
$PEXTMIN
 10
-1.452248
 20
-0.437698
 30
0.0
  9
$PEXTMAX
 10
12.749749
 20
8.310198
 30
0.0
  9
$PLIMMIN
 10
0.0
 20
0.0
  9
$PLIMMAX
 10
12.0
 20
9.0
  9
$UNITMODE
 70
     0
  9
$VISRETAIN
 70
     0
  9
$PLINEGEN
 70
     0
  9
$PSLTSCALE
 70
     0
  0
ENDSEC
  0
SECTION
  2
TABLES
  0
TABLE
  2
VPORT
 70
     2
  0
VPORT
  2
*ACTIVE
 70
     0
 10
0.0
 20
0.0
 11
1.0
 21
1.0
 12
102.573976
 22
45.327754
 13
0.0
 23
0.0
 14
1.0
 24
1.0
 15
10.0
 25
10.0
 16
0.0
 26
0.0
 36
1.0
 17
0.0
 27
0.0
 37
0.0
 40
72.467272
 41
1.466346
 42
50.0
 43
0.0
 44
0.0
 50
0.0
 51
0.0
 71
     0
 72
   100
 73
     1
 74
     0
 75
     0
 76
     0
 77
     0
 78
     0
  0
ENDTAB
  0
TABLE
  2
LTYPE
 70
     2
  0
LTYPE
  2
CONTINUOUS
 70
     0
  3
Solid line
 72
    65
 73
     0
 40
0.0
  0
LTYPE
  2
AXES2
 70
     0
  3
___ _ ___ _ ___ _ ___ _ ___ _ ___ _ ___ _ ___ _
 72
    65
 73
     4
 40
1.125
 49
0.75
 49
-0.125
 49
0.125
 49
-0.125
  0
ENDTAB
  0
TABLE
  2
LAYER
 70
     5
  0
LAYER
  2
0
 70
     0
 62
   255
  6
CONTINUOUS
  0
LAYER
  2
COTATION1
 70
     0
 62
     2
  6
CONTINUOUS
  0
LAYER
  2
AXE
 70
     0
 62
    80
  6
AXES2
  0
LAYER
  2
DEFPOINTS
 70
     0
 62
     7
  6
CONTINUOUS
  0
LAYER
  2
ALPHA
 70
     0
 62
   254
  6
CONTINUOUS
  0
ENDTAB
  0
TABLE
  2
STYLE
 70
     2
  0
STYLE
  2
ROMANS
 70
     0
 40
0.0
 41
1.0
 50
0.0
 71
     0
 42
6.0
  3
romans
  4

  0
STYLE
  2
STANDARD
 70
     0
 40
0.0
 41
1.0
 50
0.0
 71
     0
 42
0.2
  3
txt
  4

  0
ENDTAB
  0
TABLE
  2
VIEW
 70
     0
  0
ENDTAB
  0
TABLE
  2
UCS
 70
     0
  0
ENDTAB
  0
TABLE
  2
APPID
 70
     2
  0
APPID
  2
ACAD
 70
     0
  0
APPID
  2
CONTENTBLOCKICON
 70
     0
  0
ENDTAB
  0
TABLE
  2
DIMSTYLE
 70
     2
  0
DIMSTYLE
  2
SC_DEFAUT
 70
     0
  3

  4

  5
OPEN30
  6

  7

 40
1.0
 41
5.0
 42
2.0
 43
0.38
 44
2.5
 45
0.0
 46
0.0
 47
0.0
 48
0.0
140
2.5
141
0.0
142
0.0
143
25.4
144
1.0
145
0.0
146
1.0
147
2.0
 71
     0
 72
     0
 73
     1
 74
     1
 75
     0
 76
     0
 77
     1
 78
    12
170
     0
171
     2
172
     0
173
     0
174
     0
175
     0
176
     0
177
     0
178
     0
  0
DIMSTYLE
  2
STANDARD
 70
     0
  3

  4

  5

  6

  7

 40
1.0
 41
0.18
 42
0.0625
 43
0.38
 44
0.18
 45
0.0
 46
0.0
 47
0.0
 48
0.0
140
0.18
141
0.09
142
0.0
143
25.4
144
1.0
145
0.0
146
1.0
147
0.09
 71
     0
 72
     0
 73
     1
 74
     1
 75
     0
 76
     0
 77
     0
 78
     0
170
     0
171
     2
172
     0
173
     0
174
     0
175
     0
176
     0
177
     0
178
     0
  0
ENDTAB
  0
ENDSEC
  0
SECTION
  2
BLOCKS
  0
BLOCK
  8
0
  2
$MODEL_SPACE
 70
     0
 10
0.0
 20
0.0
 30
0.0
  3
$MODEL_SPACE
  1

  0
ENDBLK
  5
A0B0
  8
0
  0
BLOCK
 67
     1
  8
0
  2
$PAPER_SPACE
 70
     0
 10
0.0
 20
0.0
 30
0.0
  3
$PAPER_SPACE
  1

  0
ENDBLK
  5
A0AE
 67
     1
  8
0
  0
BLOCK
  8
0
  2
COTE
 70
     0
 10
0.0
 20
0.0
 30
0.0
  3
COTE
  1

  0
ENDBLK
  5
F
  8
0
  0
BLOCK
  8
0
  2
FOND
 70
     0
 10
0.0
 20
0.0
 30
0.0
  3
FOND
  1

  0
ENDBLK
  5
75
  8
0
  0
BLOCK
  8
0
  2
_OPEN30
 70
     0
 10
0.0
 20
0.0
 30
0.0
  3
_OPEN30
  1

  0
LINE
  5
4B05
  8
COTATION1
 62
     0
 10
-1.0
 20
0.267949
 30
0.0
 11
0.0
 21
0.0
 31
0.0
1001
ACAD
1000
RTLwPs
1070
   158
  0
LINE
  5
4B06
  8
COTATION1
 62
     0
 10
0.0
 20
0.0
 30
0.0
 11
-1.0
 21
-0.267949
 31
0.0
1001
ACAD
1000
RTLwPs
1070
   158
  0
LINE
  5
4B07
  8
COTATION1
 62
     0
 10
0.0
 20
0.0
 30
0.0
 11
-1.0
 21
0.0
 31
0.0
1001
ACAD
1000
RTLwPs
1070
   158
  0
ENDBLK
  5
4B09
  8
0
  0
BLOCK
  8
0
  2
*D3
 70
     1
 10
0.0
 20
0.0
 30
0.0
  3
*D3
  1

  0
LINE
  5
9FF5
  8
COTATION1
 62
     0
 10
83.266104
 20
54.271229
 30
0.0
 11
83.266104
 21
79.271229
 31
0.0
1001
ACAD
1000
RTLwPs
1070
   158
  0
LINE
  5
9FF6
  8
COTATION1
 62
     0
 10
102.316104
 20
54.271229
 30
0.0
 11
102.316104
 21
79.271229
 31
0.0
1001
ACAD
1000
RTLwPs
1070
   158
  0
LINE
  5
9FF7
  8
COTATION1
 62
     0
 10
88.266104
 20
76.771229
 30
0.0
 11
97.316104
 21
76.771229
 31
0.0
1001
ACAD
1000
RTLwPs
1070
   158
  0
INSERT
  5
9FF8
  8
COTATION1
 62
     0
  2
_OPEN30
 10
83.266104
 20
76.771229
 30
0.0
 41
5.0
 42
5.0
 43
5.0
 50
180.0
1001
ACAD
1000
RTLwPs
1070
   158
  0
INSERT
  5
9FF9
  8
COTATION1
 62
     0
  2
_OPEN30
 10
102.316104
 20
76.771229
 30
0.0
 41
5.0
 42
5.0
 43
5.0
1001
ACAD
1000
RTLwPs
1070
   158
  0
TEXT
  5
9FFA
  8
COTATION1
 62
     0
 10
89.457771
 20
78.771229
 30
0.0
 40
2.5
  1
%%c
1001
ACAD
1000
MTEXTBEGIN
1070
    73
1070
     1
1070
    44
1040
1.0
1070
    74
1070
     0
1000
MTEXTEND
  0
TEXT
  5
A080
  8
COTATION1
 62
     0
 10
91.719675
 20
78.771229
 30
0.0
 40
2.5
  1
19
1001
ACAD
1000
R13OBJECT
1002
{
1005
9FFA
1002
}
  0
POINT
  5
9FFB
  8
DEFPOINTS
 62
     0
 10
83.266104
 20
52.271229
 30
0.0
  0
POINT
  5
9FFC
  8
DEFPOINTS
 62
     0
 10
102.316104
 20
52.271229
 30
0.0
  0
POINT
  5
9FFD
  8
DEFPOINTS
 62
     0
 10
102.316104
 20
76.771229
 30
0.0
  0
ENDBLK
  5
97F8
  8
0
  0
BLOCK
  8
0
  2
*D4
 70
     1
 10
0.0
 20
0.0
 30
0.0
  3
*D4
  1

  0
LINE
  5
9FEB
  8
COTATION1
 62
     0
 10
94.791104
 20
61.771229
 30
0.0
 11
125.471104
 21
61.771229
 31
0.0
1001
ACAD
1000
RTLwPs
1070
   158
  0
LINE
  5
9FEC
  8
COTATION1
 62
     0
 10
94.791104
 20
19.371229
 30
0.0
 11
125.471104
 21
19.371229
 31
0.0
1001
ACAD
1000
RTLwPs
1070
   158
  0
LINE
  5
9FED
  8
COTATION1
 62
     0
 10
122.971104
 20
56.771229
 30
0.0
 11
122.971104
 21
43.821229
 31
0.0
1001
ACAD
1000
RTLwPs
1070
   158
  0
LINE
  5
9FEE
  8
COTATION1
 62
     0
 10
122.971104
 20
24.371229
 30
0.0
 11
122.971104
 21
37.321229
 31
0.0
1001
ACAD
1000
RTLwPs
1070
   158
  0
INSERT
  5
9FEF
  8
COTATION1
 62
     0
  2
_OPEN30
 10
122.971104
 20
61.771229
 30
0.0
 41
5.0
 42
5.0
 43
5.0
 50
90.0
1001
ACAD
1000
RTLwPs
1070
   158
  0
INSERT
  5
9FF0
  8
COTATION1
 62
     0
  2
_OPEN30
 10
122.971104
 20
19.371229
 30
0.0
 41
5.0
 42
5.0
 43
5.0
 50
270.0
1001
ACAD
1000
RTLwPs
1070
   158
  0
TEXT
  5
9FF1
  8
COTATION1
 62
     0
 10
118.744913
 20
39.321229
 30
0.0
 40
2.5
  1
42.4
1001
ACAD
1000
MTEXTBEGIN
1070
    73
1070
     1
1070
    44
1040
1.0
1070
    74
1070
     0
1000
MTEXTEND
  0
POINT
  5
9FF2
  8
DEFPOINTS
 62
     0
 10
92.791104
 20
61.771229
 30
0.0
  0
POINT
  5
9FF3
  8
DEFPOINTS
 62
     0
 10
92.791104
 20
19.371229
 30
0.0
  0
POINT
  5
9FF4
  8
DEFPOINTS
 62
     0
 10
122.971104
 20
19.371229
 30
0.0
  0
ENDBLK
  5
989A
  8
0
  0
ENDSEC
  0
SECTION
  2
ENTITIES
  0
INSERT
  5
A
  8
0
  2
COTE
 10
0.0
 20
0.0
 30
0.0
  0
INSERT
  5
17
  8
0
  2
COTE
 10
284.010391
 20
6.373258
 30
0.0
  0
INSERT
  5
72
  8
0
  2
FOND
 10
0.0
 20
0.0
 30
0.0
  0
LINE
  5
97AB
  8
AXE
 10
92.791104
 20
9.371229
 30
0.0
 11
92.791104
 21
66.771229
 31
0.0
  0
TEXT
  5
97AC
  8
AXE
 10
87.743485
 20
9.371229
 30
0.0
 40
5.0
  1
Y
 72
     2
 11
91.791104
 21
9.371229
 31
0.0
  0
TEXT
  5
97AF
  8
AXE
 10
108.923485
 20
53.271229
 30
0.0
 40
5.0
  1
X
 72
     2
 11
112.971104
 21
53.271229
 31
0.0
  0
LINE
  5
97B0
  8
AXE
 10
78.291104
 20
52.271229
 30
0.0
 11
112.971104
 21
52.271229
 31
0.0
  0
DIMENSION
  5
97EC
  8
COTATION1
  2
*D3
 10
102.316104
 20
76.771229
 30
0.0
 11
92.791104
 21
80.021229
 31
0.0
  1
%%c<>
 13
83.266104
 23
52.271229
 33
0.0
 14
102.316104
 24
52.271229
 34
0.0
  0
DIMENSION
  5
988B
  8
COTATION1
  2
*D4
 10
122.971104
 20
19.371229
 30
0.0
 11
122.971104
 21
40.571229
 31
0.0
 13
92.791104
 23
61.771229
 33
0.0
 14
92.791104
 24
19.371229
 34
0.0
 50
90.0
  0
LINE
  5
98A5
  8
AXE
 10
82.615215
 20
27.371229
 30
0.0
 11
102.966993
 21
27.371229
 31
0.0
  0
CIRCLE
  5
9EC4
  8
ALPHA
 10
92.791104
 20
52.271229
 30
0.0
 40
9.525
  0
CIRCLE
  5
9EC5
  8
ALPHA
 10
92.791104
 20
52.271229
 30
0.0
 40
4.15
  0
CIRCLE
  5
9EC6
  8
ALPHA
 10
92.791104
 20
52.271229
 30
0.0
 40
4.25
  0
ARC
  5
9EC7
  8
ALPHA
 10
95.735217
 20
31.25682
 30
0.0
 40
0.3
 50
52.848784
 51
137.0
  0
ARC
  5
9EC8
  8
ALPHA
 10
95.735217
 20
23.485637
 30
0.0
 40
0.3
 50
223.0
 51
307.151216
  0
LINE
  5
9EC9
  8
ALPHA
 10
95.212002
 20
23.606833
 30
0.0
 11
95.515811
 21
23.281038
 31
0.0
  0
LINE
  5
9ECA
  8
ALPHA
 10
95.515811
 20
31.46142
 30
0.0
 11
95.212002
 21
31.135624
 31
0.0
  0
LINE
  5
9ECB
  8
ALPHA
 10
95.916394
 20
23.246524
 30
0.0
 11
94.800558
 21
22.602296
 31
0.0
  0
LINE
  5
9ECC
  8
ALPHA
 10
94.800558
 20
32.140161
 30
0.0
 11
95.916394
 21
31.495933
 31
0.0
  0
LINE
  5
9ECD
  8
ALPHA
 10
99.250717
 20
39.499065
 30
0.0
 11
86.331491
 21
39.499065
 31
0.0
  0
LINE
  5
9ECE
  8
ALPHA
 10
99.203718
 20
39.806896
 30
0.0
 11
86.37849
 21
39.806896
 31
0.0
  0
ARC
  5
9ECF
  8
ALPHA
 10
92.791104
 20
27.371229
 30
0.0
 40
8.0
 50
172.86594
 51
7.13406
  0
LINE
  5
9ED0
  8
ALPHA
 10
86.246611
 20
39.499065
 30
0.0
 11
84.853038
 21
28.364759
 31
0.0
  0
LINE
  5
9ED1
  8
ALPHA
 10
86.331491
 20
39.499065
 30
0.0
 11
84.853038
 21
28.364759
 31
0.0
  0
ARC
  5
9ED2
  8
ALPHA
 10
94.684068
 20
31.863701
 30
0.0
 40
0.3
 50
343.0
 51
67.151216
  0
ARC
  5
9ED3
  8
ALPHA
 10
92.791104
 20
27.371229
 30
0.0
 40
5.175
 50
67.151216
 51
82.848784
  0
LINE
  5
9ED4
  8
ALPHA
 10
92.576742
 20
31.841739
 30
0.0
 11
92.476534
 21
32.275792
 31
0.0
  0
LINE
  5
9ED5
  8
ALPHA
 10
93.105674
 20
32.275792
 30
0.0
 11
93.005465
 21
31.841739
 31
0.0
  0
ARC
  5
9ED6
  8
ALPHA
 10
92.184223
 20
32.208306
 30
0.0
 40
0.3
 50
13.0
 51
97.151216
  0
LINE
  5
9ED7
  8
ALPHA
 10
92.146876
 20
32.505973
 30
0.0
 11
92.791104
 21
32.546229
 31
0.0
  0
ARC
  5
9ED8
  8
ALPHA
 10
93.397985
 20
32.208306
 30
0.0
 40
0.3
 50
82.848784
 51
167.0
  0
LINE
  5
9ED9
  8
ALPHA
 10
92.791104
 20
32.546229
 30
0.0
 11
93.435332
 21
32.505973
 31
0.0
  0
ARC
  5
9EDA
  8
ALPHA
 10
95.051104
 20
31.285663
 30
0.0
 40
0.22
 50
163.0
 51
317.0
  0
LINE
  5
9EDB
  8
ALPHA
 10
94.97096
 20
22.966467
 30
0.0
 11
94.840717
 21
23.392472
 31
0.0
  0
ARC
  5
9EDC
  8
ALPHA
 10
95.051104
 20
23.456794
 30
0.0
 40
0.22
 50
43.0
 51
197.0
  0
ARC
  5
9EDD
  8
ALPHA
 10
94.684068
 20
22.878756
 30
0.0
 40
0.3
 50
292.848784
 51
17.0
  0
ARC
  5
9EDE
  8
ALPHA
 10
92.791104
 20
27.371229
 30
0.0
 40
5.175
 50
277.151216
 51
292.848784
  0
LINE
  5
9EDF
  8
ALPHA
 10
93.005465
 20
22.900718
 30
0.0
 11
93.105674
 21
22.466666
 31
0.0
  0
LINE
  5
9EE0
  8
ALPHA
 10
92.476534
 20
22.466666
 30
0.0
 11
92.576742
 21
22.900718
 31
0.0
  0
ARC
  5
9EE1
  8
ALPHA
 10
92.791104
 20
22.851229
 30
0.0
 40
0.22
 50
13.0
 51
167.0
  0
ARC
  5
9EE2
  8
ALPHA
 10
92.184223
 20
22.534151
 30
0.0
 40
0.3
 50
262.848784
 51
347.0
  0
LINE
  5
9EE3
  8
ALPHA
 10
92.791104
 20
22.196229
 30
0.0
 11
92.146876
 21
22.236485
 31
0.0
  0
ARC
  5
9EE4
  8
ALPHA
 10
93.397985
 20
22.534151
 30
0.0
 40
0.3
 50
193.0
 51
277.151216
  0
LINE
  5
9EE5
  8
ALPHA
 10
93.435332
 20
22.236485
 30
0.0
 11
92.791104
 21
22.196229
 31
0.0
  0
LINE
  5
9EE6
  8
ALPHA
 10
94.840717
 20
31.349985
 30
0.0
 11
94.97096
 21
31.77599
 31
0.0
  0
ARC
  5
9EE7
  8
ALPHA
 10
92.791104
 20
31.891229
 30
0.0
 40
0.22
 50
193.0
 51
347.0
  0
ARC
  5
9EE8
  8
ALPHA
 10
90.89814
 20
31.863701
 30
0.0
 40
0.3
 50
112.848784
 51
197.0
  0
LINE
  5
9EE9
  8
ALPHA
 10
90.370206
 20
31.135624
 30
0.0
 11
90.066397
 21
31.46142
 31
0.0
  0
ARC
  5
9EEA
  8
ALPHA
 10
89.84699
 20
31.25682
 30
0.0
 40
0.3
 50
43.0
 51
127.151216
  0
ARC
  5
9EEB
  8
ALPHA
 10
90.531104
 20
31.285663
 30
0.0
 40
0.22
 50
223.0
 51
17.0
  0
LINE
  5
9EEC
  8
ALPHA
 10
87.886541
 20
27.685799
 30
0.0
 11
88.320593
 21
27.58559
 31
0.0
  0
LINE
  5
9EED
  8
ALPHA
 10
88.320593
 20
27.156867
 30
0.0
 11
87.886541
 21
27.056658
 31
0.0
  0
LINE
  5
9EEE
  8
ALPHA
 10
88.812347
 20
29.420842
 30
0.0
 11
88.386343
 21
29.551084
 31
0.0
  0
LINE
  5
9EEF
  8
ALPHA
 10
88.700913
 20
30.095936
 30
0.0
 11
89.026709
 21
29.792126
 31
0.0
  0
ARC
  5
9EF0
  8
ALPHA
 10
88.298631
 20
29.264193
 30
0.0
 40
0.3
 50
73.0
 51
157.151216
  0
ARC
  5
9EF1
  8
ALPHA
 10
88.876669
 20
29.631229
 30
0.0
 40
0.22
 50
253.0
 51
47.0
  0
ARC
  5
9EF2
  8
ALPHA
 10
88.905512
 20
30.315342
 30
0.0
 40
0.3
 50
142.848784
 51
227.0
  0
ARC
  5
9EF3
  8
ALPHA
 10
87.954026
 20
26.764347
 30
0.0
 40
0.3
 50
103.0
 51
187.151216
  0
ARC
  5
9EF4
  8
ALPHA
 10
88.271104
 20
27.371229
 30
0.0
 40
0.22
 50
283.0
 51
77.0
  0
ARC
  5
9EF5
  8
ALPHA
 10
87.954026
 20
27.97811
 30
0.0
 40
0.3
 50
172.848784
 51
257.0
  0
ARC
  5
9EF6
  8
ALPHA
 10
92.791104
 20
27.371229
 30
0.0
 40
5.175
 50
157.151216
 51
172.848784
  0
LINE
  5
9EF7
  8
ALPHA
 10
88.022171
 20
29.380683
 30
0.0
 11
88.666399
 21
30.496518
 31
0.0
  0
LINE
  5
9EF8
  8
ALPHA
 10
87.65636
 20
26.727001
 30
0.0
 11
87.65636
 21
28.015456
 31
0.0
  0
ARC
  5
9EF9
  8
ALPHA
 10
92.791104
 20
27.371229
 30
0.0
 40
5.175
 50
127.151216
 51
142.848784
  0
LINE
  5
9EFA
  8
ALPHA
 10
90.741491
 20
23.392472
 30
0.0
 11
90.611248
 21
22.966467
 31
0.0
  0
LINE
  5
9EFB
  8
ALPHA
 10
90.066397
 20
23.281038
 30
0.0
 11
90.370206
 21
23.606833
 31
0.0
  0
ARC
  5
9EFC
  8
ALPHA
 10
90.89814
 20
22.878756
 30
0.0
 40
0.3
 50
163.0
 51
247.151216
  0
ARC
  5
9EFD
  8
ALPHA
 10
90.531104
 20
23.456794
 30
0.0
 40
0.22
 50
343.0
 51
137.0
  0
ARC
  5
9EFE
  8
ALPHA
 10
89.84699
 20
23.485637
 30
0.0
 40
0.3
 50
232.848784
 51
317.0
  0
LINE
  5
9EFF
  8
ALPHA
 10
90.78165
 20
22.602296
 30
0.0
 11
89.665814
 21
23.246524
 31
0.0
  0
LINE
  5
9F00
  8
ALPHA
 10
89.026709
 20
24.950331
 30
0.0
 11
88.700913
 21
24.646521
 31
0.0
  0
LINE
  5
9F01
  8
ALPHA
 10
88.386343
 20
25.191373
 30
0.0
 11
88.812347
 21
25.321616
 31
0.0
  0
ARC
  5
9F02
  8
ALPHA
 10
88.905512
 20
24.427115
 30
0.0
 40
0.3
 50
133.0
 51
217.151216
  0
ARC
  5
9F03
  8
ALPHA
 10
88.876669
 20
25.111229
 30
0.0
 40
0.22
 50
313.0
 51
107.0
  0
ARC
  5
9F04
  8
ALPHA
 10
88.298631
 20
25.478264
 30
0.0
 40
0.3
 50
202.848784
 51
287.0
  0
LINE
  5
9F05
  8
ALPHA
 10
88.666399
 20
24.245939
 30
0.0
 11
88.022171
 21
25.361774
 31
0.0
  0
ARC
  5
9F06
  8
ALPHA
 10
92.791104
 20
27.371229
 30
0.0
 40
5.175
 50
217.151216
 51
232.848784
  0
ARC
  5
9F07
  8
ALPHA
 10
92.791104
 20
27.371229
 30
0.0
 40
5.175
 50
187.151216
 51
202.848784
  0
LINE
  5
9F08
  8
ALPHA
 10
90.611248
 20
31.77599
 30
0.0
 11
90.741491
 21
31.349985
 31
0.0
  0
LINE
  5
9F09
  8
ALPHA
 10
89.665814
 20
31.495933
 30
0.0
 11
90.78165
 21
32.140161
 31
0.0
  0
ARC
  5
9F0A
  8
ALPHA
 10
92.791104
 20
27.371229
 30
0.0
 40
5.175
 50
97.151216
 51
112.848784
  0
ARC
  5
9F0B
  8
ALPHA
 10
92.791104
 20
27.371229
 30
0.0
 40
5.175
 50
247.151216
 51
262.848784
  0
LINE
  5
9F0C
  8
ALPHA
 10
87.157363
 20
44.18433
 30
0.0
 11
87.786181
 21
44.18433
 31
0.0
  0
LINE
  5
9F0D
  8
ALPHA
 10
87.157363
 20
44.604462
 30
0.0
 11
87.157363
 21
44.18433
 31
0.0
  0
LINE
  5
9F0E
  8
ALPHA
 10
87.157363
 20
44.18433
 30
0.0
 11
87.176397
 21
44.59179
 31
0.0
  0
LINE
  5
9F0F
  8
ALPHA
 10
86.354351
 20
39.661849
 30
0.0
 11
86.354351
 21
40.312985
 31
0.0
  0
LINE
  5
9F10
  8
ALPHA
 10
86.354351
 20
40.312985
 30
0.0
 11
86.246611
 21
39.499065
 31
0.0
  0
LINE
  5
9F11
  8
ALPHA
 10
86.462091
 20
41.038218
 30
0.0
 11
86.354351
 21
40.312985
 31
0.0
  0
LINE
  5
9F12
  8
ALPHA
 10
86.354351
 20
39.661849
 30
0.0
 11
86.37849
 21
39.806896
 31
0.0
  0
LINE
  5
9F13
  8
ALPHA
 10
86.331491
 20
39.499065
 30
0.0
 11
86.354351
 21
39.661849
 31
0.0
  0
LINE
  5
9F14
  8
ALPHA
 10
86.462091
 20
41.038218
 30
0.0
 11
87.040881
 21
44.682287
 31
0.0
  0
LINE
  5
9F15
  8
ALPHA
 10
86.37849
 20
39.806896
 30
0.0
 11
87.157363
 21
44.18433
 31
0.0
  0
LINE
  5
9F16
  8
ALPHA
 10
93.091104
 20
34.371229
 30
0.0
 11
92.491104
 21
34.371229
 31
0.0
  0
LINE
  5
9F17
  8
ALPHA
 10
93.091104
 20
37.371229
 30
0.0
 11
92.491104
 21
37.371229
 31
0.0
  0
LINE
  5
9F18
  8
ALPHA
 10
92.491104
 20
37.371229
 30
0.0
 11
92.491104
 21
34.371229
 31
0.0
  0
LINE
  5
9F19
  8
ALPHA
 10
92.791104
 20
34.371229
 30
0.0
 11
92.791104
 21
37.371229
 31
0.0
  0
LINE
  5
9F1A
  8
ALPHA
 10
93.091104
 20
37.371229
 30
0.0
 11
93.091104
 21
34.371229
 31
0.0
  0
CIRCLE
  5
9F1B
  8
ALPHA
 10
92.791104
 20
52.271229
 30
0.0
 40
1.0
  0
LINE
  5
9F1C
  8
ALPHA
 10
93.889935
 20
48.170337
 30
0.0
 11
93.863681
 21
48.268316
 31
0.0
  0
LINE
  5
9F1D
  8
ALPHA
 10
91.718527
 20
48.268316
 30
0.0
 11
91.692273
 21
48.170337
 31
0.0
  0
LINE
  5
9F1E
  8
ALPHA
 10
89.864088
 20
55.198245
 30
0.0
 11
89.793604
 21
55.268729
 31
0.0
  0
LINE
  5
9F1F
  8
ALPHA
 10
88.699552
 20
53.367557
 30
0.0
 11
88.788191
 21
53.343806
 31
0.0
  0
LINE
  5
9F20
  8
ALPHA
 10
99.250717
 20
39.499065
 30
0.0
 11
100.72917
 21
28.364759
 31
0.0
  0
LINE
  5
9F21
  8
ALPHA
 10
99.335597
 20
39.499065
 30
0.0
 11
100.72917
 21
28.364759
 31
0.0
  0
ARC
  5
9F22
  8
ALPHA
 10
97.628182
 20
27.97811
 30
0.0
 40
0.3
 50
283.0
 51
7.151216
  0
ARC
  5
9F23
  8
ALPHA
 10
97.628182
 20
26.764347
 30
0.0
 40
0.3
 50
352.848784
 51
77.0
  0
ARC
  5
9F24
  8
ALPHA
 10
92.791104
 20
27.371229
 30
0.0
 40
5.175
 50
7.151216
 51
22.848784
  0
LINE
  5
9F25
  8
ALPHA
 10
97.925848
 20
28.015456
 30
0.0
 11
97.925848
 21
26.727001
 31
0.0
  0
LINE
  5
9F26
  8
ALPHA
 10
96.555499
 20
29.792126
 30
0.0
 11
96.881295
 21
30.095936
 31
0.0
  0
LINE
  5
9F27
  8
ALPHA
 10
97.195865
 20
29.551084
 30
0.0
 11
96.769861
 21
29.420842
 31
0.0
  0
ARC
  5
9F28
  8
ALPHA
 10
97.311104
 20
27.371229
 30
0.0
 40
0.22
 50
103.0
 51
257.0
  0
ARC
  5
9F29
  8
ALPHA
 10
96.676695
 20
30.315342
 30
0.0
 40
0.3
 50
313.0
 51
37.151216
  0
ARC
  5
9F2A
  8
ALPHA
 10
96.705539
 20
29.631229
 30
0.0
 40
0.22
 50
133.0
 51
287.0
  0
ARC
  5
9F2B
  8
ALPHA
 10
92.791104
 20
27.371229
 30
0.0
 40
5.175
 50
37.151216
 51
52.848784
  0
LINE
  5
9F2C
  8
ALPHA
 10
97.261615
 20
27.58559
 30
0.0
 11
97.695667
 21
27.685799
 31
0.0
  0
LINE
  5
9F2D
  8
ALPHA
 10
97.695667
 20
27.056658
 30
0.0
 11
97.261615
 21
27.156867
 31
0.0
  0
ARC
  5
9F2E
  8
ALPHA
 10
97.283577
 20
29.264193
 30
0.0
 40
0.3
 50
22.848784
 51
107.0
  0
LINE
  5
9F2F
  8
ALPHA
 10
96.915809
 20
30.496518
 30
0.0
 11
97.560037
 21
29.380683
 31
0.0
  0
LINE
  5
9F30
  8
ALPHA
 10
96.769861
 20
25.321616
 30
0.0
 11
97.195865
 21
25.191373
 31
0.0
  0
LINE
  5
9F31
  8
ALPHA
 10
96.881295
 20
24.646521
 30
0.0
 11
96.555499
 21
24.950331
 31
0.0
  0
ARC
  5
9F32
  8
ALPHA
 10
96.705539
 20
25.111229
 30
0.0
 40
0.22
 50
73.0
 51
227.0
  0
ARC
  5
9F33
  8
ALPHA
 10
96.676695
 20
24.427115
 30
0.0
 40
0.3
 50
322.848784
 51
47.0
  0
ARC
  5
9F34
  8
ALPHA
 10
92.791104
 20
27.371229
 30
0.0
 40
5.175
 50
307.151216
 51
322.848784
  0
ARC
  5
9F35
  8
ALPHA
 10
97.283577
 20
25.478264
 30
0.0
 40
0.3
 50
253.0
 51
337.151216
  0
LINE
  5
9F36
  8
ALPHA
 10
97.560037
 20
25.361774
 30
0.0
 11
96.915809
 21
24.245939
 31
0.0
  0
ARC
  5
9F37
  8
ALPHA
 10
92.791104
 20
27.371229
 30
0.0
 40
5.175
 50
337.151216
 51
352.848784
  0
LINE
  5
9F38
  8
ALPHA
 10
97.796027
 20
44.18433
 30
0.0
 11
98.424845
 21
44.18433
 31
0.0
  0
LINE
  5
9F39
  8
ALPHA
 10
98.424845
 20
44.604462
 30
0.0
 11
98.424845
 21
44.18433
 31
0.0
  0
LINE
  5
9F3A
  8
ALPHA
 10
98.424845
 20
44.18433
 30
0.0
 11
98.40581
 21
44.59179
 31
0.0
  0
LINE
  5
9F3B
  8
ALPHA
 10
99.227857
 20
39.661849
 30
0.0
 11
99.227857
 21
40.312985
 31
0.0
  0
LINE
  5
9F3C
  8
ALPHA
 10
99.227857
 20
40.312985
 30
0.0
 11
99.120116
 21
41.038218
 31
0.0
  0
LINE
  5
9F3D
  8
ALPHA
 10
99.335597
 20
39.499065
 30
0.0
 11
99.227857
 21
40.312985
 31
0.0
  0
LINE
  5
9F3E
  8
ALPHA
 10
99.227857
 20
39.661849
 30
0.0
 11
99.250717
 21
39.499065
 31
0.0
  0
LINE
  5
9F3F
  8
ALPHA
 10
99.203718
 20
39.806896
 30
0.0
 11
99.227857
 21
39.661849
 31
0.0
  0
LINE
  5
9F40
  8
ALPHA
 10
99.203718
 20
39.806896
 30
0.0
 11
98.424845
 21
44.18433
 31
0.0
  0
LINE
  5
9F41
  8
ALPHA
 10
99.120116
 20
41.038218
 30
0.0
 11
98.541326
 21
44.682287
 31
0.0
  0
LINE
  5
9F42
  8
ALPHA
 10
95.788604
 20
55.268729
 30
0.0
 11
95.71812
 21
55.198245
 31
0.0
  0
LINE
  5
9F43
  8
ALPHA
 10
96.794017
 20
53.343806
 30
0.0
 11
96.882656
 21
53.367557
 31
0.0
  0
VIEWPORT
  5
494D
 67
     1
  8
0
 10
4.995325
 20
6.556512
 30
0.0
 40
22.70986
 41
13.988421
 68
    -1
 69
     1
1001
ACAD
1000
MVIEW
1002
{
1070
    16
1010
0.0
1020
0.0
1030
0.0
1010
0.0
1020
0.0
1030
1.0
1040
0.0
1040
13.988421
1040
4.995325
1040
6.556512
1040
50.0
1040
0.0
1040
0.0
1070
     0
1070
   100
1070
     1
1070
     1
1070
     0
1070
     0
1070
     0
1070
     0
1040
0.0
1040
0.0
1040
0.0
1040
10.0
1040
10.0
1040
10.0
1040
10.0
1070
     0
1002
{
1002
}
1002
}
  0
ENDSEC
  0
EOF
