  0
SECTION
  2
HEADER
  9
$ACADVER
  1
AC1009
  9
$INSBASE
 10
402.590624
 20
-1.041018
 30
0.0
  9
$EXTMIN
 10
-8.044809
 20
-16.157891
 30
0.0
  9
$EXTMAX
 10
52.856899
 20
81.344032
 30
0.0
  9
$LIMMIN
 10
-407.970438
 20
-367.832444
  9
$LIMMAX
 10
429.804077
 20
234.370848
  9
$ORTHOMODE
 70
     1
  9
$REGENMODE
 70
     1
  9
$FILLMODE
 70
     1
  9
$QTEXTMODE
 70
     0
  9
$MIRRTEXT
 70
     1
  9
$DRAGMODE
 70
     2
  9
$LTSCALE
 40
10.0
  9
$OSMODE
 70
    35
  9
$ATTMODE
 70
     1
  9
$TEXTSIZE
 40
6.0
  9
$TRACEWID
 40
1.0
  9
$TEXTSTYLE
  7
ROMANS
  9
$CLAYER
  8
ALPHA
  9
$CELTYPE
  6
BYLAYER
  9
$CECOLOR
 62
   256
  9
$DIMSCALE
 40
1.0
  9
$DIMASZ
 40
5.0
  9
$DIMEXO
 40
2.0
  9
$DIMDLI
 40
0.38
  9
$DIMRND
 40
0.0
  9
$DIMDLE
 40
0.0
  9
$DIMEXE
 40
2.5
  9
$DIMTP
 40
0.0
  9
$DIMTM
 40
0.0
  9
$DIMTXT
 40
2.5
  9
$DIMCEN
 40
0.0
  9
$DIMTSZ
 40
0.0
  9
$DIMTOL
 70
     0
  9
$DIMLIM
 70
     0
  9
$DIMTIH
 70
     1
  9
$DIMTOH
 70
     1
  9
$DIMSE1
 70
     0
  9
$DIMSE2
 70
     0
  9
$DIMTAD
 70
     1
  9
$DIMZIN
 70
    12
  9
$DIMBLK
  1
OPEN30
  9
$DIMASO
 70
     1
  9
$DIMSHO
 70
     1
  9
$DIMPOST
  1

  9
$DIMAPOST
  1

  9
$DIMALT
 70
     0
  9
$DIMALTD
 70
     2
  9
$DIMALTF
 40
25.4
  9
$DIMLFAC
 40
1.0
  9
$DIMTOFL
 70
     0
  9
$DIMTVP
 40
0.0
  9
$DIMTIX
 70
     0
  9
$DIMSOXD
 70
     0
  9
$DIMSAH
 70
     0
  9
$DIMBLK1
  1

  9
$DIMBLK2
  1

  9
$DIMSTYLE
  2
SC_DEFAUT
  9
$DIMCLRD
 70
     0
  9
$DIMCLRE
 70
     0
  9
$DIMCLRT
 70
     0
  9
$DIMTFAC
 40
1.0
  9
$DIMGAP
 40
2.0
  9
$LUNITS
 70
     2
  9
$LUPREC
 70
     1
  9
$SKETCHINC
 40
0.1
  9
$FILLETRAD
 40
0.0
  9
$AUNITS
 70
     0
  9
$AUPREC
 70
     0
  9
$MENU
  1
acad
  9
$ELEVATION
 40
0.0
  9
$PELEVATION
 40
0.0
  9
$THICKNESS
 40
0.0
  9
$LIMCHECK
 70
     0
  9
$BLIPMODE
 70
     0
  9
$CHAMFERA
 40
0.0
  9
$CHAMFERB
 40
0.0
  9
$SKPOLY
 70
     0
  9
$TDCREATE
 40
2450373.687919
  9
$TDUPDATE
 40
2453035.667427
  9
$TDINDWG
 40
1.056855
  9
$TDUSRTIMER
 40
1.056855
  9
$USRTIMER
 70
     1
  9
$ANGBASE
 50
0.0
  9
$ANGDIR
 70
     0
  9
$PDMODE
 70
    32
  9
$PDSIZE
 40
0.0
  9
$PLINEWID
 40
0.0
  9
$COORDS
 70
     1
  9
$SPLFRAME
 70
     0
  9
$SPLINETYPE
 70
     6
  9
$SPLINESEGS
 70
     8
  9
$ATTDIA
 70
     0
  9
$ATTREQ
 70
     1
  9
$HANDLING
 70
     1
  9
$HANDSEED
  5
A30E
  9
$SURFTAB1
 70
     6
  9
$SURFTAB2
 70
     6
  9
$SURFTYPE
 70
     6
  9
$SURFU
 70
     6
  9
$SURFV
 70
     6
  9
$UCSNAME
  2

  9
$UCSORG
 10
0.0
 20
0.0
 30
0.0
  9
$UCSXDIR
 10
1.0
 20
0.0
 30
0.0
  9
$UCSYDIR
 10
0.0
 20
1.0
 30
0.0
  9
$PUCSNAME
  2

  9
$PUCSORG
 10
0.0
 20
0.0
 30
0.0
  9
$PUCSXDIR
 10
1.0
 20
0.0
 30
0.0
  9
$PUCSYDIR
 10
0.0
 20
1.0
 30
0.0
  9
$USERI1
 70
     0
  9
$USERI2
 70
     0
  9
$USERI3
 70
     0
  9
$USERI4
 70
     0
  9
$USERI5
 70
     0
  9
$USERR1
 40
0.0
  9
$USERR2
 40
0.0
  9
$USERR3
 40
0.0
  9
$USERR4
 40
0.0
  9
$USERR5
 40
0.0
  9
$WORLDVIEW
 70
     1
  9
$SHADEDGE
 70
     3
  9
$SHADEDIF
 70
    70
  9
$TILEMODE
 70
     1
  9
$MAXACTVP
 70
    16
  9
$PLIMCHECK
 70
     0
  9
$PEXTMIN
 10
-1.452248
 20
-0.437698
 30
0.0
  9
$PEXTMAX
 10
12.749749
 20
8.310198
 30
0.0
  9
$PLIMMIN
 10
0.0
 20
0.0
  9
$PLIMMAX
 10
12.0
 20
9.0
  9
$UNITMODE
 70
     0
  9
$VISRETAIN
 70
     0
  9
$PLINEGEN
 70
     0
  9
$PSLTSCALE
 70
     0
  0
ENDSEC
  0
SECTION
  2
TABLES
  0
TABLE
  2
VPORT
 70
     2
  0
VPORT
  2
*ACTIVE
 70
     0
 10
0.0
 20
0.0
 11
1.0
 21
1.0
 12
22.421904
 22
32.578165
 13
0.0
 23
0.0
 14
1.0
 24
1.0
 15
10.0
 25
10.0
 16
0.0
 26
0.0
 36
1.0
 17
0.0
 27
0.0
 37
0.0
 40
98.242668
 41
1.466346
 42
50.0
 43
0.0
 44
0.0
 50
0.0
 51
0.0
 71
     0
 72
   100
 73
     1
 74
     0
 75
     0
 76
     0
 77
     0
 78
     0
  0
ENDTAB
  0
TABLE
  2
LTYPE
 70
     3
  0
LTYPE
  2
CONTINUOUS
 70
     0
  3
Solid line
 72
    65
 73
     0
 40
0.0
  0
LTYPE
  2
AXES2
 70
     0
  3
___ _ ___ _ ___ _ ___ _ ___ _ ___ _ ___ _ ___ _
 72
    65
 73
     4
 40
1.125
 49
0.75
 49
-0.125
 49
0.125
 49
-0.125
  0
LTYPE
  2
CACHE2
 70
     0
  3
Caché (x.5) _ _ _ _ _ _ _ _ _ _ _ _ _ _ _ _ _
 72
    65
 73
     2
 40
0.1875
 49
0.125
 49
-0.0625
  0
ENDTAB
  0
TABLE
  2
LAYER
 70
     6
  0
LAYER
  2
0
 70
     0
 62
   255
  6
CONTINUOUS
  0
LAYER
  2
COTATION1
 70
     0
 62
     2
  6
CONTINUOUS
  0
LAYER
  2
AXE
 70
     0
 62
    80
  6
AXES2
  0
LAYER
  2
DEFPOINTS
 70
     0
 62
     7
  6
CONTINUOUS
  0
LAYER
  2
ALPHA
 70
     0
 62
   254
  6
CONTINUOUS
  0
LAYER
  2
POINTILLE_COURT
 70
     0
 62
    41
  6
CACHE2
  0
ENDTAB
  0
TABLE
  2
STYLE
 70
     2
  0
STYLE
  2
ROMANS
 70
     0
 40
0.0
 41
1.0
 50
0.0
 71
     0
 42
6.0
  3
romans
  4

  0
STYLE
  2
STANDARD
 70
     0
 40
0.0
 41
1.0
 50
0.0
 71
     0
 42
0.2
  3
txt
  4

  0
ENDTAB
  0
TABLE
  2
VIEW
 70
     0
  0
ENDTAB
  0
TABLE
  2
UCS
 70
     0
  0
ENDTAB
  0
TABLE
  2
APPID
 70
     2
  0
APPID
  2
ACAD
 70
     0
  0
APPID
  2
CONTENTBLOCKICON
 70
     0
  0
ENDTAB
  0
TABLE
  2
DIMSTYLE
 70
     2
  0
DIMSTYLE
  2
SC_DEFAUT
 70
     0
  3

  4

  5
OPEN30
  6

  7

 40
1.0
 41
5.0
 42
2.0
 43
0.38
 44
2.5
 45
0.0
 46
0.0
 47
0.0
 48
0.0
140
2.5
141
0.0
142
0.0
143
25.4
144
1.0
145
0.0
146
1.0
147
2.0
 71
     0
 72
     0
 73
     1
 74
     1
 75
     0
 76
     0
 77
     1
 78
    12
170
     0
171
     2
172
     0
173
     0
174
     0
175
     0
176
     0
177
     0
178
     0
  0
DIMSTYLE
  2
STANDARD
 70
     0
  3

  4

  5

  6

  7

 40
1.0
 41
0.18
 42
0.0625
 43
0.38
 44
0.18
 45
0.0
 46
0.0
 47
0.0
 48
0.0
140
0.18
141
0.09
142
0.0
143
25.4
144
1.0
145
0.0
146
1.0
147
0.09
 71
     0
 72
     0
 73
     1
 74
     1
 75
     0
 76
     0
 77
     0
 78
     0
170
     0
171
     2
172
     0
173
     0
174
     0
175
     0
176
     0
177
     0
178
     0
  0
ENDTAB
  0
ENDSEC
  0
SECTION
  2
BLOCKS
  0
BLOCK
  8
0
  2
$MODEL_SPACE
 70
     0
 10
0.0
 20
0.0
 30
0.0
  3
$MODEL_SPACE
  1

  0
ENDBLK
  5
A307
  8
0
  0
BLOCK
 67
     1
  8
0
  2
$PAPER_SPACE
 70
     0
 10
0.0
 20
0.0
 30
0.0
  3
$PAPER_SPACE
  1

  0
ENDBLK
  5
A305
 67
     1
  8
0
  0
BLOCK
  8
0
  2
COTE
 70
     0
 10
0.0
 20
0.0
 30
0.0
  3
COTE
  1

  0
ENDBLK
  5
F
  8
0
  0
BLOCK
  8
0
  2
FOND
 70
     0
 10
0.0
 20
0.0
 30
0.0
  3
FOND
  1

  0
ENDBLK
  5
75
  8
0
  0
BLOCK
  8
0
  2
_OPEN30
 70
     0
 10
0.0
 20
0.0
 30
0.0
  3
_OPEN30
  1

  0
LINE
  5
4B05
  8
COTATION1
 62
     0
 10
-1.0
 20
0.267949
 30
0.0
 11
0.0
 21
0.0
 31
0.0
1001
ACAD
1000
RTLwPs
1070
   158
  0
LINE
  5
4B06
  8
COTATION1
 62
     0
 10
0.0
 20
0.0
 30
0.0
 11
-1.0
 21
-0.267949
 31
0.0
1001
ACAD
1000
RTLwPs
1070
   158
  0
LINE
  5
4B07
  8
COTATION1
 62
     0
 10
0.0
 20
0.0
 30
0.0
 11
-1.0
 21
0.0
 31
0.0
1001
ACAD
1000
RTLwPs
1070
   158
  0
ENDBLK
  5
4B09
  8
0
  0
BLOCK
  8
0
  2
*D3
 70
     1
 10
0.0
 20
0.0
 30
0.0
  3
*D3
  1

  0
LINE
  5
A226
  8
COTATION1
 62
     0
 10
7.618494
 20
68.771229
 30
0.0
 11
7.618494
 21
79.271229
 31
0.0
1001
ACAD
1000
RTLwPs
1070
   158
  0
LINE
  5
A227
  8
COTATION1
 62
     0
 10
23.618494
 20
68.771229
 30
0.0
 11
23.618494
 21
79.271229
 31
0.0
1001
ACAD
1000
RTLwPs
1070
   158
  0
LINE
  5
A228
  8
COTATION1
 62
     0
 10
12.618494
 20
76.771229
 30
0.0
 11
18.618494
 21
76.771229
 31
0.0
1001
ACAD
1000
RTLwPs
1070
   158
  0
INSERT
  5
A229
  8
COTATION1
 62
     0
  2
_OPEN30
 10
7.618494
 20
76.771229
 30
0.0
 41
5.0
 42
5.0
 43
5.0
 50
180.0
1001
ACAD
1000
RTLwPs
1070
   158
  0
INSERT
  5
A22A
  8
COTATION1
 62
     0
  2
_OPEN30
 10
23.618494
 20
76.771229
 30
0.0
 41
5.0
 42
5.0
 43
5.0
1001
ACAD
1000
RTLwPs
1070
   158
  0
TEXT
  5
A22B
  8
COTATION1
 62
     0
 10
13.05897
 20
78.771229
 30
0.0
 40
2.5
  1
16
1001
ACAD
1000
MTEXTBEGIN
1070
    73
1070
     1
1070
    44
1040
1.0
1070
    74
1070
     0
1000
MTEXTEND
  0
POINT
  5
A22C
  8
DEFPOINTS
 62
     0
 10
7.618494
 20
66.771229
 30
0.0
  0
POINT
  5
A22D
  8
DEFPOINTS
 62
     0
 10
23.618494
 20
66.771229
 30
0.0
  0
POINT
  5
A22E
  8
DEFPOINTS
 62
     0
 10
23.618494
 20
76.771229
 30
0.0
  0
ENDBLK
  5
9B98
  8
0
  0
BLOCK
  8
0
  2
*D4
 70
     1
 10
0.0
 20
0.0
 30
0.0
  3
*D4
  1

  0
LINE
  5
A1FE
  8
COTATION1
 62
     0
 10
3.768494
 20
50.271229
 30
0.0
 11
3.768494
 21
-4.607952
 31
0.0
1001
ACAD
1000
RTLwPs
1070
   158
  0
LINE
  5
A1FF
  8
COTATION1
 62
     0
 10
16.618494
 20
17.371229
 30
0.0
 11
16.618494
 21
-4.607952
 31
0.0
1001
ACAD
1000
RTLwPs
1070
   158
  0
LINE
  5
A200
  8
COTATION1
 62
     0
 10
-1.231506
 20
-2.107952
 30
0.0
 11
-6.231506
 21
-2.107952
 31
0.0
1001
ACAD
1000
RTLwPs
1070
   158
  0
LINE
  5
A201
  8
COTATION1
 62
     0
 10
21.618494
 20
-2.107952
 30
0.0
 11
26.618494
 21
-2.107952
 31
0.0
1001
ACAD
1000
RTLwPs
1070
   158
  0
INSERT
  5
A202
  8
COTATION1
 62
     0
  2
_OPEN30
 10
3.768494
 20
-2.107952
 30
0.0
 41
5.0
 42
5.0
 43
5.0
1001
ACAD
1000
RTLwPs
1070
   158
  0
INSERT
  5
A203
  8
COTATION1
 62
     0
  2
_OPEN30
 10
16.618494
 20
-2.107952
 30
0.0
 41
5.0
 42
5.0
 43
5.0
 50
180.0
1001
ACAD
1000
RTLwPs
1070
   158
  0
TEXT
  5
A204
  8
COTATION1
 62
     0
 10
5.90778
 20
-0.107952
 30
0.0
 40
2.5
  1
12.9
1001
ACAD
1000
MTEXTBEGIN
1070
    73
1070
     1
1070
    44
1040
1.0
1070
    74
1070
     0
1000
MTEXTEND
  0
POINT
  5
A205
  8
DEFPOINTS
 62
     0
 10
3.768494
 20
52.271229
 30
0.0
  0
POINT
  5
A206
  8
DEFPOINTS
 62
     0
 10
16.618494
 20
19.371229
 30
0.0
  0
POINT
  5
A207
  8
DEFPOINTS
 62
     0
 10
16.618494
 20
-2.107952
 30
0.0
  0
ENDBLK
  5
A1F4
  8
0
  0
BLOCK
  8
0
  2
*D5
 70
     1
 10
0.0
 20
0.0
 30
0.0
  3
*D5
  1

  0
LINE
  5
A251
  8
COTATION1
 62
     0
 10
3.768494
 20
54.271229
 30
0.0
 11
3.768494
 21
79.271229
 31
0.0
1001
ACAD
1000
RTLwPs
1070
   158
  0
LINE
  5
A252
  8
COTATION1
 62
     0
 10
7.618494
 20
68.771229
 30
0.0
 11
7.618494
 21
79.271229
 31
0.0
1001
ACAD
1000
RTLwPs
1070
   158
  0
LINE
  5
A253
  8
COTATION1
 62
     0
 10
-1.231506
 20
76.771229
 30
0.0
 11
-6.231506
 21
76.771229
 31
0.0
1001
ACAD
1000
RTLwPs
1070
   158
  0
LINE
  5
A254
  8
COTATION1
 62
     0
 10
12.618494
 20
76.771229
 30
0.0
 11
17.618494
 21
76.771229
 31
0.0
1001
ACAD
1000
RTLwPs
1070
   158
  0
TEXT
  5
A255
  8
COTATION1
 62
     0
 10
-8.401951
 20
78.844032
 30
0.0
 40
2.5
  1
3.9
1001
ACAD
1000
MTEXTBEGIN
1070
    73
1070
     1
1070
    44
1040
1.0
1070
    74
1070
     0
1000
MTEXTEND
  0
INSERT
  5
A256
  8
COTATION1
 62
     0
  2
_OPEN30
 10
3.768494
 20
76.771229
 30
0.0
 41
5.0
 42
5.0
 43
5.0
1001
ACAD
1000
RTLwPs
1070
   158
  0
INSERT
  5
A257
  8
COTATION1
 62
     0
  2
_OPEN30
 10
7.618494
 20
76.771229
 30
0.0
 41
5.0
 42
5.0
 43
5.0
 50
180.0
1001
ACAD
1000
RTLwPs
1070
   158
  0
POINT
  5
A258
  8
DEFPOINTS
 62
     0
 10
3.768494
 20
52.271229
 30
0.0
  0
POINT
  5
A259
  8
DEFPOINTS
 62
     0
 10
7.618494
 20
66.771229
 30
0.0
  0
POINT
  5
A25A
  8
DEFPOINTS
 62
     0
 10
7.618494
 20
76.771229
 30
0.0
  0
ENDBLK
  5
A23C
  8
0
  0
ENDSEC
  0
SECTION
  2
ENTITIES
  0
INSERT
  5
A
  8
0
  2
COTE
 10
0.0
 20
0.0
 30
0.0
  0
INSERT
  5
17
  8
0
  2
COTE
 10
284.010391
 20
6.373258
 30
0.0
  0
INSERT
  5
72
  8
0
  2
FOND
 10
0.0
 20
0.0
 30
0.0
  0
LINE
  5
9A33
  8
COTATION1
 10
19.118494
 20
-10.006616
 30
0.0
 11
26.356899
 21
-10.006616
 31
0.0
  0
LINE
  5
9A4A
  8
COTATION1
 10
16.618494
 20
-1.906264
 30
0.0
 11
16.618494
 21
-16.157891
 31
0.0
  0
SOLID
  5
9A78
  8
COTATION1
 10
16.618494
 20
-11.449992
 30
0.0
 11
16.618494
 21
-8.563241
 31
0.0
 12
19.118494
 22
-10.006616
 32
0.0
 13
19.118494
 23
-10.006616
 33
0.0
  0
LINE
  5
9B48
  8
COTATION1
 10
26.356899
 20
-7.506616
 30
0.0
 11
52.856899
 21
-7.506616
 31
0.0
  0
LINE
  5
9B49
  8
COTATION1
 10
52.856899
 20
-12.506616
 30
0.0
 11
26.356899
 21
-12.506616
 31
0.0
  0
TEXT
  5
9B4A
  8
COTATION1
 10
27.606899
 20
-11.256616
 30
0.0
 40
2.5
  1
PLANE_TO_LINE_UP
 41
0.626087
  7
STANDARD
 72
     5
 11
51.606899
 21
-11.256616
 31
0.0
  0
LINE
  5
9B4B
  8
COTATION1
 10
26.356899
 20
-12.506616
 30
0.0
 11
26.356899
 21
-7.506616
 31
0.0
  0
LINE
  5
9B4C
  8
COTATION1
 10
52.856899
 20
-7.506616
 30
0.0
 11
52.856899
 21
-12.506616
 31
0.0
  0
DIMENSION
  5
9B8C
  8
COTATION1
  2
*D3
 10
23.618494
 20
76.771229
 30
0.0
 11
15.618494
 21
80.021229
 31
0.0
 13
7.618494
 23
66.771229
 33
0.0
 14
23.618494
 24
66.771229
 34
0.0
  0
LINE
  5
9BBF
  8
AXE
 10
7.618494
 20
37.746229
 30
0.0
 11
7.618494
 21
66.771229
 31
0.0
  0
TEXT
  5
9BC2
  8
AXE
 10
33.064459
 20
53.271229
 30
0.0
 40
5.0
  1
Z
 72
     2
 11
37.112078
 21
53.271229
 31
0.0
  0
LINE
  5
9BC3
  8
AXE
 10
-1.231506
 20
52.271229
 30
0.0
 11
37.112078
 21
52.271229
 31
0.0
  0
LINE
  5
9E7E
  8
ALPHA
 10
12.668494
 20
45.587817
 30
0.0
 11
12.668494
 21
58.271229
 31
0.0
  0
ARC
  5
9E7F
  8
ALPHA
 10
49.36034
 20
52.271229
 30
0.0
 40
45.5
 50
167.916284
 51
174.640383
  0
LINE
  5
9E80
  8
ALPHA
 10
10.618494
 20
57.021229
 30
0.0
 11
10.618494
 21
47.521229
 31
0.0
  0
LINE
  5
9E81
  8
ALPHA
 10
10.668494
 20
45.415653
 30
0.0
 11
10.668494
 21
58.271229
 31
0.0
  0
LINE
  5
9E82
  8
ALPHA
 10
4.868494
 20
42.746229
 30
0.0
 11
4.868494
 21
61.796229
 31
0.0
  0
LINE
  5
9E83
  8
ALPHA
 10
10.368494
 20
61.796229
 30
0.0
 11
10.368494
 21
42.746229
 31
0.0
  0
LINE
  5
9E84
  8
ALPHA
 10
14.618494
 20
39.499065
 30
0.0
 11
14.618494
 21
19.371229
 31
0.0
  0
LINE
  5
9E85
  8
ALPHA
 10
16.618494
 20
39.499065
 30
0.0
 11
16.618494
 21
19.371229
 31
0.0
  0
LINE
  5
9E86
  8
ALPHA
 10
16.618494
 20
19.371229
 30
0.0
 11
14.618494
 21
19.371229
 31
0.0
  0
LINE
  5
9E87
  8
ALPHA
 10
16.618494
 20
27.371229
 30
0.0
 11
14.618494
 21
27.371229
 31
0.0
  0
LINE
  5
9E88
  8
ALPHA
 10
16.618494
 20
28.364759
 30
0.0
 11
14.618494
 21
28.364759
 31
0.0
  0
LINE
  5
9E89
  8
ALPHA
 10
4.868494
 20
42.746229
 30
0.0
 11
10.368494
 21
42.746229
 31
0.0
  0
ARC
  5
9E8A
  8
ALPHA
 10
49.36034
 20
52.271229
 30
0.0
 40
45.5
 50
185.359617
 51
192.083716
  0
LINE
  5
9E8B
  8
ALPHA
 10
4.008494
 20
56.421229
 30
0.0
 11
4.059264
 21
56.421229
 31
0.0
  0
LINE
  5
9E8C
  8
ALPHA
 10
3.768494
 20
51.271229
 30
0.0
 11
3.768494
 21
53.271229
 31
0.0
  0
LINE
  5
9E8D
  8
ALPHA
 10
4.008494
 20
48.121229
 30
0.0
 11
4.059264
 21
48.121229
 31
0.0
  0
ARC
  5
9E8E
  8
ALPHA
 10
34.25954
 20
52.010213
 30
0.0
 40
30.5
 50
181.388355
 51
187.325595
  0
LINE
  5
9E8F
  8
ALPHA
 10
4.008494
 20
48.121229
 30
0.0
 11
4.008494
 21
56.421229
 31
0.0
  0
LINE
  5
9E90
  8
ALPHA
 10
4.059264
 20
48.021229
 30
0.0
 11
4.059264
 21
56.521229
 31
0.0
  0
ARC
  5
9E91
  8
ALPHA
 10
34.25954
 20
52.532244
 30
0.0
 40
30.5
 50
172.674405
 51
178.611645
  0
ARC
  5
9E92
  8
ALPHA
 10
12.668494
 20
45.415653
 30
0.0
 40
2.0
 50
180.0
 51
218.0
  0
LINE
  5
9E93
  8
ALPHA
 10
12.668494
 20
45.415653
 30
0.0
 11
11.092472
 21
44.18433
 31
0.0
  0
LINE
  5
9E94
  8
ALPHA
 10
16.088521
 20
41.038218
 30
0.0
 11
12.668494
 21
45.415653
 31
0.0
  0
LINE
  5
9E95
  8
ALPHA
 10
14.591253
 20
39.661849
 30
0.0
 11
16.48229
 21
40.312985
 31
0.0
  0
ARC
  5
9E96
  8
ALPHA
 10
14.118494
 20
39.499065
 30
0.0
 40
0.5
 50
0.0
 51
38.0
  0
LINE
  5
9E97
  8
ALPHA
 10
14.512499
 20
39.806896
 30
0.0
 11
11.092472
 21
44.18433
 31
0.0
  0
ARC
  5
9E98
  8
ALPHA
 10
14.118494
 20
39.499065
 30
0.0
 40
2.5
 50
0.0
 51
38.0
  0
LINE
  5
9E99
  8
ALPHA
 10
14.168494
 20
54.321229
 30
0.0
 11
14.168494
 21
50.221229
 31
0.0
  0
LINE
  5
9E9A
  8
ALPHA
 10
12.668494
 20
50.221229
 30
0.0
 11
14.168494
 21
50.221229
 31
0.0
  0
LINE
  5
9E9B
  8
ALPHA
 10
12.668494
 20
54.321229
 30
0.0
 11
14.168494
 21
54.321229
 31
0.0
  0
ARC
  5
9E9C
  8
ALPHA
 10
13.168494
 20
45.587817
 30
0.0
 40
0.5
 50
180.0
 51
218.0
  0
LINE
  5
9E9D
  8
ALPHA
 10
10.618494
 20
55.246229
 30
0.0
 11
10.668494
 21
55.246229
 31
0.0
  0
LINE
  5
9E9E
  8
ALPHA
 10
10.618494
 20
49.296229
 30
0.0
 11
10.668494
 21
49.296229
 31
0.0
  0
LINE
  5
9E9F
  8
ALPHA
 10
10.368494
 20
47.521229
 30
0.0
 11
10.618494
 21
47.521229
 31
0.0
  0
LINE
  5
9EA0
  8
ALPHA
 10
12.668494
 20
45.415653
 30
0.0
 11
10.668494
 21
45.415653
 31
0.0
  0
LINE
  5
9EA1
  8
ALPHA
 10
12.668494
 20
54.33009
 30
0.0
 11
10.668494
 21
54.33009
 31
0.0
  0
LINE
  5
9EA2
  8
ALPHA
 10
4.868494
 20
61.796229
 30
0.0
 11
10.368494
 21
61.796229
 31
0.0
  0
LINE
  5
9EA3
  8
ALPHA
 10
10.368494
 20
57.021229
 30
0.0
 11
10.618494
 21
57.021229
 31
0.0
  0
LINE
  5
9EA4
  8
ALPHA
 10
10.668494
 20
58.271229
 30
0.0
 11
12.668494
 21
58.271229
 31
0.0
  0
LINE
  5
A1C1
  8
POINTILLE_COURT
 10
20.568494
 20
58.271229
 30
0.0
 11
18.568494
 21
58.271229
 31
0.0
  0
LINE
  5
A1C2
  8
POINTILLE_COURT
 10
18.568494
 20
54.33009
 30
0.0
 11
20.568494
 21
54.33009
 31
0.0
  0
LINE
  5
A1C3
  8
POINTILLE_COURT
 10
18.568494
 20
45.415653
 30
0.0
 11
20.568494
 21
45.415653
 31
0.0
  0
ARC
  5
A1C4
  8
POINTILLE_COURT
 10
18.568494
 20
45.415653
 30
0.0
 40
2.0
 50
322.0
 51
0.0
  0
LINE
  5
A1C5
  8
POINTILLE_COURT
 10
27.177724
 20
48.021229
 30
0.0
 11
27.177724
 21
56.521229
 31
0.0
  0
LINE
  5
A1C6
  8
POINTILLE_COURT
 10
27.228494
 20
48.121229
 30
0.0
 11
27.228494
 21
56.421229
 31
0.0
  0
ARC
  5
A1C7
  8
POINTILLE_COURT
 10
-3.022552
 20
52.010213
 30
0.0
 40
30.5
 50
352.674405
 51
358.611645
  0
LINE
  5
A1C8
  8
POINTILLE_COURT
 10
20.868494
 20
61.796229
 30
0.0
 11
20.868494
 21
42.746229
 31
0.0
  0
LINE
  5
A1C9
  8
POINTILLE_COURT
 10
26.368494
 20
42.746229
 30
0.0
 11
26.368494
 21
61.796229
 31
0.0
  0
LINE
  5
A1CA
  8
POINTILLE_COURT
 10
20.568494
 20
45.415653
 30
0.0
 11
20.568494
 21
58.271229
 31
0.0
  0
LINE
  5
A1CB
  8
POINTILLE_COURT
 10
20.618494
 20
57.021229
 30
0.0
 11
20.618494
 21
47.521229
 31
0.0
  0
LINE
  5
A1CC
  8
POINTILLE_COURT
 10
20.868494
 20
47.521229
 30
0.0
 11
20.618494
 21
47.521229
 31
0.0
  0
LINE
  5
A1CD
  8
POINTILLE_COURT
 10
20.618494
 20
49.296229
 30
0.0
 11
20.568494
 21
49.296229
 31
0.0
  0
LINE
  5
A1CE
  8
POINTILLE_COURT
 10
27.228494
 20
48.121229
 30
0.0
 11
27.177724
 21
48.121229
 31
0.0
  0
ARC
  5
A1CF
  8
POINTILLE_COURT
 10
-18.123352
 20
52.271229
 30
0.0
 40
45.5
 50
347.916284
 51
354.640383
  0
LINE
  5
A1D0
  8
POINTILLE_COURT
 10
26.368494
 20
42.746229
 30
0.0
 11
20.868494
 21
42.746229
 31
0.0
  0
LINE
  5
A1D1
  8
POINTILLE_COURT
 10
20.868494
 20
57.021229
 30
0.0
 11
20.618494
 21
57.021229
 31
0.0
  0
LINE
  5
A1D2
  8
POINTILLE_COURT
 10
26.368494
 20
61.796229
 30
0.0
 11
20.868494
 21
61.796229
 31
0.0
  0
LINE
  5
A1D3
  8
POINTILLE_COURT
 10
20.618494
 20
55.246229
 30
0.0
 11
20.568494
 21
55.246229
 31
0.0
  0
ARC
  5
A1D4
  8
POINTILLE_COURT
 10
-3.022552
 20
52.532244
 30
0.0
 40
30.5
 50
1.388355
 51
7.325595
  0
LINE
  5
A1D5
  8
POINTILLE_COURT
 10
27.468494
 20
51.271229
 30
0.0
 11
27.468494
 21
53.271229
 31
0.0
  0
LINE
  5
A1D6
  8
POINTILLE_COURT
 10
27.228494
 20
56.421229
 30
0.0
 11
27.177724
 21
56.421229
 31
0.0
  0
ARC
  5
A1D7
  8
POINTILLE_COURT
 10
-18.123352
 20
52.271229
 30
0.0
 40
45.5
 50
5.359617
 51
12.083716
  0
LINE
  5
A1D8
  8
POINTILLE_COURT
 10
17.068494
 20
54.321229
 30
0.0
 11
17.068494
 21
50.221229
 31
0.0
  0
LINE
  5
A1D9
  8
POINTILLE_COURT
 10
18.568494
 20
45.587817
 30
0.0
 11
18.568494
 21
58.271229
 31
0.0
  0
ARC
  5
A1DA
  8
POINTILLE_COURT
 10
18.068494
 20
45.587817
 30
0.0
 40
0.5
 50
322.0
 51
0.0
  0
LINE
  5
A1DB
  8
POINTILLE_COURT
 10
18.568494
 20
50.221229
 30
0.0
 11
17.068494
 21
50.221229
 31
0.0
  0
ARC
  5
A1DC
  8
POINTILLE_COURT
 10
17.118494
 20
39.499065
 30
0.0
 40
2.5
 50
142.0
 51
180.0
  0
LINE
  5
A1DD
  8
POINTILLE_COURT
 10
16.724489
 20
39.806896
 30
0.0
 11
20.144515
 21
44.18433
 31
0.0
  0
ARC
  5
A1DE
  8
POINTILLE_COURT
 10
17.118494
 20
39.499065
 30
0.0
 40
0.5
 50
142.0
 51
180.0
  0
LINE
  5
A1DF
  8
POINTILLE_COURT
 10
16.645735
 20
39.661849
 30
0.0
 11
14.754697
 21
40.312985
 31
0.0
  0
LINE
  5
A1E0
  8
POINTILLE_COURT
 10
15.148467
 20
41.038218
 30
0.0
 11
18.568494
 21
45.415653
 31
0.0
  0
LINE
  5
A1E1
  8
POINTILLE_COURT
 10
18.568494
 20
45.415653
 30
0.0
 11
20.144515
 21
44.18433
 31
0.0
  0
LINE
  5
A1E2
  8
POINTILLE_COURT
 10
18.568494
 20
54.321229
 30
0.0
 11
17.068494
 21
54.321229
 31
0.0
  0
LINE
  5
A1E5
  8
AXE
 10
23.618494
 20
37.746229
 30
0.0
 11
23.618494
 21
66.771229
 31
0.0
  0
TEXT
  5
A1E6
  8
AXE
 10
10.570875
 20
7.892048
 30
0.0
 40
5.0
  1
Y
 72
     2
 11
14.618494
 21
7.892048
 31
0.0
  0
LINE
  5
A1E7
  8
AXE
 10
15.618494
 20
7.892048
 30
0.0
 11
15.618494
 21
45.415653
 31
0.0
  0
DIMENSION
  5
A1E8
  8
COTATION1
  2
*D4
 10
16.618494
 20
-2.107952
 30
0.0
 11
10.193494
 21
1.142048
 31
0.0
 13
3.768494
 23
52.271229
 33
0.0
 14
16.618494
 24
19.371229
 34
0.0
  0
DIMENSION
  5
A22F
  8
COTATION1
  2
*D5
 10
7.618494
 20
76.771229
 30
0.0
 11
-5.485285
 21
80.094032
 31
0.0
 70
   128
 13
3.768494
 23
52.271229
 33
0.0
 14
7.618494
 24
66.771229
 34
0.0
  0
ENDSEC
  0
EOF
