  0
SECTION
  2
HEADER
  9
$ACADVER
  1
AC1009
  9
$INSBASE
 10
402.590624
 20
-1.041018
 30
0.0
  9
$EXTMIN
 10
75.486517
 20
19.283507
 30
0.0
  9
$EXTMAX
 10
120.355565
 20
89.683507
 30
0.0
  9
$LIMMIN
 10
-407.970438
 20
-367.832444
  9
$LIMMAX
 10
429.804077
 20
234.370848
  9
$ORTHOMODE
 70
     0
  9
$REGENMODE
 70
     1
  9
$FILLMODE
 70
     1
  9
$QTEXTMODE
 70
     0
  9
$MIRRTEXT
 70
     1
  9
$DRAGMODE
 70
     2
  9
$LTSCALE
 40
10.0
  9
$OSMODE
 70
    35
  9
$ATTMODE
 70
     1
  9
$TEXTSIZE
 40
6.0
  9
$TRACEWID
 40
1.0
  9
$TEXTSTYLE
  7
ROMANS
  9
$CLAYER
  8
ALPHA
  9
$CELTYPE
  6
BYLAYER
  9
$CECOLOR
 62
   256
  9
$DIMSCALE
 40
1.0
  9
$DIMASZ
 40
5.0
  9
$DIMEXO
 40
2.0
  9
$DIMDLI
 40
0.38
  9
$DIMRND
 40
0.0
  9
$DIMDLE
 40
0.0
  9
$DIMEXE
 40
2.5
  9
$DIMTP
 40
0.0
  9
$DIMTM
 40
0.0
  9
$DIMTXT
 40
2.5
  9
$DIMCEN
 40
0.0
  9
$DIMTSZ
 40
0.0
  9
$DIMTOL
 70
     0
  9
$DIMLIM
 70
     0
  9
$DIMTIH
 70
     1
  9
$DIMTOH
 70
     1
  9
$DIMSE1
 70
     0
  9
$DIMSE2
 70
     0
  9
$DIMTAD
 70
     1
  9
$DIMZIN
 70
    12
  9
$DIMBLK
  1
OPEN30
  9
$DIMASO
 70
     1
  9
$DIMSHO
 70
     1
  9
$DIMPOST
  1

  9
$DIMAPOST
  1

  9
$DIMALT
 70
     0
  9
$DIMALTD
 70
     2
  9
$DIMALTF
 40
25.4
  9
$DIMLFAC
 40
1.0
  9
$DIMTOFL
 70
     0
  9
$DIMTVP
 40
0.0
  9
$DIMTIX
 70
     0
  9
$DIMSOXD
 70
     0
  9
$DIMSAH
 70
     0
  9
$DIMBLK1
  1

  9
$DIMBLK2
  1

  9
$DIMSTYLE
  2
SC_DEFAUT
  9
$DIMCLRD
 70
     0
  9
$DIMCLRE
 70
     0
  9
$DIMCLRT
 70
     0
  9
$DIMTFAC
 40
1.0
  9
$DIMGAP
 40
2.0
  9
$LUNITS
 70
     2
  9
$LUPREC
 70
     1
  9
$SKETCHINC
 40
0.1
  9
$FILLETRAD
 40
0.0
  9
$AUNITS
 70
     0
  9
$AUPREC
 70
     0
  9
$MENU
  1
acad
  9
$ELEVATION
 40
0.0
  9
$PELEVATION
 40
0.0
  9
$THICKNESS
 40
0.0
  9
$LIMCHECK
 70
     0
  9
$BLIPMODE
 70
     0
  9
$CHAMFERA
 40
0.0
  9
$CHAMFERB
 40
0.0
  9
$SKPOLY
 70
     0
  9
$TDCREATE
 40
2450373.687919
  9
$TDUPDATE
 40
2453032.631884
  9
$TDINDWG
 40
1.060785
  9
$TDUSRTIMER
 40
1.060785
  9
$USRTIMER
 70
     1
  9
$ANGBASE
 50
0.0
  9
$ANGDIR
 70
     0
  9
$PDMODE
 70
    32
  9
$PDSIZE
 40
0.0
  9
$PLINEWID
 40
0.0
  9
$COORDS
 70
     1
  9
$SPLFRAME
 70
     0
  9
$SPLINETYPE
 70
     6
  9
$SPLINESEGS
 70
     8
  9
$ATTDIA
 70
     0
  9
$ATTREQ
 70
     1
  9
$HANDLING
 70
     1
  9
$HANDSEED
  5
9FF7
  9
$SURFTAB1
 70
     6
  9
$SURFTAB2
 70
     6
  9
$SURFTYPE
 70
     6
  9
$SURFU
 70
     6
  9
$SURFV
 70
     6
  9
$UCSNAME
  2

  9
$UCSORG
 10
0.0
 20
0.0
 30
0.0
  9
$UCSXDIR
 10
1.0
 20
0.0
 30
0.0
  9
$UCSYDIR
 10
0.0
 20
1.0
 30
0.0
  9
$PUCSNAME
  2

  9
$PUCSORG
 10
0.0
 20
0.0
 30
0.0
  9
$PUCSXDIR
 10
1.0
 20
0.0
 30
0.0
  9
$PUCSYDIR
 10
0.0
 20
1.0
 30
0.0
  9
$USERI1
 70
     0
  9
$USERI2
 70
     0
  9
$USERI3
 70
     0
  9
$USERI4
 70
     0
  9
$USERI5
 70
     0
  9
$USERR1
 40
0.0
  9
$USERR2
 40
0.0
  9
$USERR3
 40
0.0
  9
$USERR4
 40
0.0
  9
$USERR5
 40
0.0
  9
$WORLDVIEW
 70
     1
  9
$SHADEDGE
 70
     3
  9
$SHADEDIF
 70
    70
  9
$TILEMODE
 70
     1
  9
$MAXACTVP
 70
    16
  9
$PLIMCHECK
 70
     0
  9
$PEXTMIN
 10
-1.452248
 20
-0.437698
 30
0.0
  9
$PEXTMAX
 10
12.749749
 20
8.310198
 30
0.0
  9
$PLIMMIN
 10
0.0
 20
0.0
  9
$PLIMMAX
 10
12.0
 20
9.0
  9
$UNITMODE
 70
     0
  9
$VISRETAIN
 70
     0
  9
$PLINEGEN
 70
     0
  9
$PSLTSCALE
 70
     0
  0
ENDSEC
  0
SECTION
  2
TABLES
  0
TABLE
  2
VPORT
 70
     2
  0
VPORT
  2
*ACTIVE
 70
     0
 10
0.0
 20
0.0
 11
1.0
 21
1.0
 12
97.939985
 22
54.493675
 13
0.0
 23
0.0
 14
1.0
 24
1.0
 15
10.0
 25
10.0
 16
0.0
 26
0.0
 36
1.0
 17
0.0
 27
0.0
 37
0.0
 40
70.940184
 41
1.466346
 42
50.0
 43
0.0
 44
0.0
 50
0.0
 51
0.0
 71
     0
 72
   100
 73
     1
 74
     0
 75
     0
 76
     0
 77
     0
 78
     0
  0
ENDTAB
  0
TABLE
  2
LTYPE
 70
     2
  0
LTYPE
  2
CONTINUOUS
 70
     0
  3
Solid line
 72
    65
 73
     0
 40
0.0
  0
LTYPE
  2
AXES2
 70
     0
  3
___ _ ___ _ ___ _ ___ _ ___ _ ___ _ ___ _ ___ _
 72
    65
 73
     4
 40
1.125
 49
0.75
 49
-0.125
 49
0.125
 49
-0.125
  0
ENDTAB
  0
TABLE
  2
LAYER
 70
     5
  0
LAYER
  2
0
 70
     0
 62
   255
  6
CONTINUOUS
  0
LAYER
  2
COTATION1
 70
     0
 62
     2
  6
CONTINUOUS
  0
LAYER
  2
AXE
 70
     0
 62
    80
  6
AXES2
  0
LAYER
  2
DEFPOINTS
 70
     0
 62
     7
  6
CONTINUOUS
  0
LAYER
  2
ALPHA
 70
     0
 62
   254
  6
CONTINUOUS
  0
ENDTAB
  0
TABLE
  2
STYLE
 70
     2
  0
STYLE
  2
ROMANS
 70
     0
 40
0.0
 41
1.0
 50
0.0
 71
     0
 42
6.0
  3
romans
  4

  0
STYLE
  2
STANDARD
 70
     0
 40
0.0
 41
1.0
 50
0.0
 71
     0
 42
0.2
  3
txt
  4

  0
ENDTAB
  0
TABLE
  2
VIEW
 70
     0
  0
ENDTAB
  0
TABLE
  2
UCS
 70
     0
  0
ENDTAB
  0
TABLE
  2
APPID
 70
     1
  0
APPID
  2
ACAD
 70
     0
  0
ENDTAB
  0
TABLE
  2
DIMSTYLE
 70
     2
  0
DIMSTYLE
  2
SC_DEFAUT
 70
     0
  3

  4

  5
OPEN30
  6

  7

 40
1.0
 41
5.0
 42
2.0
 43
0.38
 44
2.5
 45
0.0
 46
0.0
 47
0.0
 48
0.0
140
2.5
141
0.0
142
0.0
143
25.4
144
1.0
145
0.0
146
1.0
147
2.0
 71
     0
 72
     0
 73
     1
 74
     1
 75
     0
 76
     0
 77
     1
 78
    12
170
     0
171
     2
172
     0
173
     0
174
     0
175
     0
176
     0
177
     0
178
     0
  0
DIMSTYLE
  2
STANDARD
 70
     0
  3

  4

  5

  6

  7

 40
1.0
 41
0.18
 42
0.0625
 43
0.38
 44
0.18
 45
0.0
 46
0.0
 47
0.0
 48
0.0
140
0.18
141
0.09
142
0.0
143
25.4
144
1.0
145
0.0
146
1.0
147
0.09
 71
     0
 72
     0
 73
     1
 74
     1
 75
     0
 76
     0
 77
     0
 78
     0
170
     0
171
     2
172
     0
173
     0
174
     0
175
     0
176
     0
177
     0
178
     0
  0
ENDTAB
  0
ENDSEC
  0
SECTION
  2
BLOCKS
  0
BLOCK
  8
0
  2
$MODEL_SPACE
 70
     0
 10
0.0
 20
0.0
 30
0.0
  3
$MODEL_SPACE
  1

  0
ENDBLK
  5
9FF0
  8
0
  0
BLOCK
 67
     1
  8
0
  2
$PAPER_SPACE
 70
     0
 10
0.0
 20
0.0
 30
0.0
  3
$PAPER_SPACE
  1

  0
ENDBLK
  5
9FEE
 67
     1
  8
0
  0
BLOCK
  8
0
  2
COTE
 70
     0
 10
0.0
 20
0.0
 30
0.0
  3
COTE
  1

  0
ENDBLK
  5
F
  8
0
  0
BLOCK
  8
0
  2
FOND
 70
     0
 10
0.0
 20
0.0
 30
0.0
  3
FOND
  1

  0
ENDBLK
  5
75
  8
0
  0
BLOCK
  8
0
  2
_OPEN30
 70
     0
 10
0.0
 20
0.0
 30
0.0
  3
_OPEN30
  1

  0
LINE
  5
4B05
  8
COTATION1
 62
     0
 10
-1.0
 20
0.267949
 30
0.0
 11
0.0
 21
0.0
 31
0.0
1001
ACAD
1000
RTLwPs
1070
   158
  0
LINE
  5
4B06
  8
COTATION1
 62
     0
 10
0.0
 20
0.0
 30
0.0
 11
-1.0
 21
-0.267949
 31
0.0
1001
ACAD
1000
RTLwPs
1070
   158
  0
LINE
  5
4B07
  8
COTATION1
 62
     0
 10
0.0
 20
0.0
 30
0.0
 11
-1.0
 21
0.0
 31
0.0
1001
ACAD
1000
RTLwPs
1070
   158
  0
ENDBLK
  5
4B09
  8
0
  0
BLOCK
  8
0
  2
*D3
 70
     1
 10
0.0
 20
0.0
 30
0.0
  3
*D3
  1

  0
LINE
  5
9EF2
  8
COTATION1
 62
     0
 10
80.486517
 20
64.183507
 30
0.0
 11
80.486517
 21
87.683507
 31
0.0
1001
ACAD
1000
RTLwPs
1070
   158
  0
LINE
  5
9EF3
  8
COTATION1
 62
     0
 10
96.486517
 20
64.183507
 30
0.0
 11
96.486517
 21
87.683507
 31
0.0
1001
ACAD
1000
RTLwPs
1070
   158
  0
LINE
  5
9EF4
  8
COTATION1
 62
     0
 10
85.486517
 20
85.183507
 30
0.0
 11
91.486517
 21
85.183507
 31
0.0
1001
ACAD
1000
RTLwPs
1070
   158
  0
INSERT
  5
9EF5
  8
COTATION1
 62
     0
  2
_OPEN30
 10
80.486517
 20
85.183507
 30
0.0
 41
5.0
 42
5.0
 43
5.0
 50
180.0
1001
ACAD
1000
RTLwPs
1070
   158
  0
INSERT
  5
9EF6
  8
COTATION1
 62
     0
  2
_OPEN30
 10
96.486517
 20
85.183507
 30
0.0
 41
5.0
 42
5.0
 43
5.0
1001
ACAD
1000
RTLwPs
1070
   158
  0
TEXT
  5
9EF7
  8
COTATION1
 62
     0
 10
85.09366
 20
87.183507
 30
0.0
 40
2.5
  1
%%c
1001
ACAD
1000
MTEXTBEGIN
1070
    73
1070
     1
1070
    44
1040
1.0
1070
    74
1070
     0
1000
MTEXTEND
  0
TEXT
  5
9FC1
  8
COTATION1
 62
     0
 10
87.355565
 20
87.183507
 30
0.0
 40
2.5
  1
16
1001
ACAD
1000
R13OBJECT
1002
{
1005
9EF7
1002
}
  0
POINT
  5
9EF8
  8
DEFPOINTS
 62
     0
 10
80.486517
 20
62.183507
 30
0.0
  0
POINT
  5
9EF9
  8
DEFPOINTS
 62
     0
 10
96.486517
 20
62.183507
 30
0.0
  0
POINT
  5
9EFA
  8
DEFPOINTS
 62
     0
 10
96.486517
 20
85.183507
 30
0.0
  0
ENDBLK
  5
9D9C
  8
0
  0
BLOCK
  8
0
  2
*D4
 70
     1
 10
0.0
 20
0.0
 30
0.0
  3
*D4
  1

  0
LINE
  5
9F05
  8
COTATION1
 62
     0
 10
90.486517
 20
70.183507
 30
0.0
 11
118.986517
 21
70.183507
 31
0.0
1001
ACAD
1000
RTLwPs
1070
   158
  0
LINE
  5
9F06
  8
COTATION1
 62
     0
 10
90.486517
 20
27.783507
 30
0.0
 11
118.986517
 21
27.783507
 31
0.0
1001
ACAD
1000
RTLwPs
1070
   158
  0
LINE
  5
9F07
  8
COTATION1
 62
     0
 10
116.486517
 20
65.183507
 30
0.0
 11
116.486517
 21
52.233507
 31
0.0
1001
ACAD
1000
RTLwPs
1070
   158
  0
LINE
  5
9F08
  8
COTATION1
 62
     0
 10
116.486517
 20
32.783507
 30
0.0
 11
116.486517
 21
45.733507
 31
0.0
1001
ACAD
1000
RTLwPs
1070
   158
  0
INSERT
  5
9F09
  8
COTATION1
 62
     0
  2
_OPEN30
 10
116.486517
 20
70.183507
 30
0.0
 41
5.0
 42
5.0
 43
5.0
 50
90.0
1001
ACAD
1000
RTLwPs
1070
   158
  0
INSERT
  5
9F0A
  8
COTATION1
 62
     0
  2
_OPEN30
 10
116.486517
 20
27.783507
 30
0.0
 41
5.0
 42
5.0
 43
5.0
 50
270.0
1001
ACAD
1000
RTLwPs
1070
   158
  0
TEXT
  5
9F0B
  8
COTATION1
 62
     0
 10
112.260327
 20
47.733507
 30
0.0
 40
2.5
  1
42.4
1001
ACAD
1000
MTEXTBEGIN
1070
    73
1070
     1
1070
    44
1040
1.0
1070
    74
1070
     0
1000
MTEXTEND
  0
POINT
  5
9F0C
  8
DEFPOINTS
 62
     0
 10
88.486517
 20
70.183507
 30
0.0
  0
POINT
  5
9F0D
  8
DEFPOINTS
 62
     0
 10
88.486517
 20
27.783507
 30
0.0
  0
POINT
  5
9F0E
  8
DEFPOINTS
 62
     0
 10
116.486517
 20
27.783507
 30
0.0
  0
ENDBLK
  5
9DA9
  8
0
  0
ENDSEC
  0
SECTION
  2
ENTITIES
  0
INSERT
  5
A
  8
0
  2
COTE
 10
0.0
 20
0.0
 30
0.0
  0
INSERT
  5
17
  8
0
  2
COTE
 10
284.010391
 20
6.373258
 30
0.0
  0
INSERT
  5
72
  8
0
  2
FOND
 10
0.0
 20
0.0
 30
0.0
  0
LINE
  5
9CA7
  8
ALPHA
 10
93.255409
 20
37.793049
 30
0.0
 11
92.611283
 21
38.908708
 31
0.0
  0
LINE
  5
9CA8
  8
ALPHA
 10
84.361757
 20
38.908716
 30
0.0
 11
83.717622
 21
37.793041
 31
0.0
  0
ARC
  5
9CA9
  8
ALPHA
 10
88.486517
 20
35.783507
 30
0.0
 40
8.0
 50
173.707306
 51
6.292694
  0
LINE
  5
9CAC
  8
ALPHA
 10
92.576708
 20
38.508214
 30
0.0
 11
92.250913
 21
38.204405
 31
0.0
  0
LINE
  5
9CAD
  8
ALPHA
 10
95.21379
 20
47.764972
 30
0.0
 11
96.438317
 21
36.660367
 31
0.0
  0
LINE
  5
9CAE
  8
ALPHA
 10
81.759244
 20
47.764972
 30
0.0
 11
80.534718
 21
36.660367
 31
0.0
  0
LINE
  5
9CAF
  8
ALPHA
 10
84.722122
 20
38.204405
 30
0.0
 11
84.396326
 21
38.508214
 31
0.0
  0
ARC
  5
9CB3
  8
ALPHA
 10
88.486517
 20
35.783507
 30
0.0
 40
5.175
 50
217.151526
 51
232.848486
  0
LINE
  5
9CB4
  8
ALPHA
 10
83.717615
 20
33.773987
 30
0.0
 11
84.361828
 21
32.658194
 31
0.0
  0
LINE
  5
9CB5
  8
ALPHA
 10
83.351766
 20
36.427641
 30
0.0
 11
83.35177
 21
35.139324
 31
0.0
  0
ARC
  5
9CB6
  8
ALPHA
 10
84.572083
 20
38.043507
 30
0.0
 40
0.22
 50
253.0
 51
47.0
  0
ARC
  5
9CB7
  8
ALPHA
 10
83.994045
 20
37.676471
 30
0.0
 40
0.3
 50
73.0
 51
157.151216
  0
ARC
  5
9CB8
  8
ALPHA
 10
83.64944
 20
36.390388
 30
0.0
 40
0.3
 50
172.848784
 51
257.0
  0
ARC
  5
9CB9
  8
ALPHA
 10
83.966517
 20
35.783507
 30
0.0
 40
0.22
 50
283.0
 51
77.0
  0
ARC
  5
9CBA
  8
ALPHA
 10
83.64944
 20
35.176626
 30
0.0
 40
0.3
 50
103.0
 51
187.151216
  0
ARC
  5
9CBB
  8
ALPHA
 10
83.994045
 20
33.890543
 30
0.0
 40
0.3
 50
202.848784
 51
287.0
  0
ARC
  5
9CBC
  8
ALPHA
 10
84.572083
 20
33.523507
 30
0.0
 40
0.22
 50
313.0
 51
107.0
  0
ARC
  5
9CBD
  8
ALPHA
 10
84.600926
 20
32.839393
 30
0.0
 40
0.3
 50
133.0
 51
217.151216
  0
ARC
  5
9CBE
  8
ALPHA
 10
88.486517
 20
35.783507
 30
0.0
 40
5.175
 50
187.150716
 51
202.849581
  0
ARC
  5
9CBF
  8
ALPHA
 10
88.486517
 20
35.783507
 30
0.0
 40
5.175
 50
157.150246
 51
172.849828
  0
LINE
  5
9CC0
  8
ALPHA
 10
84.507761
 20
33.733894
 30
0.0
 11
84.081756
 21
33.603651
 31
0.0
  0
LINE
  5
9CC1
  8
ALPHA
 10
84.396326
 20
33.0588
 30
0.0
 11
84.722122
 21
33.362609
 31
0.0
  0
LINE
  5
9CC2
  8
ALPHA
 10
84.081756
 20
37.963363
 30
0.0
 11
84.507761
 21
37.83312
 31
0.0
  0
LINE
  5
9CC3
  8
ALPHA
 10
83.581954
 20
35.468937
 30
0.0
 11
84.016007
 21
35.569145
 31
0.0
  0
LINE
  5
9CC4
  8
ALPHA
 10
84.016007
 20
35.997868
 30
0.0
 11
83.581954
 21
36.098077
 31
0.0
  0
ARC
  5
9CC5
  8
ALPHA
 10
93.323595
 20
35.176626
 30
0.0
 40
0.3
 50
352.848784
 51
77.0
  0
ARC
  5
9CC6
  8
ALPHA
 10
93.323595
 20
36.390388
 30
0.0
 40
0.3
 50
283.0
 51
7.151216
  0
ARC
  5
9CC7
  8
ALPHA
 10
88.486517
 20
35.783507
 30
0.0
 40
5.175
 50
7.149887
 51
22.849851
  0
ARC
  5
9CC8
  8
ALPHA
 10
88.486517
 20
35.783507
 30
0.0
 40
5.175
 50
337.149914
 51
352.849787
  0
ARC
  5
9CC9
  8
ALPHA
 10
88.486517
 20
35.783507
 30
0.0
 40
5.175
 50
277.156047
 51
292.849601
  0
ARC
  5
9CCA
  8
ALPHA
 10
88.486517
 20
35.783507
 30
0.0
 40
5.175
 50
247.151509
 51
262.843953
  0
LINE
  5
9CCB
  8
ALPHA
 10
85.361206
 20
31.658817
 30
0.0
 11
86.477087
 21
31.014563
 31
0.0
  0
ARC
  5
9CCC
  8
ALPHA
 10
85.542404
 20
31.897915
 30
0.0
 40
0.3
 50
232.848784
 51
317.0
  0
ARC
  5
9CCD
  8
ALPHA
 10
86.226517
 20
31.869072
 30
0.0
 40
0.22
 50
343.0
 51
137.0
  0
ARC
  5
9CCE
  8
ALPHA
 10
86.593553
 20
31.291034
 30
0.0
 40
0.3
 50
163.0
 51
247.151216
  0
LINE
  5
9CCF
  8
ALPHA
 10
86.06562
 20
32.019112
 30
0.0
 11
85.76181
 21
31.693316
 31
0.0
  0
LINE
  5
9CD0
  8
ALPHA
 10
86.306662
 20
31.378746
 30
0.0
 11
86.436904
 21
31.80475
 31
0.0
  0
LINE
  5
9CD1
  8
ALPHA
 10
87.841855
 20
30.648804
 30
0.0
 11
88.486517
 21
30.608507
 31
0.0
  0
LINE
  5
9CD2
  8
ALPHA
 10
88.486517
 20
30.608507
 30
0.0
 11
89.13118
 21
30.648804
 31
0.0
  0
ARC
  5
9CD3
  8
ALPHA
 10
87.879636
 20
30.946429
 30
0.0
 40
0.3
 50
262.848784
 51
347.0
  0
ARC
  5
9CD4
  8
ALPHA
 10
88.486517
 20
31.263507
 30
0.0
 40
0.22
 50
13.0
 51
167.0
  0
ARC
  5
9CD5
  8
ALPHA
 10
89.093399
 20
30.946429
 30
0.0
 40
0.3
 50
193.0
 51
277.151216
  0
LINE
  5
9CD6
  8
ALPHA
 10
88.272156
 20
31.312996
 30
0.0
 11
88.171947
 21
30.878944
 31
0.0
  0
LINE
  5
9CD7
  8
ALPHA
 10
88.801088
 20
30.878944
 30
0.0
 11
88.700879
 21
31.312996
 31
0.0
  0
ARC
  5
9CD8
  8
ALPHA
 10
88.486517
 20
35.783507
 30
0.0
 40
5.175
 50
307.149989
 51
322.849726
  0
LINE
  5
9CD9
  8
ALPHA
 10
90.496039
 20
31.014606
 30
0.0
 11
91.611716
 21
31.658739
 31
0.0
  0
ARC
  5
9CDA
  8
ALPHA
 10
91.430631
 20
31.897915
 30
0.0
 40
0.3
 50
223.0
 51
307.151216
  0
ARC
  5
9CDB
  8
ALPHA
 10
90.379482
 20
31.291034
 30
0.0
 40
0.3
 50
292.848784
 51
17.0
  0
ARC
  5
9CDC
  8
ALPHA
 10
90.746517
 20
31.869072
 30
0.0
 40
0.22
 50
43.0
 51
197.0
  0
LINE
  5
9CDD
  8
ALPHA
 10
90.53613
 20
31.80475
 30
0.0
 11
90.666373
 21
31.378746
 31
0.0
  0
LINE
  5
9CDE
  8
ALPHA
 10
91.211225
 20
31.693316
 30
0.0
 11
90.907415
 21
32.019112
 31
0.0
  0
LINE
  5
9CDF
  8
ALPHA
 10
92.611271
 20
32.658287
 30
0.0
 11
93.2554
 21
33.773946
 31
0.0
  0
ARC
  5
9CE0
  8
ALPHA
 10
92.372109
 20
32.839393
 30
0.0
 40
0.3
 50
322.848784
 51
47.0
  0
ARC
  5
9CE1
  8
ALPHA
 10
92.400952
 20
33.523507
 30
0.0
 40
0.22
 50
73.0
 51
227.0
  0
ARC
  5
9CE2
  8
ALPHA
 10
92.97899
 20
33.890543
 30
0.0
 40
0.3
 50
253.0
 51
337.151216
  0
ARC
  5
9CE3
  8
ALPHA
 10
93.006517
 20
35.783507
 30
0.0
 40
0.22
 50
103.0
 51
257.0
  0
ARC
  5
9CE4
  8
ALPHA
 10
92.97899
 20
37.676471
 30
0.0
 40
0.3
 50
22.848784
 51
107.0
  0
ARC
  5
9CE5
  8
ALPHA
 10
92.400952
 20
38.043507
 30
0.0
 40
0.22
 50
133.0
 51
287.0
  0
LINE
  5
9CE6
  8
ALPHA
 10
92.465274
 20
37.83312
 30
0.0
 11
92.891279
 21
37.963363
 31
0.0
  0
LINE
  5
9CE7
  8
ALPHA
 10
92.250913
 20
33.362609
 30
0.0
 11
92.576708
 21
33.0588
 31
0.0
  0
LINE
  5
9CE8
  8
ALPHA
 10
92.957028
 20
35.569145
 30
0.0
 11
93.39108
 21
35.468937
 31
0.0
  0
LINE
  5
9CE9
  8
ALPHA
 10
92.891279
 20
33.603651
 30
0.0
 11
92.465274
 21
33.733894
 31
0.0
  0
LINE
  5
9CEA
  8
ALPHA
 10
93.39108
 20
36.098077
 30
0.0
 11
92.957028
 21
35.997868
 31
0.0
  0
LINE
  5
9CEB
  8
ALPHA
 10
93.621269
 20
35.139369
 30
0.0
 11
93.621271
 21
36.427615
 31
0.0
  0
ARC
  5
9D0E
  8
ALPHA
 10
88.486517
 20
35.783507
 30
0.0
 40
5.175
 50
127.150013
 51
142.849866
  0
CIRCLE
  5
9D0F
  8
ALPHA
 10
88.486517
 20
62.183507
 30
0.0
 40
4.25
  0
CIRCLE
  5
9D10
  8
ALPHA
 10
88.486517
 20
62.183507
 30
0.0
 40
8.0
  0
CIRCLE
  5
9D11
  8
ALPHA
 10
88.486517
 20
62.183507
 30
0.0
 40
4.15
  0
LINE
  5
9D12
  8
ALPHA
 10
82.968259
 20
53.196805
 30
0.0
 11
94.004776
 21
53.196805
 31
0.0
  0
LINE
  5
9D13
  8
ALPHA
 10
82.918289
 20
52.743651
 30
0.0
 11
94.054746
 21
52.743651
 31
0.0
  0
LINE
  5
9D14
  8
ALPHA
 10
82.110499
 20
50.030741
 30
0.0
 11
94.862535
 21
50.030741
 31
0.0
  0
LINE
  5
9D15
  8
ALPHA
 10
81.759244
 20
47.764972
 30
0.0
 11
95.21379
 21
47.764972
 31
0.0
  0
LINE
  5
9D16
  8
ALPHA
 10
81.934872
 20
49.108221
 30
0.0
 11
82.110499
 21
50.030741
 31
0.0
  0
ARC
  5
9D17
  8
ALPHA
 10
84.600926
 20
38.72762
 30
0.0
 40
0.3
 50
142.848784
 51
227.0
  0
LINE
  5
9D18
  8
ALPHA
 10
81.759244
 20
47.764972
 30
0.0
 11
81.934872
 21
49.108221
 31
0.0
  0
LINE
  5
9D19
  8
ALPHA
 10
82.968259
 20
53.196805
 30
0.0
 11
83.290849
 21
56.122207
 31
0.0
  0
LINE
  5
9D1A
  8
ALPHA
 10
82.853493
 20
52.87827
 30
0.0
 11
82.933134
 21
52.87827
 31
0.0
  0
LINE
  5
9D1B
  8
ALPHA
 10
82.110499
 20
50.030741
 30
0.0
 11
82.853493
 21
52.87827
 31
0.0
  0
LINE
  5
9D1C
  8
ALPHA
 10
82.918289
 20
52.743651
 30
0.0
 11
82.968259
 21
53.196805
 31
0.0
  0
LINE
  5
9D1D
  8
ALPHA
 10
84.483605
 20
61.11093
 30
0.0
 11
84.392585
 21
61.086541
 31
0.0
  0
CIRCLE
  5
9D1E
  8
ALPHA
 10
88.486517
 20
62.183507
 30
0.0
 40
1.0
  0
ARC
  5
9D1F
  8
ALPHA
 10
88.486517
 20
35.783507
 30
0.0
 40
5.175
 50
67.150734
 51
82.848374
  0
LINE
  5
9D20
  8
ALPHA
 10
88.786517
 20
45.783507
 30
0.0
 11
88.786517
 21
42.783507
 31
0.0
  0
LINE
  5
9D21
  8
ALPHA
 10
88.486517
 20
42.783507
 30
0.0
 11
88.486517
 21
45.783507
 31
0.0
  0
LINE
  5
9D22
  8
ALPHA
 10
88.186517
 20
45.783507
 30
0.0
 11
88.186517
 21
42.783507
 31
0.0
  0
ARC
  5
9D23
  8
ALPHA
 10
88.486517
 20
35.783507
 30
0.0
 40
5.175
 50
97.155077
 51
112.849802
  0
LINE
  5
9D24
  8
ALPHA
 10
86.47698
 20
40.5524
 30
0.0
 11
85.361317
 21
39.908274
 31
0.0
  0
ARC
  5
9D25
  8
ALPHA
 10
86.593553
 20
40.27598
 30
0.0
 40
0.3
 50
112.848784
 51
197.0
  0
ARC
  5
9D26
  8
ALPHA
 10
86.226517
 20
39.697942
 30
0.0
 40
0.22
 50
223.0
 51
17.0
  0
ARC
  5
9D27
  8
ALPHA
 10
85.542404
 20
39.669098
 30
0.0
 40
0.3
 50
43.0
 51
127.151216
  0
LINE
  5
9D28
  8
ALPHA
 10
86.436904
 20
39.762263
 30
0.0
 11
86.306662
 21
40.188268
 31
0.0
  0
LINE
  5
9D29
  8
ALPHA
 10
85.76181
 20
39.873698
 30
0.0
 11
86.06562
 21
39.547902
 31
0.0
  0
LINE
  5
9D2A
  8
ALPHA
 10
88.486517
 20
40.958507
 30
0.0
 11
87.841942
 21
40.918218
 31
0.0
  0
LINE
  5
9D2B
  8
ALPHA
 10
89.130782
 20
40.918247
 30
0.0
 11
88.486517
 21
40.958507
 31
0.0
  0
ARC
  5
9D2C
  8
ALPHA
 10
89.093399
 20
40.620585
 30
0.0
 40
0.3
 50
82.848784
 51
167.0
  0
ARC
  5
9D2D
  8
ALPHA
 10
88.486517
 20
40.303507
 30
0.0
 40
0.22
 50
193.0
 51
347.0
  0
ARC
  5
9D2E
  8
ALPHA
 10
87.879636
 20
40.620585
 30
0.0
 40
0.3
 50
13.0
 51
97.151216
  0
LINE
  5
9D2F
  8
ALPHA
 10
88.700879
 20
40.254018
 30
0.0
 11
88.801088
 21
40.68807
 31
0.0
  0
LINE
  5
9D30
  8
ALPHA
 10
88.171947
 20
40.68807
 30
0.0
 11
88.272156
 21
40.254018
 31
0.0
  0
LINE
  5
9D31
  8
ALPHA
 10
88.186517
 20
42.783507
 30
0.0
 11
88.786517
 21
42.783507
 31
0.0
  0
LINE
  5
9D32
  8
ALPHA
 10
88.186517
 20
45.783507
 30
0.0
 11
88.786517
 21
45.783507
 31
0.0
  0
LINE
  5
9D33
  8
ALPHA
 10
91.611729
 20
39.908266
 30
0.0
 11
90.496011
 21
40.552421
 31
0.0
  0
ARC
  5
9D34
  8
ALPHA
 10
91.430631
 20
39.669098
 30
0.0
 40
0.3
 50
52.848784
 51
137.0
  0
ARC
  5
9D35
  8
ALPHA
 10
90.746517
 20
39.697942
 30
0.0
 40
0.22
 50
163.0
 51
317.0
  0
ARC
  5
9D36
  8
ALPHA
 10
90.379482
 20
40.27598
 30
0.0
 40
0.3
 50
343.0
 51
67.151216
  0
LINE
  5
9D37
  8
ALPHA
 10
90.907415
 20
39.547902
 30
0.0
 11
91.211225
 21
39.873698
 31
0.0
  0
LINE
  5
9D38
  8
ALPHA
 10
90.666373
 20
40.188268
 30
0.0
 11
90.53613
 21
39.762263
 31
0.0
  0
ARC
  5
9D39
  8
ALPHA
 10
92.372109
 20
38.72762
 30
0.0
 40
0.3
 50
313.0
 51
37.151216
  0
ARC
  5
9D3A
  8
ALPHA
 10
88.486517
 20
35.783507
 30
0.0
 40
5.175
 50
37.150027
 51
52.84983
  0
LINE
  5
9D3B
  8
ALPHA
 10
85.481314
 20
59.178303
 30
0.0
 11
85.559501
 21
59.256491
 31
0.0
  0
LINE
  5
9D3C
  8
ALPHA
 10
91.413534
 20
59.256491
 30
0.0
 11
91.491721
 21
59.178303
 31
0.0
  0
LINE
  5
9D3D
  8
ALPHA
 10
92.58045
 20
61.086541
 30
0.0
 11
92.48943
 21
61.11093
 31
0.0
  0
LINE
  5
9D3E
  8
ALPHA
 10
94.862535
 20
50.030741
 30
0.0
 11
95.038163
 21
49.108221
 31
0.0
  0
LINE
  5
9D3F
  8
ALPHA
 10
95.038163
 20
49.108221
 30
0.0
 11
95.21379
 21
47.764972
 31
0.0
  0
LINE
  5
9D40
  8
ALPHA
 10
94.004776
 20
53.196805
 30
0.0
 11
93.682186
 21
56.122207
 31
0.0
  0
LINE
  5
9D41
  8
ALPHA
 10
94.862535
 20
50.030741
 30
0.0
 11
94.119542
 21
52.87827
 31
0.0
  0
LINE
  5
9D42
  8
ALPHA
 10
94.004776
 20
53.196805
 30
0.0
 11
94.054746
 21
52.743651
 31
0.0
  0
LINE
  5
9D43
  8
ALPHA
 10
94.119542
 20
52.87827
 30
0.0
 11
94.039901
 21
52.87827
 31
0.0
  0
LINE
  5
9D44
  8
ALPHA
 10
87.389551
 20
66.27744
 30
0.0
 11
87.41394
 21
66.18642
 31
0.0
  0
LINE
  5
9D45
  8
ALPHA
 10
89.559095
 20
66.18642
 30
0.0
 11
89.583483
 21
66.27744
 31
0.0
  0
LINE
  5
9D88
  8
AXE
 10
88.486517
 20
19.283507
 30
0.0
 11
88.486517
 21
75.183507
 31
0.0
  0
TEXT
  5
9D89
  8
AXE
 10
83.438898
 20
19.283507
 30
0.0
 40
5.0
  1
Y
 72
     2
 11
87.486517
 21
19.283507
 31
0.0
  0
DIMENSION
  5
9D8A
  8
COTATION1
  2
*D4
 10
116.486517
 20
27.783507
 30
0.0
 11
116.486517
 21
48.983507
 31
0.0
 13
88.486517
 23
70.183507
 33
0.0
 14
88.486517
 24
27.783507
 34
0.0
 50
90.0
  0
LINE
  5
9D8E
  8
AXE
 10
75.486517
 20
62.183507
 30
0.0
 11
106.486517
 21
62.183507
 31
0.0
  0
TEXT
  5
9D8F
  8
AXE
 10
102.438898
 20
63.183507
 30
0.0
 40
5.0
  1
X
 72
     2
 11
106.486517
 21
63.183507
 31
0.0
  0
DIMENSION
  5
9D90
  8
COTATION1
  2
*D3
 10
96.486517
 20
85.183507
 30
0.0
 11
88.486517
 21
88.433507
 31
0.0
  1
%%c<>
 13
80.486517
 23
62.183507
 33
0.0
 14
96.486517
 24
62.183507
 34
0.0
  0
LINE
  5
9E9B
  8
AXE
 10
78.310628
 20
35.783507
 30
0.0
 11
98.662407
 21
35.783507
 31
0.0
  0
VIEWPORT
  5
494D
 67
     1
  8
0
 10
4.995325
 20
6.556512
 30
0.0
 40
22.70986
 41
13.988421
 68
    -1
 69
     1
1001
ACAD
1000
MVIEW
1002
{
1070
    16
1010
0.0
1020
0.0
1030
0.0
1010
0.0
1020
0.0
1030
1.0
1040
0.0
1040
13.988421
1040
4.995325
1040
6.556512
1040
50.0
1040
0.0
1040
0.0
1070
     0
1070
   100
1070
     1
1070
     1
1070
     0
1070
     0
1070
     0
1070
     0
1040
0.0
1040
0.0
1040
0.0
1040
10.0
1040
10.0
1040
10.0
1040
10.0
1070
     0
1002
{
1002
}
1002
}
  0
ENDSEC
  0
EOF
