  0
SECTION
  2
HEADER
  9
$ACADVER
  1
AC1009
  9
$INSBASE
 10
402.590624
 20
-1.041018
 30
0.0
  9
$EXTMIN
 10
1.110358
 20
3.395492
 30
0.0
  9
$EXTMAX
 10
60.378133
 20
84.095492
 30
0.0
  9
$LIMMIN
 10
-407.970438
 20
-367.832444
  9
$LIMMAX
 10
429.804077
 20
234.370848
  9
$ORTHOMODE
 70
     1
  9
$REGENMODE
 70
     1
  9
$FILLMODE
 70
     1
  9
$QTEXTMODE
 70
     0
  9
$MIRRTEXT
 70
     1
  9
$DRAGMODE
 70
     2
  9
$LTSCALE
 40
10.0
  9
$OSMODE
 70
    35
  9
$ATTMODE
 70
     1
  9
$TEXTSIZE
 40
6.0
  9
$TRACEWID
 40
1.0
  9
$TEXTSTYLE
  7
ROMANS
  9
$CLAYER
  8
COTATION1
  9
$CELTYPE
  6
BYLAYER
  9
$CECOLOR
 62
   256
  9
$DIMSCALE
 40
1.0
  9
$DIMASZ
 40
5.0
  9
$DIMEXO
 40
2.0
  9
$DIMDLI
 40
0.38
  9
$DIMRND
 40
0.0
  9
$DIMDLE
 40
0.0
  9
$DIMEXE
 40
2.5
  9
$DIMTP
 40
0.0
  9
$DIMTM
 40
0.0
  9
$DIMTXT
 40
2.5
  9
$DIMCEN
 40
0.0
  9
$DIMTSZ
 40
0.0
  9
$DIMTOL
 70
     0
  9
$DIMLIM
 70
     0
  9
$DIMTIH
 70
     1
  9
$DIMTOH
 70
     1
  9
$DIMSE1
 70
     0
  9
$DIMSE2
 70
     0
  9
$DIMTAD
 70
     1
  9
$DIMZIN
 70
    12
  9
$DIMBLK
  1
OPEN30
  9
$DIMASO
 70
     1
  9
$DIMSHO
 70
     1
  9
$DIMPOST
  1

  9
$DIMAPOST
  1

  9
$DIMALT
 70
     0
  9
$DIMALTD
 70
     2
  9
$DIMALTF
 40
25.4
  9
$DIMLFAC
 40
1.0
  9
$DIMTOFL
 70
     0
  9
$DIMTVP
 40
0.0
  9
$DIMTIX
 70
     0
  9
$DIMSOXD
 70
     0
  9
$DIMSAH
 70
     0
  9
$DIMBLK1
  1

  9
$DIMBLK2
  1

  9
$DIMSTYLE
  2
SC_DEFAUT
  9
$DIMCLRD
 70
     0
  9
$DIMCLRE
 70
     0
  9
$DIMCLRT
 70
     0
  9
$DIMTFAC
 40
1.0
  9
$DIMGAP
 40
2.0
  9
$LUNITS
 70
     2
  9
$LUPREC
 70
     1
  9
$SKETCHINC
 40
0.1
  9
$FILLETRAD
 40
0.0
  9
$AUNITS
 70
     0
  9
$AUPREC
 70
     0
  9
$MENU
  1
acad
  9
$ELEVATION
 40
0.0
  9
$PELEVATION
 40
0.0
  9
$THICKNESS
 40
0.0
  9
$LIMCHECK
 70
     0
  9
$BLIPMODE
 70
     0
  9
$CHAMFERA
 40
0.0
  9
$CHAMFERB
 40
0.0
  9
$SKPOLY
 70
     0
  9
$TDCREATE
 40
2450373.687919
  9
$TDUPDATE
 40
2453038.633736
  9
$TDINDWG
 40
1.118801
  9
$TDUSRTIMER
 40
1.118801
  9
$USRTIMER
 70
     1
  9
$ANGBASE
 50
0.0
  9
$ANGDIR
 70
     0
  9
$PDMODE
 70
    32
  9
$PDSIZE
 40
0.0
  9
$PLINEWID
 40
0.0
  9
$COORDS
 70
     1
  9
$SPLFRAME
 70
     0
  9
$SPLINETYPE
 70
     6
  9
$SPLINESEGS
 70
     8
  9
$ATTDIA
 70
     0
  9
$ATTREQ
 70
     1
  9
$HANDLING
 70
     1
  9
$HANDSEED
  5
C0AA
  9
$SURFTAB1
 70
     6
  9
$SURFTAB2
 70
     6
  9
$SURFTYPE
 70
     6
  9
$SURFU
 70
     6
  9
$SURFV
 70
     6
  9
$UCSNAME
  2

  9
$UCSORG
 10
0.0
 20
0.0
 30
0.0
  9
$UCSXDIR
 10
1.0
 20
0.0
 30
0.0
  9
$UCSYDIR
 10
0.0
 20
1.0
 30
0.0
  9
$PUCSNAME
  2

  9
$PUCSORG
 10
0.0
 20
0.0
 30
0.0
  9
$PUCSXDIR
 10
1.0
 20
0.0
 30
0.0
  9
$PUCSYDIR
 10
0.0
 20
1.0
 30
0.0
  9
$USERI1
 70
     0
  9
$USERI2
 70
     0
  9
$USERI3
 70
     0
  9
$USERI4
 70
     0
  9
$USERI5
 70
     0
  9
$USERR1
 40
0.0
  9
$USERR2
 40
0.0
  9
$USERR3
 40
0.0
  9
$USERR4
 40
0.0
  9
$USERR5
 40
0.0
  9
$WORLDVIEW
 70
     1
  9
$SHADEDGE
 70
     3
  9
$SHADEDIF
 70
    70
  9
$TILEMODE
 70
     1
  9
$MAXACTVP
 70
    16
  9
$PLIMCHECK
 70
     0
  9
$PEXTMIN
 10
-1.452248
 20
-0.437698
 30
0.0
  9
$PEXTMAX
 10
12.749749
 20
8.310198
 30
0.0
  9
$PLIMMIN
 10
0.0
 20
0.0
  9
$PLIMMAX
 10
12.0
 20
9.0
  9
$UNITMODE
 70
     0
  9
$VISRETAIN
 70
     0
  9
$PLINEGEN
 70
     0
  9
$PSLTSCALE
 70
     0
  0
ENDSEC
  0
SECTION
  2
TABLES
  0
TABLE
  2
VPORT
 70
     2
  0
VPORT
  2
*ACTIVE
 70
     0
 10
0.0
 20
0.0
 11
1.0
 21
1.0
 12
30.73113
 22
43.74267
 13
0.0
 23
0.0
 14
1.0
 24
1.0
 15
10.0
 25
10.0
 16
0.0
 26
0.0
 36
1.0
 17
0.0
 27
0.0
 37
0.0
 40
81.305873
 41
1.466346
 42
50.0
 43
0.0
 44
0.0
 50
0.0
 51
0.0
 71
     0
 72
   100
 73
     1
 74
     0
 75
     0
 76
     0
 77
     0
 78
     0
  0
ENDTAB
  0
TABLE
  2
LTYPE
 70
     2
  0
LTYPE
  2
CONTINUOUS
 70
     0
  3
Solid line
 72
    65
 73
     0
 40
0.0
  0
LTYPE
  2
AXES2
 70
     0
  3
___ _ ___ _ ___ _ ___ _ ___ _ ___ _ ___ _ ___ _
 72
    65
 73
     4
 40
1.125
 49
0.75
 49
-0.125
 49
0.125
 49
-0.125
  0
ENDTAB
  0
TABLE
  2
LAYER
 70
     5
  0
LAYER
  2
0
 70
     0
 62
   255
  6
CONTINUOUS
  0
LAYER
  2
COTATION1
 70
     0
 62
     2
  6
CONTINUOUS
  0
LAYER
  2
AXE
 70
     0
 62
    80
  6
AXES2
  0
LAYER
  2
DEFPOINTS
 70
     0
 62
     7
  6
CONTINUOUS
  0
LAYER
  2
ALPHA
 70
     0
 62
   254
  6
CONTINUOUS
  0
ENDTAB
  0
TABLE
  2
STYLE
 70
     2
  0
STYLE
  2
ROMANS
 70
     0
 40
0.0
 41
1.0
 50
0.0
 71
     0
 42
6.0
  3
romans
  4

  0
STYLE
  2
STANDARD
 70
     0
 40
0.0
 41
1.0
 50
0.0
 71
     0
 42
0.2
  3
txt
  4

  0
ENDTAB
  0
TABLE
  2
VIEW
 70
     0
  0
ENDTAB
  0
TABLE
  2
UCS
 70
     0
  0
ENDTAB
  0
TABLE
  2
APPID
 70
     1
  0
APPID
  2
ACAD
 70
     0
  0
ENDTAB
  0
TABLE
  2
DIMSTYLE
 70
     2
  0
DIMSTYLE
  2
SC_DEFAUT
 70
     0
  3

  4

  5
OPEN30
  6

  7

 40
1.0
 41
5.0
 42
2.0
 43
0.38
 44
2.5
 45
0.0
 46
0.0
 47
0.0
 48
0.0
140
2.5
141
0.0
142
0.0
143
25.4
144
1.0
145
0.0
146
1.0
147
2.0
 71
     0
 72
     0
 73
     1
 74
     1
 75
     0
 76
     0
 77
     1
 78
    12
170
     0
171
     2
172
     0
173
     0
174
     0
175
     0
176
     0
177
     0
178
     0
  0
DIMSTYLE
  2
STANDARD
 70
     0
  3

  4

  5

  6

  7

 40
1.0
 41
0.18
 42
0.0625
 43
0.38
 44
0.18
 45
0.0
 46
0.0
 47
0.0
 48
0.0
140
0.18
141
0.09
142
0.0
143
25.4
144
1.0
145
0.0
146
1.0
147
0.09
 71
     0
 72
     0
 73
     1
 74
     1
 75
     0
 76
     0
 77
     0
 78
     0
170
     0
171
     2
172
     0
173
     0
174
     0
175
     0
176
     0
177
     0
178
     0
  0
ENDTAB
  0
ENDSEC
  0
SECTION
  2
BLOCKS
  0
BLOCK
  8
0
  2
$MODEL_SPACE
 70
     0
 10
0.0
 20
0.0
 30
0.0
  3
$MODEL_SPACE
  1

  0
ENDBLK
  5
BD68
  8
0
  0
BLOCK
 67
     1
  8
0
  2
$PAPER_SPACE
 70
     0
 10
0.0
 20
0.0
 30
0.0
  3
$PAPER_SPACE
  1

  0
ENDBLK
  5
BD66
 67
     1
  8
0
  0
BLOCK
  8
0
  2
COTE
 70
     0
 10
0.0
 20
0.0
 30
0.0
  3
COTE
  1

  0
ENDBLK
  5
F
  8
0
  0
BLOCK
  8
0
  2
FOND
 70
     0
 10
0.0
 20
0.0
 30
0.0
  3
FOND
  1

  0
ENDBLK
  5
75
  8
0
  0
BLOCK
  8
0
  2
_OPEN30
 70
     0
 10
0.0
 20
0.0
 30
0.0
  3
_OPEN30
  1

  0
LINE
  5
4B05
  8
COTATION1
 62
     0
 10
-1.0
 20
0.267949
 30
0.0
 11
0.0
 21
0.0
 31
0.0
1001
ACAD
1000
RTLwPs
1070
   158
  0
LINE
  5
4B06
  8
COTATION1
 62
     0
 10
0.0
 20
0.0
 30
0.0
 11
-1.0
 21
-0.267949
 31
0.0
1001
ACAD
1000
RTLwPs
1070
   158
  0
LINE
  5
4B07
  8
COTATION1
 62
     0
 10
0.0
 20
0.0
 30
0.0
 11
-1.0
 21
0.0
 31
0.0
1001
ACAD
1000
RTLwPs
1070
   158
  0
ENDBLK
  5
4B09
  8
0
  0
BLOCK
  8
0
  2
*D3
 70
     1
 10
0.0
 20
0.0
 30
0.0
  3
*D3
  1

  0
LINE
  5
B983
  8
COTATION1
 62
     0
 10
18.93273
 20
56.672549
 30
0.0
 11
18.93273
 21
82.095492
 31
0.0
1001
ACAD
1000
RTLwPs
1070
   158
  0
LINE
  5
B984
  8
COTATION1
 62
     0
 10
50.378133
 20
62.095492
 30
0.0
 11
50.378133
 21
82.095492
 31
0.0
1001
ACAD
1000
RTLwPs
1070
   158
  0
LINE
  5
B985
  8
COTATION1
 62
     0
 10
23.93273
 20
79.595492
 30
0.0
 11
45.378133
 21
79.595492
 31
0.0
1001
ACAD
1000
RTLwPs
1070
   158
  0
INSERT
  5
B986
  8
COTATION1
 62
     0
  2
_OPEN30
 10
18.93273
 20
79.595492
 30
0.0
 41
5.0
 42
5.0
 43
5.0
 50
180.0
1001
ACAD
1000
RTLwPs
1070
   158
  0
INSERT
  5
B987
  8
COTATION1
 62
     0
  2
_OPEN30
 10
50.378133
 20
79.595492
 30
0.0
 41
5.0
 42
5.0
 43
5.0
1001
ACAD
1000
RTLwPs
1070
   158
  0
TEXT
  5
B988
  8
COTATION1
 62
     0
 10
30.429241
 20
81.595492
 30
0.0
 40
2.5
  1
31.4
1001
ACAD
1000
MTEXTBEGIN
1070
    73
1070
     1
1070
    44
1040
1.0
1070
    74
1070
     0
1000
MTEXTEND
  0
POINT
  5
B989
  8
DEFPOINTS
 62
     0
 10
18.93273
 20
54.672549
 30
0.0
  0
POINT
  5
B98A
  8
DEFPOINTS
 62
     0
 10
50.378133
 20
60.095492
 30
0.0
  0
POINT
  5
B98B
  8
DEFPOINTS
 62
     0
 10
50.378133
 20
79.595492
 30
0.0
  0
ENDBLK
  5
B782
  8
0
  0
ENDSEC
  0
SECTION
  2
ENTITIES
  0
INSERT
  5
A
  8
0
  2
COTE
 10
0.0
 20
0.0
 30
0.0
  0
INSERT
  5
17
  8
0
  2
COTE
 10
284.010391
 20
6.373258
 30
0.0
  0
INSERT
  5
72
  8
0
  2
FOND
 10
0.0
 20
0.0
 30
0.0
  0
ARC
  5
B555
  8
ALPHA
 10
50.378133
 20
75.675674
 30
0.0
 40
58.7
 50
256.49496
 51
269.707175
  0
ARC
  5
B556
  8
ALPHA
 10
50.378133
 20
-12.484691
 30
0.0
 40
58.7
 50
90.292825
 51
103.50504
  0
ARC
  5
B557
  8
ALPHA
 10
50.378133
 20
75.675674
 30
0.0
 40
60.0
 50
252.379994
 51
269.71352
  0
ARC
  5
B558
  8
ALPHA
 10
50.378133
 20
-12.484691
 30
0.0
 40
60.0
 50
90.28648
 51
107.620006
  0
POLYLINE
  5
B55F
  8
ALPHA
 66
     1
 10
0.0
 20
0.0
 30
0.0
  0
VERTEX
  5
BD6E
  8
ALPHA
 10
33.096667
 20
64.421292
 30
0.0
  0
VERTEX
  5
BD6F
  8
ALPHA
 10
34.356189
 20
64.376923
 30
0.0
  0
VERTEX
  5
BD70
  8
ALPHA
 10
35.708061
 20
64.344257
 30
0.0
  0
VERTEX
  5
BD71
  8
ALPHA
 10
37.14218
 20
64.326557
 30
0.0
  0
VERTEX
  5
BD72
  8
ALPHA
 10
38.612619
 20
64.326548
 30
0.0
  0
VERTEX
  5
BD73
  8
ALPHA
 10
40.046372
 20
64.344223
 30
0.0
  0
VERTEX
  5
BD74
  8
ALPHA
 10
41.398484
 20
64.376875
 30
0.0
  0
SEQEND
  5
BD75
  8
ALPHA
  0
LINE
  5
B560
  8
ALPHA
 10
25.878133
 20
64.595492
 30
0.0
 11
50.078133
 21
64.595492
 31
0.0
  0
LINE
  5
B561
  8
ALPHA
 10
25.878133
 20
62.256057
 30
0.0
 11
50.078133
 21
62.256057
 31
0.0
  0
LINE
  5
B562
  8
ALPHA
 10
25.378133
 20
61.274587
 30
0.0
 11
50.078133
 21
61.274587
 31
0.0
  0
LINE
  5
B567
  8
ALPHA
 10
33.278133
 20
14.095492
 30
0.0
 11
50.078133
 21
14.095492
 31
0.0
  0
LINE
  5
B568
  8
ALPHA
 10
21.635825
 20
13.595492
 30
0.0
 11
50.078133
 21
13.595492
 31
0.0
  0
POLYLINE
  5
B56C
  8
ALPHA
 66
     1
 10
0.0
 20
0.0
 30
0.0
  0
VERTEX
  5
BD76
  8
ALPHA
 10
25.378133
 20
47.716418
 30
0.0
  0
VERTEX
  5
BD77
  8
ALPHA
 10
25.558233
 20
50.429739
 30
0.0
  0
VERTEX
  5
BD78
  8
ALPHA
 10
25.698235
 20
53.141987
 30
0.0
  0
VERTEX
  5
BD79
  8
ALPHA
 10
25.798194
 20
55.853391
 30
0.0
  0
VERTEX
  5
BD7A
  8
ALPHA
 10
25.858151
 20
58.564181
 30
0.0
  0
VERTEX
  5
BD7B
  8
ALPHA
 10
25.878133
 20
61.274587
 30
0.0
  0
SEQEND
  5
BD7C
  8
ALPHA
  0
LINE
  5
B56D
  8
ALPHA
 10
25.378133
 20
47.683596
 30
0.0
 11
25.378133
 21
64.095492
 31
0.0
  0
LINE
  5
B56E
  8
ALPHA
 10
25.178133
 20
50.825641
 30
0.0
 11
25.178133
 21
61.995296
 31
0.0
  0
POLYLINE
  5
B56F
  8
ALPHA
 66
     1
 10
0.0
 20
0.0
 30
0.0
  0
VERTEX
  5
BD7D
  8
ALPHA
 10
21.967097
 20
60.420151
 30
0.0
  0
VERTEX
  5
BD7E
  8
ALPHA
 10
21.79397
 20
59.863643
 30
0.0
  0
VERTEX
  5
BD7F
  8
ALPHA
 10
21.627264
 20
59.28682
 30
0.0
  0
VERTEX
  5
BD80
  8
ALPHA
 10
21.468911
 20
58.693578
 30
0.0
  0
VERTEX
  5
BD81
  8
ALPHA
 10
21.321565
 20
58.092469
 30
0.0
  0
SEQEND
  5
BD82
  8
ALPHA
  0
POLYLINE
  5
B570
  8
ALPHA
 66
     1
 10
0.0
 20
0.0
 30
0.0
  0
VERTEX
  5
BD83
  8
ALPHA
 10
23.392662
 20
60.93432
 30
0.0
  0
VERTEX
  5
BD84
  8
ALPHA
 10
23.215515
 20
60.354883
 30
0.0
  0
VERTEX
  5
BD85
  8
ALPHA
 10
23.020187
 20
59.746088
 30
0.0
  0
VERTEX
  5
BD86
  8
ALPHA
 10
22.809691
 20
59.113672
 30
0.0
  0
VERTEX
  5
BD87
  8
ALPHA
 10
22.58975
 20
58.468766
 30
0.0
  0
VERTEX
  5
BD88
  8
ALPHA
 10
22.364665
 20
57.816174
 30
0.0
  0
VERTEX
  5
BD89
  8
ALPHA
 10
22.137676
 20
57.156574
 30
0.0
  0
VERTEX
  5
BD8A
  8
ALPHA
 10
21.911823
 20
56.489352
 30
0.0
  0
VERTEX
  5
BD8B
  8
ALPHA
 10
21.690208
 20
55.813469
 30
0.0
  0
VERTEX
  5
BD8C
  8
ALPHA
 10
21.476828
 20
55.130285
 30
0.0
  0
VERTEX
  5
BD8D
  8
ALPHA
 10
21.276557
 20
54.444095
 30
0.0
  0
VERTEX
  5
BD8E
  8
ALPHA
 10
21.099246
 20
53.779938
 30
0.0
  0
VERTEX
  5
BD8F
  8
ALPHA
 10
20.950017
 20
53.155253
 30
0.0
  0
VERTEX
  5
BD90
  8
ALPHA
 10
20.826775
 20
52.564511
 30
0.0
  0
SEQEND
  5
BD91
  8
ALPHA
  0
LINE
  5
B571
  8
ALPHA
 10
22.156064
 20
60.988519
 30
0.0
 11
21.166851
 21
57.531474
 31
0.0
  0
POLYLINE
  5
B572
  8
ALPHA
 66
     1
 10
0.0
 20
0.0
 30
0.0
  0
VERTEX
  5
BD92
  8
ALPHA
 10
20.826775
 20
52.564511
 30
0.0
  0
VERTEX
  5
BD93
  8
ALPHA
 10
22.2744
 20
52.831194
 30
0.0
  0
VERTEX
  5
BD94
  8
ALPHA
 10
23.727917
 20
52.995472
 30
0.0
  0
VERTEX
  5
BD95
  8
ALPHA
 10
25.178133
 20
53.058917
 30
0.0
  0
SEQEND
  5
BD96
  8
ALPHA
  0
POLYLINE
  5
B573
  8
ALPHA
 66
     1
 10
0.0
 20
0.0
 30
0.0
  0
VERTEX
  5
BD97
  8
ALPHA
 10
20.714487
 20
50.105614
 30
0.0
  0
VERTEX
  5
BD98
  8
ALPHA
 10
22.196147
 20
50.494781
 30
0.0
  0
VERTEX
  5
BD99
  8
ALPHA
 10
23.688767
 20
50.733932
 30
0.0
  0
VERTEX
  5
BD9A
  8
ALPHA
 10
25.178133
 20
50.825641
 30
0.0
  0
SEQEND
  5
BD9B
  8
ALPHA
  0
POLYLINE
  5
B574
  8
ALPHA
 66
     1
 10
0.0
 20
0.0
 30
0.0
  0
VERTEX
  5
BD9C
  8
ALPHA
 10
25.378133
 20
47.683596
 30
0.0
  0
VERTEX
  5
BD9D
  8
ALPHA
 10
24.093938
 20
47.63636
 30
0.0
  0
VERTEX
  5
BD9E
  8
ALPHA
 10
22.817813
 20
47.481895
 30
0.0
  0
VERTEX
  5
BD9F
  8
ALPHA
 10
21.55742
 20
47.220973
 30
0.0
  0
SEQEND
  5
BDA0
  8
ALPHA
  0
POLYLINE
  5
B575
  8
ALPHA
 66
     1
 10
0.0
 20
0.0
 30
0.0
  0
VERTEX
  5
BDA1
  8
ALPHA
 10
25.360681
 20
46.72743
 30
0.0
  0
VERTEX
  5
BDA2
  8
ALPHA
 10
24.15621
 20
46.683205
 30
0.0
  0
VERTEX
  5
BDA3
  8
ALPHA
 10
22.959829
 20
46.538017
 30
0.0
  0
VERTEX
  5
BDA4
  8
ALPHA
 10
21.778759
 20
46.292692
 30
0.0
  0
SEQEND
  5
BDA5
  8
ALPHA
  0
POLYLINE
  5
B576
  8
ALPHA
 66
     1
 10
0.0
 20
0.0
 30
0.0
  0
VERTEX
  5
BDA6
  8
ALPHA
 10
29.478133
 20
15.095492
 30
0.0
  0
VERTEX
  5
BDA7
  8
ALPHA
 10
29.467531
 20
15.071929
 30
0.0
  0
VERTEX
  5
BDA8
  8
ALPHA
 10
29.444858
 20
15.053753
 30
0.0
  0
VERTEX
  5
BDA9
  8
ALPHA
 10
29.416641
 20
15.038756
 30
0.0
  0
VERTEX
  5
BDAA
  8
ALPHA
 10
29.384391
 20
15.025448
 30
0.0
  0
VERTEX
  5
BDAB
  8
ALPHA
 10
29.348506
 20
15.013134
 30
0.0
  0
VERTEX
  5
BDAC
  8
ALPHA
 10
29.309048
 20
15.001441
 30
0.0
  0
VERTEX
  5
BDAD
  8
ALPHA
 10
29.265929
 20
14.990143
 30
0.0
  0
VERTEX
  5
BDAE
  8
ALPHA
 10
29.218981
 20
14.979087
 30
0.0
  0
VERTEX
  5
BDAF
  8
ALPHA
 10
29.167992
 20
14.968168
 30
0.0
  0
VERTEX
  5
BDB0
  8
ALPHA
 10
29.112702
 20
14.957306
 30
0.0
  0
VERTEX
  5
BDB1
  8
ALPHA
 10
29.052754
 20
14.946428
 30
0.0
  0
VERTEX
  5
BDB2
  8
ALPHA
 10
28.987846
 20
14.935489
 30
0.0
  0
VERTEX
  5
BDB3
  8
ALPHA
 10
28.91763
 20
14.92445
 30
0.0
  0
VERTEX
  5
BDB4
  8
ALPHA
 10
28.841718
 20
14.913276
 30
0.0
  0
VERTEX
  5
BDB5
  8
ALPHA
 10
28.759688
 20
14.901935
 30
0.0
  0
VERTEX
  5
BDB6
  8
ALPHA
 10
28.671082
 20
14.890399
 30
0.0
  0
VERTEX
  5
BDB7
  8
ALPHA
 10
28.575404
 20
14.878643
 30
0.0
  0
VERTEX
  5
BDB8
  8
ALPHA
 10
28.47212
 20
14.866643
 30
0.0
  0
VERTEX
  5
BDB9
  8
ALPHA
 10
28.360651
 20
14.854376
 30
0.0
  0
VERTEX
  5
BDBA
  8
ALPHA
 10
28.240369
 20
14.841821
 30
0.0
  0
VERTEX
  5
BDBB
  8
ALPHA
 10
28.110619
 20
14.828958
 30
0.0
  0
VERTEX
  5
BDBC
  8
ALPHA
 10
27.970632
 20
14.815763
 30
0.0
  0
VERTEX
  5
BDBD
  8
ALPHA
 10
27.819565
 20
14.802212
 30
0.0
  0
VERTEX
  5
BDBE
  8
ALPHA
 10
27.656599
 20
14.788288
 30
0.0
  0
VERTEX
  5
BDBF
  8
ALPHA
 10
27.480838
 20
14.773974
 30
0.0
  0
VERTEX
  5
BDC0
  8
ALPHA
 10
27.291286
 20
14.759251
 30
0.0
  0
VERTEX
  5
BDC1
  8
ALPHA
 10
27.086868
 20
14.744099
 30
0.0
  0
VERTEX
  5
BDC2
  8
ALPHA
 10
26.866422
 20
14.728498
 30
0.0
  0
VERTEX
  5
BDC3
  8
ALPHA
 10
26.628688
 20
14.712428
 30
0.0
  0
VERTEX
  5
BDC4
  8
ALPHA
 10
26.372337
 20
14.695871
 30
0.0
  0
VERTEX
  5
BDC5
  8
ALPHA
 10
26.095876
 20
14.678806
 30
0.0
  0
VERTEX
  5
BDC6
  8
ALPHA
 10
25.797603
 20
14.661206
 30
0.0
  0
VERTEX
  5
BDC7
  8
ALPHA
 10
25.475855
 20
14.643054
 30
0.0
  0
VERTEX
  5
BDC8
  8
ALPHA
 10
25.128845
 20
14.624336
 30
0.0
  0
VERTEX
  5
BDC9
  8
ALPHA
 10
24.754592
 20
14.605031
 30
0.0
  0
VERTEX
  5
BDCA
  8
ALPHA
 10
24.350948
 20
14.585123
 30
0.0
  0
VERTEX
  5
BDCB
  8
ALPHA
 10
23.915619
 20
14.564592
 30
0.0
  0
VERTEX
  5
BDCC
  8
ALPHA
 10
23.446053
 20
14.543418
 30
0.0
  0
VERTEX
  5
BDCD
  8
ALPHA
 10
22.939411
 20
14.52158
 30
0.0
  0
VERTEX
  5
BDCE
  8
ALPHA
 10
22.392805
 20
14.499061
 30
0.0
  0
VERTEX
  5
BDCF
  8
ALPHA
 10
21.803163
 20
14.475851
 30
0.0
  0
SEQEND
  5
BDD0
  8
ALPHA
  0
LINE
  5
B578
  8
ALPHA
 10
21.778759
 20
46.292692
 30
0.0
 11
21.778759
 21
14.475639
 31
0.0
  0
LINE
  5
B579
  8
ALPHA
 10
20.799189
 20
46.292705
 30
0.0
 11
20.799189
 21
14.754586
 31
0.0
  0
LINE
  5
B57A
  8
ALPHA
 10
19.878133
 20
14.687209
 30
0.0
 11
19.878133
 21
49.536197
 31
0.0
  0
ARC
  5
B57B
  8
ALPHA
 10
20.878132
 20
14.688156
 30
0.0
 40
1.0
 50
180.0
 51
269.0
  0
LINE
  5
B57C
  8
ALPHA
 10
20.36801
 20
14.679633
 30
0.0
 11
19.878133
 21
14.688156
 31
0.0
  0
POLYLINE
  5
B57D
  8
ALPHA
 66
     1
 10
0.0
 20
0.0
 30
0.0
  0
VERTEX
  5
BDD1
  8
ALPHA
 10
20.799189
 20
14.754581
 30
0.0
  0
VERTEX
  5
BDD2
  8
ALPHA
 10
20.793214
 20
14.687219
 30
0.0
  0
VERTEX
  5
BDD3
  8
ALPHA
 10
20.786311
 20
14.636894
 30
0.0
  0
VERTEX
  5
BDD4
  8
ALPHA
 10
20.778789
 20
14.60588
 30
0.0
  0
VERTEX
  5
BDD5
  8
ALPHA
 10
20.771025
 20
14.595492
 30
0.0
  0
SEQEND
  5
BDD6
  8
ALPHA
  0
POLYLINE
  5
B57E
  8
ALPHA
 66
     1
 10
0.0
 20
0.0
 30
0.0
  0
VERTEX
  5
BDD7
  8
ALPHA
 10
21.803154
 20
14.475851
 30
0.0
  0
VERTEX
  5
BDD8
  8
ALPHA
 10
21.798594
 20
14.181909
 30
0.0
  0
VERTEX
  5
BDD9
  8
ALPHA
 10
21.792451
 20
13.935811
 30
0.0
  0
VERTEX
  5
BDDA
  8
ALPHA
 10
21.785047
 20
13.750098
 30
0.0
  0
VERTEX
  5
BDDB
  8
ALPHA
 10
21.776801
 20
13.634664
 30
0.0
  0
VERTEX
  5
BDDC
  8
ALPHA
 10
21.768138
 20
13.595492
 30
0.0
  0
SEQEND
  5
BDDD
  8
ALPHA
  0
POLYLINE
  5
B57F
  8
ALPHA
 66
     1
 10
0.0
 20
0.0
 30
0.0
  0
VERTEX
  5
BDDE
  8
ALPHA
 10
20.633369
 20
15.845492
 30
0.0
  0
VERTEX
  5
BDDF
  8
ALPHA
 10
20.635934
 20
16.076922
 30
0.0
  0
VERTEX
  5
BDE0
  8
ALPHA
 10
20.643407
 20
16.28586
 30
0.0
  0
VERTEX
  5
BDE1
  8
ALPHA
 10
20.655139
 20
16.45193
 30
0.0
  0
VERTEX
  5
BDE2
  8
ALPHA
 10
20.670044
 20
16.558571
 30
0.0
  0
VERTEX
  5
BDE3
  8
ALPHA
 10
20.686797
 20
16.595492
 30
0.0
  0
SEQEND
  5
BDE4
  8
ALPHA
  0
POLYLINE
  5
B580
  8
ALPHA
 66
     1
 10
0.0
 20
0.0
 30
0.0
  0
VERTEX
  5
BDE5
  8
ALPHA
 10
20.36801
 20
17.345492
 30
0.0
  0
VERTEX
  5
BDE6
  8
ALPHA
 10
20.36938
 20
17.499413
 30
0.0
  0
VERTEX
  5
BDE7
  8
ALPHA
 10
20.373436
 20
17.640095
 30
0.0
  0
VERTEX
  5
BDE8
  8
ALPHA
 10
20.379642
 20
17.749339
 30
0.0
  0
VERTEX
  5
BDE9
  8
ALPHA
 10
20.387696
 20
17.821146
 30
0.0
  0
VERTEX
  5
BDEA
  8
ALPHA
 10
20.396593
 20
17.845492
 30
0.0
  0
SEQEND
  5
BDEB
  8
ALPHA
  0
LINE
  5
B581
  8
ALPHA
 10
20.742057
 20
14.595492
 30
0.0
 11
20.742057
 21
15.845492
 31
0.0
  0
LINE
  5
B582
  8
ALPHA
 10
20.633369
 20
14.595492
 30
0.0
 11
20.633369
 21
15.845492
 31
0.0
  0
LINE
  5
B583
  8
ALPHA
 10
20.525513
 20
14.595492
 30
0.0
 11
20.525513
 21
17.345492
 31
0.0
  0
LINE
  5
B584
  8
ALPHA
 10
20.36801
 20
14.679633
 30
0.0
 11
20.36801
 21
17.345492
 31
0.0
  0
POLYLINE
  5
B585
  8
ALPHA
 66
     1
 10
0.0
 20
0.0
 30
0.0
  0
VERTEX
  5
BDEC
  8
ALPHA
 10
20.36801
 20
14.679633
 30
0.0
  0
VERTEX
  5
BDED
  8
ALPHA
 10
20.415595
 20
14.375062
 30
0.0
  0
VERTEX
  5
BDEE
  8
ALPHA
 10
20.556204
 20
14.09611
 30
0.0
  0
VERTEX
  5
BDEF
  8
ALPHA
 10
20.770692
 20
13.878082
 30
0.0
  0
VERTEX
  5
BDF0
  8
ALPHA
 10
20.930244
 20
13.794302
 30
0.0
  0
SEQEND
  5
BDF1
  8
ALPHA
  0
POLYLINE
  5
B586
  8
ALPHA
 66
     1
 10
0.0
 20
0.0
 30
0.0
  0
VERTEX
  5
BDF2
  8
ALPHA
 10
20.633369
 20
14.595492
 30
0.0
  0
VERTEX
  5
BDF3
  8
ALPHA
 10
20.682019
 20
14.287747
 30
0.0
  0
VERTEX
  5
BDF4
  8
ALPHA
 10
20.825785
 20
14.006383
 30
0.0
  0
VERTEX
  5
BDF5
  8
ALPHA
 10
21.044674
 20
13.78787
 30
0.0
  0
VERTEX
  5
BDF6
  8
ALPHA
 10
21.326722
 20
13.644217
 30
0.0
  0
SEQEND
  5
BDF7
  8
ALPHA
  0
LINE
  5
B587
  8
ALPHA
 10
20.396593
 20
17.845492
 30
0.0
 11
20.493517
 21
17.845492
 31
0.0
  0
LINE
  5
B588
  8
ALPHA
 10
20.525513
 20
17.345492
 30
0.0
 11
20.36801
 21
17.345492
 31
0.0
  0
POLYLINE
  5
B589
  8
ALPHA
 66
     1
 10
0.0
 20
0.0
 30
0.0
  0
VERTEX
  5
BDF8
  8
ALPHA
 10
20.493517
 20
17.845492
 30
0.0
  0
VERTEX
  5
BDF9
  8
ALPHA
 10
20.503295
 20
17.821136
 30
0.0
  0
VERTEX
  5
BDFA
  8
ALPHA
 10
20.512285
 20
17.74932
 30
0.0
  0
VERTEX
  5
BDFB
  8
ALPHA
 10
20.519307
 20
17.640072
 30
0.0
  0
VERTEX
  5
BDFC
  8
ALPHA
 10
20.523941
 20
17.499391
 30
0.0
  0
VERTEX
  5
BDFD
  8
ALPHA
 10
20.525513
 20
17.345492
 30
0.0
  0
SEQEND
  5
BDFE
  8
ALPHA
  0
LINE
  5
B58A
  8
ALPHA
 10
20.742057
 20
15.845492
 30
0.0
 11
20.633369
 21
15.845492
 31
0.0
  0
POLYLINE
  5
B58B
  8
ALPHA
 66
     1
 10
0.0
 20
0.0
 30
0.0
  0
VERTEX
  5
BDFF
  8
ALPHA
 10
20.686797
 20
16.595492
 30
0.0
  0
VERTEX
  5
BE00
  8
ALPHA
 10
20.703729
 20
16.558556
 30
0.0
  0
VERTEX
  5
BE01
  8
ALPHA
 10
20.719092
 20
16.451898
 30
0.0
  0
VERTEX
  5
BE02
  8
ALPHA
 10
20.73139
 20
16.285813
 30
0.0
  0
VERTEX
  5
BE03
  8
ALPHA
 10
20.739319
 20
16.076872
 30
0.0
  0
VERTEX
  5
BE04
  8
ALPHA
 10
20.742057
 20
15.845492
 30
0.0
  0
SEQEND
  5
BE05
  8
ALPHA
  0
POLYLINE
  5
B58C
  8
ALPHA
 66
     1
 10
0.0
 20
0.0
 30
0.0
  0
VERTEX
  5
BE06
  8
ALPHA
 10
21.778759
 20
14.475639
 30
0.0
  0
VERTEX
  5
BE07
  8
ALPHA
 10
21.478482
 20
14.492089
 30
0.0
  0
VERTEX
  5
BE08
  8
ALPHA
 10
21.211046
 20
14.528331
 30
0.0
  0
VERTEX
  5
BE09
  8
ALPHA
 10
20.999529
 20
14.583793
 30
0.0
  0
VERTEX
  5
BE0A
  8
ALPHA
 10
20.859639
 20
14.658687
 30
0.0
  0
VERTEX
  5
BE0B
  8
ALPHA
 10
20.799189
 20
14.754586
 30
0.0
  0
SEQEND
  5
BE0C
  8
ALPHA
  0
LINE
  5
B58D
  8
ALPHA
 10
21.14172
 20
13.683403
 30
0.0
 11
20.860697
 21
13.688308
 31
0.0
  0
POLYLINE
  5
B58E
  8
ALPHA
 66
     1
 10
0.0
 20
0.0
 30
0.0
  0
VERTEX
  5
BE0D
  8
ALPHA
 10
21.778759
 20
14.475639
 30
0.0
  0
VERTEX
  5
BE0E
  8
ALPHA
 10
21.786889
 20
14.475552
 30
0.0
  0
VERTEX
  5
BE0F
  8
ALPHA
 10
21.795025
 20
14.475625
 30
0.0
  0
VERTEX
  5
BE10
  8
ALPHA
 10
21.803163
 20
14.475851
 30
0.0
  0
SEQEND
  5
BE11
  8
ALPHA
  0
LINE
  5
B58F
  8
ALPHA
 10
20.525513
 20
14.595492
 30
0.0
 11
20.633369
 21
14.595492
 31
0.0
  0
LINE
  5
B590
  8
ALPHA
 10
20.771025
 20
14.595492
 30
0.0
 11
20.742057
 21
14.595492
 31
0.0
  0
POLYLINE
  5
B591
  8
ALPHA
 66
     1
 10
0.0
 20
0.0
 30
0.0
  0
VERTEX
  5
BE12
  8
ALPHA
 10
21.768138
 20
13.595492
 30
0.0
  0
VERTEX
  5
BE13
  8
ALPHA
 10
21.460013
 20
13.644435
 30
0.0
  0
VERTEX
  5
BE14
  8
ALPHA
 10
21.18205
 20
13.786475
 30
0.0
  0
VERTEX
  5
BE15
  8
ALPHA
 10
20.961457
 20
14.007706
 30
0.0
  0
VERTEX
  5
BE16
  8
ALPHA
 10
20.819827
 20
14.286475
 30
0.0
  0
VERTEX
  5
BE17
  8
ALPHA
 10
20.771025
 20
14.595492
 30
0.0
  0
SEQEND
  5
BE18
  8
ALPHA
  0
POLYLINE
  5
B592
  8
ALPHA
 66
     1
 10
0.0
 20
0.0
 30
0.0
  0
VERTEX
  5
BE19
  8
ALPHA
 10
21.744868
 20
13.595492
 30
0.0
  0
VERTEX
  5
BE1A
  8
ALPHA
 10
21.435612
 20
13.644231
 30
0.0
  0
VERTEX
  5
BE1B
  8
ALPHA
 10
21.153464
 20
13.787901
 30
0.0
  0
VERTEX
  5
BE1C
  8
ALPHA
 10
20.93451
 20
14.006426
 30
0.0
  0
VERTEX
  5
BE1D
  8
ALPHA
 10
20.79071
 20
14.287791
 30
0.0
  0
VERTEX
  5
BE1E
  8
ALPHA
 10
20.742057
 20
14.595492
 30
0.0
  0
SEQEND
  5
BE1F
  8
ALPHA
  0
LINE
  5
B593
  8
ALPHA
 10
21.326722
 20
13.644217
 30
0.0
 11
21.635825
 21
13.595492
 31
0.0
  0
POLYLINE
  5
B594
  8
ALPHA
 66
     1
 10
0.0
 20
0.0
 30
0.0
  0
VERTEX
  5
BE20
  8
ALPHA
 10
21.527618
 20
13.595492
 30
0.0
  0
VERTEX
  5
BE21
  8
ALPHA
 10
21.218666
 20
13.644203
 30
0.0
  0
VERTEX
  5
BE22
  8
ALPHA
 10
20.936716
 20
13.787839
 30
0.0
  0
VERTEX
  5
BE23
  8
ALPHA
 10
20.717893
 20
14.006341
 30
0.0
  0
VERTEX
  5
BE24
  8
ALPHA
 10
20.57416
 20
14.287704
 30
0.0
  0
VERTEX
  5
BE25
  8
ALPHA
 10
20.525513
 20
14.595492
 30
0.0
  0
SEQEND
  5
BE26
  8
ALPHA
  0
POLYLINE
  5
B595
  8
ALPHA
 66
     1
 10
0.0
 20
0.0
 30
0.0
  0
VERTEX
  5
BE27
  8
ALPHA
 10
19.878133
 20
49.604451
 30
0.0
  0
VERTEX
  5
BE28
  8
ALPHA
 10
20.05306
 20
48.990164
 30
0.0
  0
VERTEX
  5
BE29
  8
ALPHA
 10
20.357559
 20
47.904616
 30
0.0
  0
VERTEX
  5
BE2A
  8
ALPHA
 10
20.799189
 20
46.292704
 30
0.0
  0
SEQEND
  5
BE2B
  8
ALPHA
  0
POLYLINE
  5
B596
  8
ALPHA
 66
     1
 10
0.0
 20
0.0
 30
0.0
  0
VERTEX
  5
BE2C
  8
ALPHA
 10
20.714487
 20
50.105614
 30
0.0
  0
VERTEX
  5
BE2D
  8
ALPHA
 10
20.913878
 20
49.436496
 30
0.0
  0
VERTEX
  5
BE2E
  8
ALPHA
 10
21.196835
 20
48.473081
 30
0.0
  0
VERTEX
  5
BE2F
  8
ALPHA
 10
21.55742
 20
47.220973
 30
0.0
  0
SEQEND
  5
BE30
  8
ALPHA
  0
LINE
  5
B597
  8
ALPHA
 10
21.778759
 20
46.292705
 30
0.0
 11
20.799189
 21
46.292705
 31
0.0
  0
POLYLINE
  5
B598
  8
ALPHA
 66
     1
 10
0.0
 20
0.0
 30
0.0
  0
VERTEX
  5
BE31
  8
ALPHA
 10
21.778759
 20
46.292705
 30
0.0
  0
VERTEX
  5
BE32
  8
ALPHA
 10
21.718071
 20
46.536353
 30
0.0
  0
VERTEX
  5
BE33
  8
ALPHA
 10
21.661982
 20
46.765571
 30
0.0
  0
VERTEX
  5
BE34
  8
ALPHA
 10
21.614582
 20
46.964718
 30
0.0
  0
VERTEX
  5
BE35
  8
ALPHA
 10
21.578875
 20
47.119731
 30
0.0
  0
VERTEX
  5
BE36
  8
ALPHA
 10
21.557416
 20
47.220972
 30
0.0
  0
SEQEND
  5
BE37
  8
ALPHA
  0
POLYLINE
  5
B599
  8
ALPHA
 66
     1
 10
0.0
 20
0.0
 30
0.0
  0
VERTEX
  5
BE38
  8
ALPHA
 10
20.799189
 20
46.292705
 30
0.0
  0
VERTEX
  5
BE39
  8
ALPHA
 10
20.858803
 20
46.601475
 30
0.0
  0
VERTEX
  5
BE3A
  8
ALPHA
 10
21.017724
 20
46.877509
 30
0.0
  0
VERTEX
  5
BE3B
  8
ALPHA
 10
21.259119
 20
47.091567
 30
0.0
  0
VERTEX
  5
BE3C
  8
ALPHA
 10
21.557416
 20
47.220972
 30
0.0
  0
SEQEND
  5
BE3D
  8
ALPHA
  0
POLYLINE
  5
B59A
  8
ALPHA
 66
     1
 10
0.0
 20
0.0
 30
0.0
  0
VERTEX
  5
BE3E
  8
ALPHA
 10
18.933828
 20
53.921967
 30
0.0
  0
VERTEX
  5
BE3F
  8
ALPHA
 10
18.953695
 20
53.799016
 30
0.0
  0
VERTEX
  5
BE40
  8
ALPHA
 10
18.979035
 20
53.667697
 30
0.0
  0
VERTEX
  5
BE41
  8
ALPHA
 10
19.011042
 20
53.526333
 30
0.0
  0
VERTEX
  5
BE42
  8
ALPHA
 10
19.051156
 20
53.373457
 30
0.0
  0
SEQEND
  5
BE43
  8
ALPHA
  0
POLYLINE
  5
B59B
  8
ALPHA
 66
     1
 10
0.0
 20
0.0
 30
0.0
  0
VERTEX
  5
BE44
  8
ALPHA
 10
20.437831
 20
52.207066
 30
0.0
  0
VERTEX
  5
BE45
  8
ALPHA
 10
20.481513
 20
52.812779
 30
0.0
  0
VERTEX
  5
BE46
  8
ALPHA
 10
20.542877
 20
53.492045
 30
0.0
  0
VERTEX
  5
BE47
  8
ALPHA
 10
20.622485
 20
54.216536
 30
0.0
  0
VERTEX
  5
BE48
  8
ALPHA
 10
20.717791
 20
54.950588
 30
0.0
  0
VERTEX
  5
BE49
  8
ALPHA
 10
20.822602
 20
55.653151
 30
0.0
  0
VERTEX
  5
BE4A
  8
ALPHA
 10
20.928195
 20
56.285694
 30
0.0
  0
VERTEX
  5
BE4B
  8
ALPHA
 10
21.024019
 20
56.811673
 30
0.0
  0
VERTEX
  5
BE4C
  8
ALPHA
 10
21.100611
 20
57.206059
 30
0.0
  0
VERTEX
  5
BE4D
  8
ALPHA
 10
21.149898
 20
57.449459
 30
0.0
  0
VERTEX
  5
BE4E
  8
ALPHA
 10
21.166851
 20
57.531474
 30
0.0
  0
SEQEND
  5
BE4F
  8
ALPHA
  0
LINE
  5
B59C
  8
ALPHA
 10
19.886608
 20
51.637831
 30
0.0
 11
19.886608
 21
56.953152
 31
0.0
  0
LINE
  5
B59D
  8
ALPHA
 10
19.491525
 20
51.961641
 30
0.0
 11
19.491525
 21
56.629342
 31
0.0
  0
POLYLINE
  5
B59E
  8
ALPHA
 66
     1
 10
0.0
 20
0.0
 30
0.0
  0
VERTEX
  5
BE50
  8
ALPHA
 10
21.185838
 20
57.485999
 30
0.0
  0
VERTEX
  5
BE51
  8
ALPHA
 10
21.061413
 20
56.873004
 30
0.0
  0
VERTEX
  5
BE52
  8
ALPHA
 10
20.947912
 20
56.251353
 30
0.0
  0
VERTEX
  5
BE53
  8
ALPHA
 10
20.84511
 20
55.618763
 30
0.0
  0
VERTEX
  5
BE54
  8
ALPHA
 10
20.753317
 20
54.975462
 30
0.0
  0
VERTEX
  5
BE55
  8
ALPHA
 10
20.673194
 20
54.324742
 30
0.0
  0
VERTEX
  5
BE56
  8
ALPHA
 10
20.607102
 20
53.690146
 30
0.0
  0
VERTEX
  5
BE57
  8
ALPHA
 10
20.555241
 20
53.088825
 30
0.0
  0
VERTEX
  5
BE58
  8
ALPHA
 10
20.51546
 20
52.516235
 30
0.0
  0
SEQEND
  5
BE59
  8
ALPHA
  0
ARC
  5
B59F
  8
ALPHA
 10
20.878133
 20
49.60458
 30
0.0
 40
1.0
 50
120.0
 51
180.0
  0
LINE
  5
B5A0
  8
ALPHA
 10
20.404791
 20
51.592496
 30
0.0
 11
19.886608
 21
51.637831
 31
0.0
  0
ARC
  5
B5A1
  8
ALPHA
 10
19.930186
 20
52.135929
 30
0.0
 40
0.5
 50
252.295639
 51
265.0
  0
POLYLINE
  5
B5A2
  8
ALPHA
 66
     1
 10
0.0
 20
0.0
 30
0.0
  0
VERTEX
  5
BE5A
  8
ALPHA
 10
19.778133
 20
51.717629
 30
0.0
  0
VERTEX
  5
BE5B
  8
ALPHA
 10
19.691858
 20
51.755733
 30
0.0
  0
VERTEX
  5
BE5C
  8
ALPHA
 10
19.613346
 20
51.810197
 30
0.0
  0
VERTEX
  5
BE5D
  8
ALPHA
 10
19.545226
 20
51.880046
 30
0.0
  0
VERTEX
  5
BE5E
  8
ALPHA
 10
19.491525
 20
51.961641
 30
0.0
  0
SEQEND
  5
BE5F
  8
ALPHA
  0
POLYLINE
  5
B5A3
  8
ALPHA
 66
     1
 10
0.0
 20
0.0
 30
0.0
  0
VERTEX
  5
BE60
  8
ALPHA
 10
19.051156
 20
53.373457
 30
0.0
  0
VERTEX
  5
BE61
  8
ALPHA
 10
19.018025
 20
53.433236
 30
0.0
  0
VERTEX
  5
BE62
  8
ALPHA
 10
18.990404
 20
53.491146
 30
0.0
  0
VERTEX
  5
BE63
  8
ALPHA
 10
18.967598
 20
53.546926
 30
0.0
  0
SEQEND
  5
BE64
  8
ALPHA
  0
POLYLINE
  5
B5A4
  8
ALPHA
 66
     1
 10
0.0
 20
0.0
 30
0.0
  0
VERTEX
  5
BE65
  8
ALPHA
 10
18.967598
 20
53.546926
 30
0.0
  0
VERTEX
  5
BE66
  8
ALPHA
 10
18.996516
 20
53.376589
 30
0.0
  0
VERTEX
  5
BE67
  8
ALPHA
 10
19.034864
 20
53.191654
 30
0.0
  0
VERTEX
  5
BE68
  8
ALPHA
 10
19.08594
 20
52.987012
 30
0.0
  0
VERTEX
  5
BE69
  8
ALPHA
 10
19.153535
 20
52.760104
 30
0.0
  0
VERTEX
  5
BE6A
  8
ALPHA
 10
19.241089
 20
52.512333
 30
0.0
  0
VERTEX
  5
BE6B
  8
ALPHA
 10
19.352408
 20
52.245388
 30
0.0
  0
VERTEX
  5
BE6C
  8
ALPHA
 10
19.491525
 20
51.961641
 30
0.0
  0
SEQEND
  5
BE6D
  8
ALPHA
  0
LINE
  5
B5A5
  8
ALPHA
 10
19.778133
 20
51.659609
 30
0.0
 11
19.778133
 21
51.717629
 31
0.0
  0
LINE
  5
B5A6
  8
ALPHA
 10
19.002077
 20
53.565926
 30
0.0
 11
18.967598
 21
53.546926
 31
0.0
  0
POLYLINE
  5
B5A7
  8
ALPHA
 66
     1
 10
0.0
 20
0.0
 30
0.0
  0
VERTEX
  5
BE6E
  8
ALPHA
 10
20.826769
 20
52.564518
 30
0.0
  0
VERTEX
  5
BE6F
  8
ALPHA
 10
20.711456
 20
52.577927
 30
0.0
  0
VERTEX
  5
BE70
  8
ALPHA
 10
20.612085
 20
52.573484
 30
0.0
  0
VERTEX
  5
BE71
  8
ALPHA
 10
20.54336
 20
52.55185
 30
0.0
  0
VERTEX
  5
BE72
  8
ALPHA
 10
20.515443
 20
52.51622
 30
0.0
  0
SEQEND
  5
BE73
  8
ALPHA
  0
POLYLINE
  5
B5A8
  8
ALPHA
 66
     1
 10
0.0
 20
0.0
 30
0.0
  0
VERTEX
  5
BE74
  8
ALPHA
 10
20.807379
 20
52.481979
 30
0.0
  0
VERTEX
  5
BE75
  8
ALPHA
 10
20.697127
 20
52.493312
 30
0.0
  0
VERTEX
  5
BE76
  8
ALPHA
 10
20.602304
 20
52.48699
 30
0.0
  0
VERTEX
  5
BE77
  8
ALPHA
 10
20.536787
 20
52.463939
 30
0.0
  0
VERTEX
  5
BE78
  8
ALPHA
 10
20.510164
 20
52.42753
 30
0.0
  0
SEQEND
  5
BE79
  8
ALPHA
  0
POLYLINE
  5
B5A9
  8
ALPHA
 66
     1
 10
0.0
 20
0.0
 30
0.0
  0
VERTEX
  5
BE7A
  8
ALPHA
 10
20.537007
 20
50.023644
 30
0.0
  0
VERTEX
  5
BE7B
  8
ALPHA
 10
20.519216
 20
50.029269
 30
0.0
  0
VERTEX
  5
BE7C
  8
ALPHA
 10
20.506443
 20
50.037345
 30
0.0
  0
VERTEX
  5
BE7D
  8
ALPHA
 10
20.499497
 20
50.048515
 30
0.0
  0
SEQEND
  5
BE7E
  8
ALPHA
  0
POLYLINE
  5
B5AA
  8
ALPHA
 66
     1
 10
0.0
 20
0.0
 30
0.0
  0
VERTEX
  5
BE7F
  8
ALPHA
 10
20.714479
 20
50.105605
 30
0.0
  0
VERTEX
  5
BE80
  8
ALPHA
 10
20.66835
 20
50.165217
 30
0.0
  0
VERTEX
  5
BE81
  8
ALPHA
 10
20.606834
 20
50.276711
 30
0.0
  0
VERTEX
  5
BE82
  8
ALPHA
 10
20.531073
 20
50.438015
 30
0.0
  0
SEQEND
  5
BE83
  8
ALPHA
  0
LINE
  5
B5AB
  8
ALPHA
 10
20.499497
 20
50.048515
 30
0.0
 11
20.378134
 21
50.470606
 31
0.0
  0
LINE
  5
B5AC
  8
ALPHA
 10
20.545419
 20
50.706547
 30
0.0
 11
20.537672
 21
50.581101
 31
0.0
  0
LINE
  5
B5AD
  8
ALPHA
 10
20.515443
 20
52.51622
 30
0.0
 11
20.510163
 21
52.427538
 31
0.0
  0
POLYLINE
  5
B5AE
  8
ALPHA
 66
     1
 10
0.0
 20
0.0
 30
0.0
  0
VERTEX
  5
BE84
  8
ALPHA
 10
20.510164
 20
52.42753
 30
0.0
  0
VERTEX
  5
BE85
  8
ALPHA
 10
20.498235
 20
52.206628
 30
0.0
  0
VERTEX
  5
BE86
  8
ALPHA
 10
20.488457
 20
51.993563
 30
0.0
  0
VERTEX
  5
BE87
  8
ALPHA
 10
20.480702
 20
51.789212
 30
0.0
  0
VERTEX
  5
BE88
  8
ALPHA
 10
20.47481
 20
51.593947
 30
0.0
  0
VERTEX
  5
BE89
  8
ALPHA
 10
20.470624
 20
51.408095
 30
0.0
  0
VERTEX
  5
BE8A
  8
ALPHA
 10
20.467991
 20
51.232233
 30
0.0
  0
VERTEX
  5
BE8B
  8
ALPHA
 10
20.466753
 20
51.066736
 30
0.0
  0
VERTEX
  5
BE8C
  8
ALPHA
 10
20.466758
 20
50.912085
 30
0.0
  0
VERTEX
  5
BE8D
  8
ALPHA
 10
20.467855
 20
50.768572
 30
0.0
  0
SEQEND
  5
BE8E
  8
ALPHA
  0
POLYLINE
  5
B5AF
  8
ALPHA
 66
     1
 10
0.0
 20
0.0
 30
0.0
  0
VERTEX
  5
BE8F
  8
ALPHA
 10
20.537672
 20
50.581101
 30
0.0
  0
VERTEX
  5
BE90
  8
ALPHA
 10
20.535259
 20
50.535247
 30
0.0
  0
VERTEX
  5
BE91
  8
ALPHA
 10
20.533036
 20
50.48736
 30
0.0
  0
SEQEND
  5
BE92
  8
ALPHA
  0
POLYLINE
  5
B5B0
  8
ALPHA
 66
     1
 10
0.0
 20
0.0
 30
0.0
  0
VERTEX
  5
BE93
  8
ALPHA
 10
20.533036
 20
50.48736
 30
0.0
  0
VERTEX
  5
BE94
  8
ALPHA
 10
20.527105
 20
50.343604
 30
0.0
  0
VERTEX
  5
BE95
  8
ALPHA
 10
20.525031
 20
50.2601
 30
0.0
  0
VERTEX
  5
BE96
  8
ALPHA
 10
20.524693
 20
50.188225
 30
0.0
  0
VERTEX
  5
BE97
  8
ALPHA
 10
20.5259
 20
50.128525
 30
0.0
  0
VERTEX
  5
BE98
  8
ALPHA
 10
20.528462
 20
50.08134
 30
0.0
  0
VERTEX
  5
BE99
  8
ALPHA
 10
20.532209
 20
50.046524
 30
0.0
  0
VERTEX
  5
BE9A
  8
ALPHA
 10
20.537007
 20
50.023644
 30
0.0
  0
SEQEND
  5
BE9B
  8
ALPHA
  0
POLYLINE
  5
B5B1
  8
ALPHA
 66
     1
 10
0.0
 20
0.0
 30
0.0
  0
VERTEX
  5
BE9C
  8
ALPHA
 10
20.382363
 20
50.990875
 30
0.0
  0
VERTEX
  5
BE9D
  8
ALPHA
 10
20.384757
 20
51.073969
 30
0.0
  0
VERTEX
  5
BE9E
  8
ALPHA
 10
20.39289
 20
51.315528
 30
0.0
  0
VERTEX
  5
BE9F
  8
ALPHA
 10
20.409415
 20
51.700096
 30
0.0
  0
VERTEX
  5
BEA0
  8
ALPHA
 10
20.437831
 20
52.207066
 30
0.0
  0
SEQEND
  5
BEA1
  8
ALPHA
  0
LINE
  5
B5B2
  8
ALPHA
 10
20.382363
 20
50.990875
 30
0.0
 11
20.378133
 21
50.470605
 31
0.0
  0
LINE
  5
B5B3
  8
ALPHA
 10
20.467855
 20
50.768572
 30
0.0
 11
20.469903
 21
50.636458
 31
0.0
  0
LINE
  5
B5B4
  8
ALPHA
 10
20.469903
 20
50.636458
 30
0.0
 11
20.472761
 21
50.516345
 31
0.0
  0
POLYLINE
  5
B5B5
  8
ALPHA
 66
     1
 10
0.0
 20
0.0
 30
0.0
  0
VERTEX
  5
BEA2
  8
ALPHA
 10
20.472761
 20
50.516345
 30
0.0
  0
VERTEX
  5
BEA3
  8
ALPHA
 10
20.474071
 20
50.472594
 30
0.0
  0
VERTEX
  5
BEA4
  8
ALPHA
 10
20.4774
 20
50.379952
 30
0.0
  0
SEQEND
  5
BEA5
  8
ALPHA
  0
POLYLINE
  5
B5B6
  8
ALPHA
 66
     1
 10
0.0
 20
0.0
 30
0.0
  0
VERTEX
  5
BEA6
  8
ALPHA
 10
20.477401
 20
50.379961
 30
0.0
  0
VERTEX
  5
BEA7
  8
ALPHA
 10
20.481261
 20
50.294235
 30
0.0
  0
VERTEX
  5
BEA8
  8
ALPHA
 10
20.485488
 20
50.217839
 30
0.0
  0
VERTEX
  5
BEA9
  8
ALPHA
 10
20.489994
 20
50.151208
 30
0.0
  0
VERTEX
  5
BEAA
  8
ALPHA
 10
20.494694
 20
50.094699
 30
0.0
  0
VERTEX
  5
BEAB
  8
ALPHA
 10
20.499497
 20
50.048515
 30
0.0
  0
SEQEND
  5
BEAC
  8
ALPHA
  0
POLYLINE
  5
B5B7
  8
ALPHA
 66
     1
 10
0.0
 20
0.0
 30
0.0
  0
VERTEX
  5
BEAD
  8
ALPHA
 10
20.826769
 20
52.564518
 30
0.0
  0
VERTEX
  5
BEAE
  8
ALPHA
 10
20.820153
 20
52.536687
 30
0.0
  0
VERTEX
  5
BEAF
  8
ALPHA
 10
20.807379
 20
52.481979
 30
0.0
  0
SEQEND
  5
BEB0
  8
ALPHA
  0
POLYLINE
  5
B5B8
  8
ALPHA
 66
     1
 10
0.0
 20
0.0
 30
0.0
  0
VERTEX
  5
BEB1
  8
ALPHA
 10
20.807379
 20
52.481979
 30
0.0
  0
VERTEX
  5
BEB2
  8
ALPHA
 10
20.761627
 20
52.273987
 30
0.0
  0
VERTEX
  5
BEB3
  8
ALPHA
 10
20.720889
 20
52.070143
 30
0.0
  0
VERTEX
  5
BEB4
  8
ALPHA
 10
20.685014
 20
51.871777
 30
0.0
  0
VERTEX
  5
BEB5
  8
ALPHA
 10
20.65372
 20
51.679731
 30
0.0
  0
VERTEX
  5
BEB6
  8
ALPHA
 10
20.626712
 20
51.494781
 30
0.0
  0
VERTEX
  5
BEB7
  8
ALPHA
 10
20.603713
 20
51.317927
 30
0.0
  0
VERTEX
  5
BEB8
  8
ALPHA
 10
20.584404
 20
51.149936
 30
0.0
  0
VERTEX
  5
BEB9
  8
ALPHA
 10
20.568474
 20
50.99165
 30
0.0
  0
VERTEX
  5
BEBA
  8
ALPHA
 10
20.555588
 20
50.843678
 30
0.0
  0
VERTEX
  5
BEBB
  8
ALPHA
 10
20.545419
 20
50.706547
 30
0.0
  0
SEQEND
  5
BEBC
  8
ALPHA
  0
POLYLINE
  5
B5B9
  8
ALPHA
 66
     1
 10
0.0
 20
0.0
 30
0.0
  0
VERTEX
  5
BEBD
  8
ALPHA
 10
20.537672
 20
50.581101
 30
0.0
  0
VERTEX
  5
BEBE
  8
ALPHA
 10
20.504748
 20
50.568913
 30
0.0
  0
VERTEX
  5
BEBF
  8
ALPHA
 10
20.481602
 20
50.545823
 30
0.0
  0
VERTEX
  5
BEC0
  8
ALPHA
 10
20.472761
 20
50.516345
 30
0.0
  0
SEQEND
  5
BEC1
  8
ALPHA
  0
POLYLINE
  5
B5BA
  8
ALPHA
 66
     1
 10
0.0
 20
0.0
 30
0.0
  0
VERTEX
  5
BEC2
  8
ALPHA
 10
20.531072
 20
50.438023
 30
0.0
  0
VERTEX
  5
BEC3
  8
ALPHA
 10
20.503703
 20
50.426603
 30
0.0
  0
VERTEX
  5
BEC4
  8
ALPHA
 10
20.484599
 20
50.405931
 30
0.0
  0
VERTEX
  5
BEC5
  8
ALPHA
 10
20.477401
 20
50.379961
 30
0.0
  0
SEQEND
  5
BEC6
  8
ALPHA
  0
POLYLINE
  5
B5BB
  8
ALPHA
 66
     1
 10
0.0
 20
0.0
 30
0.0
  0
VERTEX
  5
BEC7
  8
ALPHA
 10
20.537007
 20
50.023645
 30
0.0
  0
VERTEX
  5
BEC8
  8
ALPHA
 10
20.594338
 20
50.055261
 30
0.0
  0
VERTEX
  5
BEC9
  8
ALPHA
 10
20.653594
 20
50.082623
 30
0.0
  0
VERTEX
  5
BECA
  8
ALPHA
 10
20.714479
 20
50.105605
 30
0.0
  0
SEQEND
  5
BECB
  8
ALPHA
  0
LINE
  5
B5BC
  8
ALPHA
 10
20.634555
 20
57.018589
 30
0.0
 11
19.886608
 21
56.953152
 31
0.0
  0
ARC
  5
B5BD
  8
ALPHA
 10
19.930186
 20
56.455055
 30
0.0
 40
0.5
 50
95.0
 51
107.704361
  0
LINE
  5
B5BE
  8
ALPHA
 10
19.048015
 20
54.665492
 30
0.0
 11
18.93706
 21
54.665492
 31
0.0
  0
LINE
  5
B5BF
  8
ALPHA
 10
18.93706
 20
53.925492
 30
0.0
 11
19.048015
 21
53.925492
 31
0.0
  0
LINE
  5
B5C0
  8
ALPHA
 10
18.965738
 20
55.031713
 30
0.0
 11
18.997269
 21
55.014338
 31
0.0
  0
POLYLINE
  5
B5C1
  8
ALPHA
 66
     1
 10
0.0
 20
0.0
 30
0.0
  0
VERTEX
  5
BECC
  8
ALPHA
 10
18.93706
 20
54.665492
 30
0.0
  0
VERTEX
  5
BECD
  8
ALPHA
 10
18.934673
 20
54.667288
 30
0.0
  0
VERTEX
  5
BECE
  8
ALPHA
 10
18.93273
 20
54.672549
 30
0.0
  0
SEQEND
  5
BECF
  8
ALPHA
  0
LINE
  5
B5C2
  8
ALPHA
 10
19.778133
 20
56.873354
 30
0.0
 11
19.778133
 21
56.931374
 31
0.0
  0
POLYLINE
  5
B5C3
  8
ALPHA
 66
     1
 10
0.0
 20
0.0
 30
0.0
  0
VERTEX
  5
BED0
  8
ALPHA
 10
19.048015
 20
53.925492
 30
0.0
  0
VERTEX
  5
BED1
  8
ALPHA
 10
19.038323
 20
54.109956
 30
0.0
  0
VERTEX
  5
BED2
  8
ALPHA
 10
19.035071
 20
54.295492
 30
0.0
  0
VERTEX
  5
BED3
  8
ALPHA
 10
19.038323
 20
54.481027
 30
0.0
  0
VERTEX
  5
BED4
  8
ALPHA
 10
19.048015
 20
54.665492
 30
0.0
  0
SEQEND
  5
BED5
  8
ALPHA
  0
POLYLINE
  5
B5C4
  8
ALPHA
 66
     1
 10
0.0
 20
0.0
 30
0.0
  0
VERTEX
  5
BED6
  8
ALPHA
 10
19.042464
 20
55.194464
 30
0.0
  0
VERTEX
  5
BED7
  8
ALPHA
 10
18.994602
 20
55.003708
 30
0.0
  0
VERTEX
  5
BED8
  8
ALPHA
 10
18.958918
 20
54.830779
 30
0.0
  0
VERTEX
  5
BED9
  8
ALPHA
 10
18.93273
 20
54.672549
 30
0.0
  0
SEQEND
  5
BEDA
  8
ALPHA
  0
POLYLINE
  5
B5C5
  8
ALPHA
 66
     1
 10
0.0
 20
0.0
 30
0.0
  0
VERTEX
  5
BEDB
  8
ALPHA
 10
18.965738
 20
55.031713
 30
0.0
  0
VERTEX
  5
BEDC
  8
ALPHA
 10
18.986965
 20
55.084262
 30
0.0
  0
VERTEX
  5
BEDD
  8
ALPHA
 10
19.012234
 20
55.138334
 30
0.0
  0
VERTEX
  5
BEDE
  8
ALPHA
 10
19.042464
 20
55.194464
 30
0.0
  0
SEQEND
  5
BEDF
  8
ALPHA
  0
POLYLINE
  5
B5C6
  8
ALPHA
 66
     1
 10
0.0
 20
0.0
 30
0.0
  0
VERTEX
  5
BEE0
  8
ALPHA
 10
19.491525
 20
56.629342
 30
0.0
  0
VERTEX
  5
BEE1
  8
ALPHA
 10
19.545226
 20
56.710937
 30
0.0
  0
VERTEX
  5
BEE2
  8
ALPHA
 10
19.613346
 20
56.780786
 30
0.0
  0
VERTEX
  5
BEE3
  8
ALPHA
 10
19.691858
 20
56.83525
 30
0.0
  0
VERTEX
  5
BEE4
  8
ALPHA
 10
19.778133
 20
56.873354
 30
0.0
  0
SEQEND
  5
BEE5
  8
ALPHA
  0
POLYLINE
  5
B5C7
  8
ALPHA
 66
     1
 10
0.0
 20
0.0
 30
0.0
  0
VERTEX
  5
BEE6
  8
ALPHA
 10
18.933828
 20
53.921967
 30
0.0
  0
VERTEX
  5
BEE7
  8
ALPHA
 10
18.935339
 20
53.9246
 30
0.0
  0
VERTEX
  5
BEE8
  8
ALPHA
 10
18.93706
 20
53.925492
 30
0.0
  0
SEQEND
  5
BEE9
  8
ALPHA
  0
POLYLINE
  5
B5C8
  8
ALPHA
 66
     1
 10
0.0
 20
0.0
 30
0.0
  0
VERTEX
  5
BEEA
  8
ALPHA
 10
19.491525
 20
56.629342
 30
0.0
  0
VERTEX
  5
BEEB
  8
ALPHA
 10
19.351075
 20
56.34264
 30
0.0
  0
VERTEX
  5
BEEC
  8
ALPHA
 10
19.238976
 20
56.073128
 30
0.0
  0
VERTEX
  5
BEED
  8
ALPHA
 10
19.15107
 20
55.823247
 30
0.0
  0
VERTEX
  5
BEEE
  8
ALPHA
 10
19.083432
 20
55.594723
 30
0.0
  0
VERTEX
  5
BEEF
  8
ALPHA
 10
19.032515
 20
55.388939
 30
0.0
  0
VERTEX
  5
BEF0
  8
ALPHA
 10
18.994403
 20
55.203061
 30
0.0
  0
VERTEX
  5
BEF1
  8
ALPHA
 10
18.965738
 20
55.031713
 30
0.0
  0
SEQEND
  5
BEF2
  8
ALPHA
  0
ARC
  5
B5C9
  8
ALPHA
 10
20.678133
 20
56.520492
 30
0.0
 40
0.5
 50
44.193935
 51
95.0
  0
LINE
  5
B5CA
  8
ALPHA
 10
20.634555
 20
54.309501
 30
0.0
 11
20.634555
 21
57.018589
 31
0.0
  0
LINE
  5
B5CB
  8
ALPHA
 10
21.321565
 20
58.092469
 30
0.0
 11
21.185838
 21
57.485999
 31
0.0
  0
ARC
  5
B5CD
  8
ALPHA
 10
36.378133
 20
31.595492
 30
0.0
 40
13.75
 50
107.620006
 51
252.379994
  0
ARC
  5
B5D3
  8
ALPHA
 10
29.478133
 20
15.095492
 30
0.0
 40
1.5125
 50
21.627125
 51
90.0
  0
ARC
  5
B5D4
  8
ALPHA
 10
29.478133
 20
15.095492
 30
0.0
 40
1.5
 50
270.0
 51
90.0
  0
LINE
  5
B5D9
  8
ALPHA
 10
29.478133
 20
17.895492
 30
0.0
 11
33.778133
 21
13.595492
 31
0.0
  0
LINE
  5
B5DA
  8
ALPHA
 10
29.478133
 20
14.683803
 30
0.0
 11
30.920532
 21
14.683803
 31
0.0
  0
ARC
  5
B5DB
  8
ALPHA
 10
26.778133
 20
18.54529
 30
0.0
 40
0.6
 50
180.0
 51
265.0
  0
ARC
  5
B5DC
  8
ALPHA
 10
26.078133
 20
18.987253
 30
0.0
 40
0.3
 50
289.471273
 51
334.410568
  0
LINE
  5
B5DD
  8
ALPHA
 10
26.378133
 20
18.103235
 30
0.0
 11
26.378133
 21
22.158199
 31
0.0
  0
LINE
  5
B5DE
  8
ALPHA
 10
26.178133
 20
18.54529
 30
0.0
 11
26.178133
 21
22.435496
 31
0.0
  0
LINE
  5
B5DF
  8
ALPHA
 10
26.92584
 20
18.118788
 30
0.0
 11
29.478133
 21
17.895492
 31
0.0
  0
LINE
  5
B5E0
  8
ALPHA
 10
29.478133
 20
17.706779
 30
0.0
 11
26.72584
 21
17.947574
 31
0.0
  0
ARC
  5
B5E1
  8
ALPHA
 10
26.978133
 20
18.716505
 30
0.0
 40
0.6
 50
180.0
 51
265.0
  0
LINE
  5
B5E2
  8
ALPHA
 10
29.478133
 20
14.683803
 30
0.0
 11
29.478133
 21
17.706779
 31
0.0
  0
LINE
  5
B5EC
  8
ALPHA
 10
31.126313
 20
14.949835
 30
0.0
 11
32.480656
 21
13.595492
 31
0.0
  0
ARC
  5
B5ED
  8
ALPHA
 10
31.479866
 20
15.303388
 30
0.0
 40
0.5
 50
185.929385
 51
225.0
  0
LINE
  5
B5EE
  8
ALPHA
 10
30.884156
 20
15.652946
 30
0.0
 11
30.982541
 21
15.251737
 31
0.0
  0
LINE
  5
B5FE
  8
ALPHA
 10
26.178133
 20
47.679266
 30
0.0
 11
25.378133
 21
47.683596
 31
0.0
  0
LINE
  5
B5FF
  8
ALPHA
 10
26.378133
 20
47.716418
 30
0.0
 11
25.378133
 21
47.716418
 31
0.0
  0
LINE
  5
B600
  8
ALPHA
 10
26.178133
 20
46.723059
 30
0.0
 11
25.360681
 21
46.72743
 31
0.0
  0
POLYLINE
  5
B601
  8
ALPHA
 66
     1
 10
0.0
 20
0.0
 30
0.0
  0
VERTEX
  5
BEF3
  8
ALPHA
 10
25.360681
 20
46.72743
 30
0.0
  0
VERTEX
  5
BEF4
  8
ALPHA
 10
25.363231
 20
47.040488
 30
0.0
  0
VERTEX
  5
BEF5
  8
ALPHA
 10
25.36728
 20
47.322073
 30
0.0
  0
VERTEX
  5
BEF6
  8
ALPHA
 10
25.372419
 20
47.543875
 30
0.0
  0
VERTEX
  5
BEF7
  8
ALPHA
 10
25.378133
 20
47.683596
 30
0.0
  0
SEQEND
  5
BEF8
  8
ALPHA
  0
LINE
  5
B602
  8
ALPHA
 10
26.378133
 20
41.032785
 30
0.0
 11
26.378133
 21
47.716418
 31
0.0
  0
LINE
  5
B603
  8
ALPHA
 10
26.178133
 20
40.755456
 30
0.0
 11
26.178133
 21
47.716418
 31
0.0
  0
LINE
  5
B604
  8
ALPHA
 10
26.270672
 20
46.782711
 30
0.0
 11
26.18677
 21
46.81926
 31
0.0
  0
POLYLINE
  5
B605
  8
ALPHA
 66
     1
 10
0.0
 20
0.0
 30
0.0
  0
VERTEX
  5
BEF9
  8
ALPHA
 10
26.378133
 20
46.612882
 30
0.0
  0
VERTEX
  5
BEFA
  8
ALPHA
 10
26.366634
 20
46.673649
 30
0.0
  0
VERTEX
  5
BEFB
  8
ALPHA
 10
26.330994
 20
46.732091
 30
0.0
  0
VERTEX
  5
BEFC
  8
ALPHA
 10
26.270672
 20
46.782711
 30
0.0
  0
SEQEND
  5
BEFD
  8
ALPHA
  0
POLYLINE
  5
B606
  8
ALPHA
 66
     1
 10
0.0
 20
0.0
 30
0.0
  0
VERTEX
  5
BEFE
  8
ALPHA
 10
25.178133
 20
51.075793
 30
0.0
  0
VERTEX
  5
BEFF
  8
ALPHA
 10
25.244801
 20
51.076588
 30
0.0
  0
VERTEX
  5
BF00
  8
ALPHA
 10
25.311468
 20
51.0771
 30
0.0
  0
VERTEX
  5
BF01
  8
ALPHA
 10
25.378133
 20
51.077329
 30
0.0
  0
SEQEND
  5
BF02
  8
ALPHA
  0
ARC
  5
B607
  8
ALPHA
 10
24.078133
 20
58.795492
 30
0.0
 40
1.5
 50
317.166572
 51
330.293766
  0
LINE
  5
B608
  8
ALPHA
 10
25.178133
 20
57.105091
 30
0.0
 11
25.378133
 21
57.106837
 31
0.0
  0
LINE
  5
B609
  8
ALPHA
 10
25.178133
 20
56.605072
 30
0.0
 11
25.378133
 21
56.606818
 31
0.0
  0
LINE
  5
B60A
  8
ALPHA
 10
25.178133
 20
55.149744
 30
0.0
 11
25.378133
 21
55.142658
 31
0.0
  0
LINE
  5
B60B
  8
ALPHA
 10
25.378133
 20
55.349908
 30
0.0
 11
25.178133
 21
55.356892
 31
0.0
  0
LINE
  5
B610
  8
0
  6
CONTINUOUS
 62
     2
 10
4.757516
 20
64.595492
 30
0.0
 11
25.878133
 21
64.595492
 31
0.0
  0
LINE
  5
B611
  8
0
  6
CONTINUOUS
 62
     2
 10
1.110358
 20
77.095492
 30
0.0
 11
9.610358
 21
77.095492
 31
0.0
  0
LINE
  5
B612
  8
0
  6
CONTINUOUS
 62
     2
 10
9.610358
 20
72.095492
 30
0.0
 11
1.110358
 21
72.095492
 31
0.0
  0
TEXT
  5
B613
  8
0
  6
CONTINUOUS
 62
     2
 10
2.360358
 20
73.345492
 30
0.0
 40
2.5
  1
HEAD
 41
0.654545
  7
STANDARD
 72
     5
 11
8.360358
 21
73.345492
 31
0.0
  0
LINE
  5
B614
  8
0
  6
CONTINUOUS
 62
     2
 10
1.110358
 20
72.095492
 30
0.0
 11
1.110358
 21
77.095492
 31
0.0
  0
LINE
  5
B615
  8
0
  6
CONTINUOUS
 62
     2
 10
5.360358
 20
67.095492
 30
0.0
 11
5.360358
 21
72.095492
 31
0.0
  0
SOLID
  5
B616
  8
0
  6
CONTINUOUS
 62
     2
 10
6.803733
 20
64.595492
 30
0.0
 11
3.916982
 21
64.595492
 31
0.0
 12
5.360358
 22
67.095492
 32
0.0
 13
5.360358
 23
67.095492
 33
0.0
  0
LINE
  5
B617
  8
0
  6
CONTINUOUS
 62
     2
 10
9.610358
 20
77.095492
 30
0.0
 11
9.610358
 21
72.095492
 31
0.0
  0
LINE
  5
B618
  8
ALPHA
 10
30.016947
 20
64.586181
 30
0.0
 11
30.433057
 21
64.55924
 31
0.0
  0
LINE
  5
B619
  8
ALPHA
 10
25.178133
 20
61.995492
 30
0.0
 11
23.57272
 21
61.995492
 31
0.0
  0
LINE
  5
B61A
  8
ALPHA
 10
25.178133
 20
61.158841
 30
0.0
 11
23.460293
 21
61.158841
 31
0.0
  0
ARC
  5
B61B
  8
ALPHA
 10
23.572723
 20
60.495492
 30
0.0
 40
1.5
 50
90.000006
 51
160.811032
  0
POLYLINE
  5
B61C
  8
ALPHA
 66
     1
 10
0.0
 20
0.0
 30
0.0
  0
VERTEX
  5
BF03
  8
ALPHA
 10
23.460293
 20
61.158841
 30
0.0
  0
VERTEX
  5
BF04
  8
ALPHA
 10
23.070703
 20
61.194272
 30
0.0
  0
VERTEX
  5
BF05
  8
ALPHA
 10
22.709513
 20
61.154366
 30
0.0
  0
VERTEX
  5
BF06
  8
ALPHA
 10
22.403054
 20
61.042033
 30
0.0
  0
VERTEX
  5
BF07
  8
ALPHA
 10
22.173667
 20
60.865462
 30
0.0
  0
VERTEX
  5
BF08
  8
ALPHA
 10
22.038072
 20
60.637525
 30
0.0
  0
SEQEND
  5
BF09
  8
ALPHA
  0
POLYLINE
  5
B61D
  8
ALPHA
 66
     1
 10
0.0
 20
0.0
 30
0.0
  0
VERTEX
  5
BF0A
  8
ALPHA
 10
23.572723
 20
61.995492
 30
0.0
  0
VERTEX
  5
BF0B
  8
ALPHA
 10
23.571878
 20
61.989297
 30
0.0
  0
VERTEX
  5
BF0C
  8
ALPHA
 10
23.460293
 20
61.158841
 30
0.0
  0
SEQEND
  5
BF0D
  8
ALPHA
  0
LINE
  5
B61E
  8
ALPHA
 10
22.156064
 20
60.988519
 30
0.0
 11
22.134415
 21
60.924937
 31
0.0
  0
LINE
  5
B61F
  8
ALPHA
 10
22.134415
 20
60.924937
 30
0.0
 11
22.07233
 21
60.740576
 31
0.0
  0
LINE
  5
B620
  8
ALPHA
 10
22.07233
 20
60.740576
 30
0.0
 11
22.014333
 21
60.565464
 31
0.0
  0
LINE
  5
B621
  8
ALPHA
 10
22.014333
 20
60.565464
 30
0.0
 11
21.967097
 21
60.420151
 31
0.0
  0
POLYLINE
  5
B622
  8
ALPHA
 66
     1
 10
0.0
 20
0.0
 30
0.0
  0
VERTEX
  5
BF0E
  8
ALPHA
 10
23.460293
 20
61.158841
 30
0.0
  0
VERTEX
  5
BF0F
  8
ALPHA
 10
23.437672
 20
61.084413
 30
0.0
  0
VERTEX
  5
BF10
  8
ALPHA
 10
23.392662
 20
60.93432
 30
0.0
  0
SEQEND
  5
BF11
  8
ALPHA
  0
ARC
  5
B623
  8
ALPHA
 10
25.878133
 20
64.095492
 30
0.0
 40
0.5
 50
90.0
 51
180.0
  0
ARC
  5
B624
  8
ALPHA
 10
24.078133
 20
58.795492
 30
0.0
 40
1.5
 50
29.706234
 51
42.833428
  0
LINE
  5
B625
  8
ALPHA
 10
25.878133
 20
61.274587
 30
0.0
 11
25.878133
 21
64.595492
 31
0.0
  0
POLYLINE
  5
B626
  8
ALPHA
 66
     1
 10
0.0
 20
0.0
 30
0.0
  0
VERTEX
  5
BF12
  8
ALPHA
 10
25.378133
 20
61.765322
 30
0.0
  0
VERTEX
  5
BF13
  8
ALPHA
 10
25.402605
 20
61.916967
 30
0.0
  0
VERTEX
  5
BF14
  8
ALPHA
 10
25.473625
 20
62.053769
 30
0.0
  0
VERTEX
  5
BF15
  8
ALPHA
 10
25.584241
 20
62.162335
 30
0.0
  0
VERTEX
  5
BF16
  8
ALPHA
 10
25.723625
 20
62.232039
 30
0.0
  0
VERTEX
  5
BF17
  8
ALPHA
 10
25.878133
 20
62.256057
 30
0.0
  0
SEQEND
  5
BF18
  8
ALPHA
  0
LINE
  5
B628
  8
ALPHA
 10
29.878133
 20
64.595492
 30
0.0
 11
30.016947
 21
64.586181
 31
0.0
  0
LINE
  5
B629
  8
ALPHA
 10
31.99453
 20
64.471119
 30
0.0
 11
33.096667
 21
64.421292
 31
0.0
  0
LINE
  5
B62A
  8
ALPHA
 10
30.433057
 20
64.55924
 30
0.0
 11
31.100884
 21
64.519047
 31
0.0
  0
LINE
  5
B62B
  8
ALPHA
 10
31.100884
 20
64.519047
 30
0.0
 11
31.99453
 21
64.471119
 31
0.0
  0
LINE
  5
B643
  8
ALPHA
 10
50.378133
 20
60.095562
 30
0.0
 11
50.378133
 21
51.095492
 31
0.0
  0
LINE
  5
B644
  8
0
  6
CONTINUOUS
 62
     7
 10
50.078133
 20
13.595492
 30
0.0
 11
50.078133
 21
64.595492
 31
0.0
  0
LINE
  5
B649
  8
ALPHA
 10
50.378133
 20
22.095492
 30
0.0
 11
50.378133
 21
17.095492
 31
0.0
  0
LINE
  5
B64A
  8
ALPHA
 10
50.378133
 20
17.095492
 30
0.0
 11
50.078133
 21
17.095492
 31
0.0
  0
LINE
  5
B64B
  8
ALPHA
 10
50.378133
 20
22.095492
 30
0.0
 11
50.078133
 21
22.095492
 31
0.0
  0
LINE
  5
B64C
  8
ALPHA
 10
50.378133
 20
51.095492
 30
0.0
 11
50.078133
 21
51.090255
 31
0.0
  0
LINE
  5
B64D
  8
ALPHA
 10
50.078133
 20
56.595492
 30
0.0
 11
50.378133
 21
56.595492
 31
0.0
  0
LINE
  5
B64E
  8
ALPHA
 10
50.078133
 20
54.595492
 30
0.0
 11
50.378133
 21
54.595492
 31
0.0
  0
LINE
  5
B64F
  8
ALPHA
 10
41.398484
 20
64.376875
 30
0.0
 11
42.658528
 21
64.421248
 31
0.0
  0
LINE
  5
B651
  8
ALPHA
 10
43.760621
 20
64.471063
 30
0.0
 11
44.652134
 21
64.518855
 31
0.0
  0
LINE
  5
B652
  8
ALPHA
 10
42.658528
 20
64.421248
 30
0.0
 11
43.760621
 21
64.471063
 31
0.0
  0
LINE
  5
B653
  8
ALPHA
 10
44.652134
 20
64.518855
 30
0.0
 11
45.322664
 21
64.559206
 31
0.0
  0
LINE
  5
B654
  8
ALPHA
 10
45.322664
 20
64.559206
 30
0.0
 11
45.739143
 21
64.586169
 31
0.0
  0
LINE
  5
B655
  8
ALPHA
 10
45.739143
 20
64.586169
 30
0.0
 11
45.878133
 21
64.595492
 31
0.0
  0
LINE
  5
B656
  8
ALPHA
 10
50.378133
 20
60.095492
 30
0.0
 11
50.078133
 21
60.100728
 31
0.0
  0
DIMENSION
  5
B776
  8
COTATION1
  2
*D3
 10
50.378133
 20
79.595492
 30
0.0
 11
34.655432
 21
82.845492
 31
0.0
 13
18.93273
 23
54.672549
 33
0.0
 14
50.378133
 24
60.095492
 34
0.0
  0
LINE
  5
B7A7
  8
AXE
 10
37.878133
 20
3.395492
 30
0.0
 11
37.878133
 21
69.595492
 31
0.0
  0
TEXT
  5
B7A8
  8
AXE
 10
32.830514
 20
3.395492
 30
0.0
 40
5.0
  1
Y
 72
     2
 11
36.878133
 21
3.395492
 31
0.0
  0
LINE
  5
B8DE
  8
ALPHA
 10
32.442998
 20
43.985597
 30
0.0
 11
32.215971
 21
44.700411
 31
0.0
  0
LINE
  5
B8DF
  8
ALPHA
 10
32.442998
 20
19.205386
 30
0.0
 11
32.215971
 21
18.490572
 31
0.0
  0
POLYLINE
  5
B8E0
  8
ALPHA
 66
     1
 10
0.0
 20
0.0
 30
0.0
  0
VERTEX
  5
BF19
  8
ALPHA
 10
43.106362
 20
23.098749
 30
0.0
  0
VERTEX
  5
BF1A
  8
ALPHA
 10
41.740553
 20
22.178535
 30
0.0
  0
VERTEX
  5
BF1B
  8
ALPHA
 10
40.251264
 20
21.475986
 30
0.0
  0
VERTEX
  5
BF1C
  8
ALPHA
 10
38.672914
 20
21.00727
 30
0.0
  0
VERTEX
  5
BF1D
  8
ALPHA
 10
37.570922
 20
20.855838
 30
0.0
  0
SEQEND
  5
BF1E
  8
ALPHA
  0
LINE
  5
B8E1
  8
ALPHA
 10
39.235012
 20
19.220992
 30
0.0
 11
39.098586
 21
18.883327
 31
0.0
  0
ARC
  5
B8E2
  8
ALPHA
 10
36.378133
 20
31.595492
 30
0.0
 40
10.838801
 50
276.342169
 51
308.374283
  0
CIRCLE
  5
B8E4
  8
ALPHA
 10
36.378133
 20
31.595492
 30
0.0
 40
12.7
  0
ARC
  5
B8E5
  8
ALPHA
 10
36.378133
 20
31.595492
 30
0.0
 40
13.0
 50
31.920682
 51
274.079318
  0
CIRCLE
  5
B8E6
  8
ALPHA
 10
36.378133
 20
31.595492
 30
0.0
 40
10.9
  0
CIRCLE
  5
B8E7
  8
ALPHA
 10
36.378133
 20
31.595492
 30
0.0
 40
7.25
  0
POLYLINE
  5
B8E8
  8
ALPHA
 66
     1
 10
0.0
 20
0.0
 30
0.0
  0
VERTEX
  5
BF1F
  8
ALPHA
 10
44.473763
 20
37.566701
 30
0.0
  0
VERTEX
  5
BF20
  8
ALPHA
 10
43.466992
 20
38.773841
 30
0.0
  0
VERTEX
  5
BF21
  8
ALPHA
 10
42.282219
 20
39.811919
 30
0.0
  0
VERTEX
  5
BF22
  8
ALPHA
 10
40.94763
 20
40.655082
 30
0.0
  0
VERTEX
  5
BF23
  8
ALPHA
 10
39.49512
 20
41.282118
 30
0.0
  0
VERTEX
  5
BF24
  8
ALPHA
 10
37.959611
 20
41.676979
 30
0.0
  0
VERTEX
  5
BF25
  8
ALPHA
 10
36.378133
 20
41.829251
 30
0.0
  0
SEQEND
  5
BF26
  8
ALPHA
  0
POLYLINE
  5
B8E9
  8
ALPHA
 66
     1
 10
0.0
 20
0.0
 30
0.0
  0
VERTEX
  5
BF27
  8
ALPHA
 10
43.106362
 20
23.098749
 30
0.0
  0
VERTEX
  5
BF28
  8
ALPHA
 10
41.777574
 20
22.309078
 30
0.0
  0
VERTEX
  5
BF29
  8
ALPHA
 10
40.358857
 20
21.721946
 30
0.0
  0
VERTEX
  5
BF2A
  8
ALPHA
 10
38.880577
 20
21.34725
 30
0.0
  0
VERTEX
  5
BF2B
  8
ALPHA
 10
37.374138
 20
21.190381
 30
0.0
  0
VERTEX
  5
BF2C
  8
ALPHA
 10
35.871304
 20
21.252123
 30
0.0
  0
VERTEX
  5
BF2D
  8
ALPHA
 10
34.403551
 20
21.528658
 30
0.0
  0
VERTEX
  5
BF2E
  8
ALPHA
 10
33.001406
 20
22.011648
 30
0.0
  0
VERTEX
  5
BF2F
  8
ALPHA
 10
31.693811
 20
22.688413
 30
0.0
  0
VERTEX
  5
BF30
  8
ALPHA
 10
30.507478
 20
23.54221
 30
0.0
  0
VERTEX
  5
BF31
  8
ALPHA
 10
29.466292
 20
24.552629
 30
0.0
  0
VERTEX
  5
BF32
  8
ALPHA
 10
28.590838
 20
25.696037
 30
0.0
  0
VERTEX
  5
BF33
  8
ALPHA
 10
27.897976
 20
26.946063
 30
0.0
  0
VERTEX
  5
BF34
  8
ALPHA
 10
27.400457
 20
28.274188
 30
0.0
  0
VERTEX
  5
BF35
  8
ALPHA
 10
27.106635
 20
29.650407
 30
0.0
  0
SEQEND
  5
BF36
  8
ALPHA
  0
POLYLINE
  5
B8EA
  8
ALPHA
 66
     1
 10
0.0
 20
0.0
 30
0.0
  0
VERTEX
  5
BF37
  8
ALPHA
 10
43.863017
 20
36.99229
 30
0.0
  0
VERTEX
  5
BF38
  8
ALPHA
 10
42.927488
 20
38.097833
 30
0.0
  0
VERTEX
  5
BF39
  8
ALPHA
 10
41.815576
 20
39.054353
 30
0.0
  0
VERTEX
  5
BF3A
  8
ALPHA
 10
40.566152
 20
39.82269
 30
0.0
  0
VERTEX
  5
BF3B
  8
ALPHA
 10
39.227928
 20
40.377892
 30
0.0
  0
VERTEX
  5
BF3C
  8
ALPHA
 10
37.831084
 20
40.715042
 30
0.0
  0
VERTEX
  5
BF3D
  8
ALPHA
 10
36.396424
 20
40.831419
 30
0.0
  0
VERTEX
  5
BF3E
  8
ALPHA
 10
34.95094
 20
40.721904
 30
0.0
  0
VERTEX
  5
BF3F
  8
ALPHA
 10
33.545886
 20
40.389362
 30
0.0
  0
VERTEX
  5
BF40
  8
ALPHA
 10
32.205008
 20
39.839544
 30
0.0
  0
VERTEX
  5
BF41
  8
ALPHA
 10
30.951541
 20
39.075959
 30
0.0
  0
VERTEX
  5
BF42
  8
ALPHA
 10
29.834307
 20
38.123092
 30
0.0
  0
VERTEX
  5
BF43
  8
ALPHA
 10
28.892538
 20
37.019762
 30
0.0
  0
VERTEX
  5
BF44
  8
ALPHA
 10
28.141295
 20
35.795099
 30
0.0
  0
VERTEX
  5
BF45
  8
ALPHA
 10
27.584684
 20
34.4561
 30
0.0
  0
SEQEND
  5
BF46
  8
ALPHA
  0
POLYLINE
  5
B8EB
  8
ALPHA
 66
     1
 10
0.0
 20
0.0
 30
0.0
  0
VERTEX
  5
BF47
  8
ALPHA
 10
43.736844
 20
36.977499
 30
0.0
  0
VERTEX
  5
BF48
  8
ALPHA
 10
42.810733
 20
38.057953
 30
0.0
  0
VERTEX
  5
BF49
  8
ALPHA
 10
41.723295
 20
38.984417
 30
0.0
  0
VERTEX
  5
BF4A
  8
ALPHA
 10
40.513183
 20
39.725276
 30
0.0
  0
VERTEX
  5
BF4B
  8
ALPHA
 10
39.204037
 20
40.269092
 30
0.0
  0
VERTEX
  5
BF4C
  8
ALPHA
 10
37.814673
 20
40.605412
 30
0.0
  0
VERTEX
  5
BF4D
  8
ALPHA
 10
36.371785
 20
40.720613
 30
0.0
  0
VERTEX
  5
BF4E
  8
ALPHA
 10
34.928699
 20
40.606184
 30
0.0
  0
VERTEX
  5
BF4F
  8
ALPHA
 10
33.538838
 20
40.270576
 30
0.0
  0
VERTEX
  5
BF50
  8
ALPHA
 10
32.225444
 20
39.725619
 30
0.0
  0
VERTEX
  5
BF51
  8
ALPHA
 10
31.011613
 20
38.982602
 30
0.0
  0
SEQEND
  5
BF52
  8
ALPHA
  0
POLYLINE
  5
B8EC
  8
ALPHA
 66
     1
 10
0.0
 20
0.0
 30
0.0
  0
VERTEX
  5
BF53
  8
ALPHA
 10
43.605755
 20
37.243224
 30
0.0
  0
VERTEX
  5
BF54
  8
ALPHA
 10
42.651415
 20
38.289245
 30
0.0
  0
VERTEX
  5
BF55
  8
ALPHA
 10
41.534621
 20
39.184716
 30
0.0
  0
VERTEX
  5
BF56
  8
ALPHA
 10
40.293986
 20
39.89471
 30
0.0
  0
VERTEX
  5
BF57
  8
ALPHA
 10
38.974911
 20
40.39848
 30
0.0
  0
VERTEX
  5
BF58
  8
ALPHA
 10
37.587875
 20
40.694801
 30
0.0
  0
VERTEX
  5
BF59
  8
ALPHA
 10
36.159544
 20
40.773639
 30
0.0
  0
VERTEX
  5
BF5A
  8
ALPHA
 10
34.741433
 20
40.630565
 30
0.0
  0
VERTEX
  5
BF5B
  8
ALPHA
 10
33.380032
 20
40.27579
 30
0.0
  0
VERTEX
  5
BF5C
  8
ALPHA
 10
32.077592
 20
39.711315
 30
0.0
  0
VERTEX
  5
BF5D
  8
ALPHA
 10
30.864804
 20
38.943267
 30
0.0
  0
VERTEX
  5
BF5E
  8
ALPHA
 10
29.787274
 20
37.996469
 30
0.0
  0
VERTEX
  5
BF5F
  8
ALPHA
 10
28.880951
 20
36.908607
 30
0.0
  0
SEQEND
  5
BF60
  8
ALPHA
  0
POLYLINE
  5
B8ED
  8
ALPHA
 66
     1
 10
0.0
 20
0.0
 30
0.0
  0
VERTEX
  5
BF61
  8
ALPHA
 10
42.766697
 20
25.10905
 30
0.0
  0
VERTEX
  5
BF62
  8
ALPHA
 10
41.661077
 20
24.182483
 30
0.0
  0
VERTEX
  5
BF63
  8
ALPHA
 10
40.423117
 20
23.442282
 30
0.0
  0
VERTEX
  5
BF64
  8
ALPHA
 10
39.08397
 20
22.907011
 30
0.0
  0
VERTEX
  5
BF65
  8
ALPHA
 10
37.677266
 20
22.590046
 30
0.0
  0
VERTEX
  5
BF66
  8
ALPHA
 10
36.238274
 20
22.499297
 30
0.0
  0
VERTEX
  5
BF67
  8
ALPHA
 10
34.803172
 20
22.637012
 30
0.0
  0
VERTEX
  5
BF68
  8
ALPHA
 10
33.408042
 20
22.999681
 30
0.0
  0
VERTEX
  5
BF69
  8
ALPHA
 10
32.087885
 20
23.578153
 30
0.0
  0
VERTEX
  5
BF6A
  8
ALPHA
 10
30.875818
 20
24.357879
 30
0.0
  0
VERTEX
  5
BF6B
  8
ALPHA
 10
29.802309
 20
25.319219
 30
0.0
  0
VERTEX
  5
BF6C
  8
ALPHA
 10
28.894324
 20
26.437953
 30
0.0
  0
VERTEX
  5
BF6D
  8
ALPHA
 10
28.174608
 20
27.685972
 30
0.0
  0
VERTEX
  5
BF6E
  8
ALPHA
 10
27.661205
 20
29.031923
 30
0.0
  0
VERTEX
  5
BF6F
  8
ALPHA
 10
27.366996
 20
30.441934
 30
0.0
  0
SEQEND
  5
BF70
  8
ALPHA
  0
POLYLINE
  5
B8EE
  8
ALPHA
 66
     1
 10
0.0
 20
0.0
 30
0.0
  0
VERTEX
  5
BF71
  8
ALPHA
 10
45.766508
 20
31.595492
 30
0.0
  0
VERTEX
  5
BF72
  8
ALPHA
 10
45.653388
 20
33.057384
 30
0.0
  0
VERTEX
  5
BF73
  8
ALPHA
 10
45.31365
 20
34.485118
 30
0.0
  0
VERTEX
  5
BF74
  8
ALPHA
 10
44.757102
 20
35.839562
 30
0.0
  0
VERTEX
  5
BF75
  8
ALPHA
 10
43.995943
 20
37.092228
 30
0.0
  0
VERTEX
  5
BF76
  8
ALPHA
 10
43.042436
 20
38.218049
 30
0.0
  0
VERTEX
  5
BF77
  8
ALPHA
 10
41.909256
 20
39.191824
 30
0.0
  0
VERTEX
  5
BF78
  8
ALPHA
 10
40.636081
 20
39.973668
 30
0.0
  0
VERTEX
  5
BF79
  8
ALPHA
 10
39.272615
 20
40.538198
 30
0.0
  0
VERTEX
  5
BF7A
  8
ALPHA
 10
37.848039
 20
40.88071
 30
0.0
  0
VERTEX
  5
BF7B
  8
ALPHA
 10
36.388237
 20
40.997707
 30
0.0
  0
VERTEX
  5
BF7C
  8
ALPHA
 10
34.920149
 20
40.885381
 30
0.0
  0
VERTEX
  5
BF7D
  8
ALPHA
 10
33.490582
 20
40.546232
 30
0.0
  0
VERTEX
  5
BF7E
  8
ALPHA
 10
32.124957
 20
39.985383
 30
0.0
  0
VERTEX
  5
BF7F
  8
ALPHA
 10
30.84862
 20
39.206711
 30
0.0
  0
VERTEX
  5
BF80
  8
ALPHA
 10
29.711344
 20
38.23526
 30
0.0
  0
VERTEX
  5
BF81
  8
ALPHA
 10
28.753089
 20
37.110688
 30
0.0
  0
VERTEX
  5
BF82
  8
ALPHA
 10
27.988654
 20
35.861778
 30
0.0
  0
VERTEX
  5
BF83
  8
ALPHA
 10
27.425291
 20
34.503608
 30
0.0
  0
VERTEX
  5
BF84
  8
ALPHA
 10
27.078672
 20
33.064057
 30
0.0
  0
VERTEX
  5
BF85
  8
ALPHA
 10
26.962047
 20
31.595492
 30
0.0
  0
SEQEND
  5
BF86
  8
ALPHA
  0
POLYLINE
  5
B8EF
  8
ALPHA
 66
     1
 10
0.0
 20
0.0
 30
0.0
  0
VERTEX
  5
BF87
  8
ALPHA
 10
45.711086
 20
31.595492
 30
0.0
  0
VERTEX
  5
BF88
  8
ALPHA
 10
45.598208
 20
33.051516
 30
0.0
  0
VERTEX
  5
BF89
  8
ALPHA
 10
45.254092
 20
34.48915
 30
0.0
  0
VERTEX
  5
BF8A
  8
ALPHA
 10
44.687648
 20
35.85389
 30
0.0
  0
VERTEX
  5
BF8B
  8
ALPHA
 10
43.923837
 20
37.09732
 30
0.0
  0
VERTEX
  5
BF8C
  8
ALPHA
 10
42.983826
 20
38.198381
 30
0.0
  0
VERTEX
  5
BF8D
  8
ALPHA
 10
41.870862
 20
39.151227
 30
0.0
  0
VERTEX
  5
BF8E
  8
ALPHA
 10
40.617871
 20
39.920742
 30
0.0
  0
VERTEX
  5
BF8F
  8
ALPHA
 10
39.271582
 20
40.480246
 30
0.0
  0
VERTEX
  5
BF90
  8
ALPHA
 10
37.851824
 20
40.823977
 30
0.0
  0
VERTEX
  5
BF91
  8
ALPHA
 10
36.377389
 20
40.9423
 30
0.0
  0
VERTEX
  5
BF92
  8
ALPHA
 10
34.902549
 20
40.826505
 30
0.0
  0
VERTEX
  5
BF93
  8
ALPHA
 10
33.481698
 20
40.485116
 30
0.0
  0
VERTEX
  5
BF94
  8
ALPHA
 10
32.133589
 20
39.927621
 30
0.0
  0
VERTEX
  5
BF95
  8
ALPHA
 10
30.873262
 20
39.156114
 30
0.0
  0
VERTEX
  5
BF96
  8
ALPHA
 10
29.749313
 20
38.194847
 30
0.0
  0
VERTEX
  5
BF97
  8
ALPHA
 10
28.801136
 20
37.082537
 30
0.0
  0
VERTEX
  5
BF98
  8
ALPHA
 10
28.038436
 20
35.8374
 30
0.0
  0
VERTEX
  5
BF99
  8
ALPHA
 10
27.474311
 20
34.475131
 30
0.0
  0
VERTEX
  5
BF9A
  8
ALPHA
 10
27.131645
 20
33.044224
 30
0.0
  0
VERTEX
  5
BF9B
  8
ALPHA
 10
27.01747
 20
31.595492
 30
0.0
  0
SEQEND
  5
BF9C
  8
ALPHA
  0
POLYLINE
  5
B8F0
  8
ALPHA
 66
     1
 10
0.0
 20
0.0
 30
0.0
  0
VERTEX
  5
BF9D
  8
ALPHA
 10
45.655663
 20
31.595492
 30
0.0
  0
VERTEX
  5
BF9E
  8
ALPHA
 10
45.543028
 20
33.045644
 30
0.0
  0
VERTEX
  5
BF9F
  8
ALPHA
 10
45.199652
 20
34.477341
 30
0.0
  0
VERTEX
  5
BFA0
  8
ALPHA
 10
44.634493
 20
35.8361
 30
0.0
  0
VERTEX
  5
BFA1
  8
ALPHA
 10
43.872493
 20
37.073673
 30
0.0
  0
VERTEX
  5
BFA2
  8
ALPHA
 10
42.929153
 20
38.174674
 30
0.0
  0
VERTEX
  5
BFA3
  8
ALPHA
 10
41.819085
 20
39.120337
 30
0.0
  0
VERTEX
  5
BFA4
  8
ALPHA
 10
40.583162
 20
39.876227
 30
0.0
  0
VERTEX
  5
BFA5
  8
ALPHA
 10
39.251715
 20
40.428431
 30
0.0
  0
VERTEX
  5
BFA6
  8
ALPHA
 10
37.83741
 20
40.770158
 30
0.0
  0
VERTEX
  5
BFA7
  8
ALPHA
 10
36.368787
 20
40.886881
 30
0.0
  0
VERTEX
  5
BFA8
  8
ALPHA
 10
34.900078
 20
40.769988
 30
0.0
  0
VERTEX
  5
BFA9
  8
ALPHA
 10
33.485613
 20
40.428104
 30
0.0
  0
VERTEX
  5
BFAA
  8
ALPHA
 10
32.147688
 20
39.872607
 30
0.0
  0
VERTEX
  5
BFAB
  8
ALPHA
 10
30.909057
 20
39.113614
 30
0.0
  0
VERTEX
  5
BFAC
  8
ALPHA
 10
29.809626
 20
38.176767
 30
0.0
  0
SEQEND
  5
BFAD
  8
ALPHA
  0
POLYLINE
  5
B8F1
  8
ALPHA
 66
     1
 10
0.0
 20
0.0
 30
0.0
  0
VERTEX
  5
BFAE
  8
ALPHA
 10
28.72243
 20
26.015684
 30
0.0
  0
VERTEX
  5
BFAF
  8
ALPHA
 10
29.67802
 20
24.856603
 30
0.0
  0
VERTEX
  5
BFB0
  8
ALPHA
 10
30.807251
 20
23.860452
 30
0.0
  0
VERTEX
  5
BFB1
  8
ALPHA
 10
32.082431
 20
23.052936
 30
0.0
  0
VERTEX
  5
BFB2
  8
ALPHA
 10
33.472122
 20
22.455062
 30
0.0
  0
VERTEX
  5
BFB3
  8
ALPHA
 10
34.941928
 20
22.082606
 30
0.0
  0
VERTEX
  5
BFB4
  8
ALPHA
 10
36.455374
 20
21.945709
 30
0.0
  0
VERTEX
  5
BFB5
  8
ALPHA
 10
37.975541
 20
22.048731
 30
0.0
  0
VERTEX
  5
BFB6
  8
ALPHA
 10
39.464029
 20
22.390114
 30
0.0
  0
VERTEX
  5
BFB7
  8
ALPHA
 10
40.883652
 20
22.96226
 30
0.0
  0
VERTEX
  5
BFB8
  8
ALPHA
 10
42.198902
 20
23.751832
 30
0.0
  0
VERTEX
  5
BFB9
  8
ALPHA
 10
43.376761
 20
24.740071
 30
0.0
  0
VERTEX
  5
BFBA
  8
ALPHA
 10
44.387537
 20
25.903252
 30
0.0
  0
VERTEX
  5
BFBB
  8
ALPHA
 10
45.205571
 20
27.213222
 30
0.0
  0
VERTEX
  5
BFBC
  8
ALPHA
 10
45.809962
 20
28.638185
 30
0.0
  0
VERTEX
  5
BFBD
  8
ALPHA
 10
46.185022
 20
30.143466
 30
0.0
  0
VERTEX
  5
BFBE
  8
ALPHA
 10
46.320655
 20
31.692307
 30
0.0
  0
VERTEX
  5
BFBF
  8
ALPHA
 10
46.212637
 20
33.246736
 30
0.0
  0
VERTEX
  5
BFC0
  8
ALPHA
 10
45.86274
 20
34.768583
 30
0.0
  0
VERTEX
  5
BFC1
  8
ALPHA
 10
45.278642
 20
36.220502
 30
0.0
  0
VERTEX
  5
BFC2
  8
ALPHA
 10
44.473763
 20
37.566701
 30
0.0
  0
SEQEND
  5
BFC3
  8
ALPHA
  0
POLYLINE
  5
B8F2
  8
ALPHA
 66
     1
 10
0.0
 20
0.0
 30
0.0
  0
VERTEX
  5
BFC4
  8
ALPHA
 10
32.098426
 20
23.197306
 30
0.0
  0
VERTEX
  5
BFC5
  8
ALPHA
 10
33.456424
 20
22.632512
 30
0.0
  0
VERTEX
  5
BFC6
  8
ALPHA
 10
34.888971
 20
22.285292
 30
0.0
  0
VERTEX
  5
BFC7
  8
ALPHA
 10
36.376783
 20
22.165551
 30
0.0
  0
VERTEX
  5
BFC8
  8
ALPHA
 10
37.865079
 20
22.282107
 30
0.0
  0
VERTEX
  5
BFC9
  8
ALPHA
 10
39.29896
 20
22.62638
 30
0.0
  0
VERTEX
  5
BFCA
  8
ALPHA
 10
40.656912
 20
23.187508
 30
0.0
  0
VERTEX
  5
BFCB
  8
ALPHA
 10
41.927088
 20
23.96414
 30
0.0
  0
VERTEX
  5
BFCC
  8
ALPHA
 10
43.060868
 20
24.932473
 30
0.0
  0
VERTEX
  5
BFCD
  8
ALPHA
 10
44.018265
 20
26.053904
 30
0.0
  0
VERTEX
  5
BFCE
  8
ALPHA
 10
44.788975
 20
27.310102
 30
0.0
  0
SEQEND
  5
BFCF
  8
ALPHA
  0
POLYLINE
  5
B8F3
  8
ALPHA
 66
     1
 10
0.0
 20
0.0
 30
0.0
  0
VERTEX
  5
BFD0
  8
ALPHA
 10
32.156095
 20
23.292321
 30
0.0
  0
VERTEX
  5
BFD1
  8
ALPHA
 10
33.507187
 20
22.73255
 30
0.0
  0
VERTEX
  5
BFD2
  8
ALPHA
 10
34.918386
 20
22.392838
 30
0.0
  0
VERTEX
  5
BFD3
  8
ALPHA
 10
36.365187
 20
22.276416
 30
0.0
  0
VERTEX
  5
BFD4
  8
ALPHA
 10
37.821455
 20
22.387454
 30
0.0
  0
VERTEX
  5
BFD5
  8
ALPHA
 10
39.238694
 20
22.723398
 30
0.0
  0
VERTEX
  5
BFD6
  8
ALPHA
 10
40.592106
 20
23.278935
 30
0.0
  0
VERTEX
  5
BFD7
  8
ALPHA
 10
41.857112
 20
24.050318
 30
0.0
  0
VERTEX
  5
BFD8
  8
ALPHA
 10
42.984396
 20
25.012763
 30
0.0
  0
VERTEX
  5
BFD9
  8
ALPHA
 10
43.934358
 20
26.127004
 30
0.0
  0
VERTEX
  5
BFDA
  8
ALPHA
 10
44.692044
 20
27.364016
 30
0.0
  0
VERTEX
  5
BFDB
  8
ALPHA
 10
45.251461
 20
28.711688
 30
0.0
  0
VERTEX
  5
BFDC
  8
ALPHA
 10
45.595436
 20
30.139629
 30
0.0
  0
VERTEX
  5
BFDD
  8
ALPHA
 10
45.711086
 20
31.595492
 30
0.0
  0
SEQEND
  5
BFDE
  8
ALPHA
  0
POLYLINE
  5
B8F4
  8
ALPHA
 66
     1
 10
0.0
 20
0.0
 30
0.0
  0
VERTEX
  5
BFDF
  8
ALPHA
 10
32.270693
 20
23.173169
 30
0.0
  0
VERTEX
  5
BFE0
  8
ALPHA
 10
33.612148
 20
22.641085
 30
0.0
  0
VERTEX
  5
BFE1
  8
ALPHA
 10
35.034294
 20
22.319074
 30
0.0
  0
VERTEX
  5
BFE2
  8
ALPHA
 10
36.506228
 20
22.221727
 30
0.0
  0
VERTEX
  5
BFE3
  8
ALPHA
 10
37.973881
 20
22.356255
 30
0.0
  0
VERTEX
  5
BFE4
  8
ALPHA
 10
39.384564
 20
22.713095
 30
0.0
  0
VERTEX
  5
BFE5
  8
ALPHA
 10
40.719065
 20
23.281796
 30
0.0
  0
SEQEND
  5
BFE6
  8
ALPHA
  0
POLYLINE
  5
B8F5
  8
ALPHA
 66
     1
 10
0.0
 20
0.0
 30
0.0
  0
VERTEX
  5
BFE7
  8
ALPHA
 10
26.920326
 20
31.07731
 30
0.0
  0
VERTEX
  5
BFE8
  8
ALPHA
 10
26.952368
 20
32.516446
 30
0.0
  0
VERTEX
  5
BFE9
  8
ALPHA
 10
27.202162
 20
33.934153
 30
0.0
  0
VERTEX
  5
BFEA
  8
ALPHA
 10
27.66391
 20
35.297477
 30
0.0
  0
VERTEX
  5
BFEB
  8
ALPHA
 10
28.326897
 20
36.574905
 30
0.0
  0
VERTEX
  5
BFEC
  8
ALPHA
 10
29.175756
 20
37.736934
 30
0.0
  0
VERTEX
  5
BFED
  8
ALPHA
 10
30.190842
 20
38.756746
 30
0.0
  0
VERTEX
  5
BFEE
  8
ALPHA
 10
31.348677
 20
39.610808
 30
0.0
  0
VERTEX
  5
BFEF
  8
ALPHA
 10
32.622474
 20
40.279405
 30
0.0
  0
VERTEX
  5
BFF0
  8
ALPHA
 10
33.982761
 20
40.74711
 30
0.0
  0
VERTEX
  5
BFF1
  8
ALPHA
 10
35.398097
 20
41.003151
 30
0.0
  0
VERTEX
  5
BFF2
  8
ALPHA
 10
36.835764
 20
41.041639
 30
0.0
  0
VERTEX
  5
BFF3
  8
ALPHA
 10
38.262495
 20
40.861716
 30
0.0
  0
VERTEX
  5
BFF4
  8
ALPHA
 10
39.645275
 20
40.46759
 30
0.0
  0
VERTEX
  5
BFF5
  8
ALPHA
 10
40.952148
 20
39.86842
 30
0.0
  0
VERTEX
  5
BFF6
  8
ALPHA
 10
42.15295
 20
39.078076
 30
0.0
  0
VERTEX
  5
BFF7
  8
ALPHA
 10
43.219913
 20
38.114866
 30
0.0
  0
VERTEX
  5
BFF8
  8
ALPHA
 10
44.128356
 20
37.001123
 30
0.0
  0
VERTEX
  5
BFF9
  8
ALPHA
 10
44.857315
 20
35.762615
 30
0.0
  0
SEQEND
  5
BFFA
  8
ALPHA
  0
POLYLINE
  5
B8F6
  8
ALPHA
 66
     1
 10
0.0
 20
0.0
 30
0.0
  0
VERTEX
  5
BFFB
  8
ALPHA
 10
27.23916
 20
31.595492
 30
0.0
  0
VERTEX
  5
BFFC
  8
ALPHA
 10
27.348744
 20
30.175592
 30
0.0
  0
VERTEX
  5
BFFD
  8
ALPHA
 10
27.677324
 20
28.79067
 30
0.0
  0
VERTEX
  5
BFFE
  8
ALPHA
 10
28.219611
 20
27.468159
 30
0.0
  0
VERTEX
  5
BFFF
  8
ALPHA
 10
28.960258
 20
26.247905
 30
0.0
  0
VERTEX
  5
C000
  8
ALPHA
 10
29.886968
 20
25.152536
 30
0.0
  0
VERTEX
  5
C001
  8
ALPHA
 10
30.988408
 20
24.204725
 30
0.0
  0
VERTEX
  5
C002
  8
ALPHA
 10
32.226096
 20
23.443264
 30
0.0
  0
VERTEX
  5
C003
  8
ALPHA
 10
33.551808
 20
22.89288
 30
0.0
  0
VERTEX
  5
C004
  8
ALPHA
 10
34.935164
 20
22.558537
 30
0.0
  0
VERTEX
  5
C005
  8
ALPHA
 10
36.357722
 20
22.442705
 30
0.0
  0
VERTEX
  5
C006
  8
ALPHA
 10
37.791157
 20
22.551009
 30
0.0
  0
VERTEX
  5
C007
  8
ALPHA
 10
39.183697
 20
22.880368
 30
0.0
  0
VERTEX
  5
C008
  8
ALPHA
 10
40.512213
 20
23.424855
 30
0.0
  0
VERTEX
  5
C009
  8
ALPHA
 10
41.75421
 20
24.181087
 30
0.0
  0
VERTEX
  5
C00A
  8
ALPHA
 10
42.861341
 20
25.124842
 30
0.0
  0
VERTEX
  5
C00B
  8
ALPHA
 10
43.794737
 20
26.217698
 30
0.0
  0
VERTEX
  5
C00C
  8
ALPHA
 10
44.539609
 20
27.431103
 30
0.0
  0
VERTEX
  5
C00D
  8
ALPHA
 10
45.092194
 20
28.759583
 30
0.0
  0
VERTEX
  5
C00E
  8
ALPHA
 10
45.43113
 20
30.165105
 30
0.0
  0
VERTEX
  5
C00F
  8
ALPHA
 10
45.544818
 20
31.595492
 30
0.0
  0
SEQEND
  5
C010
  8
ALPHA
  0
POLYLINE
  5
B8F7
  8
ALPHA
 66
     1
 10
0.0
 20
0.0
 30
0.0
  0
VERTEX
  5
C011
  8
ALPHA
 10
27.128315
 20
31.595492
 30
0.0
  0
VERTEX
  5
C012
  8
ALPHA
 10
27.240192
 20
30.152325
 30
0.0
  0
VERTEX
  5
C013
  8
ALPHA
 10
27.581283
 20
28.727389
 30
0.0
  0
VERTEX
  5
C014
  8
ALPHA
 10
28.142753
 20
27.374715
 30
0.0
  0
VERTEX
  5
C015
  8
ALPHA
 10
28.899883
 20
26.142258
 30
0.0
  0
VERTEX
  5
C016
  8
ALPHA
 10
29.83377
 20
25.048837
 30
0.0
  0
VERTEX
  5
C017
  8
ALPHA
 10
30.941133
 20
24.102019
 30
0.0
  0
VERTEX
  5
C018
  8
ALPHA
 10
32.18624
 20
23.339165
 30
0.0
  0
VERTEX
  5
C019
  8
ALPHA
 10
33.522049
 20
22.785996
 30
0.0
  0
VERTEX
  5
C01A
  8
ALPHA
 10
34.929379
 20
22.447208
 30
0.0
  0
VERTEX
  5
C01B
  8
ALPHA
 10
36.389339
 20
22.331814
 30
0.0
  0
VERTEX
  5
C01C
  8
ALPHA
 10
37.848238
 20
22.447787
 30
0.0
  0
VERTEX
  5
C01D
  8
ALPHA
 10
39.252718
 20
22.78618
 30
0.0
  0
VERTEX
  5
C01E
  8
ALPHA
 10
40.591103
 20
23.340573
 30
0.0
  0
VERTEX
  5
C01F
  8
ALPHA
 10
41.841389
 20
24.107399
 30
0.0
  0
VERTEX
  5
C020
  8
ALPHA
 10
42.955309
 20
25.062088
 30
0.0
  0
VERTEX
  5
C021
  8
ALPHA
 10
43.894041
 20
26.165821
 30
0.0
  0
VERTEX
  5
C022
  8
ALPHA
 10
44.648254
 20
27.400155
 30
0.0
  0
VERTEX
  5
C023
  8
ALPHA
 10
45.205107
 20
28.748383
 30
0.0
  0
VERTEX
  5
C024
  8
ALPHA
 10
45.542896
 20
30.162208
 30
0.0
  0
VERTEX
  5
C025
  8
ALPHA
 10
45.655663
 20
31.595492
 30
0.0
  0
SEQEND
  5
C026
  8
ALPHA
  0
POLYLINE
  5
B8F8
  8
ALPHA
 66
     1
 10
0.0
 20
0.0
 30
0.0
  0
VERTEX
  5
C027
  8
ALPHA
 10
27.183738
 20
31.595492
 30
0.0
  0
VERTEX
  5
C028
  8
ALPHA
 10
27.295422
 20
30.157878
 30
0.0
  0
VERTEX
  5
C029
  8
ALPHA
 10
27.635925
 20
28.73858
 30
0.0
  0
VERTEX
  5
C02A
  8
ALPHA
 10
28.196352
 20
27.39164
 30
0.0
  0
VERTEX
  5
C02B
  8
ALPHA
 10
28.951942
 20
26.164926
 30
0.0
  0
VERTEX
  5
C02C
  8
ALPHA
 10
29.886654
 20
25.07434
 30
0.0
  0
VERTEX
  5
C02D
  8
ALPHA
 10
30.984952
 20
24.138697
 30
0.0
  0
VERTEX
  5
C02E
  8
ALPHA
 10
32.207018
 20
23.39078
 30
0.0
  0
VERTEX
  5
C02F
  8
ALPHA
 10
33.527624
 20
22.842472
 30
0.0
  0
VERTEX
  5
C030
  8
ALPHA
 10
34.929561
 20
22.503305
 30
0.0
  0
VERTEX
  5
C031
  8
ALPHA
 10
36.385455
 20
22.387236
 30
0.0
  0
VERTEX
  5
C032
  8
ALPHA
 10
37.84151
 20
22.502838
 30
0.0
  0
VERTEX
  5
C033
  8
ALPHA
 10
39.243834
 20
22.841575
 30
0.0
  0
VERTEX
  5
C034
  8
ALPHA
 10
40.569412
 20
23.391723
 30
0.0
  0
VERTEX
  5
C035
  8
ALPHA
 10
41.79518
 20
24.142329
 30
0.0
  0
VERTEX
  5
C036
  8
ALPHA
 10
42.885642
 20
25.070797
 30
0.0
  0
SEQEND
  5
C037
  8
ALPHA
  0
LINE
  5
B8F9
  8
AXE
 10
36.378133
 20
16.595492
 30
0.0
 11
36.378133
 21
46.595492
 31
0.0
  0
LINE
  5
B8FA
  8
ALPHA
 10
27.459821
 20
33.311338
 30
0.0
 11
27.844373
 21
34.698706
 31
0.0
  0
POLYLINE
  5
B8FB
  8
ALPHA
 66
     1
 10
0.0
 20
0.0
 30
0.0
  0
VERTEX
  5
C038
  8
ALPHA
 10
36.378133
 20
41.829251
 30
0.0
  0
VERTEX
  5
C039
  8
ALPHA
 10
34.843089
 20
41.741756
 30
0.0
  0
VERTEX
  5
C03A
  8
ALPHA
 10
33.316697
 20
41.419557
 30
0.0
  0
VERTEX
  5
C03B
  8
ALPHA
 10
31.849372
 20
40.866928
 30
0.0
  0
VERTEX
  5
C03C
  8
ALPHA
 10
30.490919
 20
40.103771
 30
0.0
  0
VERTEX
  5
C03D
  8
ALPHA
 10
29.271747
 20
39.153641
 30
0.0
  0
VERTEX
  5
C03E
  8
ALPHA
 10
28.20012
 20
38.024094
 30
0.0
  0
VERTEX
  5
C03F
  8
ALPHA
 10
27.301118
 20
36.733677
 30
0.0
  0
VERTEX
  5
C040
  8
ALPHA
 10
26.607084
 20
35.324483
 30
0.0
  0
VERTEX
  5
C041
  8
ALPHA
 10
26.134432
 20
33.837595
 30
0.0
  0
VERTEX
  5
C042
  8
ALPHA
 10
25.887439
 20
32.29437
 30
0.0
  0
VERTEX
  5
C043
  8
ALPHA
 10
25.872737
 20
30.719825
 30
0.0
  0
VERTEX
  5
C044
  8
ALPHA
 10
26.094146
 20
29.154349
 30
0.0
  0
VERTEX
  5
C045
  8
ALPHA
 10
26.544051
 20
27.646169
 30
0.0
  0
VERTEX
  5
C046
  8
ALPHA
 10
27.21553
 20
26.215699
 30
0.0
  0
VERTEX
  5
C047
  8
ALPHA
 10
28.091103
 20
24.901517
 30
0.0
  0
VERTEX
  5
C048
  8
ALPHA
 10
29.158032
 20
23.724884
 30
0.0
  0
VERTEX
  5
C049
  8
ALPHA
 10
30.386158
 20
22.720583
 30
0.0
  0
VERTEX
  5
C04A
  8
ALPHA
 10
31.757033
 20
21.904882
 30
0.0
  0
VERTEX
  5
C04B
  8
ALPHA
 10
33.23748
 20
21.300105
 30
0.0
  0
VERTEX
  5
C04C
  8
ALPHA
 10
34.786543
 20
20.922161
 30
0.0
  0
VERTEX
  5
C04D
  8
ALPHA
 10
36.378133
 20
20.776574
 30
0.0
  0
SEQEND
  5
C04E
  8
ALPHA
  0
POLYLINE
  5
B8FC
  8
ALPHA
 66
     1
 10
0.0
 20
0.0
 30
0.0
  0
VERTEX
  5
C04F
  8
ALPHA
 10
28.880951
 20
36.908607
 30
0.0
  0
VERTEX
  5
C050
  8
ALPHA
 10
28.15299
 20
35.695363
 30
0.0
  0
VERTEX
  5
C051
  8
ALPHA
 10
27.617017
 20
34.375765
 30
0.0
  0
VERTEX
  5
C052
  8
ALPHA
 10
27.292464
 20
32.996462
 30
0.0
  0
VERTEX
  5
C053
  8
ALPHA
 10
27.183738
 20
31.595492
 30
0.0
  0
SEQEND
  5
C054
  8
ALPHA
  0
POLYLINE
  5
B8FD
  8
ALPHA
 66
     1
 10
0.0
 20
0.0
 30
0.0
  0
VERTEX
  5
C055
  8
ALPHA
 10
27.693428
 20
34.43201
 30
0.0
  0
VERTEX
  5
C056
  8
ALPHA
 10
27.352775
 20
33.023232
 30
0.0
  0
VERTEX
  5
C057
  8
ALPHA
 10
27.23916
 20
31.595492
 30
0.0
  0
SEQEND
  5
C058
  8
ALPHA
  0
POLYLINE
  5
B8FE
  8
ALPHA
 66
     1
 10
0.0
 20
0.0
 30
0.0
  0
VERTEX
  5
C059
  8
ALPHA
 10
27.534992
 20
34.482459
 30
0.0
  0
VERTEX
  5
C05A
  8
ALPHA
 10
27.188453
 20
33.048605
 30
0.0
  0
VERTEX
  5
C05B
  8
ALPHA
 10
27.072892
 20
31.595492
 30
0.0
  0
SEQEND
  5
C05C
  8
ALPHA
  0
POLYLINE
  5
B8FF
  8
ALPHA
 66
     1
 10
0.0
 20
0.0
 30
0.0
  0
VERTEX
  5
C05D
  8
ALPHA
 10
27.584684
 20
34.4561
 30
0.0
  0
VERTEX
  5
C05E
  8
ALPHA
 10
27.243006
 20
33.038759
 30
0.0
  0
VERTEX
  5
C05F
  8
ALPHA
 10
27.128315
 20
31.595492
 30
0.0
  0
SEQEND
  5
C060
  8
ALPHA
  0
ARC
  5
B900
  8
ALPHA
 10
36.378133
 20
31.595492
 30
0.0
 40
13.0
 50
275.920682
 51
278.079318
  0
LINE
  5
B901
  8
ALPHA
 10
37.485011
 20
18.943819
 30
0.0
 11
37.302919
 21
18.628427
 31
0.0
  0
LINE
  5
B902
  8
ALPHA
 10
37.719104
 20
18.664838
 30
0.0
 11
37.485011
 21
18.943819
 31
0.0
  0
LINE
  5
B903
  8
ALPHA
 10
38.364851
 20
19.05185
 30
0.0
 11
38.205203
 21
18.724524
 31
0.0
  0
LINE
  5
B904
  8
ALPHA
 10
38.617834
 20
18.789878
 30
0.0
 11
38.364851
 21
19.05185
 31
0.0
  0
ARC
  5
B905
  8
ALPHA
 10
36.378133
 20
31.595492
 30
0.0
 40
13.0
 50
279.920682
 51
282.079318
  0
POLYLINE
  5
B906
  8
ALPHA
 66
     1
 10
0.0
 20
0.0
 30
0.0
  0
VERTEX
  5
C061
  8
ALPHA
 10
36.378133
 20
20.776574
 30
0.0
  0
VERTEX
  5
C062
  8
ALPHA
 10
36.977249
 20
20.78285
 30
0.0
  0
VERTEX
  5
C063
  8
ALPHA
 10
37.575531
 20
20.822295
 30
0.0
  0
SEQEND
  5
C064
  8
ALPHA
  0
POLYLINE
  5
B907
  8
ALPHA
 66
     1
 10
0.0
 20
0.0
 30
0.0
  0
VERTEX
  5
C065
  8
ALPHA
 10
28.765943
 20
26.043739
 30
0.0
  0
VERTEX
  5
C066
  8
ALPHA
 10
29.714059
 20
24.933413
 30
0.0
  0
VERTEX
  5
C067
  8
ALPHA
 10
30.835357
 20
23.973361
 30
0.0
  0
VERTEX
  5
C068
  8
ALPHA
 10
32.098426
 20
23.197306
 30
0.0
  0
SEQEND
  5
C069
  8
ALPHA
  0
POLYLINE
  5
B908
  8
ALPHA
 66
     1
 10
0.0
 20
0.0
 30
0.0
  0
VERTEX
  5
C06A
  8
ALPHA
 10
27.072892
 20
31.595492
 30
0.0
  0
VERTEX
  5
C06B
  8
ALPHA
 10
27.184885
 20
30.147268
 30
0.0
  0
VERTEX
  5
C06C
  8
ALPHA
 10
27.521014
 20
28.733627
 30
0.0
  0
VERTEX
  5
C06D
  8
ALPHA
 10
28.07267
 20
27.390286
 30
0.0
  0
VERTEX
  5
C06E
  8
ALPHA
 10
28.827024
 20
26.148394
 30
0.0
  0
VERTEX
  5
C06F
  8
ALPHA
 10
29.771749
 20
25.032593
 30
0.0
  0
VERTEX
  5
C070
  8
ALPHA
 10
30.894538
 20
24.067392
 30
0.0
  0
VERTEX
  5
C071
  8
ALPHA
 10
32.156095
 20
23.292321
 30
0.0
  0
SEQEND
  5
C072
  8
ALPHA
  0
POLYLINE
  5
B909
  8
ALPHA
 66
     1
 10
0.0
 20
0.0
 30
0.0
  0
VERTEX
  5
C073
  8
ALPHA
 10
28.447505
 20
26.613543
 30
0.0
  0
VERTEX
  5
C074
  8
ALPHA
 10
29.209121
 20
25.566994
 30
0.0
  0
VERTEX
  5
C075
  8
ALPHA
 10
30.115575
 20
24.62836
 30
0.0
  0
VERTEX
  5
C076
  8
ALPHA
 10
31.146361
 20
23.822962
 30
0.0
  0
SEQEND
  5
C077
  8
ALPHA
  0
POLYLINE
  5
B90A
  8
ALPHA
 66
     1
 10
0.0
 20
0.0
 30
0.0
  0
VERTEX
  5
C078
  8
ALPHA
 10
27.10668
 20
30.29736
 30
0.0
  0
VERTEX
  5
C079
  8
ALPHA
 10
27.379351
 20
29.008955
 30
0.0
  0
VERTEX
  5
C07A
  8
ALPHA
 10
27.831197
 20
27.769079
 30
0.0
  0
VERTEX
  5
C07B
  8
ALPHA
 10
28.447505
 20
26.613543
 30
0.0
  0
SEQEND
  5
C07C
  8
ALPHA
  0
LINE
  5
B90B
  8
ALPHA
 10
27.106635
 20
29.650407
 30
0.0
 11
26.920326
 21
31.07731
 31
0.0
  0
LINE
  5
B90C
  8
ALPHA
 10
27.366996
 20
30.441934
 30
0.0
 11
27.299333
 21
31.880507
 31
0.0
  0
LINE
  5
B90D
  8
ALPHA
 10
27.01747
 20
31.595492
 30
0.0
 11
27.10668
 21
30.29736
 31
0.0
  0
ARC
  5
B90E
  8
ALPHA
 10
36.378133
 20
31.595492
 30
0.0
 40
9.473333
 50
191.848355
 51
216.086183
  0
POLYLINE
  5
B90F
  8
ALPHA
 66
     1
 10
0.0
 20
0.0
 30
0.0
  0
VERTEX
  5
C07D
  8
ALPHA
 10
26.962047
 20
31.595492
 30
0.0
  0
VERTEX
  5
C07E
  8
ALPHA
 10
27.075988
 20
30.126203
 30
0.0
  0
VERTEX
  5
C07F
  8
ALPHA
 10
27.423322
 20
28.675491
 30
0.0
  0
VERTEX
  5
C080
  8
ALPHA
 10
27.995044
 20
27.298376
 30
0.0
  0
VERTEX
  5
C081
  8
ALPHA
 10
28.765943
 20
26.043739
 30
0.0
  0
SEQEND
  5
C082
  8
ALPHA
  0
LINE
  5
B910
  8
ALPHA
 10
27.299333
 20
31.880507
 30
0.0
 11
27.459821
 21
33.311338
 31
0.0
  0
LINE
  5
B911
  8
ALPHA
 10
31.146361
 20
23.822962
 30
0.0
 11
32.270693
 21
23.173169
 31
0.0
  0
LINE
  5
B912
  8
ALPHA
 10
31.011613
 20
38.982602
 30
0.0
 11
29.930212
 21
38.0622
 31
0.0
  0
POLYLINE
  5
B913
  8
ALPHA
 66
     1
 10
0.0
 20
0.0
 30
0.0
  0
VERTEX
  5
C083
  8
ALPHA
 10
30.218763
 20
38.261893
 30
0.0
  0
VERTEX
  5
C084
  8
ALPHA
 10
31.350639
 20
39.150466
 30
0.0
  0
VERTEX
  5
C085
  8
ALPHA
 10
32.608546
 20
39.848863
 30
0.0
  0
VERTEX
  5
C086
  8
ALPHA
 10
33.960793
 20
40.339575
 30
0.0
  0
SEQEND
  5
C087
  8
ALPHA
  0
LINE
  5
B914
  8
ALPHA
 10
29.241441
 20
37.205463
 30
0.0
 11
30.218763
 21
38.261893
 31
0.0
  0
LINE
  5
B915
  8
ALPHA
 10
29.930212
 20
38.0622
 30
0.0
 11
29.003986
 21
36.984468
 31
0.0
  0
LINE
  5
B916
  8
ALPHA
 10
29.809626
 20
38.176767
 30
0.0
 11
28.868305
 21
37.080605
 31
0.0
  0
LINE
  5
B917
  8
ALPHA
 10
28.252077
 20
35.768209
 30
0.0
 11
27.693428
 21
34.43201
 31
0.0
  0
LINE
  5
B918
  8
ALPHA
 10
28.103328
 20
35.842524
 30
0.0
 11
27.534992
 21
34.482459
 31
0.0
  0
LINE
  5
B919
  8
ALPHA
 10
27.844373
 20
34.698706
 30
0.0
 11
28.44328
 21
36.007712
 31
0.0
  0
LINE
  5
B91A
  8
ALPHA
 10
28.44328
 20
36.007712
 30
0.0
 11
29.241441
 21
37.205463
 31
0.0
  0
LINE
  5
B91B
  8
ALPHA
 10
29.003986
 20
36.984468
 30
0.0
 11
28.252077
 21
35.768209
 31
0.0
  0
LINE
  5
B91C
  8
ALPHA
 10
28.868305
 20
37.080605
 30
0.0
 11
28.103328
 21
35.842524
 31
0.0
  0
LINE
  5
B91D
  8
ALPHA
 10
35.037741
 20
40.610692
 30
0.0
 11
33.960793
 21
40.339575
 31
0.0
  0
LINE
  5
B91E
  8
ALPHA
 10
45.466386
 20
32.800936
 30
0.0
 11
45.22637
 21
33.999595
 31
0.0
  0
LINE
  5
B91F
  8
ALPHA
 10
45.489516
 20
33.02914
 30
0.0
 11
45.157529
 21
34.427495
 31
0.0
  0
ARC
  5
B920
  8
ALPHA
 10
36.378133
 20
31.595492
 30
0.0
 40
13.0
 50
7.920682
 51
14.079318
  0
POLYLINE
  5
B921
  8
ALPHA
 66
     1
 10
0.0
 20
0.0
 30
0.0
  0
VERTEX
  5
C088
  8
ALPHA
 10
44.857315
 20
35.762615
 30
0.0
  0
VERTEX
  5
C089
  8
ALPHA
 10
45.389966
 20
34.427969
 30
0.0
  0
VERTEX
  5
C08A
  8
ALPHA
 10
45.713994
 20
33.028109
 30
0.0
  0
SEQEND
  5
C08B
  8
ALPHA
  0
POLYLINE
  5
B922
  8
ALPHA
 66
     1
 10
0.0
 20
0.0
 30
0.0
  0
VERTEX
  5
C08C
  8
ALPHA
 10
45.489395
 20
31.595492
 30
0.0
  0
VERTEX
  5
C08D
  8
ALPHA
 10
45.378707
 20
33.020271
 30
0.0
  0
VERTEX
  5
C08E
  8
ALPHA
 10
45.041218
 20
34.426893
 30
0.0
  0
VERTEX
  5
C08F
  8
ALPHA
 10
44.485746
 20
35.761787
 30
0.0
  0
VERTEX
  5
C090
  8
ALPHA
 10
43.736844
 20
36.977499
 30
0.0
  0
SEQEND
  5
C091
  8
ALPHA
  0
ARC
  5
B923
  8
ALPHA
 10
36.378133
 20
31.595492
 30
0.0
 40
13.0
 50
311.920682
 51
314.079318
  0
LINE
  5
B924
  8
ALPHA
 10
44.710083
 20
22.01068
 30
0.0
 11
44.74815
 21
21.648491
 31
0.0
  0
LINE
  5
B925
  8
ALPHA
 10
45.063449
 20
21.922576
 30
0.0
 11
44.710083
 21
22.01068
 31
0.0
  0
LINE
  5
B926
  8
ALPHA
 10
44.021184
 20
21.452821
 30
0.0
 11
44.033894
 21
21.088859
 31
0.0
  0
ARC
  5
B927
  8
ALPHA
 10
36.378133
 20
31.595492
 30
0.0
 40
13.0
 50
303.920682
 51
306.079318
  0
LINE
  5
B928
  8
ALPHA
 10
43.295049
 20
20.944375
 30
0.0
 11
43.282339
 21
20.580414
 31
0.0
  0
LINE
  5
B929
  8
ALPHA
 10
43.632714
 20
20.80795
 30
0.0
 11
43.295049
 21
20.944375
 31
0.0
  0
LINE
  5
B92A
  8
ALPHA
 10
44.367543
 20
21.340282
 30
0.0
 11
44.021184
 21
21.452821
 31
0.0
  0
ARC
  5
B92B
  8
ALPHA
 10
36.378133
 20
31.595492
 30
0.0
 40
13.0
 50
307.920682
 51
310.079318
  0
ARC
  5
B92C
  8
ALPHA
 10
36.378133
 20
31.595492
 30
0.0
 40
13.0
 50
295.920682
 51
298.079318
  0
ARC
  5
B92D
  8
ALPHA
 10
36.378133
 20
31.595492
 30
0.0
 40
13.0
 50
291.920682
 51
294.079318
  0
LINE
  5
B92E
  8
ALPHA
 10
41.745385
 20
20.085383
 30
0.0
 11
41.682145
 21
19.726732
 31
0.0
  0
LINE
  5
B92F
  8
ALPHA
 10
41.231328
 20
19.535371
 30
0.0
 11
40.929406
 21
19.73902
 31
0.0
  0
LINE
  5
B930
  8
ALPHA
 10
42.060777
 20
19.903291
 30
0.0
 11
41.745385
 21
20.085383
 31
0.0
  0
LINE
  5
B931
  8
ALPHA
 10
42.535215
 20
20.487821
 30
0.0
 11
42.497148
 21
20.125633
 31
0.0
  0
LINE
  5
B932
  8
ALPHA
 10
42.862541
 20
20.328174
 30
0.0
 11
42.535215
 21
20.487821
 31
0.0
  0
ARC
  5
B933
  8
ALPHA
 10
36.378133
 20
31.595492
 30
0.0
 40
13.0
 50
287.920682
 51
290.079318
  0
LINE
  5
B934
  8
ALPHA
 10
40.378234
 20
19.226207
 30
0.0
 11
40.091254
 21
19.450421
 31
0.0
  0
ARC
  5
B935
  8
ALPHA
 10
36.378133
 20
31.595492
 30
0.0
 40
13.0
 50
283.920682
 51
286.079318
  0
LINE
  5
B936
  8
ALPHA
 10
40.091254
 20
19.450421
 30
0.0
 11
39.978715
 21
19.104062
 31
0.0
  0
LINE
  5
B937
  8
ALPHA
 10
39.505653
 20
18.977305
 30
0.0
 11
39.235012
 21
19.220992
 31
0.0
  0
LINE
  5
B938
  8
ALPHA
 10
40.929406
 20
19.73902
 30
0.0
 11
40.841302
 21
19.385655
 31
0.0
  0
ARC
  5
B939
  8
ALPHA
 10
36.378133
 20
31.595492
 30
0.0
 40
13.0
 50
299.920682
 51
302.079318
  0
LINE
  5
B93A
  8
ALPHA
 10
47.393211
 20
24.691286
 30
0.0
 11
47.029249
 21
24.678576
 31
0.0
  0
POLYLINE
  5
B93B
  8
ALPHA
 66
     1
 10
0.0
 20
0.0
 30
0.0
  0
VERTEX
  5
C092
  8
ALPHA
 10
45.141962
 20
28.733462
 30
0.0
  0
VERTEX
  5
C093
  8
ALPHA
 10
45.485629
 20
30.154917
 30
0.0
  0
VERTEX
  5
C094
  8
ALPHA
 10
45.60024
 20
31.595492
 30
0.0
  0
SEQEND
  5
C095
  8
ALPHA
  0
LINE
  5
B93C
  8
ALPHA
 10
46.325133
 20
23.225474
 30
0.0
 11
45.962945
 21
23.263542
 31
0.0
  0
ARC
  5
B93D
  8
ALPHA
 10
36.378133
 20
31.595492
 30
0.0
 40
13.0
 50
315.920682
 51
318.079318
  0
LINE
  5
B93E
  8
ALPHA
 10
45.358389
 20
22.615236
 30
0.0
 11
45.421629
 21
22.256585
 31
0.0
  0
LINE
  5
B93F
  8
ALPHA
 10
45.962945
 20
23.263542
 30
0.0
 11
46.051049
 21
22.910176
 31
0.0
  0
LINE
  5
B940
  8
ALPHA
 10
45.71704
 20
22.551996
 30
0.0
 11
45.358389
 21
22.615236
 31
0.0
  0
ARC
  5
B941
  8
ALPHA
 10
36.378133
 20
31.595492
 30
0.0
 40
13.0
 50
319.920682
 51
322.079318
  0
LINE
  5
B942
  8
ALPHA
 10
46.520804
 20
23.952441
 30
0.0
 11
46.633343
 21
23.606082
 31
0.0
  0
LINE
  5
B943
  8
ALPHA
 10
46.884766
 20
23.939731
 30
0.0
 11
46.520804
 21
23.952441
 31
0.0
  0
ARC
  5
B944
  8
ALPHA
 10
36.378133
 20
31.595492
 30
0.0
 40
13.0
 50
323.920682
 51
326.079318
  0
LINE
  5
B945
  8
ALPHA
 10
47.029249
 20
24.678576
 30
0.0
 11
47.165675
 21
24.340911
 31
0.0
  0
LINE
  5
B946
  8
ALPHA
 10
43.712158
 20
26.198713
 30
0.0
 11
42.766697
 21
25.10905
 31
0.0
  0
LINE
  5
B947
  8
ALPHA
 10
42.885642
 20
25.070797
 30
0.0
 11
43.819771
 21
26.157968
 31
0.0
  0
LINE
  5
B948
  8
ALPHA
 10
44.473726
 20
27.42416
 30
0.0
 11
43.712158
 21
26.198713
 31
0.0
  0
LINE
  5
B949
  8
ALPHA
 10
43.819771
 20
26.157968
 30
0.0
 11
44.578358
 21
27.385217
 31
0.0
  0
POLYLINE
  5
B94A
  8
ALPHA
 66
     1
 10
0.0
 20
0.0
 30
0.0
  0
VERTEX
  5
C096
  8
ALPHA
 10
40.719065
 20
23.281796
 30
0.0
  0
VERTEX
  5
C097
  8
ALPHA
 10
41.953493
 20
24.052132
 30
0.0
  0
VERTEX
  5
C098
  8
ALPHA
 10
43.047392
 20
24.997505
 30
0.0
  0
VERTEX
  5
C099
  8
ALPHA
 10
43.982912
 20
26.099556
 30
0.0
  0
VERTEX
  5
C09A
  8
ALPHA
 10
44.743278
 20
27.342487
 30
0.0
  0
VERTEX
  5
C09B
  8
ALPHA
 10
45.307783
 20
28.705663
 30
0.0
  0
VERTEX
  5
C09C
  8
ALPHA
 10
45.651805
 20
30.141243
 30
0.0
  0
VERTEX
  5
C09D
  8
ALPHA
 10
45.766508
 20
31.595492
 30
0.0
  0
SEQEND
  5
C09E
  8
ALPHA
  0
LINE
  5
B94B
  8
ALPHA
 10
44.578358
 20
27.385217
 30
0.0
 11
45.141962
 21
28.733462
 31
0.0
  0
POLYLINE
  5
B94C
  8
ALPHA
 66
     1
 10
0.0
 20
0.0
 30
0.0
  0
VERTEX
  5
C09F
  8
ALPHA
 10
44.788975
 20
27.310102
 30
0.0
  0
VERTEX
  5
C0A0
  8
ALPHA
 10
45.359558
 20
28.685658
 30
0.0
  0
VERTEX
  5
C0A1
  8
ALPHA
 10
45.706411
 20
30.131721
 30
0.0
  0
VERTEX
  5
C0A2
  8
ALPHA
 10
45.821931
 20
31.595492
 30
0.0
  0
SEQEND
  5
C0A3
  8
ALPHA
  0
POLYLINE
  5
B94D
  8
ALPHA
 66
     1
 10
0.0
 20
0.0
 30
0.0
  0
VERTEX
  5
C0A4
  8
ALPHA
 10
45.489395
 20
31.595492
 30
0.0
  0
VERTEX
  5
C0A5
  8
ALPHA
 10
45.373684
 20
30.156859
 30
0.0
  0
VERTEX
  5
C0A6
  8
ALPHA
 10
45.032261
 20
28.754684
 30
0.0
  0
VERTEX
  5
C0A7
  8
ALPHA
 10
44.473726
 20
27.42416
 30
0.0
  0
SEQEND
  5
C0A8
  8
ALPHA
  0
LINE
  5
B94E
  8
ALPHA
 10
45.544818
 20
31.595492
 30
0.0
 11
45.466386
 21
32.800936
 31
0.0
  0
LINE
  5
B94F
  8
ALPHA
 10
45.713994
 20
33.028109
 30
0.0
 11
45.821931
 21
31.595492
 31
0.0
  0
LINE
  5
B950
  8
ALPHA
 10
45.60024
 20
31.595492
 30
0.0
 11
45.489516
 21
33.02914
 31
0.0
  0
ARC
  5
B951
  8
ALPHA
 10
36.378133
 20
31.595492
 30
0.0
 40
13.0
 50
3.920682
 51
6.079318
  0
LINE
  5
B952
  8
ALPHA
 10
49.347709
 20
32.484372
 30
0.0
 11
49.060728
 21
32.260158
 31
0.0
  0
LINE
  5
B953
  8
ALPHA
 10
48.983469
 20
33.143232
 30
0.0
 11
49.305024
 21
32.972258
 31
0.0
  0
LINE
  5
B954
  8
ALPHA
 10
49.25411
 20
33.386919
 30
0.0
 11
48.983469
 21
33.143232
 31
0.0
  0
LINE
  5
B955
  8
ALPHA
 10
48.234605
 20
27.044219
 30
0.0
 11
48.438254
 21
26.742297
 31
0.0
  0
LINE
  5
B956
  8
ALPHA
 10
48.58797
 20
27.132323
 30
0.0
 11
48.234605
 21
27.044219
 31
0.0
  0
ARC
  5
B957
  8
ALPHA
 10
36.378133
 20
31.595492
 30
0.0
 40
13.0
 50
339.920682
 51
342.079318
  0
LINE
  5
B958
  8
ALPHA
 10
48.523204
 20
27.882371
 30
0.0
 11
48.747417
 21
27.59539
 31
0.0
  0
LINE
  5
B959
  8
ALPHA
 10
48.869563
 20
27.99491
 30
0.0
 11
48.523204
 21
27.882371
 31
0.0
  0
ARC
  5
B95A
  8
ALPHA
 10
36.378133
 20
31.595492
 30
0.0
 40
13.0
 50
331.920682
 51
334.079318
  0
ARC
  5
B95B
  8
ALPHA
 10
36.378133
 20
31.595492
 30
0.0
 40
13.0
 50
327.920682
 51
330.079318
  0
LINE
  5
B95C
  8
ALPHA
 10
47.485804
 20
25.438409
 30
0.0
 11
47.645451
 21
25.111083
 31
0.0
  0
LINE
  5
B95D
  8
ALPHA
 10
47.888242
 20
26.22824
 30
0.0
 11
48.070334
 21
25.912848
 31
0.0
  0
LINE
  5
B95E
  8
ALPHA
 10
47.847992
 20
25.476477
 30
0.0
 11
47.485804
 21
25.438409
 31
0.0
  0
LINE
  5
B95F
  8
ALPHA
 10
48.246893
 20
26.29148
 30
0.0
 11
47.888242
 21
26.22824
 31
0.0
  0
ARC
  5
B960
  8
ALPHA
 10
36.378133
 20
31.595492
 30
0.0
 40
13.0
 50
335.920682
 51
338.079318
  0
ARC
  5
B961
  8
ALPHA
 10
36.378133
 20
31.595492
 30
0.0
 40
13.0
 50
343.920682
 51
2.079318
  0
LINE
  5
B962
  8
ALPHA
 10
49.060728
 20
32.260158
 30
0.0
 11
49.369573
 21
32.06717
 31
0.0
  0
LINE
  5
B963
  8
ALPHA
 10
47.264158
 20
38.136475
 30
0.0
 11
47.627454
 21
38.111071
 31
0.0
  0
LINE
  5
B964
  8
ALPHA
 10
47.412285
 20
38.469173
 30
0.0
 11
47.264158
 21
38.136475
 31
0.0
  0
LINE
  5
B965
  8
ALPHA
 10
44.610481
 20
35.761058
 30
0.0
 11
43.863017
 21
36.99229
 31
0.0
  0
LINE
  5
B966
  8
ALPHA
 10
44.281474
 20
36.248595
 30
0.0
 11
43.605755
 21
37.243224
 31
0.0
  0
LINE
  5
B967
  8
ALPHA
 10
44.827656
 20
35.158948
 30
0.0
 11
44.281474
 21
36.248595
 31
0.0
  0
LINE
  5
B968
  8
ALPHA
 10
45.22637
 20
33.999595
 30
0.0
 11
44.827656
 21
35.158948
 31
0.0
  0
LINE
  5
B969
  8
ALPHA
 10
45.157529
 20
34.427495
 30
0.0
 11
44.610481
 21
35.761058
 31
0.0
  0
LINE
  5
B96A
  8
ALPHA
 10
48.068545
 20
36.557777
 30
0.0
 11
48.42477
 21
36.482059
 31
0.0
  0
ARC
  5
B96B
  8
ALPHA
 10
36.378133
 20
31.595492
 30
0.0
 40
13.0
 50
23.920682
 51
26.079318
  0
LINE
  5
B96C
  8
ALPHA
 10
47.693916
 20
37.361171
 30
0.0
 11
48.054555
 21
37.310486
 31
0.0
  0
LINE
  5
B96D
  8
ALPHA
 10
48.068545
 20
36.557777
 30
0.0
 11
48.261533
 21
36.866622
 31
0.0
  0
LINE
  5
B96E
  8
ALPHA
 10
47.86489
 20
37.682726
 30
0.0
 11
47.693916
 21
37.361171
 31
0.0
  0
ARC
  5
B96F
  8
ALPHA
 10
36.378133
 20
31.595492
 30
0.0
 40
13.0
 50
19.920682
 51
22.079318
  0
ARC
  5
B970
  8
ALPHA
 10
36.378133
 20
31.595492
 30
0.0
 40
13.0
 50
15.920682
 51
18.079318
  0
LINE
  5
B971
  8
ALPHA
 10
48.645391
 20
34.882494
 30
0.0
 11
48.987612
 21
34.757935
 31
0.0
  0
LINE
  5
B972
  8
ALPHA
 10
48.386219
 20
35.730207
 30
0.0
 11
48.736295
 21
35.629825
 31
0.0
  0
LINE
  5
B973
  8
ALPHA
 10
48.879484
 20
35.161474
 30
0.0
 11
48.645391
 21
34.882494
 31
0.0
  0
LINE
  5
B974
  8
ALPHA
 10
48.600281
 20
36.024838
 30
0.0
 11
48.386219
 21
35.730207
 31
0.0
  0
ARC
  5
B975
  8
ALPHA
 10
36.378133
 20
31.595492
 30
0.0
 40
13.0
 50
27.920682
 51
30.079318
  0
LINE
  5
B977
  8
AXE
 10
14.478133
 20
31.595492
 30
0.0
 11
60.378133
 21
31.595492
 31
0.0
  0
TEXT
  5
B978
  8
AXE
 10
56.330514
 20
32.595492
 30
0.0
 40
5.0
  1
Z
 72
     2
 11
60.378133
 21
32.595492
 31
0.0
  0
ENDSEC
  0
EOF
