  0
SECTION
  2
HEADER
  9
$ACADVER
  1
AC1009
  9
$INSBASE
 10
402.590624
 20
-1.041018
 30
0.0
  9
$EXTMIN
 10
2.473379
 20
-1.139072
 30
0.0
  9
$EXTMAX
 10
123.773379
 20
85.647082
 30
0.0
  9
$LIMMIN
 10
-407.970438
 20
-367.832444
  9
$LIMMAX
 10
429.804077
 20
234.370848
  9
$ORTHOMODE
 70
     1
  9
$REGENMODE
 70
     1
  9
$FILLMODE
 70
     1
  9
$QTEXTMODE
 70
     0
  9
$MIRRTEXT
 70
     1
  9
$DRAGMODE
 70
     2
  9
$LTSCALE
 40
10.0
  9
$OSMODE
 70
   161
  9
$ATTMODE
 70
     1
  9
$TEXTSIZE
 40
6.0
  9
$TRACEWID
 40
1.0
  9
$TEXTSTYLE
  7
ROMANS
  9
$CLAYER
  8
ALPHA
  9
$CELTYPE
  6
BYLAYER
  9
$CECOLOR
 62
   256
  9
$DIMSCALE
 40
1.0
  9
$DIMASZ
 40
5.0
  9
$DIMEXO
 40
2.0
  9
$DIMDLI
 40
0.38
  9
$DIMRND
 40
0.0
  9
$DIMDLE
 40
0.0
  9
$DIMEXE
 40
2.5
  9
$DIMTP
 40
0.0
  9
$DIMTM
 40
0.0
  9
$DIMTXT
 40
2.5
  9
$DIMCEN
 40
0.0
  9
$DIMTSZ
 40
0.0
  9
$DIMTOL
 70
     0
  9
$DIMLIM
 70
     0
  9
$DIMTIH
 70
     1
  9
$DIMTOH
 70
     1
  9
$DIMSE1
 70
     0
  9
$DIMSE2
 70
     0
  9
$DIMTAD
 70
     1
  9
$DIMZIN
 70
    12
  9
$DIMBLK
  1
OPEN30
  9
$DIMASO
 70
     1
  9
$DIMSHO
 70
     1
  9
$DIMPOST
  1

  9
$DIMAPOST
  1

  9
$DIMALT
 70
     0
  9
$DIMALTD
 70
     2
  9
$DIMALTF
 40
25.4
  9
$DIMLFAC
 40
1.0
  9
$DIMTOFL
 70
     0
  9
$DIMTVP
 40
0.0
  9
$DIMTIX
 70
     0
  9
$DIMSOXD
 70
     0
  9
$DIMSAH
 70
     0
  9
$DIMBLK1
  1

  9
$DIMBLK2
  1

  9
$DIMSTYLE
  2
SC_DEFAUT
  9
$DIMCLRD
 70
     0
  9
$DIMCLRE
 70
     0
  9
$DIMCLRT
 70
     0
  9
$DIMTFAC
 40
1.0
  9
$DIMGAP
 40
2.0
  9
$LUNITS
 70
     2
  9
$LUPREC
 70
     1
  9
$SKETCHINC
 40
0.1
  9
$FILLETRAD
 40
0.0
  9
$AUNITS
 70
     0
  9
$AUPREC
 70
     0
  9
$MENU
  1
acad
  9
$ELEVATION
 40
0.0
  9
$PELEVATION
 40
0.0
  9
$THICKNESS
 40
0.0
  9
$LIMCHECK
 70
     0
  9
$BLIPMODE
 70
     0
  9
$CHAMFERA
 40
0.0
  9
$CHAMFERB
 40
0.0
  9
$SKPOLY
 70
     0
  9
$TDCREATE
 40
2450373.687919
  9
$TDUPDATE
 40
2453047.637259
  9
$TDINDWG
 40
1.191798
  9
$TDUSRTIMER
 40
1.191798
  9
$USRTIMER
 70
     1
  9
$ANGBASE
 50
0.0
  9
$ANGDIR
 70
     0
  9
$PDMODE
 70
    32
  9
$PDSIZE
 40
0.0
  9
$PLINEWID
 40
0.0
  9
$COORDS
 70
     1
  9
$SPLFRAME
 70
     0
  9
$SPLINETYPE
 70
     6
  9
$SPLINESEGS
 70
     8
  9
$ATTDIA
 70
     0
  9
$ATTREQ
 70
     1
  9
$HANDLING
 70
     1
  9
$HANDSEED
  5
E6F2
  9
$SURFTAB1
 70
     6
  9
$SURFTAB2
 70
     6
  9
$SURFTYPE
 70
     6
  9
$SURFU
 70
     6
  9
$SURFV
 70
     6
  9
$UCSNAME
  2

  9
$UCSORG
 10
0.0
 20
0.0
 30
0.0
  9
$UCSXDIR
 10
1.0
 20
0.0
 30
0.0
  9
$UCSYDIR
 10
0.0
 20
1.0
 30
0.0
  9
$PUCSNAME
  2

  9
$PUCSORG
 10
0.0
 20
0.0
 30
0.0
  9
$PUCSXDIR
 10
1.0
 20
0.0
 30
0.0
  9
$PUCSYDIR
 10
0.0
 20
1.0
 30
0.0
  9
$USERI1
 70
     0
  9
$USERI2
 70
     0
  9
$USERI3
 70
     0
  9
$USERI4
 70
     0
  9
$USERI5
 70
     0
  9
$USERR1
 40
0.0
  9
$USERR2
 40
0.0
  9
$USERR3
 40
0.0
  9
$USERR4
 40
0.0
  9
$USERR5
 40
0.0
  9
$WORLDVIEW
 70
     1
  9
$SHADEDGE
 70
     3
  9
$SHADEDIF
 70
    70
  9
$TILEMODE
 70
     1
  9
$MAXACTVP
 70
    16
  9
$PLIMCHECK
 70
     0
  9
$PEXTMIN
 10
-1.452248
 20
-0.437698
 30
0.0
  9
$PEXTMAX
 10
12.749749
 20
8.310198
 30
0.0
  9
$PLIMMIN
 10
0.0
 20
0.0
  9
$PLIMMAX
 10
12.0
 20
9.0
  9
$UNITMODE
 70
     0
  9
$VISRETAIN
 70
     0
  9
$PLINEGEN
 70
     0
  9
$PSLTSCALE
 70
     0
  0
ENDSEC
  0
SECTION
  2
TABLES
  0
TABLE
  2
VPORT
 70
     2
  0
VPORT
  2
*ACTIVE
 70
     0
 10
0.0
 20
0.0
 11
1.0
 21
1.0
 12
63.105152
 22
42.249475
 13
0.0
 23
0.0
 14
1.0
 24
1.0
 15
10.0
 25
10.0
 16
0.0
 26
0.0
 36
1.0
 17
0.0
 27
0.0
 37
0.0
 40
87.460501
 41
1.466346
 42
50.0
 43
0.0
 44
0.0
 50
0.0
 51
0.0
 71
     0
 72
   100
 73
     1
 74
     0
 75
     0
 76
     0
 77
     0
 78
     0
  0
ENDTAB
  0
TABLE
  2
LTYPE
 70
     2
  0
LTYPE
  2
CONTINUOUS
 70
     0
  3
Solid line
 72
    65
 73
     0
 40
0.0
  0
LTYPE
  2
AXES2
 70
     0
  3
___ _ ___ _ ___ _ ___ _ ___ _ ___ _ ___ _ ___ _
 72
    65
 73
     4
 40
1.125
 49
0.75
 49
-0.125
 49
0.125
 49
-0.125
  0
ENDTAB
  0
TABLE
  2
LAYER
 70
     5
  0
LAYER
  2
0
 70
     0
 62
   255
  6
CONTINUOUS
  0
LAYER
  2
COTATION1
 70
     0
 62
     2
  6
CONTINUOUS
  0
LAYER
  2
AXE
 70
     0
 62
    80
  6
AXES2
  0
LAYER
  2
DEFPOINTS
 70
     0
 62
     7
  6
CONTINUOUS
  0
LAYER
  2
ALPHA
 70
     0
 62
   254
  6
CONTINUOUS
  0
ENDTAB
  0
TABLE
  2
STYLE
 70
     2
  0
STYLE
  2
ROMANS
 70
     0
 40
0.0
 41
1.0
 50
0.0
 71
     0
 42
6.0
  3
romans
  4

  0
STYLE
  2
STANDARD
 70
     0
 40
0.0
 41
1.0
 50
0.0
 71
     0
 42
0.2
  3
txt
  4

  0
ENDTAB
  0
TABLE
  2
VIEW
 70
     0
  0
ENDTAB
  0
TABLE
  2
UCS
 70
     0
  0
ENDTAB
  0
TABLE
  2
APPID
 70
     1
  0
APPID
  2
ACAD
 70
     0
  0
ENDTAB
  0
TABLE
  2
DIMSTYLE
 70
     2
  0
DIMSTYLE
  2
SC_DEFAUT
 70
     0
  3

  4

  5
OPEN30
  6

  7

 40
1.0
 41
5.0
 42
2.0
 43
0.38
 44
2.5
 45
0.0
 46
0.0
 47
0.0
 48
0.0
140
2.5
141
0.0
142
0.0
143
25.4
144
1.0
145
0.0
146
1.0
147
2.0
 71
     0
 72
     0
 73
     1
 74
     1
 75
     0
 76
     0
 77
     1
 78
    12
170
     0
171
     2
172
     0
173
     0
174
     0
175
     0
176
     0
177
     0
178
     0
  0
DIMSTYLE
  2
STANDARD
 70
     0
  3

  4

  5

  6

  7

 40
1.0
 41
0.18
 42
0.0625
 43
0.38
 44
0.18
 45
0.0
 46
0.0
 47
0.0
 48
0.0
140
0.18
141
0.09
142
0.0
143
25.4
144
1.0
145
0.0
146
1.0
147
0.09
 71
     0
 72
     0
 73
     1
 74
     1
 75
     0
 76
     0
 77
     0
 78
     0
170
     0
171
     2
172
     0
173
     0
174
     0
175
     0
176
     0
177
     0
178
     0
  0
ENDTAB
  0
ENDSEC
  0
SECTION
  2
BLOCKS
  0
BLOCK
  8
0
  2
$MODEL_SPACE
 70
     0
 10
0.0
 20
0.0
 30
0.0
  3
$MODEL_SPACE
  1

  0
ENDBLK
  5
E41D
  8
0
  0
BLOCK
 67
     1
  8
0
  2
$PAPER_SPACE
 70
     0
 10
0.0
 20
0.0
 30
0.0
  3
$PAPER_SPACE
  1

  0
ENDBLK
  5
E41B
 67
     1
  8
0
  0
BLOCK
  8
0
  2
COTE
 70
     0
 10
0.0
 20
0.0
 30
0.0
  3
COTE
  1

  0
ENDBLK
  5
F
  8
0
  0
BLOCK
  8
0
  2
FOND
 70
     0
 10
0.0
 20
0.0
 30
0.0
  3
FOND
  1

  0
ENDBLK
  5
75
  8
0
  0
BLOCK
  8
0
  2
_OPEN30
 70
     0
 10
0.0
 20
0.0
 30
0.0
  3
_OPEN30
  1

  0
LINE
  5
4B05
  8
COTATION1
 62
     0
 10
-1.0
 20
0.267949
 30
0.0
 11
0.0
 21
0.0
 31
0.0
1001
ACAD
1000
RTLwPs
1070
   158
  0
LINE
  5
4B06
  8
COTATION1
 62
     0
 10
0.0
 20
0.0
 30
0.0
 11
-1.0
 21
-0.267949
 31
0.0
1001
ACAD
1000
RTLwPs
1070
   158
  0
LINE
  5
4B07
  8
COTATION1
 62
     0
 10
0.0
 20
0.0
 30
0.0
 11
-1.0
 21
0.0
 31
0.0
1001
ACAD
1000
RTLwPs
1070
   158
  0
ENDBLK
  5
4B09
  8
0
  0
BLOCK
  8
0
  2
*D3
 70
     1
 10
0.0
 20
0.0
 30
0.0
  3
*D3
  1

  0
LINE
  5
E0C2
  8
COTATION1
 62
     0
 10
101.273379
 20
25.447089
 30
0.0
 11
101.273379
 21
-1.139072
 31
0.0
1001
ACAD
1000
RTLwPs
1070
   158
  0
LINE
  5
E0C3
  8
COTATION1
 62
     0
 10
20.673379
 20
28.397196
 30
0.0
 11
20.673379
 21
-1.139072
 31
0.0
1001
ACAD
1000
RTLwPs
1070
   158
  0
LINE
  5
E0C4
  8
COTATION1
 62
     0
 10
96.273379
 20
1.360928
 30
0.0
 11
25.673379
 21
1.360928
 31
0.0
1001
ACAD
1000
RTLwPs
1070
   158
  0
INSERT
  5
E0C5
  8
COTATION1
 62
     0
  2
_OPEN30
 10
101.273379
 20
1.360928
 30
0.0
 41
5.0
 42
5.0
 43
5.0
1001
ACAD
1000
RTLwPs
1070
   158
  0
INSERT
  5
E0C6
  8
COTATION1
 62
     0
  2
_OPEN30
 10
20.673379
 20
1.360928
 30
0.0
 41
5.0
 42
5.0
 43
5.0
 50
180.0
1001
ACAD
1000
RTLwPs
1070
   158
  0
TEXT
  5
E0C7
  8
COTATION1
 62
     0
 10
58.94957
 20
3.360928
 30
0.0
 40
2.5
  1
81
1001
ACAD
1000
MTEXTBEGIN
1070
    73
1070
     1
1070
    44
1040
1.0
1070
    74
1070
     0
1000
MTEXTEND
  0
POINT
  5
E0C8
  8
DEFPOINTS
 62
     0
 10
101.273379
 20
27.447089
 30
0.0
  0
POINT
  5
E0C9
  8
DEFPOINTS
 62
     0
 10
20.673379
 20
30.397196
 30
0.0
  0
POINT
  5
E0CA
  8
DEFPOINTS
 62
     0
 10
20.673379
 20
1.360928
 30
0.0
  0
ENDBLK
  5
DE78
  8
0
  0
BLOCK
  8
0
  2
*D4
 70
     1
 10
0.0
 20
0.0
 30
0.0
  3
*D4
  1

  0
LINE
  5
E0D9
  8
COTATION1
 62
     0
 10
60.973379
 20
73.147082
 30
0.0
 11
123.773379
 21
73.147082
 31
0.0
1001
ACAD
1000
RTLwPs
1070
   158
  0
LINE
  5
E0DA
  8
COTATION1
 62
     0
 10
77.473379
 20
22.147082
 30
0.0
 11
123.773379
 21
22.147082
 31
0.0
1001
ACAD
1000
RTLwPs
1070
   158
  0
LINE
  5
E0DB
  8
COTATION1
 62
     0
 10
121.273379
 20
68.147082
 30
0.0
 11
121.273379
 21
50.897082
 31
0.0
1001
ACAD
1000
RTLwPs
1070
   158
  0
LINE
  5
E0DC
  8
COTATION1
 62
     0
 10
121.273379
 20
27.147082
 30
0.0
 11
121.273379
 21
44.397082
 31
0.0
1001
ACAD
1000
RTLwPs
1070
   158
  0
INSERT
  5
E0DD
  8
COTATION1
 62
     0
  2
_OPEN30
 10
121.273379
 20
73.147082
 30
0.0
 41
5.0
 42
5.0
 43
5.0
 50
90.0
1001
ACAD
1000
RTLwPs
1070
   158
  0
INSERT
  5
E0DE
  8
COTATION1
 62
     0
  2
_OPEN30
 10
121.273379
 20
22.147082
 30
0.0
 41
5.0
 42
5.0
 43
5.0
 50
270.0
1001
ACAD
1000
RTLwPs
1070
   158
  0
TEXT
  5
E0DF
  8
COTATION1
 62
     0
 10
119.24957
 20
46.397082
 30
0.0
 40
2.5
  1
51
1001
ACAD
1000
MTEXTBEGIN
1070
    73
1070
     1
1070
    44
1040
1.0
1070
    74
1070
     0
1000
MTEXTEND
  0
POINT
  5
E0E0
  8
DEFPOINTS
 62
     0
 10
58.973379
 20
73.147082
 30
0.0
  0
POINT
  5
E0E1
  8
DEFPOINTS
 62
     0
 10
75.473379
 20
22.147082
 30
0.0
  0
POINT
  5
E0E2
  8
DEFPOINTS
 62
     0
 10
121.273379
 20
22.147082
 30
0.0
  0
ENDBLK
  5
DE9E
  8
0
  0
ENDSEC
  0
SECTION
  2
ENTITIES
  0
INSERT
  5
A
  8
0
  2
COTE
 10
0.0
 20
0.0
 30
0.0
  0
INSERT
  5
17
  8
0
  2
COTE
 10
284.010391
 20
6.373258
 30
0.0
  0
INSERT
  5
72
  8
0
  2
FOND
 10
0.0
 20
0.0
 30
0.0
  0
ARC
  5
D900
  8
ALPHA
 10
59.023379
 20
68.477843
 30
0.0
 40
0.2
 50
302.950817
 51
0.0
  0
ARC
  5
D901
  8
ALPHA
 10
50.973379
 20
-53.102918
 30
0.0
 40
125.75
 50
78.952848
 51
101.047152
  0
ARC
  5
D902
  8
ALPHA
 10
50.973379
 20
-53.102918
 30
0.0
 40
124.603545
 50
78.707308
 51
101.292692
  0
ARC
  5
D903
  8
ALPHA
 10
50.973379
 20
-22.352918
 30
0.0
 40
82.5
 50
81.405706
 51
84.733495
  0
ARC
  5
D904
  8
ALPHA
 10
50.973379
 20
-53.102918
 30
0.0
 40
126.25
 50
78.952848
 51
101.047152
  0
ARC
  5
D905
  8
ALPHA
 10
50.973379
 20
-53.102918
 30
0.0
 40
124.103545
 50
78.661208
 51
101.338792
  0
ARC
  5
D906
  8
ALPHA
 10
50.973379
 20
80.556289
 30
0.0
 40
15.0
 50
301.543601
 51
304.518108
  0
ARC
  5
D907
  8
ALPHA
 10
50.973379
 20
80.547082
 30
0.0
 40
15.0
 50
286.89122
 51
304.518108
  0
ARC
  5
D908
  8
ALPHA
 10
50.973379
 20
-22.273762
 30
0.0
 40
82.5
 50
81.700167
 51
84.848619
  0
ARC
  5
D909
  8
ALPHA
 10
60.973379
 20
63.147082
 30
0.0
 40
2.1
 50
121.588136
 51
270.0
  0
LINE
  5
D90A
  8
ALPHA
 10
58.973379
 20
73.147082
 30
0.0
 11
59.242318
 21
72.878143
 31
0.0
  0
LINE
  5
D90B
  8
ALPHA
 10
60.973379
 20
70.597082
 30
0.0
 11
57.962784
 21
70.597082
 31
0.0
  0
LINE
  5
D90C
  8
ALPHA
 10
59.223379
 20
69.997082
 30
0.0
 11
60.873379
 21
69.997082
 31
0.0
  0
LINE
  5
D90D
  8
ALPHA
 10
60.873379
 20
69.962074
 30
0.0
 11
59.223379
 21
69.962074
 31
0.0
  0
LINE
  5
D90E
  8
ALPHA
 10
59.223379
 20
69.091112
 30
0.0
 11
59.473379
 21
69.091112
 31
0.0
  0
LINE
  5
D90F
  8
ALPHA
 10
59.271778
 20
69.177838
 30
0.0
 11
59.223379
 21
69.175323
 31
0.0
  0
POLYLINE
  5
D910
  8
ALPHA
 66
     1
 10
0.0
 20
0.0
 30
0.0
  0
VERTEX
  5
E423
  8
ALPHA
 10
58.796165
 20
58.989613
 30
0.0
  0
VERTEX
  5
E424
  8
ALPHA
 10
58.96696
 20
58.895194
 30
0.0
  0
VERTEX
  5
E425
  8
ALPHA
 10
59.142418
 20
58.81169
 30
0.0
  0
VERTEX
  5
E426
  8
ALPHA
 10
59.320821
 20
58.739815
 30
0.0
  0
VERTEX
  5
E427
  8
ALPHA
 10
59.500149
 20
58.680115
 30
0.0
  0
VERTEX
  5
E428
  8
ALPHA
 10
59.678045
 20
58.63293
 30
0.0
  0
VERTEX
  5
E429
  8
ALPHA
 10
59.852856
 20
58.598114
 30
0.0
  0
VERTEX
  5
E42A
  8
ALPHA
 10
60.023665
 20
58.575234
 30
0.0
  0
SEQEND
  5
E42B
  8
ALPHA
  0
POLYLINE
  5
D911
  8
ALPHA
 66
     1
 10
0.0
 20
0.0
 30
0.0
  0
VERTEX
  5
E42C
  8
ALPHA
 10
58.763693
 20
58.931551
 30
0.0
  0
VERTEX
  5
E42D
  8
ALPHA
 10
58.9335
 20
58.845825
 30
0.0
  0
VERTEX
  5
E42E
  8
ALPHA
 10
59.106424
 20
58.769429
 30
0.0
  0
VERTEX
  5
E42F
  8
ALPHA
 10
59.281155
 20
58.702798
 30
0.0
  0
VERTEX
  5
E430
  8
ALPHA
 10
59.45615
 20
58.646289
 30
0.0
  0
VERTEX
  5
E431
  8
ALPHA
 10
59.629623
 20
58.600105
 30
0.0
  0
SEQEND
  5
E432
  8
ALPHA
  0
POLYLINE
  5
D912
  8
ALPHA
 66
     1
 10
0.0
 20
0.0
 30
0.0
  0
VERTEX
  5
E433
  8
ALPHA
 10
59.954604
 20
58.657195
 30
0.0
  0
VERTEX
  5
E434
  8
ALPHA
 10
59.552719
 20
58.716808
 30
0.0
  0
VERTEX
  5
E435
  8
ALPHA
 10
59.164159
 20
58.828301
 30
0.0
  0
VERTEX
  5
E436
  8
ALPHA
 10
58.796141
 20
58.989605
 30
0.0
  0
SEQEND
  5
E437
  8
ALPHA
  0
POLYLINE
  5
D913
  8
ALPHA
 66
     1
 10
0.0
 20
0.0
 30
0.0
  0
VERTEX
  5
E438
  8
ALPHA
 10
59.629623
 20
58.600105
 30
0.0
  0
VERTEX
  5
E439
  8
ALPHA
 10
53.865846
 20
58.975232
 30
0.0
  0
VERTEX
  5
E43A
  8
ALPHA
 10
48.080852
 20
58.97523
 30
0.0
  0
VERTEX
  5
E43B
  8
ALPHA
 10
42.317134
 20
58.600105
 30
0.0
  0
SEQEND
  5
E43C
  8
ALPHA
  0
POLYLINE
  5
D914
  8
ALPHA
 66
     1
 10
0.0
 20
0.0
 30
0.0
  0
VERTEX
  5
E43D
  8
ALPHA
 10
27.122898
 20
54.844294
 30
0.0
  0
VERTEX
  5
E43E
  8
ALPHA
 10
33.759838
 20
56.456206
 30
0.0
  0
VERTEX
  5
E43F
  8
ALPHA
 10
40.573119
 20
57.541754
 30
0.0
  0
VERTEX
  5
E440
  8
ALPHA
 10
47.494891
 20
58.087787
 30
0.0
  0
VERTEX
  5
E441
  8
ALPHA
 10
54.451868
 20
58.087787
 30
0.0
  0
VERTEX
  5
E442
  8
ALPHA
 10
61.37364
 20
57.541754
 30
0.0
  0
VERTEX
  5
E443
  8
ALPHA
 10
68.186921
 20
56.456206
 30
0.0
  0
VERTEX
  5
E444
  8
ALPHA
 10
74.82386
 20
54.844294
 30
0.0
  0
SEQEND
  5
E445
  8
ALPHA
  0
POLYLINE
  5
D915
  8
ALPHA
 66
     1
 10
0.0
 20
0.0
 30
0.0
  0
VERTEX
  5
E446
  8
ALPHA
 10
57.163625
 20
61.609388
 30
0.0
  0
VERTEX
  5
E447
  8
ALPHA
 10
57.427328
 20
60.936604
 30
0.0
  0
VERTEX
  5
E448
  8
ALPHA
 10
57.848839
 20
60.341527
 30
0.0
  0
VERTEX
  5
E449
  8
ALPHA
 10
58.393519
 20
59.871042
 30
0.0
  0
VERTEX
  5
E44A
  8
ALPHA
 10
59.04353
 20
59.540553
 30
0.0
  0
VERTEX
  5
E44B
  8
ALPHA
 10
59.748605
 20
59.377231
 30
0.0
  0
SEQEND
  5
E44C
  8
ALPHA
  0
POLYLINE
  5
D917
  8
ALPHA
 66
     1
 10
0.0
 20
0.0
 30
0.0
  0
VERTEX
  5
E44D
  8
ALPHA
 10
68.373379
 20
22.23132
 30
0.0
  0
VERTEX
  5
E44E
  8
ALPHA
 10
56.776209
 20
22.238945
 30
0.0
  0
VERTEX
  5
E44F
  8
ALPHA
 10
45.170542
 20
22.238945
 30
0.0
  0
VERTEX
  5
E450
  8
ALPHA
 10
33.573379
 20
22.23132
 30
0.0
  0
SEQEND
  5
E451
  8
ALPHA
  0
LINE
  5
D918
  8
ALPHA
 10
68.373379
 20
23.231223
 30
0.0
 11
33.573379
 21
23.231223
 31
0.0
  0
LINE
  5
D919
  8
ALPHA
 10
26.473379
 20
22.147082
 30
0.0
 11
75.473379
 21
22.147082
 31
0.0
  0
LINE
  5
D91C
  8
ALPHA
 10
27.122897
 20
23.306177
 30
0.0
 11
27.122898
 21
54.844295
 31
0.0
  0
LINE
  5
D91D
  8
ALPHA
 10
26.200171
 20
23.027243
 30
0.0
 11
26.200171
 21
54.844282
 31
0.0
  0
LINE
  5
D91E
  8
ALPHA
 10
26.123379
 20
55.274649
 30
0.0
 11
26.123379
 21
27.09688
 31
0.0
  0
LINE
  5
D91F
  8
ALPHA
 10
25.873379
 20
30.709789
 30
0.0
 11
25.873379
 21
49.584375
 31
0.0
  0
POLYLINE
  5
D920
  8
ALPHA
 66
     1
 10
0.0
 20
0.0
 30
0.0
  0
VERTEX
  5
E452
  8
ALPHA
 10
25.873379
 20
30.709789
 30
0.0
  0
VERTEX
  5
E453
  8
ALPHA
 10
25.85056
 20
32.323566
 30
0.0
  0
VERTEX
  5
E454
  8
ALPHA
 10
25.832198
 20
34.121175
 30
0.0
  0
VERTEX
  5
E455
  8
ALPHA
 10
25.818841
 20
36.046982
 30
0.0
  0
VERTEX
  5
E456
  8
ALPHA
 10
25.81066
 20
38.076296
 30
0.0
  0
VERTEX
  5
E457
  8
ALPHA
 10
25.807923
 20
40.147082
 30
0.0
  0
VERTEX
  5
E458
  8
ALPHA
 10
25.81066
 20
42.217868
 30
0.0
  0
VERTEX
  5
E459
  8
ALPHA
 10
25.818841
 20
44.247182
 30
0.0
  0
VERTEX
  5
E45A
  8
ALPHA
 10
25.832198
 20
46.172989
 30
0.0
  0
VERTEX
  5
E45B
  8
ALPHA
 10
25.85056
 20
47.970597
 30
0.0
  0
VERTEX
  5
E45C
  8
ALPHA
 10
25.873379
 20
49.584375
 30
0.0
  0
SEQEND
  5
E45D
  8
ALPHA
  0
LINE
  5
D921
  8
ALPHA
 10
23.273379
 20
24.228014
 30
0.0
 11
23.273379
 21
56.066149
 31
0.0
  0
LINE
  5
D923
  8
ALPHA
 10
21.973379
 20
25.528031
 30
0.0
 11
21.973379
 21
54.766132
 31
0.0
  0
ARC
  5
D926
  8
ALPHA
 10
26.473379
 20
22.647082
 30
0.0
 40
0.5
 50
180.0
 51
270.0
  0
ARC
  5
D927
  8
ALPHA
 10
27.565777
 20
23.647082
 30
0.0
 40
1.5
 50
180.0
 51
270.0
  0
POLYLINE
  5
D928
  8
ALPHA
 66
     1
 10
0.0
 20
0.0
 30
0.0
  0
VERTEX
  5
E45E
  8
ALPHA
 10
26.200171
 20
23.027243
 30
0.0
  0
VERTEX
  5
E45F
  8
ALPHA
 10
26.251836
 20
23.043693
 30
0.0
  0
VERTEX
  5
E460
  8
ALPHA
 10
26.389103
 20
23.079932
 30
0.0
  0
VERTEX
  5
E461
  8
ALPHA
 10
26.595619
 20
23.135387
 30
0.0
  0
VERTEX
  5
E462
  8
ALPHA
 10
26.849544
 20
23.210274
 30
0.0
  0
VERTEX
  5
E463
  8
ALPHA
 10
27.122897
 20
23.306177
 30
0.0
  0
SEQEND
  5
E464
  8
ALPHA
  0
POLYLINE
  5
D929
  8
ALPHA
 66
     1
 10
0.0
 20
0.0
 30
0.0
  0
VERTEX
  5
E465
  8
ALPHA
 10
21.973379
 20
25.528031
 30
0.0
  0
VERTEX
  5
E466
  8
ALPHA
 10
22.016994
 20
25.194115
 30
0.0
  0
VERTEX
  5
E467
  8
ALPHA
 10
22.148803
 20
24.87585
 30
0.0
  0
VERTEX
  5
E468
  8
ALPHA
 10
22.354116
 20
24.608804
 30
0.0
  0
VERTEX
  5
E469
  8
ALPHA
 10
22.621207
 20
24.403441
 30
0.0
  0
VERTEX
  5
E46A
  8
ALPHA
 10
22.939572
 20
24.271602
 30
0.0
  0
VERTEX
  5
E46B
  8
ALPHA
 10
23.273379
 20
24.228014
 30
0.0
  0
SEQEND
  5
E46C
  8
ALPHA
  0
POLYLINE
  5
D92A
  8
ALPHA
 66
     1
 10
0.0
 20
0.0
 30
0.0
  0
VERTEX
  5
E46D
  8
ALPHA
 10
21.973379
 20
28.281173
 30
0.0
  0
VERTEX
  5
E46E
  8
ALPHA
 10
22.037005
 20
27.898298
 30
0.0
  0
VERTEX
  5
E46F
  8
ALPHA
 10
22.221657
 20
27.552902
 30
0.0
  0
VERTEX
  5
E470
  8
ALPHA
 10
22.509258
 20
27.278793
 30
0.0
  0
VERTEX
  5
E471
  8
ALPHA
 10
22.871657
 20
27.102804
 30
0.0
  0
VERTEX
  5
E472
  8
ALPHA
 10
23.273379
 20
27.042163
 30
0.0
  0
SEQEND
  5
E473
  8
ALPHA
  0
LINE
  5
D92D
  8
ALPHA
 10
25.973379
 20
22.647082
 30
0.0
 11
25.973379
 21
30.709789
 31
0.0
  0
LINE
  5
D92E
  8
ALPHA
 10
25.973379
 20
27.042163
 30
0.0
 11
23.273379
 21
27.042163
 31
0.0
  0
LINE
  5
D92F
  8
ALPHA
 10
25.973379
 20
24.228014
 30
0.0
 11
23.273379
 21
24.228014
 31
0.0
  0
POLYLINE
  5
D930
  8
ALPHA
 66
     1
 10
0.0
 20
0.0
 30
0.0
  0
VERTEX
  5
E474
  8
ALPHA
 10
26.200171
 20
23.027243
 30
0.0
  0
VERTEX
  5
E475
  8
ALPHA
 10
26.200029
 20
23.027155
 30
0.0
  0
VERTEX
  5
E476
  8
ALPHA
 10
26.199887
 20
23.027228
 30
0.0
  0
VERTEX
  5
E477
  8
ALPHA
 10
26.199744
 20
23.027441
 30
0.0
  0
SEQEND
  5
E478
  8
ALPHA
  0
LINE
  5
D931
  8
ALPHA
 10
25.973379
 20
27.268095
 30
0.0
 11
26.123379
 21
27.268095
 31
0.0
  0
LINE
  5
D932
  8
ALPHA
 10
25.973379
 20
26.670378
 30
0.0
 11
26.120137
 21
26.670378
 31
0.0
  0
LINE
  5
D933
  8
ALPHA
 10
26.103428
 20
26.447082
 30
0.0
 11
25.973379
 21
26.447082
 31
0.0
  0
LINE
  5
D934
  8
ALPHA
 10
26.113819
 20
26.499164
 30
0.0
 11
26.065777
 21
26.258369
 31
0.0
  0
POLYLINE
  5
D935
  8
ALPHA
 66
     1
 10
0.0
 20
0.0
 30
0.0
  0
VERTEX
  5
E479
  8
ALPHA
 10
26.123379
 20
27.09688
 30
0.0
  0
VERTEX
  5
E47A
  8
ALPHA
 10
26.122924
 20
26.92196
 30
0.0
  0
VERTEX
  5
E47B
  8
ALPHA
 10
26.121579
 20
26.76054
 30
0.0
  0
VERTEX
  5
E47C
  8
ALPHA
 10
26.119511
 20
26.631237
 30
0.0
  0
VERTEX
  5
E47D
  8
ALPHA
 10
26.116821
 20
26.540382
 30
0.0
  0
VERTEX
  5
E47E
  8
ALPHA
 10
26.113819
 20
26.499164
 30
0.0
  0
SEQEND
  5
E47F
  8
ALPHA
  0
LINE
  5
D936
  8
ALPHA
 10
26.065777
 20
26.258369
 30
0.0
 11
26.065777
 21
23.647082
 31
0.0
  0
LINE
  5
D937
  8
ALPHA
 10
25.973379
 20
30.709789
 30
0.0
 11
25.873379
 21
30.709789
 31
0.0
  0
LINE
  5
D939
  8
ALPHA
 10
33.573379
 20
22.147082
 30
0.0
 11
33.573379
 21
25.897082
 31
0.0
  0
LINE
  5
D93A
  8
ALPHA
 10
31.123379
 20
26.245703
 30
0.0
 11
31.123379
 21
22.147082
 31
0.0
  0
LINE
  5
D93B
  8
ALPHA
 10
30.973379
 20
25.897082
 30
0.0
 11
30.973379
 21
22.147082
 31
0.0
  0
LINE
  5
D93C
  8
ALPHA
 10
29.373379
 20
22.147082
 30
0.0
 11
29.373379
 21
24.397082
 31
0.0
  0
LINE
  5
D93D
  8
ALPHA
 10
27.873379
 20
22.147082
 30
0.0
 11
27.873379
 21
24.397082
 31
0.0
  0
POLYLINE
  5
D93E
  8
ALPHA
 66
     1
 10
0.0
 20
0.0
 30
0.0
  0
VERTEX
  5
E480
  8
ALPHA
 10
27.489843
 20
23.147082
 30
0.0
  0
VERTEX
  5
E481
  8
ALPHA
 10
27.49356
 20
22.838065
 30
0.0
  0
VERTEX
  5
E482
  8
ALPHA
 10
27.504345
 20
22.559296
 30
0.0
  0
VERTEX
  5
E483
  8
ALPHA
 10
27.521144
 20
22.338065
 30
0.0
  0
VERTEX
  5
E484
  8
ALPHA
 10
27.542312
 20
22.196025
 30
0.0
  0
VERTEX
  5
E485
  8
ALPHA
 10
27.565777
 20
22.147082
 30
0.0
  0
SEQEND
  5
E486
  8
ALPHA
  0
LINE
  5
D93F
  8
ALPHA
 10
29.373379
 20
23.147082
 30
0.0
 11
30.973379
 21
23.147082
 31
0.0
  0
ARC
  5
D940
  8
ALPHA
 10
28.623379
 20
24.397082
 30
0.0
 40
0.75
 50
0.0
 51
180.0
  0
LINE
  5
D941
  8
ALPHA
 10
27.489843
 20
23.147082
 30
0.0
 11
27.873379
 21
23.147082
 31
0.0
  0
POLYLINE
  5
D942
  8
ALPHA
 66
     1
 10
0.0
 20
0.0
 30
0.0
  0
VERTEX
  5
E487
  8
ALPHA
 10
27.122897
 20
23.306171
 30
0.0
  0
VERTEX
  5
E488
  8
ALPHA
 10
27.200255
 20
23.238822
 30
0.0
  0
VERTEX
  5
E489
  8
ALPHA
 10
27.289952
 20
23.188495
 30
0.0
  0
VERTEX
  5
E48A
  8
ALPHA
 10
27.388137
 20
23.157466
 30
0.0
  0
VERTEX
  5
E48B
  8
ALPHA
 10
27.489843
 20
23.147082
 30
0.0
  0
SEQEND
  5
E48C
  8
ALPHA
  0
LINE
  5
D943
  8
ALPHA
 10
31.473379
 20
26.397082
 30
0.0
 11
33.073379
 21
26.397082
 31
0.0
  0
LINE
  5
D944
  8
ALPHA
 10
31.123379
 20
23.647082
 30
0.0
 11
33.573379
 21
23.647082
 31
0.0
  0
ARC
  5
D945
  8
ALPHA
 10
31.473379
 20
25.897082
 30
0.0
 40
0.5
 50
90.0
 51
180.0
  0
LINE
  5
D946
  8
ALPHA
 10
31.123379
 20
25.147082
 30
0.0
 11
30.973379
 21
25.147082
 31
0.0
  0
ARC
  5
D947
  8
ALPHA
 10
33.073379
 20
25.897082
 30
0.0
 40
0.5
 50
0.0
 51
90.0
  0
ARC
  5
D948
  8
ALPHA
 10
26.973379
 20
69.826177
 30
0.0
 40
0.5
 50
101.047152
 51
180.0
  0
ARC
  5
D949
  8
ALPHA
 10
50.973379
 20
-22.352918
 30
0.0
 40
82.5
 50
102.777982
 51
107.639701
  0
ARC
  5
D94A
  8
ALPHA
 10
26.973379
 20
69.826177
 30
0.0
 40
1.0
 50
101.047152
 51
180.0
  0
LINE
  5
D94B
  8
0
  6
CONTINUOUS
 62
     2
 10
20.863895
 20
85.647082
 30
0.0
 11
29.363895
 21
85.647082
 31
0.0
  0
LINE
  5
D94C
  8
0
  6
CONTINUOUS
 62
     2
 10
29.363895
 20
80.647082
 30
0.0
 11
20.863895
 21
80.647082
 31
0.0
  0
LINE
  5
D94D
  8
0
  6
CONTINUOUS
 62
     2
 10
42.973379
 20
73.147082
 30
0.0
 11
25.113895
 21
73.147082
 31
0.0
  0
LINE
  5
D94E
  8
ALPHA
 10
26.473379
 20
69.826177
 30
0.0
 11
25.973379
 21
69.826177
 31
0.0
  0
LINE
  5
D94F
  8
ALPHA
 10
26.200171
 20
54.844295
 30
0.0
 11
27.122898
 21
54.844295
 31
0.0
  0
POLYLINE
  5
D950
  8
ALPHA
 66
     1
 10
0.0
 20
0.0
 30
0.0
  0
VERTEX
  5
E48D
  8
ALPHA
 10
26.473379
 20
69.826177
 30
0.0
  0
VERTEX
  5
E48E
  8
ALPHA
 10
26.453397
 20
67.115721
 30
0.0
  0
VERTEX
  5
E48F
  8
ALPHA
 10
26.39344
 20
64.404969
 30
0.0
  0
VERTEX
  5
E490
  8
ALPHA
 10
26.293483
 20
61.693629
 30
0.0
  0
VERTEX
  5
E491
  8
ALPHA
 10
26.153483
 20
58.981407
 30
0.0
  0
VERTEX
  5
E492
  8
ALPHA
 10
25.973379
 20
56.268008
 30
0.0
  0
SEQEND
  5
E493
  8
ALPHA
  0
POLYLINE
  5
D951
  8
ALPHA
 66
     1
 10
0.0
 20
0.0
 30
0.0
  0
VERTEX
  5
E494
  8
ALPHA
 10
26.137648
 20
55.27902
 30
0.0
  0
VERTEX
  5
E495
  8
ALPHA
 10
26.187878
 20
55.592078
 30
0.0
  0
VERTEX
  5
E496
  8
ALPHA
 10
26.333579
 20
55.873663
 30
0.0
  0
VERTEX
  5
E497
  8
ALPHA
 10
26.560101
 20
56.095465
 30
0.0
  0
VERTEX
  5
E498
  8
ALPHA
 10
26.844671
 20
56.235187
 30
0.0
  0
SEQEND
  5
E499
  8
ALPHA
  0
POLYLINE
  5
D952
  8
ALPHA
 66
     1
 10
0.0
 20
0.0
 30
0.0
  0
VERTEX
  5
E49A
  8
ALPHA
 10
26.123379
 20
55.274649
 30
0.0
  0
VERTEX
  5
E49B
  8
ALPHA
 10
26.173635
 20
55.587661
 30
0.0
  0
VERTEX
  5
E49C
  8
ALPHA
 10
26.319359
 20
55.869237
 30
0.0
  0
VERTEX
  5
E49D
  8
ALPHA
 10
26.54591
 20
56.091067
 30
0.0
  0
VERTEX
  5
E49E
  8
ALPHA
 10
26.830536
 20
56.230856
 30
0.0
  0
SEQEND
  5
E49F
  8
ALPHA
  0
POLYLINE
  5
D953
  8
ALPHA
 66
     1
 10
0.0
 20
0.0
 30
0.0
  0
VERTEX
  5
E4A0
  8
ALPHA
 10
26.200171
 20
54.844295
 30
0.0
  0
VERTEX
  5
E4A1
  8
ALPHA
 10
26.233697
 20
55.089362
 30
0.0
  0
VERTEX
  5
E4A2
  8
ALPHA
 10
26.329948
 20
55.318514
 30
0.0
  0
VERTEX
  5
E4A3
  8
ALPHA
 10
26.482678
 20
55.516877
 30
0.0
  0
VERTEX
  5
E4A4
  8
ALPHA
 10
26.681971
 20
55.671573
 30
0.0
  0
VERTEX
  5
E4A5
  8
ALPHA
 10
26.914891
 20
55.772562
 30
0.0
  0
SEQEND
  5
E4A6
  8
ALPHA
  0
TEXT
  5
D954
  8
0
  6
CONTINUOUS
 62
     2
 10
22.113895
 20
81.897082
 30
0.0
 40
2.5
  1
HEAD
 41
0.654545
  7
STANDARD
 72
     5
 11
28.113895
 21
81.897082
 31
0.0
  0
SOLID
  5
D955
  8
0
  6
CONTINUOUS
 62
     2
 10
26.557271
 20
73.147082
 30
0.0
 11
23.670519
 21
73.147082
 31
0.0
 12
25.113895
 22
75.647082
 32
0.0
 13
25.113895
 23
75.647082
 33
0.0
  0
LINE
  5
D956
  8
0
  6
CONTINUOUS
 62
     2
 10
25.113895
 20
75.647082
 30
0.0
 11
25.113895
 21
80.647082
 31
0.0
  0
LINE
  5
D95B
  8
ALPHA
 10
25.973379
 20
49.584375
 30
0.0
 11
25.973379
 21
69.826177
 31
0.0
  0
POLYLINE
  5
D95C
  8
ALPHA
 66
     1
 10
0.0
 20
0.0
 30
0.0
  0
VERTEX
  5
E4A7
  8
ALPHA
 10
23.273379
 20
56.066149
 30
0.0
  0
VERTEX
  5
E4A8
  8
ALPHA
 10
22.939572
 20
56.022561
 30
0.0
  0
VERTEX
  5
E4A9
  8
ALPHA
 10
22.621207
 20
55.890723
 30
0.0
  0
VERTEX
  5
E4AA
  8
ALPHA
 10
22.354116
 20
55.685359
 30
0.0
  0
VERTEX
  5
E4AB
  8
ALPHA
 10
22.148803
 20
55.418314
 30
0.0
  0
VERTEX
  5
E4AC
  8
ALPHA
 10
22.016994
 20
55.100048
 30
0.0
  0
VERTEX
  5
E4AD
  8
ALPHA
 10
21.973379
 20
54.766132
 30
0.0
  0
SEQEND
  5
E4AE
  8
ALPHA
  0
POLYLINE
  5
D95D
  8
ALPHA
 66
     1
 10
0.0
 20
0.0
 30
0.0
  0
VERTEX
  5
E4AF
  8
ALPHA
 10
21.973379
 20
52.01299
 30
0.0
  0
VERTEX
  5
E4B0
  8
ALPHA
 10
22.037006
 20
52.395866
 30
0.0
  0
VERTEX
  5
E4B1
  8
ALPHA
 10
22.221657
 20
52.741262
 30
0.0
  0
VERTEX
  5
E4B2
  8
ALPHA
 10
22.509258
 20
53.015371
 30
0.0
  0
VERTEX
  5
E4B3
  8
ALPHA
 10
22.871657
 20
53.191359
 30
0.0
  0
VERTEX
  5
E4B4
  8
ALPHA
 10
23.273379
 20
53.252001
 30
0.0
  0
SEQEND
  5
E4B5
  8
ALPHA
  0
LINE
  5
D960
  8
ALPHA
 10
25.973379
 20
49.584375
 30
0.0
 11
25.873379
 21
49.584375
 31
0.0
  0
LINE
  5
D961
  8
ALPHA
 10
25.973379
 20
56.066149
 30
0.0
 11
23.273379
 21
56.066149
 31
0.0
  0
LINE
  5
D962
  8
ALPHA
 10
25.973379
 20
53.252001
 30
0.0
 11
23.273379
 21
53.252001
 31
0.0
  0
LINE
  5
D963
  8
ALPHA
 10
26.137648
 20
55.27902
 30
0.0
 11
26.123379
 21
55.274649
 31
0.0
  0
POLYLINE
  5
D964
  8
ALPHA
 66
     1
 10
0.0
 20
0.0
 30
0.0
  0
VERTEX
  5
E4B6
  8
ALPHA
 10
26.200171
 20
54.844282
 30
0.0
  0
VERTEX
  5
E4B7
  8
ALPHA
 10
26.179555
 20
55.089607
 30
0.0
  0
VERTEX
  5
E4B8
  8
ALPHA
 10
26.158672
 20
55.234795
 30
0.0
  0
VERTEX
  5
E4B9
  8
ALPHA
 10
26.137648
 20
55.27902
 30
0.0
  0
SEQEND
  5
E4BA
  8
ALPHA
  0
LINE
  5
D968
  8
0
  6
CONTINUOUS
 62
     2
 10
20.863895
 20
80.647082
 30
0.0
 11
20.863895
 21
85.647082
 31
0.0
  0
ARC
  5
D969
  8
ALPHA
 10
50.973379
 20
80.897082
 30
0.0
 40
15.0
 50
237.049183
 51
247.921031
  0
ARC
  5
D96A
  8
ALPHA
 10
50.973379
 20
-22.352918
 30
0.0
 40
82.5
 50
95.266505
 51
98.594294
  0
ARC
  5
D96B
  8
ALPHA
 10
50.973379
 20
80.556289
 30
0.0
 40
15.0
 50
235.481892
 51
238.456399
  0
ARC
  5
D96C
  8
ALPHA
 10
50.973379
 20
-22.273762
 30
0.0
 40
82.5
 50
95.151381
 51
98.299833
  0
ARC
  5
D96D
  8
ALPHA
 10
50.973379
 20
80.547082
 30
0.0
 40
15.0
 50
235.481892
 51
253.15382
  0
ARC
  5
D96E
  8
ALPHA
 10
40.973379
 20
63.147082
 30
0.0
 40
2.1
 50
270.0
 51
58.411864
  0
LINE
  5
D96F
  8
ALPHA
 10
43.983941
 20
70.597082
 30
0.0
 11
40.973379
 21
70.597082
 31
0.0
  0
LINE
  5
D970
  8
ALPHA
 10
49.107027
 20
69.697082
 30
0.0
 11
42.723379
 21
69.697082
 31
0.0
  0
POLYLINE
  5
D971
  8
ALPHA
 66
     1
 10
0.0
 20
0.0
 30
0.0
  0
VERTEX
  5
E4BB
  8
ALPHA
 10
41.923091
 20
58.575233
 30
0.0
  0
VERTEX
  5
E4BC
  8
ALPHA
 10
42.08023
 20
58.595875
 30
0.0
  0
VERTEX
  5
E4BD
  8
ALPHA
 10
42.250753
 20
58.628826
 30
0.0
  0
VERTEX
  5
E4BE
  8
ALPHA
 10
42.431273
 20
58.675579
 30
0.0
  0
VERTEX
  5
E4BF
  8
ALPHA
 10
42.614403
 20
58.735602
 30
0.0
  0
VERTEX
  5
E4C0
  8
ALPHA
 10
42.796603
 20
58.808306
 30
0.0
  0
VERTEX
  5
E4C1
  8
ALPHA
 10
42.976973
 20
58.893743
 30
0.0
  0
VERTEX
  5
E4C2
  8
ALPHA
 10
43.150602
 20
58.989617
 30
0.0
  0
SEQEND
  5
E4C3
  8
ALPHA
  0
POLYLINE
  5
D972
  8
ALPHA
 66
     1
 10
0.0
 20
0.0
 30
0.0
  0
VERTEX
  5
E4C4
  8
ALPHA
 10
41.992155
 20
58.657195
 30
0.0
  0
VERTEX
  5
E4C5
  8
ALPHA
 10
42.394043
 20
58.716808
 30
0.0
  0
VERTEX
  5
E4C6
  8
ALPHA
 10
42.782606
 20
58.828303
 30
0.0
  0
VERTEX
  5
E4C7
  8
ALPHA
 10
43.150626
 20
58.989609
 30
0.0
  0
SEQEND
  5
E4C8
  8
ALPHA
  0
POLYLINE
  5
D973
  8
ALPHA
 66
     1
 10
0.0
 20
0.0
 30
0.0
  0
VERTEX
  5
E4C9
  8
ALPHA
 10
42.198153
 20
59.377231
 30
0.0
  0
VERTEX
  5
E4CA
  8
ALPHA
 10
42.903228
 20
59.540553
 30
0.0
  0
VERTEX
  5
E4CB
  8
ALPHA
 10
43.55324
 20
59.871042
 30
0.0
  0
VERTEX
  5
E4CC
  8
ALPHA
 10
44.09792
 20
60.341527
 30
0.0
  0
VERTEX
  5
E4CD
  8
ALPHA
 10
44.519431
 20
60.936604
 30
0.0
  0
SEQEND
  5
E4CE
  8
ALPHA
  0
POLYLINE
  5
D974
  8
ALPHA
 66
     1
 10
0.0
 20
0.0
 30
0.0
  0
VERTEX
  5
E4CF
  8
ALPHA
 10
42.317134
 20
58.600105
 30
0.0
  0
VERTEX
  5
E4D0
  8
ALPHA
 10
42.490602
 20
58.646288
 30
0.0
  0
VERTEX
  5
E4D1
  8
ALPHA
 10
42.665609
 20
58.702802
 30
0.0
  0
VERTEX
  5
E4D2
  8
ALPHA
 10
42.840231
 20
58.769389
 30
0.0
  0
VERTEX
  5
E4D3
  8
ALPHA
 10
43.014264
 20
58.846303
 30
0.0
  0
VERTEX
  5
E4D4
  8
ALPHA
 10
43.183073
 20
58.931558
 30
0.0
  0
SEQEND
  5
E4D5
  8
ALPHA
  0
LINE
  5
D975
  8
ALPHA
 10
42.973379
 20
73.147082
 30
0.0
 11
42.70444
 21
72.878142
 31
0.0
  0
ARC
  5
D976
  8
ALPHA
 10
50.973379
 20
-22.552918
 30
0.0
 40
82.4
 50
96.113465
 51
107.027108
  0
ARC
  5
D977
  8
ALPHA
 10
50.973379
 20
-22.273762
 30
0.0
 40
82.5
 50
103.093309
 51
106.870263
  0
POLYLINE
  5
D978
  8
ALPHA
 66
     1
 10
0.0
 20
0.0
 30
0.0
  0
VERTEX
  5
E4D6
  8
ALPHA
 10
26.914892
 20
55.772563
 30
0.0
  0
VERTEX
  5
E4D7
  8
ALPHA
 10
31.84629
 20
57.024671
 30
0.0
  0
VERTEX
  5
E4D8
  8
ALPHA
 10
36.88105
 20
57.988086
 30
0.0
  0
VERTEX
  5
E4D9
  8
ALPHA
 10
41.992155
 20
58.657204
 30
0.0
  0
SEQEND
  5
E4DA
  8
ALPHA
  0
LINE
  5
D979
  8
ALPHA
 10
26.773379
 20
68.233983
 30
0.0
 11
26.773379
 21
56.867188
 31
0.0
  0
LINE
  5
D97A
  8
ALPHA
 10
26.573379
 20
56.456282
 30
0.0
 11
26.573379
 21
69.088258
 31
0.0
  0
ARC
  5
D97B
  8
ALPHA
 10
26.973379
 20
56.867188
 30
0.0
 40
0.2
 50
180.0
 51
286.870263
  0
LINE
  5
D97C
  8
ALPHA
 10
26.866713
 20
56.18795
 30
0.0
 11
26.844671
 21
56.235187
 31
0.0
  0
LINE
  5
D97D
  8
ALPHA
 10
26.844671
 20
56.235187
 30
0.0
 11
26.830536
 21
56.230856
 31
0.0
  0
POLYLINE
  5
D97E
  8
ALPHA
 66
     1
 10
0.0
 20
0.0
 30
0.0
  0
VERTEX
  5
E4DB
  8
ALPHA
 10
26.914891
 20
55.772562
 30
0.0
  0
VERTEX
  5
E4DC
  8
ALPHA
 10
26.92918
 20
55.643157
 30
0.0
  0
VERTEX
  5
E4DD
  8
ALPHA
 10
26.972064
 20
55.429099
 30
0.0
  0
VERTEX
  5
E4DE
  8
ALPHA
 10
27.039
 20
55.153065
 30
0.0
  0
VERTEX
  5
E4DF
  8
ALPHA
 10
27.122897
 20
54.844295
 30
0.0
  0
SEQEND
  5
E4E0
  8
ALPHA
  0
POLYLINE
  5
D97F
  8
ALPHA
 66
     1
 10
0.0
 20
0.0
 30
0.0
  0
VERTEX
  5
E4E1
  8
ALPHA
 10
26.914892
 20
55.772563
 30
0.0
  0
VERTEX
  5
E4E2
  8
ALPHA
 10
26.890164
 20
56.033485
 30
0.0
  0
VERTEX
  5
E4E3
  8
ALPHA
 10
26.866713
 20
56.18795
 30
0.0
  0
SEQEND
  5
E4E4
  8
ALPHA
  0
ARC
  5
D980
  8
ALPHA
 10
50.973379
 20
-22.352918
 30
0.0
 40
82.5
 50
98.74118
 51
102.631153
  0
LINE
  5
D981
  8
ALPHA
 10
33.264273
 20
69.505592
 30
0.0
 11
38.822531
 21
70.18806
 31
0.0
  0
LINE
  5
D982
  8
ALPHA
 10
38.889559
 20
69.64216
 30
0.0
 11
33.629065
 21
68.996253
 31
0.0
  0
LINE
  5
D983
  8
ALPHA
 10
32.940983
 20
58.894384
 30
0.0
 11
38.143607
 21
59.905672
 31
0.0
  0
LINE
  5
D984
  8
ALPHA
 10
32.898683
 20
58.325868
 30
0.0
 11
38.395796
 21
59.394398
 31
0.0
  0
ARC
  5
D985
  8
ALPHA
 10
50.973379
 20
-49.026699
 30
0.0
 40
119.891552
 50
98.735821
 51
101.5671
  0
LINE
  5
D986
  8
ALPHA
 10
32.841121
 20
68.84913
 30
0.0
 11
33.635158
 21
68.946625
 31
0.0
  0
LINE
  5
D987
  8
ALPHA
 10
33.101102
 20
69.706982
 30
0.0
 11
33.201008
 21
68.893318
 31
0.0
  0
LINE
  5
D988
  8
ALPHA
 10
32.764396
 20
69.474006
 30
0.0
 11
32.841121
 21
68.84913
 31
0.0
  0
ARC
  5
D989
  8
ALPHA
 10
29.973379
 20
65.147082
 30
0.0
 40
2.1
 50
0.0
 51
180.0
  0
LINE
  5
D98A
  8
ALPHA
 10
30.973379
 20
61.047082
 30
0.0
 11
29.973379
 21
61.047082
 31
0.0
  0
ARC
  5
D98B
  8
ALPHA
 10
29.973379
 20
63.147082
 30
0.0
 40
2.1
 50
180.0
 51
270.0
  0
ARC
  5
D98C
  8
ALPHA
 10
26.973379
 20
68.233983
 30
0.0
 40
0.2
 50
101.5671
 51
180.0
  0
LINE
  5
D98D
  8
ALPHA
 10
27.873379
 20
63.147082
 30
0.0
 11
27.873379
 21
65.147082
 31
0.0
  0
ARC
  5
D98E
  8
ALPHA
 10
30.973379
 20
63.147082
 30
0.0
 40
2.1
 50
270.0
 51
58.411864
  0
LINE
  5
D98F
  8
ALPHA
 10
32.931442
 20
58.943465
 30
0.0
 11
32.14614
 21
58.790818
 31
0.0
  0
LINE
  5
D990
  8
ALPHA
 10
32.293384
 20
58.81944
 30
0.0
 11
32.44498
 21
58.039546
 31
0.0
  0
LINE
  5
D991
  8
ALPHA
 10
32.14614
 20
58.790818
 30
0.0
 11
32.28403
 21
58.081438
 31
0.0
  0
LINE
  5
D992
  8
ALPHA
 10
32.803279
 20
58.816681
 30
0.0
 11
32.950523
 21
58.845303
 31
0.0
  0
LINE
  5
D993
  8
ALPHA
 10
33.045927
 20
58.354489
 30
0.0
 11
32.931442
 21
58.943465
 31
0.0
  0
LINE
  5
D994
  8
ALPHA
 10
32.784198
 20
58.914844
 30
0.0
 11
32.987892
 21
57.866931
 31
0.0
  0
LINE
  5
D995
  8
ALPHA
 10
32.726545
 20
58.103921
 30
0.0
 11
32.782996
 21
57.813509
 31
0.0
  0
LINE
  5
D996
  8
ALPHA
 10
32.97765
 20
57.851261
 30
0.0
 11
32.987892
 21
57.866931
 31
0.0
  0
LINE
  5
D997
  8
ALPHA
 10
32.073379
 20
65.147082
 30
0.0
 11
32.073379
 21
64.935936
 31
0.0
  0
LINE
  5
D998
  8
ALPHA
 10
26.877571
 20
70.316912
 30
0.0
 11
26.781762
 21
70.807647
 31
0.0
  0
LINE
  5
D999
  8
ALPHA
 10
33.325207
 20
69.009319
 30
0.0
 11
33.622971
 21
69.04588
 31
0.0
  0
LINE
  5
D99A
  8
ALPHA
 10
33.635158
 20
68.946625
 30
0.0
 11
33.562036
 21
69.542153
 31
0.0
  0
LINE
  5
D99B
  8
ALPHA
 10
33.325207
 20
69.009319
 30
0.0
 11
33.264273
 21
69.505592
 31
0.0
  0
LINE
  5
D99C
  8
ALPHA
 10
32.606314
 20
69.633958
 30
0.0
 11
32.62801
 21
69.45726
 31
0.0
  0
LINE
  5
D99D
  8
ALPHA
 10
42.723379
 20
68.477843
 30
0.0
 11
42.723379
 21
70.597082
 31
0.0
  0
LINE
  5
D99E
  8
ALPHA
 10
42.473379
 20
68.187875
 30
0.0
 11
42.473379
 21
69.087621
 31
0.0
  0
ARC
  5
D99F
  8
ALPHA
 10
39.973379
 20
63.147082
 30
0.0
 40
2.1
 50
180.0
 51
270.0
  0
ARC
  5
D9A0
  8
ALPHA
 10
39.973379
 20
65.147082
 30
0.0
 40
2.1
 50
0.0
 51
180.0
  0
LINE
  5
D9A1
  8
ALPHA
 10
38.919368
 20
60.1074
 30
0.0
 11
38.134066
 21
59.954753
 31
0.0
  0
LINE
  5
D9A2
  8
ALPHA
 10
38.153147
 20
59.85659
 30
0.0
 11
38.300391
 21
59.885212
 31
0.0
  0
LINE
  5
D9A3
  8
ALPHA
 10
38.515954
 20
58.887591
 30
0.0
 11
38.490877
 21
58.905245
 31
0.0
  0
LINE
  5
D9A4
  8
ALPHA
 10
38.644837
 20
59.220711
 30
0.0
 11
38.702793
 21
58.922552
 31
0.0
  0
LINE
  5
D9A5
  8
ALPHA
 10
38.490877
 20
58.905245
 30
0.0
 11
38.28131
 21
59.983374
 31
0.0
  0
LINE
  5
D9A6
  8
ALPHA
 10
38.248552
 20
59.365777
 30
0.0
 11
38.134066
 21
59.954753
 31
0.0
  0
LINE
  5
D9A7
  8
ALPHA
 10
37.873379
 20
63.147082
 30
0.0
 11
37.873379
 21
65.147082
 31
0.0
  0
LINE
  5
D9A8
  8
ALPHA
 10
40.973379
 20
61.047082
 30
0.0
 11
39.973379
 21
61.047082
 31
0.0
  0
LINE
  5
D9A9
  8
ALPHA
 10
39.06423
 20
59.36215
 30
0.0
 11
38.919368
 21
60.1074
 31
0.0
  0
LINE
  5
D9AA
  8
ALPHA
 10
38.930619
 20
59.26339
 30
0.0
 11
38.772124
 21
60.078779
 31
0.0
  0
POLYLINE
  5
D9AB
  8
ALPHA
 66
     1
 10
0.0
 20
0.0
 30
0.0
  0
VERTEX
  5
E4E5
  8
ALPHA
 10
42.317134
 20
58.600105
 30
0.0
  0
VERTEX
  5
E4E6
  8
ALPHA
 10
42.185175
 20
58.588935
 30
0.0
  0
VERTEX
  5
E4E7
  8
ALPHA
 10
42.053749
 20
58.580859
 30
0.0
  0
VERTEX
  5
E4E8
  8
ALPHA
 10
41.923091
 20
58.575233
 30
0.0
  0
SEQEND
  5
E4E9
  8
ALPHA
  0
POLYLINE
  5
D9AC
  8
ALPHA
 66
     1
 10
0.0
 20
0.0
 30
0.0
  0
VERTEX
  5
E4EA
  8
ALPHA
 10
42.198153
 20
59.377231
 30
0.0
  0
VERTEX
  5
E4EB
  8
ALPHA
 10
42.170048
 20
59.285522
 30
0.0
  0
VERTEX
  5
E4EC
  8
ALPHA
 10
42.099368
 20
59.046371
 30
0.0
  0
VERTEX
  5
E4ED
  8
ALPHA
 10
41.992155
 20
58.657204
 30
0.0
  0
SEQEND
  5
E4EE
  8
ALPHA
  0
POLYLINE
  5
D9AD
  8
ALPHA
 66
     1
 10
0.0
 20
0.0
 30
0.0
  0
VERTEX
  5
E4EF
  8
ALPHA
 10
41.992154
 20
58.657195
 30
0.0
  0
VERTEX
  5
E4F0
  8
ALPHA
 10
41.973155
 20
58.634214
 30
0.0
  0
VERTEX
  5
E4F1
  8
ALPHA
 10
41.950137
 20
58.606851
 30
0.0
  0
VERTEX
  5
E4F2
  8
ALPHA
 10
41.923106
 20
58.575235
 30
0.0
  0
SEQEND
  5
E4F3
  8
ALPHA
  0
ARC
  5
D9AE
  8
ALPHA
 10
42.923379
 20
68.477843
 30
0.0
 40
0.2
 50
180.0
 51
237.049183
  0
LINE
  5
D9AF
  8
ALPHA
 10
42.073379
 20
65.147082
 30
0.0
 11
42.073379
 21
64.935936
 31
0.0
  0
LINE
  5
D9B0
  8
ALPHA
 10
38.686145
 20
70.171314
 30
0.0
 11
38.659513
 21
70.38821
 31
0.0
  0
ARC
  5
D9B1
  8
ALPHA
 10
40.773379
 20
70.229444
 30
0.0
 40
0.2
 50
0.0
 51
94.888621
  0
ARC
  5
D9B2
  8
ALPHA
 10
50.973379
 20
-49.026699
 30
0.0
 40
119.891552
 50
94.888621
 51
95.437874
  0
LINE
  5
D9B3
  8
ALPHA
 10
38.895653
 20
69.592533
 30
0.0
 11
39.68969
 21
69.690028
 31
0.0
  0
LINE
  5
D9B4
  8
ALPHA
 10
39.68969
 20
69.690028
 30
0.0
 11
39.61169
 21
70.325286
 31
0.0
  0
LINE
  5
D9B5
  8
ALPHA
 10
39.255539
 20
69.636721
 30
0.0
 11
39.157298
 21
70.436833
 31
0.0
  0
LINE
  5
D9B6
  8
ALPHA
 10
38.895653
 20
69.592533
 30
0.0
 11
38.822531
 21
70.18806
 31
0.0
  0
ARC
  5
D9B7
  8
ALPHA
 10
42.973379
 20
68.947082
 30
0.0
 40
0.6
 50
114.802904
 51
155.871612
  0
ARC
  5
D9B8
  8
ALPHA
 10
42.273379
 20
68.947082
 30
0.0
 40
0.2
 50
0.0
 51
90.0
  0
LINE
  5
D9B9
  8
ALPHA
 10
41.073379
 20
69.997082
 30
0.0
 11
42.723379
 21
69.997082
 31
0.0
  0
LINE
  5
D9BA
  8
ALPHA
 10
42.723379
 20
69.962074
 30
0.0
 11
41.073379
 21
69.962074
 31
0.0
  0
POLYLINE
  5
D9BB
  8
ALPHA
 66
     1
 10
0.0
 20
0.0
 30
0.0
  0
VERTEX
  5
E4F4
  8
ALPHA
 10
41.473379
 20
69.48041
 30
0.0
  0
VERTEX
  5
E4F5
  8
ALPHA
 10
41.273302
 20
69.505147
 30
0.0
  0
VERTEX
  5
E4F6
  8
ALPHA
 10
41.073379
 20
69.533087
 30
0.0
  0
SEQEND
  5
E4F7
  8
ALPHA
  0
LINE
  5
D9BC
  8
ALPHA
 10
42.508162
 20
69.187375
 30
0.0
 11
42.4258
 21
69.192351
 31
0.0
  0
LINE
  5
D9BD
  8
ALPHA
 10
42.645338
 20
69.179453
 30
0.0
 11
42.508162
 21
69.187375
 31
0.0
  0
LINE
  5
D9BE
  8
ALPHA
 10
42.723379
 20
69.175323
 30
0.0
 11
42.645338
 21
69.179453
 31
0.0
  0
LINE
  5
D9BF
  8
ALPHA
 10
42.587603
 20
69.397082
 30
0.0
 11
41.473379
 21
69.397082
 31
0.0
  0
LINE
  5
D9C0
  8
ALPHA
 10
42.486039
 20
69.297082
 30
0.0
 11
41.373379
 21
69.297082
 31
0.0
  0
LINE
  5
D9C1
  8
ALPHA
 10
42.273379
 20
69.147082
 30
0.0
 11
40.973379
 21
69.147082
 31
0.0
  0
LINE
  5
D9C2
  8
ALPHA
 10
42.473379
 20
69.091112
 30
0.0
 11
42.723379
 21
69.091112
 31
0.0
  0
LINE
  5
D9C3
  8
ALPHA
 10
42.412288
 20
69.087621
 30
0.0
 11
42.473379
 21
69.087621
 31
0.0
  0
LINE
  5
D9C4
  8
ALPHA
 10
41.373379
 20
69.279627
 30
0.0
 11
40.973379
 21
69.267533
 31
0.0
  0
LINE
  5
D9C5
  8
ALPHA
 10
42.073379
 20
70.597082
 30
0.0
 11
42.073379
 21
69.997082
 31
0.0
  0
LINE
  5
D9C6
  8
ALPHA
 10
41.473379
 20
69.397088
 30
0.0
 11
41.473379
 21
69.48041
 31
0.0
  0
LINE
  5
D9C7
  8
ALPHA
 10
41.373379
 20
69.492774
 30
0.0
 11
41.373379
 21
69.279627
 31
0.0
  0
LINE
  5
D9C8
  8
ALPHA
 10
41.073379
 20
69.533087
 30
0.0
 11
41.073379
 21
70.597082
 31
0.0
  0
LINE
  5
D9C9
  8
ALPHA
 10
40.973379
 20
69.147082
 30
0.0
 11
40.973379
 21
70.597082
 31
0.0
  0
CIRCLE
  5
D9CA
  8
ALPHA
 10
50.973379
 20
62.847082
 30
0.0
 40
3.016732
  0
CIRCLE
  5
D9CB
  8
ALPHA
 10
50.973379
 20
62.847082
 30
0.0
 40
3.215973
  0
ARC
  5
D9CC
  8
ALPHA
 10
50.973379
 20
68.047082
 30
0.0
 40
2.5
 50
41.708391
 51
138.291609
  0
CIRCLE
  5
D9CD
  8
ALPHA
 10
50.973379
 20
62.847082
 30
0.0
 40
3.0
  0
ARC
  5
D9CE
  8
ALPHA
 10
50.973379
 20
62.847082
 30
0.0
 40
2.635882
 50
77.956235
 51
102.043765
  0
CIRCLE
  5
D9CF
  8
ALPHA
 10
50.973379
 20
62.847082
 30
0.0
 40
0.65
  0
ARC
  5
D9D0
  8
ALPHA
 10
50.973379
 20
62.847082
 30
0.0
 40
0.851277
 50
64.237525
 51
115.762475
  0
CIRCLE
  5
D9D1
  8
ALPHA
 10
50.973379
 20
62.847082
 30
0.0
 40
2.65766
  0
ARC
  5
D9D2
  8
ALPHA
 10
50.973379
 20
62.847082
 30
0.0
 40
2.635882
 50
257.956235
 51
282.043765
  0
ARC
  5
D9D3
  8
ALPHA
 10
50.973379
 20
62.847082
 30
0.0
 40
0.851277
 50
244.237525
 51
295.762475
  0
CIRCLE
  5
D9D4
  8
ALPHA
 10
50.973379
 20
62.847082
 30
0.0
 40
2.723097
  0
CIRCLE
  5
D9D5
  8
ALPHA
 10
50.973379
 20
62.847082
 30
0.0
 40
2.725
  0
LINE
  5
D9D7
  8
ALPHA
 10
42.973379
 20
73.147082
 30
0.0
 11
58.973379
 21
73.147082
 31
0.0
  0
LINE
  5
D9D8
  8
ALPHA
 10
57.962784
 20
70.597082
 30
0.0
 11
43.983941
 21
70.597082
 31
0.0
  0
POLYLINE
  5
D9D9
  8
ALPHA
 66
     1
 10
0.0
 20
0.0
 30
0.0
  0
VERTEX
  5
E4F8
  8
ALPHA
 10
50.973379
 20
59.542465
 30
0.0
  0
VERTEX
  5
E4F9
  8
ALPHA
 10
51.708836
 20
59.625559
 30
0.0
  0
VERTEX
  5
E4FA
  8
ALPHA
 10
52.39964
 20
59.867118
 30
0.0
  0
VERTEX
  5
E4FB
  8
ALPHA
 10
53.015136
 20
60.251686
 30
0.0
  0
VERTEX
  5
E4FC
  8
ALPHA
 10
53.528162
 20
60.758656
 30
0.0
  0
VERTEX
  5
E4FD
  8
ALPHA
 10
53.916982
 20
61.364369
 30
0.0
  0
VERTEX
  5
E4FE
  8
ALPHA
 10
54.164358
 20
62.043635
 30
0.0
  0
VERTEX
  5
E4FF
  8
ALPHA
 10
54.256038
 20
62.768126
 30
0.0
  0
VERTEX
  5
E500
  8
ALPHA
 10
54.182467
 20
63.502178
 30
0.0
  0
VERTEX
  5
E501
  8
ALPHA
 10
53.94393
 20
64.204741
 30
0.0
  0
VERTEX
  5
E502
  8
ALPHA
 10
53.55141
 20
64.837284
 30
0.0
  0
VERTEX
  5
E503
  8
ALPHA
 10
53.027995
 20
65.363263
 30
0.0
  0
VERTEX
  5
E504
  8
ALPHA
 10
52.400866
 20
65.757649
 30
0.0
  0
VERTEX
  5
E505
  8
ALPHA
 10
51.70391
 20
66.001049
 30
0.0
  0
VERTEX
  5
E506
  8
ALPHA
 10
50.973379
 20
66.083064
 30
0.0
  0
SEQEND
  5
E507
  8
ALPHA
  0
POLYLINE
  5
D9DA
  8
ALPHA
 66
     1
 10
0.0
 20
0.0
 30
0.0
  0
VERTEX
  5
E508
  8
ALPHA
 10
50.219722
 20
69.189115
 30
0.0
  0
VERTEX
  5
E509
  8
ALPHA
 10
50.269303
 20
69.242953
 30
0.0
  0
VERTEX
  5
E50A
  8
ALPHA
 10
50.322043
 20
69.292645
 30
0.0
  0
VERTEX
  5
E50B
  8
ALPHA
 10
50.377939
 20
69.338284
 30
0.0
  0
VERTEX
  5
E50C
  8
ALPHA
 10
50.436788
 20
69.379719
 30
0.0
  0
VERTEX
  5
E50D
  8
ALPHA
 10
50.498297
 20
69.416744
 30
0.0
  0
VERTEX
  5
E50E
  8
ALPHA
 10
50.562134
 20
69.449166
 30
0.0
  0
VERTEX
  5
E50F
  8
ALPHA
 10
50.627711
 20
69.47673
 30
0.0
  0
VERTEX
  5
E510
  8
ALPHA
 10
50.694675
 20
69.499362
 30
0.0
  0
VERTEX
  5
E511
  8
ALPHA
 10
50.762909
 20
69.51707
 30
0.0
  0
VERTEX
  5
E512
  8
ALPHA
 10
50.832364
 20
69.52983
 30
0.0
  0
VERTEX
  5
E513
  8
ALPHA
 10
50.902807
 20
69.537544
 30
0.0
  0
VERTEX
  5
E514
  8
ALPHA
 10
50.973592
 20
69.540109
 30
0.0
  0
VERTEX
  5
E515
  8
ALPHA
 10
51.044409
 20
69.53751
 30
0.0
  0
VERTEX
  5
E516
  8
ALPHA
 10
51.114822
 20
69.529767
 30
0.0
  0
VERTEX
  5
E517
  8
ALPHA
 10
51.184272
 20
69.516976
 30
0.0
  0
VERTEX
  5
E518
  8
ALPHA
 10
51.252542
 20
69.499224
 30
0.0
  0
VERTEX
  5
E519
  8
ALPHA
 10
51.319582
 20
69.476527
 30
0.0
  0
VERTEX
  5
E51A
  8
ALPHA
 10
51.385206
 20
69.448897
 30
0.0
  0
VERTEX
  5
E51B
  8
ALPHA
 10
51.448982
 20
69.416456
 30
0.0
  0
VERTEX
  5
E51C
  8
ALPHA
 10
51.510468
 20
69.379394
 30
0.0
  0
VERTEX
  5
E51D
  8
ALPHA
 10
51.569362
 20
69.337872
 30
0.0
  0
VERTEX
  5
E51E
  8
ALPHA
 10
51.625261
 20
69.292166
 30
0.0
  0
VERTEX
  5
E51F
  8
ALPHA
 10
51.677858
 20
69.242546
 30
0.0
  0
VERTEX
  5
E520
  8
ALPHA
 10
51.727037
 20
69.189115
 30
0.0
  0
SEQEND
  5
E521
  8
ALPHA
  0
ARC
  5
D9DB
  8
ALPHA
 10
63.664572
 20
56.736307
 30
0.0
 40
19.5
 50
138.291609
 51
167.020359
  0
POLYLINE
  5
D9DD
  8
ALPHA
 66
     1
 10
0.0
 20
0.0
 30
0.0
  0
VERTEX
  5
E522
  8
ALPHA
 10
44.959473
 20
61.067825
 30
0.0
  0
VERTEX
  5
E523
  8
ALPHA
 10
45.182556
 20
61.640732
 30
0.0
  0
VERTEX
  5
E524
  8
ALPHA
 10
45.44694
 20
62.241942
 30
0.0
  0
VERTEX
  5
E525
  8
ALPHA
 10
45.757422
 20
62.874942
 30
0.0
  0
VERTEX
  5
E526
  8
ALPHA
 10
46.10863
 20
63.524646
 30
0.0
  0
VERTEX
  5
E527
  8
ALPHA
 10
46.487749
 20
64.16926
 30
0.0
  0
VERTEX
  5
E528
  8
ALPHA
 10
46.887324
 20
64.801579
 30
0.0
  0
VERTEX
  5
E529
  8
ALPHA
 10
47.304796
 20
65.423275
 30
0.0
  0
VERTEX
  5
E52A
  8
ALPHA
 10
47.738067
 20
66.036358
 30
0.0
  0
VERTEX
  5
E52B
  8
ALPHA
 10
48.185523
 20
66.643043
 30
0.0
  0
VERTEX
  5
E52C
  8
ALPHA
 10
48.645012
 20
67.244294
 30
0.0
  0
VERTEX
  5
E52D
  8
ALPHA
 10
49.112183
 20
67.837841
 30
0.0
  0
VERTEX
  5
E52E
  8
ALPHA
 10
49.577892
 20
68.415205
 30
0.0
  0
VERTEX
  5
E52F
  8
ALPHA
 10
50.036189
 20
68.971741
 30
0.0
  0
SEQEND
  5
E530
  8
ALPHA
  0
LINE
  5
D9DE
  8
ALPHA
 10
47.083029
 20
66.997082
 30
0.0
 11
45.335117
 21
66.997082
 31
0.0
  0
POLYLINE
  5
D9DF
  8
ALPHA
 66
     1
 10
0.0
 20
0.0
 30
0.0
  0
VERTEX
  5
E531
  8
ALPHA
 10
44.73137
 20
61.038584
 30
0.0
  0
VERTEX
  5
E532
  8
ALPHA
 10
44.821566
 20
61.015534
 30
0.0
  0
VERTEX
  5
E533
  8
ALPHA
 10
44.926086
 20
60.979128
 30
0.0
  0
SEQEND
  5
E534
  8
ALPHA
  0
POLYLINE
  5
D9E0
  8
ALPHA
 66
     1
 10
0.0
 20
0.0
 30
0.0
  0
VERTEX
  5
E535
  8
ALPHA
 10
44.662781
 20
61.116109
 30
0.0
  0
VERTEX
  5
E536
  8
ALPHA
 10
44.68917
 20
61.129518
 30
0.0
  0
VERTEX
  5
E537
  8
ALPHA
 10
44.75459
 20
61.12508
 30
0.0
  0
VERTEX
  5
E538
  8
ALPHA
 10
44.849363
 20
61.103447
 30
0.0
  0
VERTEX
  5
E539
  8
ALPHA
 10
44.959473
 20
61.067825
 30
0.0
  0
SEQEND
  5
E53A
  8
ALPHA
  0
POLYLINE
  5
D9E1
  8
ALPHA
 66
     1
 10
0.0
 20
0.0
 30
0.0
  0
VERTEX
  5
E53B
  8
ALPHA
 10
43.41451
 20
59.06792
 30
0.0
  0
VERTEX
  5
E53C
  8
ALPHA
 10
43.589298
 20
59.188036
 30
0.0
  0
VERTEX
  5
E53D
  8
ALPHA
 10
43.758418
 20
59.320153
 30
0.0
  0
VERTEX
  5
E53E
  8
ALPHA
 10
43.920925
 20
59.463662
 30
0.0
  0
VERTEX
  5
E53F
  8
ALPHA
 10
44.076405
 20
59.618308
 30
0.0
  0
VERTEX
  5
E540
  8
ALPHA
 10
44.224403
 20
59.783807
 30
0.0
  0
VERTEX
  5
E541
  8
ALPHA
 10
44.364315
 20
59.959672
 30
0.0
  0
VERTEX
  5
E542
  8
ALPHA
 10
44.495677
 20
60.145524
 30
0.0
  0
VERTEX
  5
E543
  8
ALPHA
 10
44.61793
 20
60.340792
 30
0.0
  0
VERTEX
  5
E544
  8
ALPHA
 10
44.730707
 20
60.545147
 30
0.0
  0
VERTEX
  5
E545
  8
ALPHA
 10
44.83362
 20
60.758217
 30
0.0
  0
VERTEX
  5
E546
  8
ALPHA
 10
44.926083
 20
60.97912
 30
0.0
  0
SEQEND
  5
E547
  8
ALPHA
  0
POLYLINE
  5
D9E2
  8
ALPHA
 66
     1
 10
0.0
 20
0.0
 30
0.0
  0
VERTEX
  5
E548
  8
ALPHA
 10
43.370338
 20
59.132675
 30
0.0
  0
VERTEX
  5
E549
  8
ALPHA
 10
43.379528
 20
59.120487
 30
0.0
  0
VERTEX
  5
E54A
  8
ALPHA
 10
43.395279
 20
59.097397
 30
0.0
  0
VERTEX
  5
E54B
  8
ALPHA
 10
43.41451
 20
59.06792
 30
0.0
  0
SEQEND
  5
E54C
  8
ALPHA
  0
POLYLINE
  5
D9E3
  8
ALPHA
 66
     1
 10
0.0
 20
0.0
 30
0.0
  0
VERTEX
  5
E54D
  8
ALPHA
 10
43.150626
 20
58.989609
 30
0.0
  0
VERTEX
  5
E54E
  8
ALPHA
 10
43.157438
 20
58.978196
 30
0.0
  0
VERTEX
  5
E54F
  8
ALPHA
 10
43.168994
 20
58.957532
 30
0.0
  0
VERTEX
  5
E550
  8
ALPHA
 10
43.183096
 20
58.931549
 30
0.0
  0
SEQEND
  5
E551
  8
ALPHA
  0
POLYLINE
  5
D9E4
  8
ALPHA
 66
     1
 10
0.0
 20
0.0
 30
0.0
  0
VERTEX
  5
E552
  8
ALPHA
 10
44.642721
 20
61.033569
 30
0.0
  0
VERTEX
  5
E553
  8
ALPHA
 10
44.649614
 20
61.061024
 30
0.0
  0
VERTEX
  5
E554
  8
ALPHA
 10
44.656294
 20
61.088537
 30
0.0
  0
VERTEX
  5
E555
  8
ALPHA
 10
44.662762
 20
61.116108
 30
0.0
  0
SEQEND
  5
E556
  8
ALPHA
  0
LINE
  5
D9E5
  8
ALPHA
 10
44.519431
 20
60.936604
 30
0.0
 11
44.783133
 21
61.609388
 31
0.0
  0
POLYLINE
  5
D9E6
  8
ALPHA
 66
     1
 10
0.0
 20
0.0
 30
0.0
  0
VERTEX
  5
E557
  8
ALPHA
 10
44.642721
 20
61.033569
 30
0.0
  0
VERTEX
  5
E558
  8
ALPHA
 10
44.668698
 20
61.044903
 30
0.0
  0
VERTEX
  5
E559
  8
ALPHA
 10
44.73137
 20
61.038584
 30
0.0
  0
SEQEND
  5
E55A
  8
ALPHA
  0
POLYLINE
  5
D9E7
  8
ALPHA
 66
     1
 10
0.0
 20
0.0
 30
0.0
  0
VERTEX
  5
E55B
  8
ALPHA
 10
43.183096
 20
58.931549
 30
0.0
  0
VERTEX
  5
E55C
  8
ALPHA
 10
43.261095
 20
58.974811
 30
0.0
  0
VERTEX
  5
E55D
  8
ALPHA
 10
43.33824
 20
59.020273
 30
0.0
  0
VERTEX
  5
E55E
  8
ALPHA
 10
43.41451
 20
59.06792
 30
0.0
  0
SEQEND
  5
E55F
  8
ALPHA
  0
POLYLINE
  5
D9E8
  8
ALPHA
 66
     1
 10
0.0
 20
0.0
 30
0.0
  0
VERTEX
  5
E560
  8
ALPHA
 10
43.150626
 20
58.989609
 30
0.0
  0
VERTEX
  5
E561
  8
ALPHA
 10
43.225035
 20
59.035041
 30
0.0
  0
VERTEX
  5
E562
  8
ALPHA
 10
43.298288
 20
59.082736
 30
0.0
  0
VERTEX
  5
E563
  8
ALPHA
 10
43.370338
 20
59.132675
 30
0.0
  0
SEQEND
  5
E564
  8
ALPHA
  0
POLYLINE
  5
D9E9
  8
ALPHA
 66
     1
 10
0.0
 20
0.0
 30
0.0
  0
VERTEX
  5
E565
  8
ALPHA
 10
43.370338
 20
59.132675
 30
0.0
  0
VERTEX
  5
E566
  8
ALPHA
 10
43.533988
 20
59.258124
 30
0.0
  0
VERTEX
  5
E567
  8
ALPHA
 10
43.69013
 20
59.395258
 30
0.0
  0
VERTEX
  5
E568
  8
ALPHA
 10
43.837692
 20
59.543229
 30
0.0
  0
VERTEX
  5
E569
  8
ALPHA
 10
43.976111
 20
59.701509
 30
0.0
  0
VERTEX
  5
E56A
  8
ALPHA
 10
44.104812
 20
59.869502
 30
0.0
  0
VERTEX
  5
E56B
  8
ALPHA
 10
44.223124
 20
60.046359
 30
0.0
  0
VERTEX
  5
E56C
  8
ALPHA
 10
44.330537
 20
60.231309
 30
0.0
  0
VERTEX
  5
E56D
  8
ALPHA
 10
44.426522
 20
60.423358
 30
0.0
  0
VERTEX
  5
E56E
  8
ALPHA
 10
44.510755
 20
60.621728
 30
0.0
  0
VERTEX
  5
E56F
  8
ALPHA
 10
44.582941
 20
60.825575
 30
0.0
  0
VERTEX
  5
E570
  8
ALPHA
 10
44.642721
 20
61.033569
 30
0.0
  0
SEQEND
  5
E571
  8
ALPHA
  0
POLYLINE
  5
D9EA
  8
ALPHA
 66
     1
 10
0.0
 20
0.0
 30
0.0
  0
VERTEX
  5
E572
  8
ALPHA
 10
44.926086
 20
60.979128
 30
0.0
  0
VERTEX
  5
E573
  8
ALPHA
 10
44.937395
 20
61.008574
 30
0.0
  0
VERTEX
  5
E574
  8
ALPHA
 10
44.948493
 20
61.038062
 30
0.0
  0
VERTEX
  5
E575
  8
ALPHA
 10
44.959467
 20
61.067809
 30
0.0
  0
SEQEND
  5
E576
  8
ALPHA
  0
ARC
  5
D9EB
  8
ALPHA
 10
50.973379
 20
80.556289
 30
0.0
 40
15.003491
 50
245.628266
 51
251.945513
  0
ARC
  5
D9EC
  8
ALPHA
 10
50.973379
 20
80.556289
 30
0.0
 40
15.003491
 50
239.839557
 51
242.326571
  0
ARC
  5
D9ED
  8
ALPHA
 10
50.973379
 20
80.556289
 30
0.0
 40
15.0
 50
251.961845
 51
253.163901
  0
ARC
  5
D9EE
  8
ALPHA
 10
50.973379
 20
62.847082
 30
0.0
 40
0.851277
 50
154.237525
 51
205.762475
  0
ARC
  5
D9EF
  8
ALPHA
 10
50.973379
 20
62.847082
 30
0.0
 40
2.399515
 50
103.434923
 51
256.565077
  0
POLYLINE
  5
D9F0
  8
ALPHA
 66
     1
 10
0.0
 20
0.0
 30
0.0
  0
VERTEX
  5
E577
  8
ALPHA
 10
50.973379
 20
66.083064
 30
0.0
  0
VERTEX
  5
E578
  8
ALPHA
 10
50.243769
 20
66.001258
 30
0.0
  0
VERTEX
  5
E579
  8
ALPHA
 10
49.547261
 20
65.758307
 30
0.0
  0
VERTEX
  5
E57A
  8
ALPHA
 10
48.920437
 20
65.3646
 30
0.0
  0
VERTEX
  5
E57B
  8
ALPHA
 10
48.397265
 20
64.839705
 30
0.0
  0
VERTEX
  5
E57C
  8
ALPHA
 10
48.004723
 20
64.208745
 30
0.0
  0
VERTEX
  5
E57D
  8
ALPHA
 10
47.765252
 20
63.506599
 30
0.0
  0
VERTEX
  5
E57E
  8
ALPHA
 10
47.69069
 20
62.770397
 30
0.0
  0
VERTEX
  5
E57F
  8
ALPHA
 10
47.782882
 20
62.041653
 30
0.0
  0
VERTEX
  5
E580
  8
ALPHA
 10
48.033041
 20
61.357803
 30
0.0
  0
VERTEX
  5
E581
  8
ALPHA
 10
48.425677
 20
60.749947
 30
0.0
  0
VERTEX
  5
E582
  8
ALPHA
 10
48.941222
 20
60.244122
 30
0.0
  0
VERTEX
  5
E583
  8
ALPHA
 10
49.556122
 20
59.86281
 30
0.0
  0
VERTEX
  5
E584
  8
ALPHA
 10
50.243553
 20
59.624275
 30
0.0
  0
VERTEX
  5
E585
  8
ALPHA
 10
50.973379
 20
59.542465
 30
0.0
  0
SEQEND
  5
E586
  8
ALPHA
  0
POLYLINE
  5
D9F1
  8
ALPHA
 66
     1
 10
0.0
 20
0.0
 30
0.0
  0
VERTEX
  5
E587
  8
ALPHA
 10
49.735211
 20
63.217082
 30
0.0
  0
VERTEX
  5
E588
  8
ALPHA
 10
49.731683
 20
63.032617
 30
0.0
  0
VERTEX
  5
E589
  8
ALPHA
 10
49.7305
 20
62.847081
 30
0.0
  0
VERTEX
  5
E58A
  8
ALPHA
 10
49.731683
 20
62.661546
 30
0.0
  0
VERTEX
  5
E58B
  8
ALPHA
 10
49.735211
 20
62.477082
 30
0.0
  0
SEQEND
  5
E58C
  8
ALPHA
  0
LINE
  5
D9F2
  8
ALPHA
 10
50.000952
 20
63.217082
 30
0.0
 11
50.000952
 21
62.477082
 31
0.0
  0
ARC
  5
D9F3
  8
ALPHA
 10
50.303379
 20
62.377082
 30
0.0
 40
0.1
 50
0.0
 51
90.0
  0
ARC
  5
D9F4
  8
ALPHA
 10
50.503379
 20
62.177082
 30
0.0
 40
0.1
 50
0.0
 51
90.0
  0
LINE
  5
D9F5
  8
ALPHA
 10
49.735211
 20
62.477082
 30
0.0
 11
50.303379
 21
62.477082
 31
0.0
  0
LINE
  5
D9F6
  8
ALPHA
 10
50.403379
 20
62.277082
 30
0.0
 11
50.503379
 21
62.277082
 31
0.0
  0
LINE
  5
D9F7
  8
ALPHA
 10
50.402155
 20
62.098516
 30
0.0
 11
50.41064
 21
62.277082
 31
0.0
  0
LINE
  5
D9F8
  8
ALPHA
 10
50.603379
 20
62.177082
 30
0.0
 11
50.603379
 21
62.080419
 31
0.0
  0
LINE
  5
D9F9
  8
ALPHA
 10
50.423379
 20
60.269219
 30
0.0
 11
50.423379
 21
62.277082
 31
0.0
  0
LINE
  5
D9FA
  8
ALPHA
 10
50.403379
 20
62.377082
 30
0.0
 11
50.403379
 21
62.277082
 31
0.0
  0
POLYLINE
  5
D9FB
  8
ALPHA
 66
     1
 10
0.0
 20
0.0
 30
0.0
  0
VERTEX
  5
E58D
  8
ALPHA
 10
50.405253
 20
61.538602
 30
0.0
  0
VERTEX
  5
E58E
  8
ALPHA
 10
50.402912
 20
61.928179
 30
0.0
  0
VERTEX
  5
E58F
  8
ALPHA
 10
50.402155
 20
62.098516
 30
0.0
  0
SEQEND
  5
E590
  8
ALPHA
  0
POLYLINE
  5
D9FC
  8
ALPHA
 66
     1
 10
0.0
 20
0.0
 30
0.0
  0
VERTEX
  5
E591
  8
ALPHA
 10
50.415874
 20
60.513231
 30
0.0
  0
VERTEX
  5
E592
  8
ALPHA
 10
50.412231
 20
60.796978
 30
0.0
  0
VERTEX
  5
E593
  8
ALPHA
 10
50.409316
 20
61.063923
 30
0.0
  0
VERTEX
  5
E594
  8
ALPHA
 10
50.407023
 20
61.311694
 30
0.0
  0
VERTEX
  5
E595
  8
ALPHA
 10
50.405253
 20
61.538602
 30
0.0
  0
SEQEND
  5
E596
  8
ALPHA
  0
POLYLINE
  5
D9FD
  8
ALPHA
 66
     1
 10
0.0
 20
0.0
 30
0.0
  0
VERTEX
  5
E597
  8
ALPHA
 10
50.415874
 20
60.513231
 30
0.0
  0
VERTEX
  5
E598
  8
ALPHA
 10
50.41728
 20
60.431633
 30
0.0
  0
VERTEX
  5
E599
  8
ALPHA
 10
50.419064
 20
60.361789
 30
0.0
  0
VERTEX
  5
E59A
  8
ALPHA
 10
50.42112
 20
60.307329
 30
0.0
  0
VERTEX
  5
E59B
  8
ALPHA
 10
50.423379
 20
60.269219
 30
0.0
  0
SEQEND
  5
E59C
  8
ALPHA
  0
POLYLINE
  5
D9FE
  8
ALPHA
 66
     1
 10
0.0
 20
0.0
 30
0.0
  0
VERTEX
  5
E59D
  8
ALPHA
 10
50.051345
 20
61.925047
 30
0.0
  0
VERTEX
  5
E59E
  8
ALPHA
 10
50.12496
 20
62.077924
 30
0.0
  0
VERTEX
  5
E59F
  8
ALPHA
 10
50.195751
 20
62.219287
 30
0.0
  0
VERTEX
  5
E5A0
  8
ALPHA
 10
50.263861
 20
62.350606
 30
0.0
  0
VERTEX
  5
E5A1
  8
ALPHA
 10
50.329696
 20
62.473557
 30
0.0
  0
SEQEND
  5
E5A2
  8
ALPHA
  0
LINE
  5
D9FF
  8
ALPHA
 10
50.051345
 20
61.925047
 30
0.0
 11
50.403379
 21
62.277082
 31
0.0
  0
POLYLINE
  5
DA00
  8
ALPHA
 66
     1
 10
0.0
 20
0.0
 30
0.0
  0
VERTEX
  5
E5A3
  8
ALPHA
 10
50.402155
 20
62.098516
 30
0.0
  0
VERTEX
  5
E5A4
  8
ALPHA
 10
50.292855
 20
62.042742
 30
0.0
  0
VERTEX
  5
E5A5
  8
ALPHA
 10
50.176712
 20
61.98519
 30
0.0
  0
VERTEX
  5
E5A6
  8
ALPHA
 10
50.051345
 20
61.925047
 30
0.0
  0
SEQEND
  5
E5A7
  8
ALPHA
  0
ARC
  5
DA01
  8
ALPHA
 10
50.303379
 20
63.317082
 30
0.0
 40
0.1
 50
270.0
 51
0.0
  0
ARC
  5
DA02
  8
ALPHA
 10
50.503379
 20
63.517082
 30
0.0
 40
0.1
 50
270.0
 51
0.0
  0
POLYLINE
  5
DA03
  8
ALPHA
 66
     1
 10
0.0
 20
0.0
 30
0.0
  0
VERTEX
  5
E5A8
  8
ALPHA
 10
50.074407
 20
63.746054
 30
0.0
  0
VERTEX
  5
E5A9
  8
ALPHA
 10
50.190675
 20
63.689919
 30
0.0
  0
VERTEX
  5
E5AA
  8
ALPHA
 10
50.299838
 20
63.635604
 30
0.0
  0
VERTEX
  5
E5AB
  8
ALPHA
 10
50.402106
 20
63.583303
 30
0.0
  0
SEQEND
  5
E5AC
  8
ALPHA
  0
LINE
  5
DA04
  8
ALPHA
 10
50.403379
 20
63.417082
 30
0.0
 11
50.503379
 21
63.417082
 31
0.0
  0
LINE
  5
DA05
  8
ALPHA
 10
50.303379
 20
63.217082
 30
0.0
 11
49.735211
 21
63.217082
 31
0.0
  0
LINE
  5
DA06
  8
ALPHA
 10
50.074407
 20
63.746054
 30
0.0
 11
50.403379
 21
63.417082
 31
0.0
  0
POLYLINE
  5
DA07
  8
ALPHA
 66
     1
 10
0.0
 20
0.0
 30
0.0
  0
VERTEX
  5
E5AD
  8
ALPHA
 10
50.340281
 20
63.224139
 30
0.0
  0
VERTEX
  5
E5AE
  8
ALPHA
 10
50.255889
 20
63.38237
 30
0.0
  0
VERTEX
  5
E5AF
  8
ALPHA
 10
50.167434
 20
63.555298
 30
0.0
  0
VERTEX
  5
E5B0
  8
ALPHA
 10
50.074407
 20
63.746054
 30
0.0
  0
SEQEND
  5
E5B1
  8
ALPHA
  0
POLYLINE
  5
DA08
  8
ALPHA
 66
     1
 10
0.0
 20
0.0
 30
0.0
  0
VERTEX
  5
E5B2
  8
ALPHA
 10
50.423379
 20
65.424944
 30
0.0
  0
VERTEX
  5
E5B3
  8
ALPHA
 10
50.42112
 20
65.386835
 30
0.0
  0
VERTEX
  5
E5B4
  8
ALPHA
 10
50.419064
 20
65.332374
 30
0.0
  0
VERTEX
  5
E5B5
  8
ALPHA
 10
50.41728
 20
65.26253
 30
0.0
  0
VERTEX
  5
E5B6
  8
ALPHA
 10
50.415874
 20
65.180932
 30
0.0
  0
SEQEND
  5
E5B7
  8
ALPHA
  0
POLYLINE
  5
DA09
  8
ALPHA
 66
     1
 10
0.0
 20
0.0
 30
0.0
  0
VERTEX
  5
E5B8
  8
ALPHA
 10
50.402106
 20
63.583303
 30
0.0
  0
VERTEX
  5
E5B9
  8
ALPHA
 10
50.403854
 20
63.940529
 30
0.0
  0
VERTEX
  5
E5BA
  8
ALPHA
 10
50.405188
 20
64.146313
 30
0.0
  0
VERTEX
  5
E5BB
  8
ALPHA
 10
50.406959
 20
64.374837
 30
0.0
  0
VERTEX
  5
E5BC
  8
ALPHA
 10
50.409261
 20
64.624718
 30
0.0
  0
VERTEX
  5
E5BD
  8
ALPHA
 10
50.412196
 20
64.89423
 30
0.0
  0
VERTEX
  5
E5BE
  8
ALPHA
 10
50.415874
 20
65.180932
 30
0.0
  0
SEQEND
  5
E5BF
  8
ALPHA
  0
LINE
  5
DA0A
  8
ALPHA
 10
50.603379
 20
63.613744
 30
0.0
 11
50.603379
 21
63.517082
 31
0.0
  0
LINE
  5
DA0B
  8
ALPHA
 10
50.423379
 20
63.417082
 30
0.0
 11
50.423379
 21
65.424944
 31
0.0
  0
LINE
  5
DA0C
  8
ALPHA
 10
50.403379
 20
63.417082
 30
0.0
 11
50.403379
 21
63.317082
 31
0.0
  0
LINE
  5
DA0D
  8
ALPHA
 10
50.410005
 20
63.417082
 30
0.0
 11
50.402106
 21
63.583303
 31
0.0
  0
POLYLINE
  5
DA0F
  8
ALPHA
 66
     1
 10
0.0
 20
0.0
 30
0.0
  0
VERTEX
  5
E5C0
  8
ALPHA
 10
50.036189
 20
68.971741
 30
0.0
  0
VERTEX
  5
E5C1
  8
ALPHA
 10
50.097153
 20
69.044696
 30
0.0
  0
VERTEX
  5
E5C2
  8
ALPHA
 10
50.158288
 20
69.117102
 30
0.0
  0
VERTEX
  5
E5C3
  8
ALPHA
 10
50.219722
 20
69.189115
 30
0.0
  0
SEQEND
  5
E5C4
  8
ALPHA
  0
POLYLINE
  5
DA10
  8
ALPHA
 66
     1
 10
0.0
 20
0.0
 30
0.0
  0
VERTEX
  5
E5C5
  8
ALPHA
 10
49.107027
 20
69.710431
 30
0.0
  0
VERTEX
  5
E5C6
  8
ALPHA
 10
49.211841
 20
69.745862
 30
0.0
  0
VERTEX
  5
E5C7
  8
ALPHA
 10
49.390646
 20
69.705957
 30
0.0
  0
VERTEX
  5
E5C8
  8
ALPHA
 10
49.630409
 20
69.593624
 30
0.0
  0
VERTEX
  5
E5C9
  8
ALPHA
 10
49.91365
 20
69.417053
 30
0.0
  0
VERTEX
  5
E5CA
  8
ALPHA
 10
50.219722
 20
69.189115
 30
0.0
  0
SEQEND
  5
E5CB
  8
ALPHA
  0
ARC
  5
DA11
  8
ALPHA
 10
38.282186
 20
56.736307
 30
0.0
 40
19.5
 50
12.979641
 51
41.708391
  0
POLYLINE
  5
DA12
  8
ALPHA
 66
     1
 10
0.0
 20
0.0
 30
0.0
  0
VERTEX
  5
E5CC
  8
ALPHA
 10
51.910569
 20
68.971741
 30
0.0
  0
VERTEX
  5
E5CD
  8
ALPHA
 10
52.368844
 20
68.415233
 30
0.0
  0
VERTEX
  5
E5CE
  8
ALPHA
 10
52.834122
 20
67.83841
 30
0.0
  0
VERTEX
  5
E5CF
  8
ALPHA
 10
53.301068
 20
67.245168
 30
0.0
  0
VERTEX
  5
E5D0
  8
ALPHA
 10
53.760471
 20
66.644059
 30
0.0
  0
VERTEX
  5
E5D1
  8
ALPHA
 10
54.207801
 20
66.037589
 30
0.0
  0
VERTEX
  5
E5D2
  8
ALPHA
 10
54.641053
 20
65.424594
 30
0.0
  0
VERTEX
  5
E5D3
  8
ALPHA
 10
55.058545
 20
64.802943
 30
0.0
  0
VERTEX
  5
E5D4
  8
ALPHA
 10
55.458342
 20
64.170353
 30
0.0
  0
VERTEX
  5
E5D5
  8
ALPHA
 10
55.836769
 20
63.527052
 30
0.0
  0
VERTEX
  5
E5D6
  8
ALPHA
 10
56.18862
 20
62.876332
 30
0.0
  0
VERTEX
  5
E5D7
  8
ALPHA
 10
56.499914
 20
62.241736
 30
0.0
  0
VERTEX
  5
E5D8
  8
ALPHA
 10
56.764333
 20
61.640415
 30
0.0
  0
VERTEX
  5
E5D9
  8
ALPHA
 10
56.987285
 20
61.067825
 30
0.0
  0
SEQEND
  5
E5DA
  8
ALPHA
  0
LINE
  5
DA13
  8
ALPHA
 10
59.223379
 20
68.477843
 30
0.0
 11
59.223379
 21
70.597082
 31
0.0
  0
LINE
  5
DA14
  8
ALPHA
 10
56.611641
 20
66.997082
 30
0.0
 11
54.863703
 21
66.997082
 31
0.0
  0
ARC
  5
DA15
  8
ALPHA
 10
50.973379
 20
62.847082
 30
0.0
 40
0.851277
 50
334.237525
 51
25.762475
  0
ARC
  5
DA16
  8
ALPHA
 10
50.973379
 20
62.847082
 30
0.0
 40
2.399515
 50
283.434923
 51
76.565077
  0
POLYLINE
  5
DA17
  8
ALPHA
 66
     1
 10
0.0
 20
0.0
 30
0.0
  0
VERTEX
  5
E5DB
  8
ALPHA
 10
52.211547
 20
62.477082
 30
0.0
  0
VERTEX
  5
E5DC
  8
ALPHA
 10
52.215075
 20
62.661546
 30
0.0
  0
VERTEX
  5
E5DD
  8
ALPHA
 10
52.216258
 20
62.847082
 30
0.0
  0
VERTEX
  5
E5DE
  8
ALPHA
 10
52.215075
 20
63.032617
 30
0.0
  0
VERTEX
  5
E5DF
  8
ALPHA
 10
52.211547
 20
63.217082
 30
0.0
  0
SEQEND
  5
E5E0
  8
ALPHA
  0
LINE
  5
DA18
  8
ALPHA
 10
51.945806
 20
63.217082
 30
0.0
 11
51.945806
 21
62.477082
 31
0.0
  0
ARC
  5
DA19
  8
ALPHA
 10
51.643379
 20
62.377082
 30
0.0
 40
0.1
 50
90.0
 51
180.0
  0
ARC
  5
DA1A
  8
ALPHA
 10
51.443379
 20
62.177082
 30
0.0
 40
0.1
 50
90.0
 51
180.0
  0
LINE
  5
DA1B
  8
ALPHA
 10
51.643379
 20
62.477082
 30
0.0
 11
52.211547
 21
62.477082
 31
0.0
  0
LINE
  5
DA1C
  8
ALPHA
 10
51.443379
 20
62.277082
 30
0.0
 11
51.543379
 21
62.277082
 31
0.0
  0
POLYLINE
  5
DA1D
  8
ALPHA
 66
     1
 10
0.0
 20
0.0
 30
0.0
  0
VERTEX
  5
E5E1
  8
ALPHA
 10
51.895414
 20
61.925047
 30
0.0
  0
VERTEX
  5
E5E2
  8
ALPHA
 10
51.770792
 20
61.984826
 30
0.0
  0
VERTEX
  5
E5E3
  8
ALPHA
 10
51.653916
 20
62.042736
 30
0.0
  0
VERTEX
  5
E5E4
  8
ALPHA
 10
51.544604
 20
62.098516
 30
0.0
  0
SEQEND
  5
E5E5
  8
ALPHA
  0
LINE
  5
DA1E
  8
ALPHA
 10
51.895414
 20
61.925047
 30
0.0
 11
51.543379
 21
62.277082
 31
0.0
  0
POLYLINE
  5
DA1F
  8
ALPHA
 66
     1
 10
0.0
 20
0.0
 30
0.0
  0
VERTEX
  5
E5E6
  8
ALPHA
 10
51.617063
 20
62.473557
 30
0.0
  0
VERTEX
  5
E5E7
  8
ALPHA
 10
51.682897
 20
62.350606
 30
0.0
  0
VERTEX
  5
E5E8
  8
ALPHA
 10
51.751007
 20
62.219287
 30
0.0
  0
VERTEX
  5
E5E9
  8
ALPHA
 10
51.821799
 20
62.077924
 30
0.0
  0
VERTEX
  5
E5EA
  8
ALPHA
 10
51.895414
 20
61.925047
 30
0.0
  0
SEQEND
  5
E5EB
  8
ALPHA
  0
POLYLINE
  5
DA20
  8
ALPHA
 66
     1
 10
0.0
 20
0.0
 30
0.0
  0
VERTEX
  5
E5EC
  8
ALPHA
 10
51.544604
 20
62.098516
 30
0.0
  0
VERTEX
  5
E5ED
  8
ALPHA
 10
51.542842
 20
61.743244
 30
0.0
  0
VERTEX
  5
E5EE
  8
ALPHA
 10
51.541505
 20
61.538602
 30
0.0
  0
VERTEX
  5
E5EF
  8
ALPHA
 10
51.539735
 20
61.311694
 30
0.0
  0
VERTEX
  5
E5F0
  8
ALPHA
 10
51.537442
 20
61.063923
 30
0.0
  0
VERTEX
  5
E5F1
  8
ALPHA
 10
51.534527
 20
60.796978
 30
0.0
  0
VERTEX
  5
E5F2
  8
ALPHA
 10
51.530884
 20
60.513231
 30
0.0
  0
SEQEND
  5
E5F3
  8
ALPHA
  0
LINE
  5
DA21
  8
ALPHA
 10
51.543379
 20
62.277082
 30
0.0
 11
51.543379
 21
62.377082
 31
0.0
  0
LINE
  5
DA22
  8
ALPHA
 10
51.523379
 20
60.269219
 30
0.0
 11
51.523379
 21
62.277082
 31
0.0
  0
LINE
  5
DA23
  8
ALPHA
 10
51.536118
 20
62.277082
 30
0.0
 11
51.544604
 21
62.098516
 31
0.0
  0
POLYLINE
  5
DA24
  8
ALPHA
 66
     1
 10
0.0
 20
0.0
 30
0.0
  0
VERTEX
  5
E5F4
  8
ALPHA
 10
51.523379
 20
60.269219
 30
0.0
  0
VERTEX
  5
E5F5
  8
ALPHA
 10
51.525638
 20
60.307323
 30
0.0
  0
VERTEX
  5
E5F6
  8
ALPHA
 10
51.527694
 20
60.361787
 30
0.0
  0
VERTEX
  5
E5F7
  8
ALPHA
 10
51.529478
 20
60.431636
 30
0.0
  0
VERTEX
  5
E5F8
  8
ALPHA
 10
51.530884
 20
60.513231
 30
0.0
  0
SEQEND
  5
E5F9
  8
ALPHA
  0
LINE
  5
DA25
  8
ALPHA
 10
51.343379
 20
62.080419
 30
0.0
 11
51.343379
 21
62.177082
 31
0.0
  0
ARC
  5
DA26
  8
ALPHA
 10
51.443379
 20
63.517082
 30
0.0
 40
0.1
 50
180.0
 51
270.0
  0
ARC
  5
DA27
  8
ALPHA
 10
51.643379
 20
63.317082
 30
0.0
 40
0.1
 50
180.0
 51
270.0
  0
LINE
  5
DA28
  8
ALPHA
 10
51.543379
 20
63.417082
 30
0.0
 11
51.443379
 21
63.417082
 31
0.0
  0
LINE
  5
DA29
  8
ALPHA
 10
52.211547
 20
63.217082
 30
0.0
 11
51.643379
 21
63.217082
 31
0.0
  0
LINE
  5
DA2A
  8
ALPHA
 10
51.543379
 20
63.317082
 30
0.0
 11
51.543379
 21
63.417082
 31
0.0
  0
LINE
  5
DA2B
  8
ALPHA
 10
51.523379
 20
63.417082
 30
0.0
 11
51.523379
 21
65.424944
 31
0.0
  0
POLYLINE
  5
DA2C
  8
ALPHA
 66
     1
 10
0.0
 20
0.0
 30
0.0
  0
VERTEX
  5
E5FA
  8
ALPHA
 10
51.541571
 20
64.146313
 30
0.0
  0
VERTEX
  5
E5FB
  8
ALPHA
 10
51.543902
 20
63.754651
 30
0.0
  0
VERTEX
  5
E5FC
  8
ALPHA
 10
51.544652
 20
63.583303
 30
0.0
  0
SEQEND
  5
E5FD
  8
ALPHA
  0
POLYLINE
  5
DA2D
  8
ALPHA
 66
     1
 10
0.0
 20
0.0
 30
0.0
  0
VERTEX
  5
E5FE
  8
ALPHA
 10
51.530884
 20
65.180932
 30
0.0
  0
VERTEX
  5
E5FF
  8
ALPHA
 10
51.534562
 20
64.89423
 30
0.0
  0
VERTEX
  5
E600
  8
ALPHA
 10
51.537497
 20
64.624718
 30
0.0
  0
VERTEX
  5
E601
  8
ALPHA
 10
51.539799
 20
64.374837
 30
0.0
  0
VERTEX
  5
E602
  8
ALPHA
 10
51.541571
 20
64.146313
 30
0.0
  0
SEQEND
  5
E603
  8
ALPHA
  0
POLYLINE
  5
DA2E
  8
ALPHA
 66
     1
 10
0.0
 20
0.0
 30
0.0
  0
VERTEX
  5
E604
  8
ALPHA
 10
51.530884
 20
65.180932
 30
0.0
  0
VERTEX
  5
E605
  8
ALPHA
 10
51.529478
 20
65.262527
 30
0.0
  0
VERTEX
  5
E606
  8
ALPHA
 10
51.527694
 20
65.332376
 30
0.0
  0
VERTEX
  5
E607
  8
ALPHA
 10
51.525638
 20
65.38684
 30
0.0
  0
VERTEX
  5
E608
  8
ALPHA
 10
51.523379
 20
65.424944
 30
0.0
  0
SEQEND
  5
E609
  8
ALPHA
  0
LINE
  5
DA2F
  8
ALPHA
 10
51.544652
 20
63.583303
 30
0.0
 11
51.536754
 21
63.417082
 31
0.0
  0
LINE
  5
DA30
  8
ALPHA
 10
51.343379
 20
63.517082
 30
0.0
 11
51.343379
 21
63.613744
 31
0.0
  0
POLYLINE
  5
DA31
  8
ALPHA
 66
     1
 10
0.0
 20
0.0
 30
0.0
  0
VERTEX
  5
E60A
  8
ALPHA
 10
51.872351
 20
63.746054
 30
0.0
  0
VERTEX
  5
E60B
  8
ALPHA
 10
51.779324
 20
63.555298
 30
0.0
  0
VERTEX
  5
E60C
  8
ALPHA
 10
51.690869
 20
63.38237
 30
0.0
  0
VERTEX
  5
E60D
  8
ALPHA
 10
51.606478
 20
63.224139
 30
0.0
  0
SEQEND
  5
E60E
  8
ALPHA
  0
LINE
  5
DA32
  8
ALPHA
 10
51.872351
 20
63.746054
 30
0.0
 11
51.543379
 21
63.417082
 31
0.0
  0
POLYLINE
  5
DA33
  8
ALPHA
 66
     1
 10
0.0
 20
0.0
 30
0.0
  0
VERTEX
  5
E60F
  8
ALPHA
 10
51.544652
 20
63.583303
 30
0.0
  0
VERTEX
  5
E610
  8
ALPHA
 10
51.647411
 20
63.635852
 30
0.0
  0
VERTEX
  5
E611
  8
ALPHA
 10
51.756093
 20
63.689924
 30
0.0
  0
VERTEX
  5
E612
  8
ALPHA
 10
51.872351
 20
63.746054
 30
0.0
  0
SEQEND
  5
E613
  8
ALPHA
  0
POLYLINE
  5
DA34
  8
ALPHA
 66
     1
 10
0.0
 20
0.0
 30
0.0
  0
VERTEX
  5
E614
  8
ALPHA
 10
57.283997
 20
61.116108
 30
0.0
  0
VERTEX
  5
E615
  8
ALPHA
 10
57.257607
 20
61.129517
 30
0.0
  0
VERTEX
  5
E616
  8
ALPHA
 10
57.192185
 20
61.125074
 30
0.0
  0
VERTEX
  5
E617
  8
ALPHA
 10
57.097407
 20
61.10344
 30
0.0
  0
VERTEX
  5
E618
  8
ALPHA
 10
56.987291
 20
61.06781
 30
0.0
  0
SEQEND
  5
E619
  8
ALPHA
  0
POLYLINE
  5
DA35
  8
ALPHA
 66
     1
 10
0.0
 20
0.0
 30
0.0
  0
VERTEX
  5
E61A
  8
ALPHA
 10
57.21539
 20
61.03858
 30
0.0
  0
VERTEX
  5
E61B
  8
ALPHA
 10
57.125195
 20
61.015529
 30
0.0
  0
VERTEX
  5
E61C
  8
ALPHA
 10
57.020675
 20
60.97912
 30
0.0
  0
SEQEND
  5
E61D
  8
ALPHA
  0
POLYLINE
  5
DA36
  8
ALPHA
 66
     1
 10
0.0
 20
0.0
 30
0.0
  0
VERTEX
  5
E61E
  8
ALPHA
 10
57.020675
 20
60.97912
 30
0.0
  0
VERTEX
  5
E61F
  8
ALPHA
 10
57.113136
 20
60.758218
 30
0.0
  0
VERTEX
  5
E620
  8
ALPHA
 10
57.216048
 20
60.545153
 30
0.0
  0
VERTEX
  5
E621
  8
ALPHA
 10
57.328824
 20
60.340802
 30
0.0
  0
VERTEX
  5
E622
  8
ALPHA
 10
57.451075
 20
60.145537
 30
0.0
  0
VERTEX
  5
E623
  8
ALPHA
 10
57.582436
 20
59.959685
 30
0.0
  0
VERTEX
  5
E624
  8
ALPHA
 10
57.722345
 20
59.783824
 30
0.0
  0
VERTEX
  5
E625
  8
ALPHA
 10
57.87034
 20
59.618326
 30
0.0
  0
VERTEX
  5
E626
  8
ALPHA
 10
58.025822
 20
59.463675
 30
0.0
  0
VERTEX
  5
E627
  8
ALPHA
 10
58.18833
 20
59.320162
 30
0.0
  0
VERTEX
  5
E628
  8
ALPHA
 10
58.357444
 20
59.188048
 30
0.0
  0
VERTEX
  5
E629
  8
ALPHA
 10
58.532224
 20
59.067935
 30
0.0
  0
SEQEND
  5
E62A
  8
ALPHA
  0
POLYLINE
  5
DA37
  8
ALPHA
 66
     1
 10
0.0
 20
0.0
 30
0.0
  0
VERTEX
  5
E62B
  8
ALPHA
 10
56.987291
 20
61.06781
 30
0.0
  0
VERTEX
  5
E62C
  8
ALPHA
 10
56.998369
 20
61.037784
 30
0.0
  0
VERTEX
  5
E62D
  8
ALPHA
 10
57.009471
 20
61.008291
 30
0.0
  0
VERTEX
  5
E62E
  8
ALPHA
 10
57.020672
 20
60.979128
 30
0.0
  0
SEQEND
  5
E62F
  8
ALPHA
  0
POLYLINE
  5
DA38
  8
ALPHA
 66
     1
 10
0.0
 20
0.0
 30
0.0
  0
VERTEX
  5
E630
  8
ALPHA
 10
57.304037
 20
61.033569
 30
0.0
  0
VERTEX
  5
E631
  8
ALPHA
 10
57.278061
 20
61.044902
 30
0.0
  0
VERTEX
  5
E632
  8
ALPHA
 10
57.21539
 20
61.03858
 30
0.0
  0
SEQEND
  5
E633
  8
ALPHA
  0
POLYLINE
  5
DA39
  8
ALPHA
 66
     1
 10
0.0
 20
0.0
 30
0.0
  0
VERTEX
  5
E634
  8
ALPHA
 10
58.576397
 20
59.132691
 30
0.0
  0
VERTEX
  5
E635
  8
ALPHA
 10
58.642383
 20
59.086837
 30
0.0
  0
VERTEX
  5
E636
  8
ALPHA
 10
58.715542
 20
59.03895
 30
0.0
  0
VERTEX
  5
E637
  8
ALPHA
 10
58.796141
 20
58.989605
 30
0.0
  0
SEQEND
  5
E638
  8
ALPHA
  0
POLYLINE
  5
DA3A
  8
ALPHA
 66
     1
 10
0.0
 20
0.0
 30
0.0
  0
VERTEX
  5
E639
  8
ALPHA
 10
58.532224
 20
59.067935
 30
0.0
  0
VERTEX
  5
E63A
  8
ALPHA
 10
58.602091
 20
59.024184
 30
0.0
  0
VERTEX
  5
E63B
  8
ALPHA
 10
58.679168
 20
58.978534
 30
0.0
  0
VERTEX
  5
E63C
  8
ALPHA
 10
58.76367
 20
58.931542
 30
0.0
  0
SEQEND
  5
E63D
  8
ALPHA
  0
POLYLINE
  5
DA3B
  8
ALPHA
 66
     1
 10
0.0
 20
0.0
 30
0.0
  0
VERTEX
  5
E63E
  8
ALPHA
 10
57.283997
 20
61.116108
 30
0.0
  0
VERTEX
  5
E63F
  8
ALPHA
 10
57.290526
 20
61.088277
 30
0.0
  0
VERTEX
  5
E640
  8
ALPHA
 10
57.297209
 20
61.060761
 30
0.0
  0
VERTEX
  5
E641
  8
ALPHA
 10
57.304037
 20
61.033569
 30
0.0
  0
SEQEND
  5
E642
  8
ALPHA
  0
POLYLINE
  5
DA3C
  8
ALPHA
 66
     1
 10
0.0
 20
0.0
 30
0.0
  0
VERTEX
  5
E643
  8
ALPHA
 10
57.304037
 20
61.033569
 30
0.0
  0
VERTEX
  5
E644
  8
ALPHA
 10
57.363816
 20
60.825577
 30
0.0
  0
VERTEX
  5
E645
  8
ALPHA
 10
57.436001
 20
60.621733
 30
0.0
  0
VERTEX
  5
E646
  8
ALPHA
 10
57.520232
 20
60.423367
 30
0.0
  0
VERTEX
  5
E647
  8
ALPHA
 10
57.616214
 20
60.231321
 30
0.0
  0
VERTEX
  5
E648
  8
ALPHA
 10
57.723627
 20
60.046371
 30
0.0
  0
VERTEX
  5
E649
  8
ALPHA
 10
57.841935
 20
59.869517
 30
0.0
  0
VERTEX
  5
E64A
  8
ALPHA
 10
57.970633
 20
59.701526
 30
0.0
  0
VERTEX
  5
E64B
  8
ALPHA
 10
58.109055
 20
59.54324
 30
0.0
  0
VERTEX
  5
E64C
  8
ALPHA
 10
58.256618
 20
59.395268
 30
0.0
  0
VERTEX
  5
E64D
  8
ALPHA
 10
58.412755
 20
59.258137
 30
0.0
  0
VERTEX
  5
E64E
  8
ALPHA
 10
58.576397
 20
59.132691
 30
0.0
  0
SEQEND
  5
E64F
  8
ALPHA
  0
POLYLINE
  5
DA3D
  8
ALPHA
 66
     1
 10
0.0
 20
0.0
 30
0.0
  0
VERTEX
  5
E650
  8
ALPHA
 10
58.796165
 20
58.989613
 30
0.0
  0
VERTEX
  5
E651
  8
ALPHA
 10
58.789349
 20
58.978193
 30
0.0
  0
VERTEX
  5
E652
  8
ALPHA
 10
58.777788
 20
58.957521
 30
0.0
  0
VERTEX
  5
E653
  8
ALPHA
 10
58.763693
 20
58.931551
 30
0.0
  0
SEQEND
  5
E654
  8
ALPHA
  0
POLYLINE
  5
DA3E
  8
ALPHA
 66
     1
 10
0.0
 20
0.0
 30
0.0
  0
VERTEX
  5
E655
  8
ALPHA
 10
58.576397
 20
59.132691
 30
0.0
  0
VERTEX
  5
E656
  8
ALPHA
 10
58.567207
 20
59.120503
 30
0.0
  0
VERTEX
  5
E657
  8
ALPHA
 10
58.551456
 20
59.097413
 30
0.0
  0
VERTEX
  5
E658
  8
ALPHA
 10
58.532224
 20
59.067935
 30
0.0
  0
SEQEND
  5
E659
  8
ALPHA
  0
ARC
  5
DA3F
  8
ALPHA
 10
50.973379
 20
80.897082
 30
0.0
 40
15.0
 50
292.078969
 51
302.950817
  0
ARC
  5
DA40
  8
ALPHA
 10
50.973379
 20
80.556289
 30
0.0
 40
15.003491
 50
288.051765
 51
294.441881
  0
ARC
  5
DA41
  8
ALPHA
 10
50.973379
 20
80.556289
 30
0.0
 40
15.0
 50
286.874045
 51
288.038155
  0
ARC
  5
DA42
  8
ALPHA
 10
50.973379
 20
80.556289
 30
0.0
 40
15.003491
 50
297.648054
 51
301.519884
  0
LINE
  5
DA43
  8
ALPHA
 10
59.223379
 20
69.697082
 30
0.0
 11
52.851567
 21
69.697082
 31
0.0
  0
POLYLINE
  5
DA44
  8
ALPHA
 66
     1
 10
0.0
 20
0.0
 30
0.0
  0
VERTEX
  5
E65A
  8
ALPHA
 10
52.839731
 20
69.710431
 30
0.0
  0
VERTEX
  5
E65B
  8
ALPHA
 10
52.734918
 20
69.745862
 30
0.0
  0
VERTEX
  5
E65C
  8
ALPHA
 10
52.556113
 20
69.705956
 30
0.0
  0
VERTEX
  5
E65D
  8
ALPHA
 10
52.31635
 20
69.593623
 30
0.0
  0
VERTEX
  5
E65E
  8
ALPHA
 10
52.033109
 20
69.417052
 30
0.0
  0
VERTEX
  5
E65F
  8
ALPHA
 10
51.727037
 20
69.189115
 30
0.0
  0
SEQEND
  5
E660
  8
ALPHA
  0
POLYLINE
  5
DA45
  8
ALPHA
 66
     1
 10
0.0
 20
0.0
 30
0.0
  0
VERTEX
  5
E661
  8
ALPHA
 10
51.727037
 20
69.189115
 30
0.0
  0
VERTEX
  5
E662
  8
ALPHA
 10
51.788511
 20
69.117054
 30
0.0
  0
VERTEX
  5
E663
  8
ALPHA
 10
51.849607
 20
69.044694
 30
0.0
  0
VERTEX
  5
E664
  8
ALPHA
 10
51.910569
 20
68.971741
 30
0.0
  0
SEQEND
  5
E665
  8
ALPHA
  0
LINE
  5
DA47
  8
0
  6
CONTINUOUS
 62
     2
 10
29.363895
 20
85.647082
 30
0.0
 11
29.363895
 21
80.647082
 31
0.0
  0
LINE
  5
DA4A
  8
ALPHA
 10
79.973379
 20
54.766132
 30
0.0
 11
79.973379
 21
25.528031
 31
0.0
  0
LINE
  5
DA4B
  8
ALPHA
 10
78.673379
 20
56.066149
 30
0.0
 11
78.673379
 21
24.228014
 31
0.0
  0
LINE
  5
DA4C
  8
ALPHA
 10
76.073379
 20
49.584375
 30
0.0
 11
76.073379
 21
30.709789
 31
0.0
  0
LINE
  5
DA4D
  8
ALPHA
 10
75.823379
 20
27.09688
 30
0.0
 11
75.823379
 21
55.274649
 31
0.0
  0
LINE
  5
DA4E
  8
ALPHA
 10
75.746588
 20
54.844282
 30
0.0
 11
75.746588
 21
23.027229
 31
0.0
  0
LINE
  5
DA4F
  8
ALPHA
 10
74.82386
 20
54.844295
 30
0.0
 11
74.823861
 21
23.306176
 31
0.0
  0
POLYLINE
  5
DA50
  8
ALPHA
 66
     1
 10
0.0
 20
0.0
 30
0.0
  0
VERTEX
  5
E666
  8
ALPHA
 10
76.073379
 20
49.584375
 30
0.0
  0
VERTEX
  5
E667
  8
ALPHA
 10
76.096198
 20
47.970597
 30
0.0
  0
VERTEX
  5
E668
  8
ALPHA
 10
76.11456
 20
46.172989
 30
0.0
  0
VERTEX
  5
E669
  8
ALPHA
 10
76.127917
 20
44.247182
 30
0.0
  0
VERTEX
  5
E66A
  8
ALPHA
 10
76.136098
 20
42.217868
 30
0.0
  0
VERTEX
  5
E66B
  8
ALPHA
 10
76.138836
 20
40.147082
 30
0.0
  0
VERTEX
  5
E66C
  8
ALPHA
 10
76.136098
 20
38.076296
 30
0.0
  0
VERTEX
  5
E66D
  8
ALPHA
 10
76.127917
 20
36.046982
 30
0.0
  0
VERTEX
  5
E66E
  8
ALPHA
 10
76.11456
 20
34.121175
 30
0.0
  0
VERTEX
  5
E66F
  8
ALPHA
 10
76.096198
 20
32.323566
 30
0.0
  0
VERTEX
  5
E670
  8
ALPHA
 10
76.073379
 20
30.709789
 30
0.0
  0
SEQEND
  5
E671
  8
ALPHA
  0
ARC
  5
DA52
  8
ALPHA
 10
75.473379
 20
22.647082
 30
0.0
 40
0.5
 50
270.0
 51
0.0
  0
ARC
  5
DA53
  8
ALPHA
 10
74.380981
 20
23.647082
 30
0.0
 40
1.5
 50
270.0
 51
0.0
  0
POLYLINE
  5
DA54
  8
ALPHA
 66
     1
 10
0.0
 20
0.0
 30
0.0
  0
VERTEX
  5
E672
  8
ALPHA
 10
75.746588
 20
23.027229
 30
0.0
  0
VERTEX
  5
E673
  8
ALPHA
 10
75.694922
 20
23.043679
 30
0.0
  0
VERTEX
  5
E674
  8
ALPHA
 10
75.557654
 20
23.079921
 30
0.0
  0
VERTEX
  5
E675
  8
ALPHA
 10
75.351139
 20
23.135383
 30
0.0
  0
VERTEX
  5
E676
  8
ALPHA
 10
75.097214
 20
23.210277
 30
0.0
  0
VERTEX
  5
E677
  8
ALPHA
 10
74.823861
 20
23.306176
 30
0.0
  0
SEQEND
  5
E678
  8
ALPHA
  0
POLYLINE
  5
DA55
  8
ALPHA
 66
     1
 10
0.0
 20
0.0
 30
0.0
  0
VERTEX
  5
E679
  8
ALPHA
 10
74.380981
 20
22.147082
 30
0.0
  0
VERTEX
  5
E67A
  8
ALPHA
 10
74.404446
 20
22.196025
 30
0.0
  0
VERTEX
  5
E67B
  8
ALPHA
 10
74.425614
 20
22.338065
 30
0.0
  0
VERTEX
  5
E67C
  8
ALPHA
 10
74.442413
 20
22.559296
 30
0.0
  0
VERTEX
  5
E67D
  8
ALPHA
 10
74.453199
 20
22.838065
 30
0.0
  0
VERTEX
  5
E67E
  8
ALPHA
 10
74.456915
 20
23.147082
 30
0.0
  0
SEQEND
  5
E67F
  8
ALPHA
  0
LINE
  5
DA56
  8
ALPHA
 10
74.073379
 20
22.147082
 30
0.0
 11
74.073379
 21
24.397082
 31
0.0
  0
LINE
  5
DA57
  8
ALPHA
 10
72.573379
 20
22.147082
 30
0.0
 11
72.573379
 21
24.397082
 31
0.0
  0
LINE
  5
DA58
  8
ALPHA
 10
70.973379
 20
22.147082
 30
0.0
 11
70.973379
 21
25.897082
 31
0.0
  0
LINE
  5
DA59
  8
ALPHA
 10
70.823379
 20
22.147082
 30
0.0
 11
70.823379
 21
26.245703
 31
0.0
  0
LINE
  5
DA5A
  8
ALPHA
 10
68.373379
 20
22.147082
 30
0.0
 11
68.373379
 21
25.897082
 31
0.0
  0
LINE
  5
DA5B
  8
ALPHA
 10
70.973379
 20
23.147082
 30
0.0
 11
72.573379
 21
23.147082
 31
0.0
  0
LINE
  5
DA5C
  8
ALPHA
 10
68.873379
 20
26.397082
 30
0.0
 11
70.473379
 21
26.397082
 31
0.0
  0
LINE
  5
DA5D
  8
ALPHA
 10
68.373379
 20
23.647082
 30
0.0
 11
70.823379
 21
23.647082
 31
0.0
  0
ARC
  5
DA5E
  8
ALPHA
 10
68.873379
 20
25.897082
 30
0.0
 40
0.5
 50
90.0
 51
180.0
  0
ARC
  5
DA5F
  8
ALPHA
 10
70.473379
 20
25.897082
 30
0.0
 40
0.5
 50
0.0
 51
90.0
  0
LINE
  5
DA60
  8
ALPHA
 10
70.973379
 20
25.147082
 30
0.0
 11
70.823379
 21
25.147082
 31
0.0
  0
ARC
  5
DA61
  8
ALPHA
 10
73.323379
 20
24.397082
 30
0.0
 40
0.75
 50
0.0
 51
180.0
  0
POLYLINE
  5
DA62
  8
ALPHA
 66
     1
 10
0.0
 20
0.0
 30
0.0
  0
VERTEX
  5
E680
  8
ALPHA
 10
74.823861
 20
23.306171
 30
0.0
  0
VERTEX
  5
E681
  8
ALPHA
 10
74.746487
 20
23.238809
 30
0.0
  0
VERTEX
  5
E682
  8
ALPHA
 10
74.65678
 20
23.188484
 30
0.0
  0
VERTEX
  5
E683
  8
ALPHA
 10
74.55864
 20
23.15747
 30
0.0
  0
VERTEX
  5
E684
  8
ALPHA
 10
74.456915
 20
23.147082
 30
0.0
  0
SEQEND
  5
E685
  8
ALPHA
  0
LINE
  5
DA63
  8
ALPHA
 10
74.456915
 20
23.147082
 30
0.0
 11
74.073379
 21
23.147082
 31
0.0
  0
POLYLINE
  5
DA64
  8
ALPHA
 66
     1
 10
0.0
 20
0.0
 30
0.0
  0
VERTEX
  5
E686
  8
ALPHA
 10
79.973379
 20
28.281173
 30
0.0
  0
VERTEX
  5
E687
  8
ALPHA
 10
79.909753
 20
27.898298
 30
0.0
  0
VERTEX
  5
E688
  8
ALPHA
 10
79.725101
 20
27.552901
 30
0.0
  0
VERTEX
  5
E689
  8
ALPHA
 10
79.4375
 20
27.278793
 30
0.0
  0
VERTEX
  5
E68A
  8
ALPHA
 10
79.075101
 20
27.102804
 30
0.0
  0
VERTEX
  5
E68B
  8
ALPHA
 10
78.673379
 20
27.042163
 30
0.0
  0
SEQEND
  5
E68C
  8
ALPHA
  0
POLYLINE
  5
DA65
  8
ALPHA
 66
     1
 10
0.0
 20
0.0
 30
0.0
  0
VERTEX
  5
E68D
  8
ALPHA
 10
78.673379
 20
24.228014
 30
0.0
  0
VERTEX
  5
E68E
  8
ALPHA
 10
79.007186
 20
24.271602
 30
0.0
  0
VERTEX
  5
E68F
  8
ALPHA
 10
79.325552
 20
24.403441
 30
0.0
  0
VERTEX
  5
E690
  8
ALPHA
 10
79.592642
 20
24.608804
 30
0.0
  0
VERTEX
  5
E691
  8
ALPHA
 10
79.797955
 20
24.87585
 30
0.0
  0
VERTEX
  5
E692
  8
ALPHA
 10
79.929764
 20
25.194115
 30
0.0
  0
VERTEX
  5
E693
  8
ALPHA
 10
79.973379
 20
25.528031
 30
0.0
  0
SEQEND
  5
E694
  8
ALPHA
  0
LINE
  5
DA66
  8
ALPHA
 10
75.973379
 20
22.647082
 30
0.0
 11
75.973379
 21
30.709789
 31
0.0
  0
LINE
  5
DA67
  8
ALPHA
 10
75.973379
 20
27.042163
 30
0.0
 11
78.673379
 21
27.042163
 31
0.0
  0
LINE
  5
DA68
  8
ALPHA
 10
75.973379
 20
24.228014
 30
0.0
 11
78.673379
 21
24.228014
 31
0.0
  0
LINE
  5
DA69
  8
ALPHA
 10
75.880981
 20
23.647082
 30
0.0
 11
75.880981
 21
26.258369
 31
0.0
  0
POLYLINE
  5
DA6A
  8
ALPHA
 66
     1
 10
0.0
 20
0.0
 30
0.0
  0
VERTEX
  5
E695
  8
ALPHA
 10
75.832939
 20
26.499164
 30
0.0
  0
VERTEX
  5
E696
  8
ALPHA
 10
75.829937
 20
26.540382
 30
0.0
  0
VERTEX
  5
E697
  8
ALPHA
 10
75.827247
 20
26.631237
 30
0.0
  0
VERTEX
  5
E698
  8
ALPHA
 10
75.825179
 20
26.76054
 30
0.0
  0
VERTEX
  5
E699
  8
ALPHA
 10
75.823834
 20
26.92196
 30
0.0
  0
VERTEX
  5
E69A
  8
ALPHA
 10
75.823379
 20
27.09688
 30
0.0
  0
SEQEND
  5
E69B
  8
ALPHA
  0
LINE
  5
DA6B
  8
ALPHA
 10
75.880981
 20
26.258369
 30
0.0
 11
75.832939
 21
26.499164
 31
0.0
  0
POLYLINE
  5
DA6C
  8
ALPHA
 66
     1
 10
0.0
 20
0.0
 30
0.0
  0
VERTEX
  5
E69C
  8
ALPHA
 10
75.746588
 20
23.027229
 30
0.0
  0
VERTEX
  5
E69D
  8
ALPHA
 10
75.74673
 20
23.027142
 30
0.0
  0
VERTEX
  5
E69E
  8
ALPHA
 10
75.746872
 20
23.027215
 30
0.0
  0
VERTEX
  5
E69F
  8
ALPHA
 10
75.747014
 20
23.027441
 30
0.0
  0
SEQEND
  5
E6A0
  8
ALPHA
  0
LINE
  5
DA6D
  8
ALPHA
 10
75.823379
 20
27.268095
 30
0.0
 11
75.973379
 21
27.268095
 31
0.0
  0
LINE
  5
DA6E
  8
ALPHA
 10
75.826621
 20
26.670378
 30
0.0
 11
75.973379
 21
26.670378
 31
0.0
  0
LINE
  5
DA6F
  8
ALPHA
 10
75.84333
 20
26.447082
 30
0.0
 11
75.973379
 21
26.447082
 31
0.0
  0
LINE
  5
DA70
  8
ALPHA
 10
75.973379
 20
30.709789
 30
0.0
 11
76.073379
 21
30.709789
 31
0.0
  0
ARC
  5
DA94
  8
ALPHA
 10
50.973379
 20
-22.352918
 30
0.0
 40
82.5
 50
72.360299
 51
77.222018
  0
ARC
  5
DA95
  8
ALPHA
 10
74.973379
 20
69.826177
 30
0.0
 40
1.0
 50
0.0
 51
78.952848
  0
POLYLINE
  5
DA96
  8
ALPHA
 66
     1
 10
0.0
 20
0.0
 30
0.0
  0
VERTEX
  5
E6A1
  8
ALPHA
 10
75.80911
 20
55.27902
 30
0.0
  0
VERTEX
  5
E6A2
  8
ALPHA
 10
75.75888
 20
55.592078
 30
0.0
  0
VERTEX
  5
E6A3
  8
ALPHA
 10
75.613179
 20
55.873663
 30
0.0
  0
VERTEX
  5
E6A4
  8
ALPHA
 10
75.386657
 20
56.095465
 30
0.0
  0
VERTEX
  5
E6A5
  8
ALPHA
 10
75.102087
 20
56.235186
 30
0.0
  0
SEQEND
  5
E6A6
  8
ALPHA
  0
POLYLINE
  5
DA97
  8
ALPHA
 66
     1
 10
0.0
 20
0.0
 30
0.0
  0
VERTEX
  5
E6A7
  8
ALPHA
 10
75.746588
 20
54.844295
 30
0.0
  0
VERTEX
  5
E6A8
  8
ALPHA
 10
75.713451
 20
55.087943
 30
0.0
  0
VERTEX
  5
E6A9
  8
ALPHA
 10
75.617591
 20
55.317161
 30
0.0
  0
VERTEX
  5
E6AA
  8
ALPHA
 10
75.46466
 20
55.516308
 30
0.0
  0
VERTEX
  5
E6AB
  8
ALPHA
 10
75.265193
 20
55.671321
 30
0.0
  0
VERTEX
  5
E6AC
  8
ALPHA
 10
75.031867
 20
55.772562
 30
0.0
  0
SEQEND
  5
E6AD
  8
ALPHA
  0
LINE
  5
DA98
  8
ALPHA
 10
75.473379
 20
69.826177
 30
0.0
 11
75.973379
 21
69.826177
 31
0.0
  0
POLYLINE
  5
DA99
  8
ALPHA
 66
     1
 10
0.0
 20
0.0
 30
0.0
  0
VERTEX
  5
E6AE
  8
ALPHA
 10
75.973379
 20
56.268008
 30
0.0
  0
VERTEX
  5
E6AF
  8
ALPHA
 10
75.79328
 20
58.981329
 30
0.0
  0
VERTEX
  5
E6B0
  8
ALPHA
 10
75.653277
 20
61.693577
 30
0.0
  0
VERTEX
  5
E6B1
  8
ALPHA
 10
75.553318
 20
64.404982
 30
0.0
  0
VERTEX
  5
E6B2
  8
ALPHA
 10
75.493361
 20
67.115771
 30
0.0
  0
VERTEX
  5
E6B3
  8
ALPHA
 10
75.473379
 20
69.826177
 30
0.0
  0
SEQEND
  5
E6B4
  8
ALPHA
  0
POLYLINE
  5
DA9A
  8
ALPHA
 66
     1
 10
0.0
 20
0.0
 30
0.0
  0
VERTEX
  5
E6B5
  8
ALPHA
 10
75.116222
 20
56.230856
 30
0.0
  0
VERTEX
  5
E6B6
  8
ALPHA
 10
75.400848
 20
56.091067
 30
0.0
  0
VERTEX
  5
E6B7
  8
ALPHA
 10
75.6274
 20
55.869237
 30
0.0
  0
VERTEX
  5
E6B8
  8
ALPHA
 10
75.773124
 20
55.587661
 30
0.0
  0
VERTEX
  5
E6B9
  8
ALPHA
 10
75.823379
 20
55.274649
 30
0.0
  0
SEQEND
  5
E6BA
  8
ALPHA
  0
LINE
  5
DA9B
  8
ALPHA
 10
75.746588
 20
54.844295
 30
0.0
 11
74.82386
 21
54.844295
 31
0.0
  0
ARC
  5
DA9C
  8
ALPHA
 10
50.973379
 20
-22.552918
 30
0.0
 40
82.4
 50
72.972892
 51
83.886535
  0
ARC
  5
DA9D
  8
ALPHA
 10
50.973379
 20
-22.273762
 30
0.0
 40
82.5
 50
73.129737
 51
76.906691
  0
LINE
  5
DA9E
  8
ALPHA
 10
75.373379
 20
69.088258
 30
0.0
 11
75.373379
 21
56.456282
 31
0.0
  0
LINE
  5
DA9F
  8
ALPHA
 10
75.173379
 20
56.867188
 30
0.0
 11
75.173379
 21
68.233983
 31
0.0
  0
POLYLINE
  5
DAA0
  8
ALPHA
 66
     1
 10
0.0
 20
0.0
 30
0.0
  0
VERTEX
  5
E6BB
  8
ALPHA
 10
59.954604
 20
58.657204
 30
0.0
  0
VERTEX
  5
E6BC
  8
ALPHA
 10
65.065709
 20
57.988086
 30
0.0
  0
VERTEX
  5
E6BD
  8
ALPHA
 10
70.100469
 20
57.024671
 30
0.0
  0
VERTEX
  5
E6BE
  8
ALPHA
 10
75.031866
 20
55.772563
 30
0.0
  0
SEQEND
  5
E6BF
  8
ALPHA
  0
ARC
  5
DAA1
  8
ALPHA
 10
74.973379
 20
56.867188
 30
0.0
 40
0.2
 50
253.129737
 51
0.0
  0
POLYLINE
  5
DAA2
  8
ALPHA
 66
     1
 10
0.0
 20
0.0
 30
0.0
  0
VERTEX
  5
E6C0
  8
ALPHA
 10
75.080046
 20
56.18795
 30
0.0
  0
VERTEX
  5
E6C1
  8
ALPHA
 10
75.056594
 20
56.033485
 30
0.0
  0
VERTEX
  5
E6C2
  8
ALPHA
 10
75.031866
 20
55.772563
 30
0.0
  0
SEQEND
  5
E6C3
  8
ALPHA
  0
LINE
  5
DAA3
  8
ALPHA
 10
75.116222
 20
56.230856
 30
0.0
 11
75.102087
 21
56.235187
 31
0.0
  0
POLYLINE
  5
DAA4
  8
ALPHA
 66
     1
 10
0.0
 20
0.0
 30
0.0
  0
VERTEX
  5
E6C4
  8
ALPHA
 10
74.823861
 20
54.844295
 30
0.0
  0
VERTEX
  5
E6C5
  8
ALPHA
 10
74.907758
 20
55.153065
 30
0.0
  0
VERTEX
  5
E6C6
  8
ALPHA
 10
74.974694
 20
55.429099
 30
0.0
  0
VERTEX
  5
E6C7
  8
ALPHA
 10
75.017578
 20
55.643157
 30
0.0
  0
VERTEX
  5
E6C8
  8
ALPHA
 10
75.031867
 20
55.772562
 30
0.0
  0
SEQEND
  5
E6C9
  8
ALPHA
  0
LINE
  5
DAA5
  8
ALPHA
 10
75.102087
 20
56.235187
 30
0.0
 11
75.080046
 21
56.18795
 31
0.0
  0
ARC
  5
DAA6
  8
ALPHA
 10
50.973379
 20
-22.352918
 30
0.0
 40
82.5
 50
77.368847
 51
81.25882
  0
LINE
  5
DAA7
  8
ALPHA
 10
68.973698
 20
69.427668
 30
0.0
 11
63.41544
 21
70.110136
 31
0.0
  0
LINE
  5
DAA8
  8
ALPHA
 10
68.90667
 20
68.881767
 30
0.0
 11
63.646175
 21
69.527675
 31
0.0
  0
LINE
  5
DAA9
  8
ALPHA
 10
63.803152
 20
59.905672
 30
0.0
 11
69.005776
 21
58.894384
 31
0.0
  0
LINE
  5
DAAA
  8
ALPHA
 10
63.550963
 20
59.394398
 30
0.0
 11
69.048075
 21
58.325868
 31
0.0
  0
LINE
  5
DAAB
  8
ALPHA
 10
59.473379
 20
69.147082
 30
0.0
 11
59.473379
 21
68.187875
 31
0.0
  0
ARC
  5
DAAC
  8
ALPHA
 10
61.973379
 20
65.147082
 30
0.0
 40
2.1
 50
0.0
 51
180.0
  0
ARC
  5
DAAD
  8
ALPHA
 10
61.973379
 20
63.147082
 30
0.0
 40
2.1
 50
270.0
 51
0.0
  0
LINE
  5
DAAE
  8
ALPHA
 10
63.812692
 20
59.954753
 30
0.0
 11
63.02739
 21
60.1074
 31
0.0
  0
LINE
  5
DAAF
  8
ALPHA
 10
61.973379
 20
61.047082
 30
0.0
 11
60.973379
 21
61.047082
 31
0.0
  0
POLYLINE
  5
DAB0
  8
ALPHA
 66
     1
 10
0.0
 20
0.0
 30
0.0
  0
VERTEX
  5
E6CA
  8
ALPHA
 10
60.023652
 20
58.575235
 30
0.0
  0
VERTEX
  5
E6CB
  8
ALPHA
 10
59.996621
 20
58.606851
 30
0.0
  0
VERTEX
  5
E6CC
  8
ALPHA
 10
59.973603
 20
58.634214
 30
0.0
  0
VERTEX
  5
E6CD
  8
ALPHA
 10
59.954604
 20
58.657195
 30
0.0
  0
SEQEND
  5
E6CE
  8
ALPHA
  0
POLYLINE
  5
DAB1
  8
ALPHA
 66
     1
 10
0.0
 20
0.0
 30
0.0
  0
VERTEX
  5
E6CF
  8
ALPHA
 10
60.023665
 20
58.575234
 30
0.0
  0
VERTEX
  5
E6D0
  8
ALPHA
 10
59.893006
 20
58.580859
 30
0.0
  0
VERTEX
  5
E6D1
  8
ALPHA
 10
59.76158
 20
58.588935
 30
0.0
  0
VERTEX
  5
E6D2
  8
ALPHA
 10
59.629623
 20
58.600105
 30
0.0
  0
SEQEND
  5
E6D3
  8
ALPHA
  0
POLYLINE
  5
DAB2
  8
ALPHA
 66
     1
 10
0.0
 20
0.0
 30
0.0
  0
VERTEX
  5
E6D4
  8
ALPHA
 10
59.954604
 20
58.657204
 30
0.0
  0
VERTEX
  5
E6D5
  8
ALPHA
 10
59.84739
 20
59.046371
 30
0.0
  0
VERTEX
  5
E6D6
  8
ALPHA
 10
59.77671
 20
59.285522
 30
0.0
  0
VERTEX
  5
E6D7
  8
ALPHA
 10
59.748605
 20
59.377231
 30
0.0
  0
SEQEND
  5
E6D8
  8
ALPHA
  0
LINE
  5
DAB3
  8
ALPHA
 10
63.301921
 20
59.220711
 30
0.0
 11
63.243965
 21
58.922554
 31
0.0
  0
LINE
  5
DAB4
  8
ALPHA
 10
63.174634
 20
60.078779
 30
0.0
 11
63.016139
 21
59.26339
 31
0.0
  0
LINE
  5
DAB5
  8
ALPHA
 10
63.02739
 20
60.1074
 30
0.0
 11
62.882528
 21
59.36215
 31
0.0
  0
LINE
  5
DAB6
  8
ALPHA
 10
59.873379
 20
64.935936
 30
0.0
 11
59.873379
 21
65.147082
 31
0.0
  0
LINE
  5
DAB7
  8
ALPHA
 10
63.646367
 20
59.885212
 30
0.0
 11
63.793611
 21
59.85659
 31
0.0
  0
LINE
  5
DAB8
  8
ALPHA
 10
63.698207
 20
59.365777
 30
0.0
 11
63.812692
 21
59.954753
 31
0.0
  0
LINE
  5
DAB9
  8
ALPHA
 10
63.665448
 20
59.983374
 30
0.0
 11
63.455881
 21
58.905245
 31
0.0
  0
LINE
  5
DABA
  8
ALPHA
 10
63.430806
 20
58.887592
 30
0.0
 11
63.455881
 21
58.905245
 31
0.0
  0
LINE
  5
DABB
  8
ALPHA
 10
64.073379
 20
65.147082
 30
0.0
 11
64.073379
 21
63.147082
 31
0.0
  0
LINE
  5
DABC
  8
ALPHA
 10
62.846045
 20
69.575543
 30
0.0
 11
63.640082
 21
69.478047
 31
0.0
  0
ARC
  5
DABD
  8
ALPHA
 10
50.973379
 20
-49.026699
 30
0.0
 40
119.891552
 50
84.275998
 51
85.111379
  0
ARC
  5
DABE
  8
ALPHA
 10
58.973379
 20
68.947082
 30
0.0
 40
0.6
 50
24.128388
 51
65.197096
  0
ARC
  5
DABF
  8
ALPHA
 10
61.173379
 20
70.229444
 30
0.0
 40
0.2
 50
85.111379
 51
180.0
  0
LINE
  5
DAC0
  8
ALPHA
 10
60.973379
 20
69.267533
 30
0.0
 11
60.573379
 21
69.279627
 31
0.0
  0
LINE
  5
DAC1
  8
ALPHA
 10
60.473379
 20
69.397082
 30
0.0
 11
59.359156
 21
69.397082
 31
0.0
  0
LINE
  5
DAC2
  8
ALPHA
 10
60.573379
 20
69.297082
 30
0.0
 11
59.460719
 21
69.297082
 31
0.0
  0
LINE
  5
DAC3
  8
ALPHA
 10
60.973379
 20
69.147082
 30
0.0
 11
59.473379
 21
69.147082
 31
0.0
  0
LINE
  5
DAC4
  8
ALPHA
 10
59.365991
 20
69.183107
 30
0.0
 11
59.271778
 21
69.177838
 31
0.0
  0
LINE
  5
DAC5
  8
ALPHA
 10
59.520958
 20
69.192351
 30
0.0
 11
59.365991
 21
69.183107
 31
0.0
  0
POLYLINE
  5
DAC6
  8
ALPHA
 66
     1
 10
0.0
 20
0.0
 30
0.0
  0
VERTEX
  5
E6D9
  8
ALPHA
 10
60.473379
 20
69.48041
 30
0.0
  0
VERTEX
  5
E6DA
  8
ALPHA
 10
60.673456
 20
69.505147
 30
0.0
  0
VERTEX
  5
E6DB
  8
ALPHA
 10
60.873379
 20
69.533087
 30
0.0
  0
SEQEND
  5
E6DC
  8
ALPHA
  0
LINE
  5
DAC7
  8
ALPHA
 10
60.973379
 20
69.147082
 30
0.0
 11
60.973379
 21
70.597082
 31
0.0
  0
LINE
  5
DAC8
  8
ALPHA
 10
60.873379
 20
69.533087
 30
0.0
 11
60.873379
 21
70.597082
 31
0.0
  0
LINE
  5
DAC9
  8
ALPHA
 10
60.573379
 20
69.492774
 30
0.0
 11
60.573379
 21
69.279627
 31
0.0
  0
LINE
  5
DACA
  8
ALPHA
 10
60.473379
 20
69.397088
 30
0.0
 11
60.473379
 21
69.48041
 31
0.0
  0
LINE
  5
DACB
  8
ALPHA
 10
59.873379
 20
70.597082
 30
0.0
 11
59.873379
 21
69.997082
 31
0.0
  0
LINE
  5
DACC
  8
ALPHA
 10
63.287245
 20
70.38821
 30
0.0
 11
63.182391
 21
69.534245
 31
0.0
  0
LINE
  5
DACD
  8
ALPHA
 10
62.930953
 20
70.267059
 30
0.0
 11
62.846045
 21
69.575543
 31
0.0
  0
LINE
  5
DACE
  8
ALPHA
 10
62.78946
 20
70.436833
 30
0.0
 11
62.770517
 21
70.28255
 31
0.0
  0
LINE
  5
DACF
  8
ALPHA
 10
63.652269
 20
69.577302
 30
0.0
 11
63.354505
 21
69.613863
 31
0.0
  0
LINE
  5
DAD0
  8
ALPHA
 10
63.640082
 20
69.478047
 30
0.0
 11
63.713204
 21
70.073575
 31
0.0
  0
LINE
  5
DAD1
  8
ALPHA
 10
63.41544
 20
70.110136
 30
0.0
 11
63.354505
 21
69.613863
 31
0.0
  0
ARC
  5
DAD2
  8
ALPHA
 10
50.973379
 20
-49.026699
 30
0.0
 40
119.891552
 50
78.4329
 51
80.977986
  0
LINE
  5
DAD3
  8
ALPHA
 10
69.694613
 20
68.734644
 30
0.0
 11
69.774046
 21
69.381574
 31
0.0
  0
LINE
  5
DAD4
  8
ALPHA
 10
69.236923
 20
68.790842
 30
0.0
 11
69.340445
 21
69.633958
 31
0.0
  0
LINE
  5
DAD5
  8
ALPHA
 10
68.900577
 20
68.83214
 30
0.0
 11
68.973698
 21
69.427668
 31
0.0
  0
ARC
  5
DAD6
  8
ALPHA
 10
71.973379
 20
65.147082
 30
0.0
 40
2.1
 50
0.0
 51
180.0
  0
LINE
  5
DAD7
  8
ALPHA
 10
71.973379
 20
61.047082
 30
0.0
 11
70.973379
 21
61.047082
 31
0.0
  0
ARC
  5
DAD8
  8
ALPHA
 10
70.973379
 20
63.147082
 30
0.0
 40
2.1
 50
121.588136
 51
270.0
  0
LINE
  5
DAD9
  8
ALPHA
 10
69.800618
 20
58.790818
 30
0.0
 11
69.015316
 21
58.943465
 31
0.0
  0
LINE
  5
DADA
  8
ALPHA
 10
68.969109
 20
57.85126
 30
0.0
 11
68.958867
 21
57.866931
 31
0.0
  0
LINE
  5
DADB
  8
ALPHA
 10
68.996235
 20
58.845303
 30
0.0
 11
69.143479
 21
58.816681
 31
0.0
  0
LINE
  5
DADC
  8
ALPHA
 10
69.220213
 20
58.103921
 30
0.0
 11
69.163763
 21
57.81351
 31
0.0
  0
LINE
  5
DADD
  8
ALPHA
 10
68.958867
 20
57.866931
 30
0.0
 11
69.16256
 21
58.914844
 31
0.0
  0
LINE
  5
DADE
  8
ALPHA
 10
68.900831
 20
58.354489
 30
0.0
 11
69.015316
 21
58.943465
 31
0.0
  0
LINE
  5
DADF
  8
ALPHA
 10
69.662728
 20
58.081438
 30
0.0
 11
69.800618
 21
58.790818
 31
0.0
  0
LINE
  5
DAE0
  8
ALPHA
 10
69.501778
 20
58.039546
 30
0.0
 11
69.653374
 21
58.81944
 31
0.0
  0
LINE
  5
DAE1
  8
ALPHA
 10
68.900577
 20
68.83214
 30
0.0
 11
69.694613
 21
68.734644
 31
0.0
  0
LINE
  5
DAE2
  8
ALPHA
 10
69.873379
 20
64.935936
 30
0.0
 11
69.873379
 21
65.147082
 31
0.0
  0
ARC
  5
DAE3
  8
ALPHA
 10
71.973379
 20
63.147082
 30
0.0
 40
2.1
 50
270.0
 51
0.0
  0
ARC
  5
DAE4
  8
ALPHA
 10
74.973379
 20
68.233983
 30
0.0
 40
0.2
 50
0.0
 51
78.4329
  0
LINE
  5
DAE5
  8
ALPHA
 10
74.073379
 20
65.147082
 30
0.0
 11
74.073379
 21
63.147082
 31
0.0
  0
LINE
  5
DAE6
  8
ALPHA
 10
68.813771
 20
69.447304
 30
0.0
 11
68.845656
 21
69.706982
 31
0.0
  0
ARC
  5
DAE7
  8
ALPHA
 10
74.973379
 20
69.826177
 30
0.0
 40
0.5
 50
0.0
 51
78.952848
  0
LINE
  5
DAE8
  8
ALPHA
 10
75.069188
 20
70.316912
 30
0.0
 11
75.164996
 21
70.807647
 31
0.0
  0
LINE
  5
DAEB
  8
ALPHA
 10
75.973379
 20
49.584375
 30
0.0
 11
75.973379
 21
69.826177
 31
0.0
  0
POLYLINE
  5
DAEC
  8
ALPHA
 66
     1
 10
0.0
 20
0.0
 30
0.0
  0
VERTEX
  5
E6DD
  8
ALPHA
 10
79.973379
 20
54.766132
 30
0.0
  0
VERTEX
  5
E6DE
  8
ALPHA
 10
79.929764
 20
55.100048
 30
0.0
  0
VERTEX
  5
E6DF
  8
ALPHA
 10
79.797955
 20
55.418314
 30
0.0
  0
VERTEX
  5
E6E0
  8
ALPHA
 10
79.592642
 20
55.685359
 30
0.0
  0
VERTEX
  5
E6E1
  8
ALPHA
 10
79.325552
 20
55.890723
 30
0.0
  0
VERTEX
  5
E6E2
  8
ALPHA
 10
79.007186
 20
56.022561
 30
0.0
  0
VERTEX
  5
E6E3
  8
ALPHA
 10
78.673379
 20
56.066149
 30
0.0
  0
SEQEND
  5
E6E4
  8
ALPHA
  0
POLYLINE
  5
DAED
  8
ALPHA
 66
     1
 10
0.0
 20
0.0
 30
0.0
  0
VERTEX
  5
E6E5
  8
ALPHA
 10
79.973379
 20
52.01299
 30
0.0
  0
VERTEX
  5
E6E6
  8
ALPHA
 10
79.909753
 20
52.395865
 30
0.0
  0
VERTEX
  5
E6E7
  8
ALPHA
 10
79.725102
 20
52.741262
 30
0.0
  0
VERTEX
  5
E6E8
  8
ALPHA
 10
79.437501
 20
53.01537
 30
0.0
  0
VERTEX
  5
E6E9
  8
ALPHA
 10
79.075102
 20
53.191359
 30
0.0
  0
VERTEX
  5
E6EA
  8
ALPHA
 10
78.673379
 20
53.252001
 30
0.0
  0
SEQEND
  5
E6EB
  8
ALPHA
  0
LINE
  5
DAEE
  8
ALPHA
 10
75.973379
 20
49.584375
 30
0.0
 11
76.073379
 21
49.584375
 31
0.0
  0
LINE
  5
DAEF
  8
ALPHA
 10
75.973379
 20
56.066149
 30
0.0
 11
78.673379
 21
56.066149
 31
0.0
  0
LINE
  5
DAF0
  8
ALPHA
 10
75.973379
 20
53.252001
 30
0.0
 11
78.673379
 21
53.252001
 31
0.0
  0
LINE
  5
DAF1
  8
ALPHA
 10
75.823379
 20
55.274649
 30
0.0
 11
75.80911
 21
55.27902
 31
0.0
  0
POLYLINE
  5
DAF2
  8
ALPHA
 66
     1
 10
0.0
 20
0.0
 30
0.0
  0
VERTEX
  5
E6EC
  8
ALPHA
 10
75.80911
 20
55.27902
 30
0.0
  0
VERTEX
  5
E6ED
  8
ALPHA
 10
75.788086
 20
55.234795
 30
0.0
  0
VERTEX
  5
E6EE
  8
ALPHA
 10
75.767203
 20
55.089607
 30
0.0
  0
VERTEX
  5
E6EF
  8
ALPHA
 10
75.746588
 20
54.844282
 30
0.0
  0
SEQEND
  5
E6F0
  8
ALPHA
  0
LINE
  5
DD9D
  8
ALPHA
 10
79.973379
 20
27.447089
 30
0.0
 11
79.973379
 21
52.847055
 31
0.0
  0
LINE
  5
DE68
  8
AXE
 10
50.973379
 20
11.360928
 30
0.0
 11
50.973379
 21
78.147082
 31
0.0
  0
DIMENSION
  5
DE69
  8
COTATION1
  2
*D3
 10
20.673379
 20
1.360928
 30
0.0
 11
60.973379
 21
4.610928
 31
0.0
  1
81
 13
101.273379
 23
27.447089
 33
0.0
 14
20.673379
 24
30.397196
 34
0.0
 50
180.0
  0
TEXT
  5
DE6C
  8
AXE
 10
45.92576
 20
11.360928
 30
0.0
 40
5.0
  1
Y
 72
     2
 11
49.973379
 21
11.360928
 31
0.0
  0
LINE
  5
DE8D
  8
AXE
 10
15.673379
 20
40.147082
 30
0.0
 11
111.273379
 21
40.147082
 31
0.0
  0
TEXT
  5
DE8E
  8
AXE
 10
111.792045
 20
41.147082
 30
0.0
 40
5.0
  1
X
 71
     2
 72
     2
 11
107.744426
 21
41.147082
 31
0.0
  0
DIMENSION
  5
DE8F
  8
COTATION1
  2
*D4
 10
121.273379
 20
22.147082
 30
0.0
 11
121.273379
 21
47.647082
 31
0.0
 13
58.973379
 23
73.147082
 33
0.0
 14
75.473379
 24
22.147082
 34
0.0
 50
90.0
  0
LINE
  5
DED3
  8
ALPHA
 10
80.273379
 20
53.147082
 30
0.0
 11
80.273379
 21
27.147082
 31
0.0
  0
LINE
  5
DED4
  8
ALPHA
 10
21.973379
 20
27.447089
 30
0.0
 11
21.973379
 21
52.847055
 31
0.0
  0
LINE
  5
DED8
  8
ALPHA
 10
101.273379
 20
52.847055
 30
0.0
 11
101.273379
 21
27.447089
 31
0.0
  0
LINE
  5
DED9
  8
ALPHA
 10
100.973379
 20
27.147082
 30
0.0
 11
100.973379
 21
53.147082
 31
0.0
  0
LINE
  5
DEDA
  8
ALPHA
 10
100.973379
 20
27.147082
 30
0.0
 11
80.273379
 21
27.147082
 31
0.0
  0
LINE
  5
DEDB
  8
ALPHA
 10
80.273379
 20
27.147082
 30
0.0
 11
79.973379
 21
27.447082
 31
0.0
  0
LINE
  5
DF2C
  8
ALPHA
 10
101.273379
 20
27.447082
 30
0.0
 11
100.973379
 21
27.147082
 31
0.0
  0
LINE
  5
DF2D
  8
ALPHA
 10
100.973379
 20
53.147082
 30
0.0
 11
80.273379
 21
53.147082
 31
0.0
  0
LINE
  5
DF2E
  8
ALPHA
 10
80.273379
 20
53.147082
 30
0.0
 11
79.973379
 21
52.847082
 31
0.0
  0
LINE
  5
DF9D
  8
ALPHA
 10
101.273379
 20
52.847082
 30
0.0
 11
100.973379
 21
53.147082
 31
0.0
  0
LINE
  5
E006
  8
ALPHA
 10
75.973379
 20
53.252001
 30
0.0
 11
78.673379
 21
53.252001
 31
0.0
  0
LINE
  5
E007
  8
ALPHA
 10
21.173379
 20
29.897082
 30
0.0
 11
21.173379
 21
50.397082
 31
0.0
  0
LINE
  5
E008
  8
ALPHA
 10
20.673379
 20
30.397196
 30
0.0
 11
20.673379
 21
49.896967
 31
0.0
  0
LINE
  5
E009
  8
ALPHA
 10
21.173379
 20
29.897082
 30
0.0
 11
21.973379
 21
29.897082
 31
0.0
  0
LINE
  5
E00A
  8
ALPHA
 10
20.673379
 20
30.397082
 30
0.0
 11
21.173379
 21
29.897082
 31
0.0
  0
LINE
  5
E00B
  8
ALPHA
 10
21.173379
 20
50.397082
 30
0.0
 11
21.973379
 21
50.397082
 31
0.0
  0
LINE
  5
E00C
  8
ALPHA
 10
20.673379
 20
49.897082
 30
0.0
 11
21.173379
 21
50.397082
 31
0.0
  0
LINE
  5
E0B9
  8
0
  6
CONTINUOUS
 62
     2
 10
22.973379
 20
32.333856
 30
0.0
 11
22.973379
 21
62.718273
 31
0.0
  0
LINE
  5
E0BB
  8
0
  6
CONTINUOUS
 62
     2
 10
2.473379
 20
65.218273
 30
0.0
 11
15.473379
 21
65.218273
 31
0.0
  0
LINE
  5
E0BC
  8
0
  6
CONTINUOUS
 62
     2
 10
15.473379
 20
60.218273
 30
0.0
 11
2.473379
 21
60.218273
 31
0.0
  0
LINE
  5
E0BD
  8
0
  6
CONTINUOUS
 62
     2
 10
15.473379
 20
65.218273
 30
0.0
 11
15.473379
 21
60.218273
 31
0.0
  0
SOLID
  5
E0BE
  8
0
  6
CONTINUOUS
 62
     2
 10
22.973379
 20
64.161649
 30
0.0
 11
22.973379
 21
61.274898
 31
0.0
 12
20.473379
 22
62.718273
 32
0.0
 13
20.473379
 23
62.718273
 33
0.0
  0
LINE
  5
E0BF
  8
0
  6
CONTINUOUS
 62
     2
 10
20.473379
 20
62.718273
 30
0.0
 11
15.473379
 21
62.718273
 31
0.0
  0
LINE
  5
E0C0
  8
0
  6
CONTINUOUS
 62
     2
 10
2.473379
 20
60.218273
 30
0.0
 11
2.473379
 21
65.218273
 31
0.0
  0
TEXT
  5
E0C1
  8
0
  6
CONTINUOUS
 62
     2
 10
3.723379
 20
61.468273
 30
0.0
 40
2.5
  1
ENTRY_2
 41
0.63
  7
STANDARD
 72
     5
 11
14.223379
 21
61.468273
 31
0.0
  0
VIEWPORT
  5
494D
 67
     1
  8
0
 10
4.995325
 20
6.556512
 30
0.0
 40
22.70986
 41
13.988421
 68
    -1
 69
     1
1001
ACAD
1000
MVIEW
1002
{
1070
    16
1010
0.0
1020
0.0
1030
0.0
1010
0.0
1020
0.0
1030
1.0
1040
0.0
1040
13.988421
1040
4.995325
1040
6.556512
1040
50.0
1040
0.0
1040
0.0
1070
     0
1070
   100
1070
     1
1070
     1
1070
     0
1070
     0
1070
     0
1070
     0
1040
0.0
1040
0.0
1040
0.0
1040
10.0
1040
10.0
1040
10.0
1040
10.0
1070
     0
1002
{
1002
}
1002
}
  0
ENDSEC
  0
EOF
