  0
SECTION
  2
HEADER
  9
$ACADVER
  1
AC1009
  9
$INSBASE
 10
402.590624
 20
-1.041018
 30
0.0
  9
$EXTMIN
 10
4.827094
 20
65.677385
 30
0.0
  9
$EXTMAX
 10
83.570137
 20
116.436307
 30
0.0
  9
$LIMMIN
 10
-407.970438
 20
-367.832444
  9
$LIMMAX
 10
429.804077
 20
234.370848
  9
$ORTHOMODE
 70
     1
  9
$REGENMODE
 70
     1
  9
$FILLMODE
 70
     1
  9
$QTEXTMODE
 70
     0
  9
$MIRRTEXT
 70
     1
  9
$DRAGMODE
 70
     2
  9
$LTSCALE
 40
10.0
  9
$OSMODE
 70
    35
  9
$ATTMODE
 70
     1
  9
$TEXTSIZE
 40
6.0
  9
$TRACEWID
 40
1.0
  9
$TEXTSTYLE
  7
ROMANS
  9
$CLAYER
  8
COTATION1
  9
$CELTYPE
  6
BYLAYER
  9
$CECOLOR
 62
   256
  9
$DIMSCALE
 40
1.0
  9
$DIMASZ
 40
5.0
  9
$DIMEXO
 40
2.0
  9
$DIMDLI
 40
0.38
  9
$DIMRND
 40
0.0
  9
$DIMDLE
 40
0.0
  9
$DIMEXE
 40
2.5
  9
$DIMTP
 40
0.0
  9
$DIMTM
 40
0.0
  9
$DIMTXT
 40
2.5
  9
$DIMCEN
 40
0.0
  9
$DIMTSZ
 40
0.0
  9
$DIMTOL
 70
     0
  9
$DIMLIM
 70
     0
  9
$DIMTIH
 70
     1
  9
$DIMTOH
 70
     1
  9
$DIMSE1
 70
     0
  9
$DIMSE2
 70
     0
  9
$DIMTAD
 70
     1
  9
$DIMZIN
 70
    12
  9
$DIMBLK
  1
OPEN30
  9
$DIMASO
 70
     1
  9
$DIMSHO
 70
     1
  9
$DIMPOST
  1

  9
$DIMAPOST
  1

  9
$DIMALT
 70
     0
  9
$DIMALTD
 70
     2
  9
$DIMALTF
 40
25.4
  9
$DIMLFAC
 40
1.0
  9
$DIMTOFL
 70
     0
  9
$DIMTVP
 40
0.0
  9
$DIMTIX
 70
     0
  9
$DIMSOXD
 70
     0
  9
$DIMSAH
 70
     0
  9
$DIMBLK1
  1

  9
$DIMBLK2
  1

  9
$DIMSTYLE
  2
SC_DEFAUT
  9
$DIMCLRD
 70
     0
  9
$DIMCLRE
 70
     0
  9
$DIMCLRT
 70
     0
  9
$DIMTFAC
 40
1.0
  9
$DIMGAP
 40
2.0
  9
$LUNITS
 70
     2
  9
$LUPREC
 70
     1
  9
$SKETCHINC
 40
0.1
  9
$FILLETRAD
 40
0.0
  9
$AUNITS
 70
     0
  9
$AUPREC
 70
     0
  9
$MENU
  1
acad
  9
$ELEVATION
 40
0.0
  9
$PELEVATION
 40
0.0
  9
$THICKNESS
 40
0.0
  9
$LIMCHECK
 70
     0
  9
$BLIPMODE
 70
     0
  9
$CHAMFERA
 40
0.0
  9
$CHAMFERB
 40
0.0
  9
$SKPOLY
 70
     0
  9
$TDCREATE
 40
2450373.687919
  9
$TDUPDATE
 40
2453034.410862
  9
$TDINDWG
 40
0.893206
  9
$TDUSRTIMER
 40
0.893206
  9
$USRTIMER
 70
     1
  9
$ANGBASE
 50
0.0
  9
$ANGDIR
 70
     0
  9
$PDMODE
 70
    32
  9
$PDSIZE
 40
0.0
  9
$PLINEWID
 40
0.0
  9
$COORDS
 70
     1
  9
$SPLFRAME
 70
     0
  9
$SPLINETYPE
 70
     6
  9
$SPLINESEGS
 70
     8
  9
$ATTDIA
 70
     0
  9
$ATTREQ
 70
     1
  9
$HANDLING
 70
     1
  9
$HANDSEED
  5
9043
  9
$SURFTAB1
 70
     6
  9
$SURFTAB2
 70
     6
  9
$SURFTYPE
 70
     6
  9
$SURFU
 70
     6
  9
$SURFV
 70
     6
  9
$UCSNAME
  2

  9
$UCSORG
 10
0.0
 20
0.0
 30
0.0
  9
$UCSXDIR
 10
1.0
 20
0.0
 30
0.0
  9
$UCSYDIR
 10
0.0
 20
1.0
 30
0.0
  9
$PUCSNAME
  2

  9
$PUCSORG
 10
0.0
 20
0.0
 30
0.0
  9
$PUCSXDIR
 10
1.0
 20
0.0
 30
0.0
  9
$PUCSYDIR
 10
0.0
 20
1.0
 30
0.0
  9
$USERI1
 70
     0
  9
$USERI2
 70
     0
  9
$USERI3
 70
     0
  9
$USERI4
 70
     0
  9
$USERI5
 70
     0
  9
$USERR1
 40
0.0
  9
$USERR2
 40
0.0
  9
$USERR3
 40
0.0
  9
$USERR4
 40
0.0
  9
$USERR5
 40
0.0
  9
$WORLDVIEW
 70
     1
  9
$SHADEDGE
 70
     3
  9
$SHADEDIF
 70
    70
  9
$TILEMODE
 70
     1
  9
$MAXACTVP
 70
    16
  9
$PLIMCHECK
 70
     0
  9
$PEXTMIN
 10
-1.452248
 20
-0.437698
 30
0.0
  9
$PEXTMAX
 10
12.749749
 20
8.310198
 30
0.0
  9
$PLIMMIN
 10
0.0
 20
0.0
  9
$PLIMMAX
 10
12.0
 20
9.0
  9
$UNITMODE
 70
     0
  9
$VISRETAIN
 70
     0
  9
$PLINEGEN
 70
     0
  9
$PSLTSCALE
 70
     0
  0
ENDSEC
  0
SECTION
  2
TABLES
  0
TABLE
  2
VPORT
 70
     2
  0
VPORT
  2
*ACTIVE
 70
     0
 10
0.0
 20
0.0
 11
1.0
 21
1.0
 12
44.185684
 22
91.042496
 13
0.0
 23
0.0
 14
1.0
 24
1.0
 15
10.0
 25
10.0
 16
0.0
 26
0.0
 36
1.0
 17
0.0
 27
0.0
 37
0.0
 40
54.009714
 41
1.466346
 42
50.0
 43
0.0
 44
0.0
 50
0.0
 51
0.0
 71
     0
 72
   100
 73
     1
 74
     0
 75
     0
 76
     0
 77
     0
 78
     0
  0
ENDTAB
  0
TABLE
  2
LTYPE
 70
     2
  0
LTYPE
  2
CONTINUOUS
 70
     0
  3
Solid line
 72
    65
 73
     0
 40
0.0
  0
LTYPE
  2
AXES2
 70
     0
  3
___ _ ___ _ ___ _ ___ _ ___ _ ___ _ ___ _ ___ _
 72
    65
 73
     4
 40
1.125
 49
0.75
 49
-0.125
 49
0.125
 49
-0.125
  0
ENDTAB
  0
TABLE
  2
LAYER
 70
     5
  0
LAYER
  2
0
 70
     0
 62
   255
  6
CONTINUOUS
  0
LAYER
  2
COTATION1
 70
     0
 62
     2
  6
CONTINUOUS
  0
LAYER
  2
AXE
 70
     0
 62
    80
  6
AXES2
  0
LAYER
  2
DEFPOINTS
 70
     0
 62
     7
  6
CONTINUOUS
  0
LAYER
  2
ALPHA
 70
     0
 62
   254
  6
CONTINUOUS
  0
ENDTAB
  0
TABLE
  2
STYLE
 70
     2
  0
STYLE
  2
ROMANS
 70
     0
 40
0.0
 41
1.0
 50
0.0
 71
     0
 42
6.0
  3
romans
  4

  0
STYLE
  2
STANDARD
 70
     0
 40
0.0
 41
1.0
 50
0.0
 71
     0
 42
0.2
  3
txt
  4

  0
ENDTAB
  0
TABLE
  2
VIEW
 70
     0
  0
ENDTAB
  0
TABLE
  2
UCS
 70
     0
  0
ENDTAB
  0
TABLE
  2
APPID
 70
     1
  0
APPID
  2
ACAD
 70
     0
  0
ENDTAB
  0
TABLE
  2
DIMSTYLE
 70
     2
  0
DIMSTYLE
  2
SC_DEFAUT
 70
     0
  3

  4

  5
OPEN30
  6

  7

 40
1.0
 41
5.0
 42
2.0
 43
0.38
 44
2.5
 45
0.0
 46
0.0
 47
0.0
 48
0.0
140
2.5
141
0.0
142
0.0
143
25.4
144
1.0
145
0.0
146
1.0
147
2.0
 71
     0
 72
     0
 73
     1
 74
     1
 75
     0
 76
     0
 77
     1
 78
    12
170
     0
171
     2
172
     0
173
     0
174
     0
175
     0
176
     0
177
     0
178
     0
  0
DIMSTYLE
  2
STANDARD
 70
     0
  3

  4

  5

  6

  7

 40
1.0
 41
0.18
 42
0.0625
 43
0.38
 44
0.18
 45
0.0
 46
0.0
 47
0.0
 48
0.0
140
0.18
141
0.09
142
0.0
143
25.4
144
1.0
145
0.0
146
1.0
147
0.09
 71
     0
 72
     0
 73
     1
 74
     1
 75
     0
 76
     0
 77
     0
 78
     0
170
     0
171
     2
172
     0
173
     0
174
     0
175
     0
176
     0
177
     0
178
     0
  0
ENDTAB
  0
ENDSEC
  0
SECTION
  2
BLOCKS
  0
BLOCK
  8
0
  2
$MODEL_SPACE
 70
     0
 10
0.0
 20
0.0
 30
0.0
  3
$MODEL_SPACE
  1

  0
ENDBLK
  5
903C
  8
0
  0
BLOCK
 67
     1
  8
0
  2
$PAPER_SPACE
 70
     0
 10
0.0
 20
0.0
 30
0.0
  3
$PAPER_SPACE
  1

  0
ENDBLK
  5
903A
 67
     1
  8
0
  0
BLOCK
  8
0
  2
COTE
 70
     0
 10
0.0
 20
0.0
 30
0.0
  3
COTE
  1

  0
ENDBLK
  5
F
  8
0
  0
BLOCK
  8
0
  2
FOND
 70
     0
 10
0.0
 20
0.0
 30
0.0
  3
FOND
  1

  0
ENDBLK
  5
75
  8
0
  0
BLOCK
  8
0
  2
_OPEN30
 70
     0
 10
0.0
 20
0.0
 30
0.0
  3
_OPEN30
  1

  0
LINE
  5
4B05
  8
COTATION1
 62
     0
 10
-1.0
 20
0.267949
 30
0.0
 11
0.0
 21
0.0
 31
0.0
1001
ACAD
1000
RTLwPs
1070
   158
  0
LINE
  5
4B06
  8
COTATION1
 62
     0
 10
0.0
 20
0.0
 30
0.0
 11
-1.0
 21
-0.267949
 31
0.0
1001
ACAD
1000
RTLwPs
1070
   158
  0
LINE
  5
4B07
  8
COTATION1
 62
     0
 10
0.0
 20
0.0
 30
0.0
 11
-1.0
 21
0.0
 31
0.0
1001
ACAD
1000
RTLwPs
1070
   158
  0
ENDBLK
  5
4B09
  8
0
  0
BLOCK
  8
0
  2
*D3
 70
     1
 10
0.0
 20
0.0
 30
0.0
  3
*D3
  1

  0
LINE
  5
8FC5
  8
COTATION1
 62
     0
 10
43.879661
 20
86.977385
 30
0.0
 11
43.879661
 21
106.527385
 31
0.0
1001
ACAD
1000
RTLwPs
1070
   158
  0
LINE
  5
8FC6
  8
COTATION1
 62
     0
 10
59.879661
 20
86.977385
 30
0.0
 11
59.879661
 21
106.527385
 31
0.0
1001
ACAD
1000
RTLwPs
1070
   158
  0
LINE
  5
8FC7
  8
COTATION1
 62
     0
 10
48.879661
 20
104.027385
 30
0.0
 11
54.879661
 21
104.027385
 31
0.0
1001
ACAD
1000
RTLwPs
1070
   158
  0
INSERT
  5
8FC8
  8
COTATION1
 62
     0
  2
_OPEN30
 10
43.879661
 20
104.027385
 30
0.0
 41
5.0
 42
5.0
 43
5.0
 50
180.0
1001
ACAD
1000
RTLwPs
1070
   158
  0
INSERT
  5
8FC9
  8
COTATION1
 62
     0
  2
_OPEN30
 10
59.879661
 20
104.027385
 30
0.0
 41
5.0
 42
5.0
 43
5.0
1001
ACAD
1000
RTLwPs
1070
   158
  0
TEXT
  5
8FCA
  8
COTATION1
 62
     0
 10
48.486804
 20
106.027385
 30
0.0
 40
2.5
  1
%%c
1001
ACAD
1000
MTEXTBEGIN
1070
    73
1070
     1
1070
    44
1040
1.0
1070
    74
1070
     0
1000
MTEXTEND
  0
TEXT
  5
900C
  8
COTATION1
 62
     0
 10
50.748709
 20
106.027385
 30
0.0
 40
2.5
  1
16
1001
ACAD
1000
R13OBJECT
1002
{
1005
8FCA
1002
}
  0
POINT
  5
8FCB
  8
DEFPOINTS
 62
     0
 10
43.879661
 20
84.977385
 30
0.0
  0
POINT
  5
8FCC
  8
DEFPOINTS
 62
     0
 10
59.879661
 20
84.977385
 30
0.0
  0
POINT
  5
8FCD
  8
DEFPOINTS
 62
     0
 10
59.879661
 20
104.027385
 30
0.0
  0
ENDBLK
  5
7F3E
  8
0
  0
BLOCK
  8
0
  2
*D4
 70
     1
 10
0.0
 20
0.0
 30
0.0
  3
*D4
  1

  0
LINE
  5
8E56
  8
COTATION1
 62
     0
 10
49.879661
 20
94.027385
 30
0.0
 11
28.237846
 21
94.027385
 31
0.0
1001
ACAD
1000
RTLwPs
1070
   158
  0
LINE
  5
8E57
  8
COTATION1
 62
     0
 10
41.879661
 20
83.977385
 30
0.0
 11
28.237846
 21
83.977385
 31
0.0
1001
ACAD
1000
RTLwPs
1070
   158
  0
LINE
  5
8E58
  8
COTATION1
 62
     0
 10
30.737846
 20
99.027385
 30
0.0
 11
30.737846
 21
104.027385
 31
0.0
1001
ACAD
1000
RTLwPs
1070
   158
  0
LINE
  5
8E59
  8
COTATION1
 62
     0
 10
30.737846
 20
78.977385
 30
0.0
 11
30.737846
 21
73.977385
 31
0.0
1001
ACAD
1000
RTLwPs
1070
   158
  0
INSERT
  5
8E5A
  8
COTATION1
 62
     0
  2
_OPEN30
 10
30.737846
 20
94.027385
 30
0.0
 41
5.0
 42
5.0
 43
5.0
 50
270.0
1001
ACAD
1000
RTLwPs
1070
   158
  0
INSERT
  5
8E5B
  8
COTATION1
 62
     0
  2
_OPEN30
 10
30.737846
 20
83.977385
 30
0.0
 41
5.0
 42
5.0
 43
5.0
 50
90.0
1001
ACAD
1000
RTLwPs
1070
   158
  0
TEXT
  5
8E5C
  8
COTATION1
 62
     0
 10
26.74975
 20
87.752385
 30
0.0
 40
2.5
  1
10.1
1001
ACAD
1000
MTEXTBEGIN
1070
    73
1070
     1
1070
    44
1040
1.0
1070
    74
1070
     0
1000
MTEXTEND
  0
POINT
  5
8E5D
  8
DEFPOINTS
 62
     0
 10
51.879661
 20
94.027385
 30
0.0
  0
POINT
  5
8E5E
  8
DEFPOINTS
 62
     0
 10
43.879661
 20
83.977385
 30
0.0
  0
POINT
  5
8E5F
  8
DEFPOINTS
 62
     0
 10
30.737846
 20
83.977385
 30
0.0
  0
ENDBLK
  5
7F4B
  8
0
  0
BLOCK
  8
0
  2
*D5
 70
     1
 10
0.0
 20
0.0
 30
0.0
  3
*D5
  1

  0
LINE
  5
8F7D
  8
COTATION1
 62
     0
 10
59.729661
 20
75.677385
 30
0.0
 11
82.379661
 21
75.677385
 31
0.0
1001
ACAD
1000
RTLwPs
1070
   158
  0
LINE
  5
8F7E
  8
COTATION1
 62
     0
 10
53.879661
 20
94.027385
 30
0.0
 11
82.379661
 21
94.027385
 31
0.0
1001
ACAD
1000
RTLwPs
1070
   158
  0
LINE
  5
8F7F
  8
COTATION1
 62
     0
 10
79.879661
 20
80.677385
 30
0.0
 11
79.879661
 21
81.602385
 31
0.0
1001
ACAD
1000
RTLwPs
1070
   158
  0
LINE
  5
8F80
  8
COTATION1
 62
     0
 10
79.879661
 20
89.027385
 30
0.0
 11
79.879661
 21
88.102385
 31
0.0
1001
ACAD
1000
RTLwPs
1070
   158
  0
TEXT
  5
8F81
  8
COTATION1
 62
     0
 10
75.474899
 20
83.602385
 30
0.0
 40
2.5
  1
18.4
1001
ACAD
1000
MTEXTBEGIN
1070
    73
1070
     1
1070
    44
1040
1.0
1070
    74
1070
     0
1000
MTEXTEND
  0
INSERT
  5
8F82
  8
COTATION1
 62
     0
  2
_OPEN30
 10
79.879661
 20
75.677385
 30
0.0
 41
5.0
 42
5.0
 43
5.0
 50
270.0
1001
ACAD
1000
RTLwPs
1070
   158
  0
INSERT
  5
8F83
  8
COTATION1
 62
     0
  2
_OPEN30
 10
79.879661
 20
94.027385
 30
0.0
 41
5.0
 42
5.0
 43
5.0
 50
90.0
1001
ACAD
1000
RTLwPs
1070
   158
  0
POINT
  5
8F84
  8
DEFPOINTS
 62
     0
 10
57.729661
 20
75.677385
 30
0.0
  0
POINT
  5
8F85
  8
DEFPOINTS
 62
     0
 10
51.879661
 20
94.027385
 30
0.0
  0
POINT
  5
8F86
  8
DEFPOINTS
 62
     0
 10
79.879661
 20
94.027385
 30
0.0
  0
ENDBLK
  5
8F71
  8
0
  0
ENDSEC
  0
SECTION
  2
ENTITIES
  0
INSERT
  5
A
  8
0
  2
COTE
 10
0.0
 20
0.0
 30
0.0
  0
INSERT
  5
17
  8
0
  2
COTE
 10
284.010391
 20
6.373258
 30
0.0
  0
INSERT
  5
72
  8
0
  2
FOND
 10
0.0
 20
0.0
 30
0.0
  0
DIMENSION
  5
7F30
  8
COTATION1
  2
*D3
 10
59.879661
 20
104.027385
 30
0.0
 11
51.879661
 21
107.277385
 31
0.0
  1
%%c<>
 13
43.879661
 23
84.977385
 33
0.0
 14
59.879661
 24
84.977385
 34
0.0
  0
DIMENSION
  5
7F31
  8
COTATION1
  2
*D4
 10
30.737846
 20
83.977385
 30
0.0
 11
30.737846
 21
89.002385
 31
0.0
 13
51.879661
 23
94.027385
 33
0.0
 14
43.879661
 24
83.977385
 34
0.0
 50
90.0
  0
LINE
  5
8AD3
  8
AXE
 10
51.879661
 20
65.677385
 30
0.0
 11
51.879661
 21
99.027385
 31
0.0
  0
TEXT
  5
8AD4
  8
AXE
 10
46.832042
 20
65.677385
 30
0.0
 40
5.0
  1
Y
 72
     2
 11
50.879661
 21
65.677385
 31
0.0
  0
LINE
  5
8AD5
  8
AXE
 10
38.879661
 20
82.922385
 30
0.0
 11
69.879661
 21
82.922385
 31
0.0
  0
TEXT
  5
8AD6
  8
AXE
 10
65.832042
 20
83.922385
 30
0.0
 40
5.0
  1
X
 72
     2
 11
69.879661
 21
83.922385
 31
0.0
  0
LINE
  5
8B73
  8
COTATION1
 10
18.077094
 20
86.477385
 30
0.0
 11
18.077094
 21
111.436307
 31
0.0
  0
LINE
  5
8B74
  8
COTATION1
 10
9.976741
 20
83.977385
 30
0.0
 11
42.879661
 21
83.977385
 31
0.0
  0
SOLID
  5
8B75
  8
COTATION1
 10
19.520469
 20
83.977385
 30
0.0
 11
16.633718
 21
83.977385
 31
0.0
 12
18.077094
 22
86.477385
 32
0.0
 13
18.077094
 23
86.477385
 33
0.0
  0
LINE
  5
8B76
  8
COTATION1
 10
4.827094
 20
116.436307
 30
0.0
 11
31.327094
 21
116.436307
 31
0.0
  0
LINE
  5
8B77
  8
COTATION1
 10
31.327094
 20
111.436307
 30
0.0
 11
4.827094
 21
111.436307
 31
0.0
  0
TEXT
  5
8B78
  8
COTATION1
 10
6.077094
 20
112.686307
 30
0.0
 40
2.5
  1
PLANE_TO_LINE_UP
 41
0.626087
  7
STANDARD
 72
     5
 11
30.077094
 21
112.686307
 31
0.0
  0
LINE
  5
8B79
  8
COTATION1
 10
31.327094
 20
116.436307
 30
0.0
 11
31.327094
 21
111.436307
 31
0.0
  0
LINE
  5
8B7A
  8
COTATION1
 10
4.827094
 20
111.436307
 30
0.0
 11
4.827094
 21
116.436307
 31
0.0
  0
LINE
  5
8CDC
  8
ALPHA
 10
59.879661
 20
84.977385
 30
0.0
 11
59.379661
 21
85.477385
 31
0.0
  0
LINE
  5
8CDD
  8
ALPHA
 10
43.879661
 20
84.977385
 30
0.0
 11
44.379661
 21
85.477385
 31
0.0
  0
LINE
  5
8CE4
  8
ALPHA
 10
43.879661
 20
84.977385
 30
0.0
 11
59.879661
 21
84.977385
 31
0.0
  0
LINE
  5
8CE5
  8
ALPHA
 10
43.879661
 20
83.977385
 30
0.0
 11
59.879661
 21
83.977385
 31
0.0
  0
LINE
  5
8CE6
  8
ALPHA
 10
58.579595
 20
81.867385
 30
0.0
 11
45.179728
 21
81.867385
 31
0.0
  0
LINE
  5
8CE7
  8
ALPHA
 10
58.229661
 20
80.527385
 30
0.0
 11
45.529661
 21
80.527385
 31
0.0
  0
LINE
  5
8CE8
  8
ALPHA
 10
58.229661
 20
79.377385
 30
0.0
 11
45.529661
 21
79.377385
 31
0.0
  0
LINE
  5
8CE9
  8
ALPHA
 10
57.879661
 20
78.377385
 30
0.0
 11
45.879661
 21
78.377385
 31
0.0
  0
LINE
  5
8CEA
  8
ALPHA
 10
45.529661
 20
78.177385
 30
0.0
 11
58.229661
 21
78.177385
 31
0.0
  0
LINE
  5
8CEB
  8
ALPHA
 10
45.529661
 20
76.177385
 30
0.0
 11
58.229661
 21
76.177385
 31
0.0
  0
LINE
  5
8CEC
  8
ALPHA
 10
57.729661
 20
75.677385
 30
0.0
 11
46.029661
 21
75.677385
 31
0.0
  0
LINE
  5
8CED
  8
ALPHA
 10
45.529661
 20
80.527385
 30
0.0
 11
45.529661
 21
79.377385
 31
0.0
  0
ARC
  5
8CEE
  8
ALPHA
 10
45.879661
 20
78.877385
 30
0.0
 40
0.5
 50
90.0
 51
270.0
  0
ARC
  5
8CEF
  8
ALPHA
 10
46.029661
 20
76.177385
 30
0.0
 40
0.5
 50
180.0
 51
270.0
  0
ARC
  5
8CF0
  8
ALPHA
 10
45.979661
 20
78.477385
 30
0.0
 40
0.3
 50
270.000017
 51
340.4299
  0
LINE
  5
8CF1
  8
ALPHA
 10
45.529661
 20
78.177385
 30
0.0
 11
45.529661
 21
76.177385
 31
0.0
  0
LINE
  5
8CF2
  8
ALPHA
 10
45.179661
 20
81.867385
 30
0.0
 11
45.179661
 21
83.977385
 31
0.0
  0
LINE
  5
8CF3
  8
ALPHA
 10
43.879661
 20
83.977385
 30
0.0
 11
43.879661
 21
84.977385
 31
0.0
  0
LINE
  5
8CF4
  8
ALPHA
 10
46.379661
 20
81.867385
 30
0.0
 11
46.379661
 21
80.527385
 31
0.0
  0
LINE
  5
8CFA
  8
ALPHA
 10
49.353274
 20
81.867385
 30
0.0
 11
49.353274
 21
83.977385
 31
0.0
  0
LINE
  5
8CFB
  8
ALPHA
 10
49.144226
 20
81.867385
 30
0.0
 11
49.144226
 21
83.977385
 31
0.0
  0
LINE
  5
8CFC
  8
ALPHA
 10
48.951942
 20
81.867385
 30
0.0
 11
48.951942
 21
83.977385
 31
0.0
  0
LINE
  5
8CFD
  8
ALPHA
 10
48.83126
 20
81.867385
 30
0.0
 11
48.83126
 21
83.977385
 31
0.0
  0
LINE
  5
8CFE
  8
ALPHA
 10
48.807012
 20
81.867385
 30
0.0
 11
48.807012
 21
83.977385
 31
0.0
  0
LINE
  5
8CFF
  8
ALPHA
 10
48.702057
 20
81.867385
 30
0.0
 11
48.702057
 21
83.977385
 31
0.0
  0
LINE
  5
8D00
  8
ALPHA
 10
51.507705
 20
83.977385
 30
0.0
 11
51.507705
 21
81.867385
 31
0.0
  0
LINE
  5
8D01
  8
ALPHA
 10
51.209028
 20
81.867385
 30
0.0
 11
51.209028
 21
83.977385
 31
0.0
  0
LINE
  5
8D02
  8
ALPHA
 10
51.017036
 20
81.867385
 30
0.0
 11
51.017036
 21
83.977385
 31
0.0
  0
LINE
  5
8D03
  8
ALPHA
 10
50.81069
 20
81.867385
 30
0.0
 11
50.81069
 21
83.977385
 31
0.0
  0
LINE
  5
8D04
  8
ALPHA
 10
50.648837
 20
81.867385
 30
0.0
 11
50.648837
 21
83.977385
 31
0.0
  0
LINE
  5
8D05
  8
ALPHA
 10
50.48168
 20
81.867385
 30
0.0
 11
50.48168
 21
83.977385
 31
0.0
  0
LINE
  5
8D06
  8
ALPHA
 10
50.336987
 20
81.867385
 30
0.0
 11
50.336987
 21
83.977385
 31
0.0
  0
LINE
  5
8D07
  8
ALPHA
 10
49.955666
 20
83.977385
 30
0.0
 11
49.955666
 21
81.867385
 31
0.0
  0
LINE
  5
8D08
  8
ALPHA
 10
49.763115
 20
83.977385
 30
0.0
 11
49.763115
 21
81.867385
 31
0.0
  0
LINE
  5
8D09
  8
ALPHA
 10
53.422336
 20
83.977385
 30
0.0
 11
53.422336
 21
81.867385
 31
0.0
  0
LINE
  5
8D0A
  8
ALPHA
 10
53.277642
 20
83.977385
 30
0.0
 11
53.277642
 21
81.867385
 31
0.0
  0
LINE
  5
8D0B
  8
ALPHA
 10
53.110485
 20
81.867385
 30
0.0
 11
53.110485
 21
83.977385
 31
0.0
  0
LINE
  5
8D0C
  8
ALPHA
 10
52.948632
 20
81.867385
 30
0.0
 11
52.948632
 21
83.977385
 31
0.0
  0
LINE
  5
8D0D
  8
ALPHA
 10
52.742286
 20
81.867385
 30
0.0
 11
52.742286
 21
83.977385
 31
0.0
  0
LINE
  5
8D0E
  8
ALPHA
 10
52.550294
 20
81.867385
 30
0.0
 11
52.550294
 21
83.977385
 31
0.0
  0
LINE
  5
8D0F
  8
ALPHA
 10
52.251618
 20
81.867385
 30
0.0
 11
52.251618
 21
83.977385
 31
0.0
  0
LINE
  5
8D10
  8
ALPHA
 10
52.077047
 20
81.867385
 30
0.0
 11
52.077047
 21
83.977385
 31
0.0
  0
LINE
  5
8D11
  8
ALPHA
 10
51.682275
 20
83.977385
 30
0.0
 11
51.682275
 21
81.867385
 31
0.0
  0
LINE
  5
8D12
  8
ALPHA
 10
55.057266
 20
83.977385
 30
0.0
 11
55.057266
 21
81.867385
 31
0.0
  0
LINE
  5
8D13
  8
ALPHA
 10
54.95231
 20
83.977385
 30
0.0
 11
54.95231
 21
81.867385
 31
0.0
  0
LINE
  5
8D14
  8
ALPHA
 10
54.928063
 20
81.867385
 30
0.0
 11
54.928063
 21
83.977385
 31
0.0
  0
LINE
  5
8D15
  8
ALPHA
 10
54.80738
 20
81.867385
 30
0.0
 11
54.80738
 21
83.977385
 31
0.0
  0
LINE
  5
8D16
  8
ALPHA
 10
54.615097
 20
81.867385
 30
0.0
 11
54.615097
 21
83.977385
 31
0.0
  0
LINE
  5
8D17
  8
ALPHA
 10
54.406048
 20
81.867385
 30
0.0
 11
54.406048
 21
83.977385
 31
0.0
  0
LINE
  5
8D18
  8
ALPHA
 10
53.996207
 20
81.867385
 30
0.0
 11
53.996207
 21
83.977385
 31
0.0
  0
LINE
  5
8D19
  8
ALPHA
 10
53.803656
 20
81.867385
 30
0.0
 11
53.803656
 21
83.977385
 31
0.0
  0
LINE
  5
8D1A
  8
ALPHA
 10
58.229661
 20
80.527385
 30
0.0
 11
58.229661
 21
79.377385
 31
0.0
  0
ARC
  5
8D1B
  8
ALPHA
 10
57.779661
 20
78.477385
 30
0.0
 40
0.3
 50
199.5701
 51
269.999983
  0
ARC
  5
8D1C
  8
ALPHA
 10
57.729661
 20
76.177385
 30
0.0
 40
0.5
 50
270.0
 51
0.0
  0
ARC
  5
8D1D
  8
ALPHA
 10
57.879661
 20
78.877385
 30
0.0
 40
0.5
 50
270.0
 51
90.0
  0
LINE
  5
8D1E
  8
ALPHA
 10
58.229661
 20
78.177385
 30
0.0
 11
58.229661
 21
76.177385
 31
0.0
  0
LINE
  5
8D1F
  8
ALPHA
 10
57.379661
 20
81.867385
 30
0.0
 11
57.379661
 21
80.527385
 31
0.0
  0
LINE
  5
8D20
  8
ALPHA
 10
58.579661
 20
81.867385
 30
0.0
 11
58.579661
 21
83.977385
 31
0.0
  0
LINE
  5
8D21
  8
ALPHA
 10
59.879661
 20
83.977385
 30
0.0
 11
59.879661
 21
84.977385
 31
0.0
  0
LINE
  5
8D22
  8
ALPHA
 10
57.880709
 20
87.697385
 30
0.0
 11
45.878613
 21
87.697385
 31
0.0
  0
LINE
  5
8D23
  8
ALPHA
 10
58.023435
 20
87.593738
 30
0.0
 11
45.735888
 21
87.593738
 31
0.0
  0
LINE
  5
8D24
  8
ALPHA
 10
58.315862
 20
86.693738
 30
0.0
 11
45.44346
 21
86.693738
 31
0.0
  0
LINE
  5
8D25
  8
ALPHA
 10
58.173134
 20
86.497385
 30
0.0
 11
45.586188
 21
86.497385
 31
0.0
  0
LINE
  5
8D26
  8
ALPHA
 10
44.379661
 20
85.477385
 30
0.0
 11
59.379661
 21
85.477385
 31
0.0
  0
ARC
  5
8D27
  8
ALPHA
 10
45.586118
 20
86.647385
 30
0.0
 40
0.15
 50
161.999997
 51
270.0
  0
ARC
  5
8D28
  8
ALPHA
 10
45.878546
 20
87.547385
 30
0.0
 40
0.15
 50
90.0
 51
162.0
  0
LINE
  5
8D29
  8
ALPHA
 10
45.879661
 20
85.477385
 30
0.0
 11
46.211079
 21
86.497385
 31
0.0
  0
LINE
  5
8D2A
  8
ALPHA
 10
45.44346
 20
86.693738
 30
0.0
 11
45.735888
 21
87.593738
 31
0.0
  0
LINE
  5
8D2B
  8
ALPHA
 10
52.879661
 20
94.027385
 30
0.0
 11
50.879661
 21
94.027385
 31
0.0
  0
LINE
  5
8D2C
  8
ALPHA
 10
48.546328
 20
93.831571
 30
0.0
 11
55.212994
 21
93.831571
 31
0.0
  0
LINE
  5
8D2D
  8
ALPHA
 10
48.379661
 20
93.634369
 30
0.0
 11
55.379661
 21
93.634369
 31
0.0
  0
LINE
  5
8D2E
  8
ALPHA
 10
48.379661
 20
87.697385
 30
0.0
 11
48.379661
 21
93.634369
 31
0.0
  0
ARC
  5
8D2F
  8
ALPHA
 10
50.879661
 20
80.027385
 30
0.0
 40
14.0
 50
90.0
 51
99.594068
  0
ARC
  5
8D30
  8
ALPHA
 10
48.579661
 20
93.634369
 30
0.0
 40
0.2
 50
99.594068
 51
180.0
  0
LINE
  5
8D31
  8
ALPHA
 10
55.379661
 20
87.697385
 30
0.0
 11
55.379661
 21
93.634369
 31
0.0
  0
ARC
  5
8D32
  8
ALPHA
 10
52.879661
 20
80.027385
 30
0.0
 40
14.0
 50
80.405932
 51
90.0
  0
ARC
  5
8D33
  8
ALPHA
 10
55.179661
 20
93.634369
 30
0.0
 40
0.2
 50
0.0
 51
80.405932
  0
LINE
  5
8D34
  8
ALPHA
 10
57.879661
 20
85.477385
 30
0.0
 11
57.548243
 21
86.497385
 31
0.0
  0
ARC
  5
8D35
  8
ALPHA
 10
57.880776
 20
87.547385
 30
0.0
 40
0.15
 50
18.0
 51
90.0
  0
ARC
  5
8D36
  8
ALPHA
 10
58.173204
 20
86.647385
 30
0.0
 40
0.15
 50
270.0
 51
18.000003
  0
LINE
  5
8D37
  8
ALPHA
 10
58.315862
 20
86.693738
 30
0.0
 11
58.023435
 21
87.593738
 31
0.0
  0
DIMENSION
  5
8F65
  8
COTATION1
  2
*D5
 10
79.879661
 20
94.027385
 30
0.0
 11
79.879661
 21
84.852385
 31
0.0
 70
   128
 13
57.729661
 23
75.677385
 33
0.0
 14
51.879661
 24
94.027385
 34
0.0
 50
90.0
  0
VIEWPORT
  5
494D
 67
     1
  8
0
 10
4.995325
 20
6.556512
 30
0.0
 40
22.70986
 41
13.988421
 68
    -1
 69
     1
1001
ACAD
1000
MVIEW
1002
{
1070
    16
1010
0.0
1020
0.0
1030
0.0
1010
0.0
1020
0.0
1030
1.0
1040
0.0
1040
13.988421
1040
4.995325
1040
6.556512
1040
50.0
1040
0.0
1040
0.0
1070
     0
1070
   100
1070
     1
1070
     1
1070
     0
1070
     0
1070
     0
1070
     0
1040
0.0
1040
0.0
1040
0.0
1040
10.0
1040
10.0
1040
10.0
1040
10.0
1070
     0
1002
{
1002
}
1002
}
  0
ENDSEC
  0
EOF
