  0
SECTION
  2
HEADER
  9
$ACADVER
  1
AC1009
  9
$INSBASE
 10
402.590624
 20
-1.041018
 30
0.0
  9
$EXTMIN
 10
-9.883174
 20
-0.193004
 30
0.0
  9
$EXTMAX
 10
88.939823
 20
153.771301
 30
0.0
  9
$LIMMIN
 10
-407.970438
 20
-367.832444
  9
$LIMMAX
 10
429.804077
 20
234.370848
  9
$ORTHOMODE
 70
     1
  9
$REGENMODE
 70
     1
  9
$FILLMODE
 70
     1
  9
$QTEXTMODE
 70
     0
  9
$MIRRTEXT
 70
     1
  9
$DRAGMODE
 70
     2
  9
$LTSCALE
 40
10.0
  9
$OSMODE
 70
    35
  9
$ATTMODE
 70
     1
  9
$TEXTSIZE
 40
6.0
  9
$TRACEWID
 40
1.0
  9
$TEXTSTYLE
  7
ROMANS
  9
$CLAYER
  8
ALPHA
  9
$CELTYPE
  6
BYLAYER
  9
$CECOLOR
 62
   256
  9
$DIMSCALE
 40
1.0
  9
$DIMASZ
 40
5.0
  9
$DIMEXO
 40
2.0
  9
$DIMDLI
 40
0.38
  9
$DIMRND
 40
0.0
  9
$DIMDLE
 40
0.0
  9
$DIMEXE
 40
2.5
  9
$DIMTP
 40
0.0
  9
$DIMTM
 40
0.0
  9
$DIMTXT
 40
2.5
  9
$DIMCEN
 40
0.0
  9
$DIMTSZ
 40
0.0
  9
$DIMTOL
 70
     0
  9
$DIMLIM
 70
     0
  9
$DIMTIH
 70
     1
  9
$DIMTOH
 70
     1
  9
$DIMSE1
 70
     0
  9
$DIMSE2
 70
     0
  9
$DIMTAD
 70
     1
  9
$DIMZIN
 70
    12
  9
$DIMBLK
  1
OPEN30
  9
$DIMASO
 70
     1
  9
$DIMSHO
 70
     1
  9
$DIMPOST
  1

  9
$DIMAPOST
  1

  9
$DIMALT
 70
     0
  9
$DIMALTD
 70
     2
  9
$DIMALTF
 40
25.4
  9
$DIMLFAC
 40
1.0
  9
$DIMTOFL
 70
     0
  9
$DIMTVP
 40
0.0
  9
$DIMTIX
 70
     0
  9
$DIMSOXD
 70
     0
  9
$DIMSAH
 70
     0
  9
$DIMBLK1
  1

  9
$DIMBLK2
  1

  9
$DIMSTYLE
  2
SC_DEFAUT
  9
$DIMCLRD
 70
     0
  9
$DIMCLRE
 70
     0
  9
$DIMCLRT
 70
     0
  9
$DIMTFAC
 40
1.0
  9
$DIMGAP
 40
2.0
  9
$LUNITS
 70
     2
  9
$LUPREC
 70
     1
  9
$SKETCHINC
 40
0.1
  9
$FILLETRAD
 40
0.0
  9
$AUNITS
 70
     0
  9
$AUPREC
 70
     0
  9
$MENU
  1
acad
  9
$ELEVATION
 40
0.0
  9
$PELEVATION
 40
0.0
  9
$THICKNESS
 40
0.0
  9
$LIMCHECK
 70
     0
  9
$BLIPMODE
 70
     0
  9
$CHAMFERA
 40
0.0
  9
$CHAMFERB
 40
0.0
  9
$SKPOLY
 70
     0
  9
$TDCREATE
 40
2450373.687919
  9
$TDUPDATE
 40
2453034.408732
  9
$TDINDWG
 40
0.904879
  9
$TDUSRTIMER
 40
0.904879
  9
$USRTIMER
 70
     1
  9
$ANGBASE
 50
0.0
  9
$ANGDIR
 70
     0
  9
$PDMODE
 70
    32
  9
$PDSIZE
 40
0.0
  9
$PLINEWID
 40
0.0
  9
$COORDS
 70
     1
  9
$SPLFRAME
 70
     0
  9
$SPLINETYPE
 70
     6
  9
$SPLINESEGS
 70
     8
  9
$ATTDIA
 70
     0
  9
$ATTREQ
 70
     1
  9
$HANDLING
 70
     1
  9
$HANDSEED
  5
BFB1
  9
$SURFTAB1
 70
     6
  9
$SURFTAB2
 70
     6
  9
$SURFTYPE
 70
     6
  9
$SURFU
 70
     6
  9
$SURFV
 70
     6
  9
$UCSNAME
  2

  9
$UCSORG
 10
0.0
 20
0.0
 30
0.0
  9
$UCSXDIR
 10
1.0
 20
0.0
 30
0.0
  9
$UCSYDIR
 10
0.0
 20
1.0
 30
0.0
  9
$PUCSNAME
  2

  9
$PUCSORG
 10
0.0
 20
0.0
 30
0.0
  9
$PUCSXDIR
 10
1.0
 20
0.0
 30
0.0
  9
$PUCSYDIR
 10
0.0
 20
1.0
 30
0.0
  9
$USERI1
 70
     0
  9
$USERI2
 70
     0
  9
$USERI3
 70
     0
  9
$USERI4
 70
     0
  9
$USERI5
 70
     0
  9
$USERR1
 40
0.0
  9
$USERR2
 40
0.0
  9
$USERR3
 40
0.0
  9
$USERR4
 40
0.0
  9
$USERR5
 40
0.0
  9
$WORLDVIEW
 70
     1
  9
$SHADEDGE
 70
     3
  9
$SHADEDIF
 70
    70
  9
$TILEMODE
 70
     1
  9
$MAXACTVP
 70
    16
  9
$PLIMCHECK
 70
     0
  9
$PEXTMIN
 10
-1.452248
 20
-0.437698
 30
0.0
  9
$PEXTMAX
 10
12.749749
 20
8.310198
 30
0.0
  9
$PLIMMIN
 10
0.0
 20
0.0
  9
$PLIMMAX
 10
12.0
 20
9.0
  9
$UNITMODE
 70
     0
  9
$VISRETAIN
 70
     0
  9
$PLINEGEN
 70
     0
  9
$PSLTSCALE
 70
     0
  0
ENDSEC
  0
SECTION
  2
TABLES
  0
TABLE
  2
VPORT
 70
     2
  0
VPORT
  2
*ACTIVE
 70
     0
 10
0.0
 20
0.0
 11
1.0
 21
1.0
 12
39.519734
 22
76.799712
 13
0.0
 23
0.0
 14
1.0
 24
1.0
 15
10.0
 25
10.0
 16
0.0
 26
0.0
 36
1.0
 17
0.0
 27
0.0
 37
0.0
 40
155.115132
 41
1.466346
 42
50.0
 43
0.0
 44
0.0
 50
0.0
 51
0.0
 71
     0
 72
   100
 73
     1
 74
     0
 75
     0
 76
     0
 77
     0
 78
     0
  0
ENDTAB
  0
TABLE
  2
LTYPE
 70
     2
  0
LTYPE
  2
CONTINUOUS
 70
     0
  3
Solid line
 72
    65
 73
     0
 40
0.0
  0
LTYPE
  2
AXES2
 70
     0
  3
___ _ ___ _ ___ _ ___ _ ___ _ ___ _ ___ _ ___ _
 72
    65
 73
     4
 40
1.125
 49
0.75
 49
-0.125
 49
0.125
 49
-0.125
  0
ENDTAB
  0
TABLE
  2
LAYER
 70
     5
  0
LAYER
  2
0
 70
     0
 62
   255
  6
CONTINUOUS
  0
LAYER
  2
COTATION1
 70
     0
 62
     2
  6
CONTINUOUS
  0
LAYER
  2
AXE
 70
     0
 62
    80
  6
AXES2
  0
LAYER
  2
DEFPOINTS
 70
     0
 62
     7
  6
CONTINUOUS
  0
LAYER
  2
ALPHA
 70
     0
 62
   254
  6
CONTINUOUS
  0
ENDTAB
  0
TABLE
  2
STYLE
 70
     2
  0
STYLE
  2
ROMANS
 70
     0
 40
0.0
 41
1.0
 50
0.0
 71
     0
 42
6.0
  3
romans
  4

  0
STYLE
  2
STANDARD
 70
     0
 40
0.0
 41
1.0
 50
0.0
 71
     0
 42
0.2
  3
txt
  4

  0
ENDTAB
  0
TABLE
  2
VIEW
 70
     0
  0
ENDTAB
  0
TABLE
  2
UCS
 70
     0
  0
ENDTAB
  0
TABLE
  2
APPID
 70
     1
  0
APPID
  2
ACAD
 70
     0
  0
ENDTAB
  0
TABLE
  2
DIMSTYLE
 70
     2
  0
DIMSTYLE
  2
SC_DEFAUT
 70
     0
  3

  4

  5
OPEN30
  6

  7

 40
1.0
 41
5.0
 42
2.0
 43
0.38
 44
2.5
 45
0.0
 46
0.0
 47
0.0
 48
0.0
140
2.5
141
0.0
142
0.0
143
25.4
144
1.0
145
0.0
146
1.0
147
2.0
 71
     0
 72
     0
 73
     1
 74
     1
 75
     0
 76
     0
 77
     1
 78
    12
170
     0
171
     2
172
     0
173
     0
174
     0
175
     0
176
     0
177
     0
178
     0
  0
DIMSTYLE
  2
STANDARD
 70
     0
  3

  4

  5

  6

  7

 40
1.0
 41
0.18
 42
0.0625
 43
0.38
 44
0.18
 45
0.0
 46
0.0
 47
0.0
 48
0.0
140
0.18
141
0.09
142
0.0
143
25.4
144
1.0
145
0.0
146
1.0
147
0.09
 71
     0
 72
     0
 73
     1
 74
     1
 75
     0
 76
     0
 77
     0
 78
     0
170
     0
171
     2
172
     0
173
     0
174
     0
175
     0
176
     0
177
     0
178
     0
  0
ENDTAB
  0
ENDSEC
  0
SECTION
  2
BLOCKS
  0
BLOCK
  8
0
  2
$MODEL_SPACE
 70
     0
 10
0.0
 20
0.0
 30
0.0
  3
$MODEL_SPACE
  1

  0
ENDBLK
  5
BC52
  8
0
  0
BLOCK
 67
     1
  8
0
  2
$PAPER_SPACE
 70
     0
 10
0.0
 20
0.0
 30
0.0
  3
$PAPER_SPACE
  1

  0
ENDBLK
  5
BC50
 67
     1
  8
0
  0
BLOCK
  8
0
  2
COTE
 70
     0
 10
0.0
 20
0.0
 30
0.0
  3
COTE
  1

  0
ENDBLK
  5
F
  8
0
  0
BLOCK
  8
0
  2
FOND
 70
     0
 10
0.0
 20
0.0
 30
0.0
  3
FOND
  1

  0
ENDBLK
  5
75
  8
0
  0
BLOCK
  8
0
  2
_OPEN30
 70
     0
 10
0.0
 20
0.0
 30
0.0
  3
_OPEN30
  1

  0
LINE
  5
4B05
  8
COTATION1
 62
     0
 10
-1.0
 20
0.267949
 30
0.0
 11
0.0
 21
0.0
 31
0.0
1001
ACAD
1000
RTLwPs
1070
   158
  0
LINE
  5
4B06
  8
COTATION1
 62
     0
 10
0.0
 20
0.0
 30
0.0
 11
-1.0
 21
-0.267949
 31
0.0
1001
ACAD
1000
RTLwPs
1070
   158
  0
LINE
  5
4B07
  8
COTATION1
 62
     0
 10
0.0
 20
0.0
 30
0.0
 11
-1.0
 21
0.0
 31
0.0
1001
ACAD
1000
RTLwPs
1070
   158
  0
ENDBLK
  5
4B09
  8
0
  0
BLOCK
  8
0
  2
*D3
 70
     1
 10
0.0
 20
0.0
 30
0.0
  3
*D3
  1

  0
LINE
  5
B845
  8
COTATION1
 62
     0
 10
48.177918
 20
29.417142
 30
0.0
 11
48.177918
 21
-0.193004
 31
0.0
1001
ACAD
1000
RTLwPs
1070
   158
  0
LINE
  5
B846
  8
COTATION1
 62
     0
 10
64.17792
 20
29.417142
 30
0.0
 11
64.17792
 21
-0.193004
 31
0.0
1001
ACAD
1000
RTLwPs
1070
   158
  0
LINE
  5
B847
  8
COTATION1
 62
     0
 10
53.177918
 20
2.306996
 30
0.0
 11
59.17792
 21
2.306996
 31
0.0
1001
ACAD
1000
RTLwPs
1070
   158
  0
INSERT
  5
B848
  8
COTATION1
 62
     0
  2
_OPEN30
 10
48.177918
 20
2.306996
 30
0.0
 41
5.0
 42
5.0
 43
5.0
 50
180.0
1001
ACAD
1000
RTLwPs
1070
   158
  0
INSERT
  5
B849
  8
COTATION1
 62
     0
  2
_OPEN30
 10
64.17792
 20
2.306996
 30
0.0
 41
5.0
 42
5.0
 43
5.0
1001
ACAD
1000
RTLwPs
1070
   158
  0
TEXT
  5
B84A
  8
COTATION1
 62
     0
 10
52.785062
 20
4.306996
 30
0.0
 40
2.5
  1
%%c
1001
ACAD
1000
MTEXTBEGIN
1070
    73
1070
     1
1070
    44
1040
1.0
1070
    74
1070
     0
1000
MTEXTEND
  0
TEXT
  5
BC22
  8
COTATION1
 62
     0
 10
55.046967
 20
4.306996
 30
0.0
 40
2.5
  1
16
1001
ACAD
1000
R13OBJECT
1002
{
1005
B84A
1002
}
  0
POINT
  5
B84B
  8
DEFPOINTS
 62
     0
 10
48.177918
 20
31.417142
 30
0.0
  0
POINT
  5
B84C
  8
DEFPOINTS
 62
     0
 10
64.17792
 20
31.417142
 30
0.0
  0
POINT
  5
B84D
  8
DEFPOINTS
 62
     0
 10
64.17792
 20
2.306996
 30
0.0
  0
ENDBLK
  5
A0F8
  8
0
  0
BLOCK
  8
0
  2
*D4
 70
     1
 10
0.0
 20
0.0
 30
0.0
  3
*D4
  1

  0
LINE
  5
B7F4
  8
COTATION1
 62
     0
 10
54.177918
 20
148.716589
 30
0.0
 11
28.695289
 21
148.716589
 31
0.0
1001
ACAD
1000
RTLwPs
1070
   158
  0
LINE
  5
B7F5
  8
COTATION1
 62
     0
 10
46.177935
 20
31.417142
 30
0.0
 11
28.695289
 21
31.417142
 31
0.0
1001
ACAD
1000
RTLwPs
1070
   158
  0
LINE
  5
B7F6
  8
COTATION1
 62
     0
 10
31.195289
 20
143.716589
 30
0.0
 11
31.195289
 21
93.316865
 31
0.0
1001
ACAD
1000
RTLwPs
1070
   158
  0
LINE
  5
B7F7
  8
COTATION1
 62
     0
 10
31.195289
 20
36.417142
 30
0.0
 11
31.195289
 21
86.816865
 31
0.0
1001
ACAD
1000
RTLwPs
1070
   158
  0
TEXT
  5
B7F8
  8
COTATION1
 62
     0
 10
25.659575
 20
88.816865
 30
0.0
 40
2.5
  1
117.3
1001
ACAD
1000
MTEXTBEGIN
1070
    73
1070
     1
1070
    44
1040
1.0
1070
    74
1070
     0
1000
MTEXTEND
  0
INSERT
  5
B7F9
  8
COTATION1
 62
     0
  2
_OPEN30
 10
31.195289
 20
148.716589
 30
0.0
 41
5.0
 42
5.0
 43
5.0
 50
90.0
1001
ACAD
1000
RTLwPs
1070
   158
  0
INSERT
  5
B7FA
  8
COTATION1
 62
     0
  2
_OPEN30
 10
31.195289
 20
31.417142
 30
0.0
 41
5.0
 42
5.0
 43
5.0
 50
270.0
1001
ACAD
1000
RTLwPs
1070
   158
  0
POINT
  5
B7FB
  8
DEFPOINTS
 62
     0
 10
56.177918
 20
148.716589
 30
0.0
  0
POINT
  5
B7FC
  8
DEFPOINTS
 62
     0
 10
48.177935
 20
31.417142
 30
0.0
  0
POINT
  5
B7FD
  8
DEFPOINTS
 62
     0
 10
31.195289
 20
31.417142
 30
0.0
  0
ENDBLK
  5
A105
  8
0
  0
BLOCK
  8
0
  2
*D5
 70
     1
 10
0.0
 20
0.0
 30
0.0
  3
*D5
  1

  0
LINE
  5
B7EA
  8
COTATION1
 62
     0
 10
58.177918
 20
148.716589
 30
0.0
 11
86.677918
 21
148.716589
 31
0.0
1001
ACAD
1000
RTLwPs
1070
   158
  0
LINE
  5
B7EB
  8
COTATION1
 62
     0
 10
64.227918
 20
23.817142
 30
0.0
 11
86.677918
 21
23.817142
 31
0.0
1001
ACAD
1000
RTLwPs
1070
   158
  0
LINE
  5
B7EC
  8
COTATION1
 62
     0
 10
84.177918
 20
143.716589
 30
0.0
 11
84.177918
 21
89.516865
 31
0.0
1001
ACAD
1000
RTLwPs
1070
   158
  0
LINE
  5
B7ED
  8
COTATION1
 62
     0
 10
84.177918
 20
28.817142
 30
0.0
 11
84.177918
 21
83.016865
 31
0.0
1001
ACAD
1000
RTLwPs
1070
   158
  0
INSERT
  5
B7EE
  8
COTATION1
 62
     0
  2
_OPEN30
 10
84.177918
 20
148.716589
 30
0.0
 41
5.0
 42
5.0
 43
5.0
 50
90.0
1001
ACAD
1000
RTLwPs
1070
   158
  0
INSERT
  5
B7EF
  8
COTATION1
 62
     0
  2
_OPEN30
 10
84.177918
 20
23.817142
 30
0.0
 41
5.0
 42
5.0
 43
5.0
 50
270.0
1001
ACAD
1000
RTLwPs
1070
   158
  0
TEXT
  5
B7F0
  8
COTATION1
 62
     0
 10
78.701727
 20
85.016865
 30
0.0
 40
2.5
  1
124.9
1001
ACAD
1000
MTEXTBEGIN
1070
    73
1070
     1
1070
    44
1040
1.0
1070
    74
1070
     0
1000
MTEXTEND
  0
POINT
  5
B7F1
  8
DEFPOINTS
 62
     0
 10
56.177918
 20
148.716589
 30
0.0
  0
POINT
  5
B7F2
  8
DEFPOINTS
 62
     0
 10
62.227918
 20
23.817142
 30
0.0
  0
POINT
  5
B7F3
  8
DEFPOINTS
 62
     0
 10
84.177918
 20
23.817142
 30
0.0
  0
ENDBLK
  5
A125
  8
0
  0
ENDSEC
  0
SECTION
  2
ENTITIES
  0
INSERT
  5
A
  8
0
  2
COTE
 10
0.0
 20
0.0
 30
0.0
  0
INSERT
  5
17
  8
0
  2
COTE
 10
284.010391
 20
6.373258
 30
0.0
  0
INSERT
  5
72
  8
0
  2
FOND
 10
0.0
 20
0.0
 30
0.0
  0
LINE
  5
9E08
  8
COTATION1
 10
3.366826
 20
33.917142
 30
0.0
 11
3.366826
 21
58.876064
 31
0.0
  0
LINE
  5
9E09
  8
AXE
 10
56.177918
 20
13.667137
 30
0.0
 11
56.177918
 21
153.771301
 31
0.0
  0
DIMENSION
  5
9E0A
  8
COTATION1
  2
*D3
 10
64.17792
 20
2.306996
 30
0.0
 11
56.177919
 21
5.556996
 31
0.0
  1
%%c<>
 13
48.177918
 23
31.417142
 33
0.0
 14
64.17792
 24
31.417142
 34
0.0
  0
LINE
  5
9E0B
  8
COTATION1
 10
-4.733526
 20
31.417142
 30
0.0
 11
47.177918
 21
31.417142
 31
0.0
  0
DIMENSION
  5
9E0C
  8
COTATION1
  2
*D4
 10
31.195289
 20
31.417142
 30
0.0
 11
31.195289
 21
90.066865
 31
0.0
 70
   128
 13
56.177918
 23
148.716589
 33
0.0
 14
48.177935
 24
31.417142
 34
0.0
 50
90.0
  0
SOLID
  5
9E0D
  8
COTATION1
 10
4.810202
 20
31.417142
 30
0.0
 11
1.923451
 21
31.417142
 31
0.0
 12
3.366826
 22
33.917142
 32
0.0
 13
3.366826
 23
33.917142
 33
0.0
  0
DIMENSION
  5
9E0E
  8
COTATION1
  2
*D5
 10
84.177918
 20
23.817142
 30
0.0
 11
84.177918
 21
86.266865
 31
0.0
 13
56.177918
 23
148.716589
 33
0.0
 14
62.227918
 24
23.817142
 34
0.0
 50
90.0
  0
LINE
  5
9E11
  8
AXE
 10
43.177918
 20
43.417134
 30
0.0
 11
74.177918
 21
43.417134
 31
0.0
  0
TEXT
  5
9E34
  8
AXE
 10
51.130299
 20
13.667137
 30
0.0
 40
5.0
  1
Y
 72
     2
 11
55.177918
 21
13.667137
 31
0.0
  0
TEXT
  5
A0E7
  8
AXE
 10
70.130299
 20
44.417134
 30
0.0
 40
5.0
  1
X
 72
     2
 11
74.177918
 21
44.417134
 31
0.0
  0
LINE
  5
A0E8
  8
COTATION1
 10
16.616826
 20
58.876064
 30
0.0
 11
-9.883174
 21
58.876064
 31
0.0
  0
LINE
  5
A0E9
  8
COTATION1
 10
-9.883174
 20
63.876064
 30
0.0
 11
16.616826
 21
63.876064
 31
0.0
  0
LINE
  5
A0EA
  8
COTATION1
 10
-9.883174
 20
58.876064
 30
0.0
 11
-9.883174
 21
63.876064
 31
0.0
  0
TEXT
  5
A0EB
  8
COTATION1
 10
-8.633174
 20
60.126064
 30
0.0
 40
2.5
  1
PLANE_TO_LINE_UP
 41
0.626087
  7
STANDARD
 72
     5
 11
15.366826
 21
60.126064
 31
0.0
  0
LINE
  5
A0EC
  8
COTATION1
 10
16.616826
 20
63.876064
 30
0.0
 11
16.616826
 21
58.876064
 31
0.0
  0
LINE
  5
AF32
  8
ALPHA
 10
62.527918
 20
27.967142
 30
0.0
 11
62.527918
 21
26.817142
 31
0.0
  0
LINE
  5
AF33
  8
ALPHA
 10
49.827918
 20
27.967142
 30
0.0
 11
49.827918
 21
26.817142
 31
0.0
  0
LINE
  5
AF38
  8
ALPHA
 10
62.527918
 20
26.817142
 30
0.0
 11
49.827918
 21
26.817142
 31
0.0
  0
LINE
  5
AF39
  8
ALPHA
 10
62.177918
 20
26.717142
 30
0.0
 11
50.177918
 21
26.717142
 31
0.0
  0
LINE
  5
AF3A
  8
ALPHA
 10
62.177918
 20
25.717142
 30
0.0
 11
50.177918
 21
25.717142
 31
0.0
  0
LINE
  5
AF3B
  8
ALPHA
 10
62.527918
 20
25.617142
 30
0.0
 11
49.827918
 21
25.617142
 31
0.0
  0
LINE
  5
AF3C
  8
ALPHA
 10
62.527918
 20
24.817142
 30
0.0
 11
49.827918
 21
24.817142
 31
0.0
  0
LINE
  5
AF3D
  8
ALPHA
 10
62.227918
 20
23.817142
 30
0.0
 11
50.127918
 21
23.817142
 31
0.0
  0
ARC
  5
AF41
  8
ALPHA
 10
50.177918
 20
26.217142
 30
0.0
 40
0.5
 50
90.0
 51
270.0
  0
LINE
  5
AF42
  8
ALPHA
 10
50.577918
 20
25.717142
 30
0.0
 11
50.577918
 21
25.617142
 31
0.0
  0
LINE
  5
AF43
  8
ALPHA
 10
50.577918
 20
26.817142
 30
0.0
 11
50.577918
 21
26.717142
 31
0.0
  0
LINE
  5
AF44
  8
ALPHA
 10
49.827918
 20
25.617142
 30
0.0
 11
49.827918
 21
24.817142
 31
0.0
  0
LINE
  5
AF45
  8
ALPHA
 10
49.827918
 20
24.817142
 30
0.0
 11
50.127918
 21
23.817142
 31
0.0
  0
ARC
  5
AF46
  8
ALPHA
 10
62.177918
 20
26.217142
 30
0.0
 40
0.5
 50
270.0
 51
90.0
  0
LINE
  5
AF47
  8
ALPHA
 10
62.527918
 20
24.817142
 30
0.0
 11
62.227918
 21
23.817142
 31
0.0
  0
LINE
  5
AF48
  8
ALPHA
 10
62.527918
 20
25.617142
 30
0.0
 11
62.527918
 21
24.817142
 31
0.0
  0
LINE
  5
AF49
  8
ALPHA
 10
61.777918
 20
25.717142
 30
0.0
 11
61.777918
 21
25.617142
 31
0.0
  0
LINE
  5
AF4A
  8
ALPHA
 10
61.777918
 20
26.817142
 30
0.0
 11
61.777918
 21
26.717142
 31
0.0
  0
LINE
  5
AF4B
  8
ALPHA
 10
57.677917
 20
147.217157
 30
0.0
 11
58.677918
 21
110.417142
 31
0.0
  0
LINE
  5
AF4C
  8
ALPHA
 10
54.677918
 20
147.217157
 30
0.0
 11
53.677918
 21
110.417142
 31
0.0
  0
POLYLINE
  5
AF4D
  8
ALPHA
 66
     1
 10
0.0
 20
0.0
 30
0.0
 70
   128
  0
VERTEX
  5
BC58
  8
ALPHA
 10
59.227542
 20
62.417108
 30
0.0
  0
VERTEX
  5
BC59
  8
ALPHA
 10
59.100069
 20
62.788505
 30
0.0
  0
VERTEX
  5
BC5A
  8
ALPHA
 10
58.781321
 20
63.017977
 30
0.0
  0
SEQEND
  5
BC5B
  8
ALPHA
  0
POLYLINE
  5
AF4E
  8
ALPHA
 66
     1
 10
0.0
 20
0.0
 30
0.0
 70
   128
  0
VERTEX
  5
BC5C
  8
ALPHA
 10
59.227543
 20
63.617111
 30
0.0
  0
VERTEX
  5
BC5D
  8
ALPHA
 10
59.099917
 20
63.988727
 30
0.0
  0
VERTEX
  5
BC5E
  8
ALPHA
 10
58.780752
 20
64.218187
 30
0.0
  0
SEQEND
  5
BC5F
  8
ALPHA
  0
POLYLINE
  5
AF4F
  8
ALPHA
 66
     1
 10
0.0
 20
0.0
 30
0.0
 70
   128
  0
VERTEX
  5
BC60
  8
ALPHA
 10
59.227571
 20
64.817112
 30
0.0
  0
VERTEX
  5
BC61
  8
ALPHA
 10
59.099936
 20
65.188689
 30
0.0
  0
VERTEX
  5
BC62
  8
ALPHA
 10
58.780928
 20
65.41812
 30
0.0
  0
SEQEND
  5
BC63
  8
ALPHA
  0
POLYLINE
  5
AF50
  8
ALPHA
 66
     1
 10
0.0
 20
0.0
 30
0.0
 70
   128
  0
VERTEX
  5
BC64
  8
ALPHA
 10
59.227553
 20
66.017114
 30
0.0
  0
VERTEX
  5
BC65
  8
ALPHA
 10
59.10005
 20
66.388559
 30
0.0
  0
VERTEX
  5
BC66
  8
ALPHA
 10
58.781149
 20
66.618046
 30
0.0
  0
SEQEND
  5
BC67
  8
ALPHA
  0
POLYLINE
  5
AF51
  8
ALPHA
 66
     1
 10
0.0
 20
0.0
 30
0.0
 70
   128
  0
VERTEX
  5
BC68
  8
ALPHA
 10
58.348352
 20
61.721573
 30
0.0
  0
VERTEX
  5
BC69
  8
ALPHA
 10
58.939239
 20
61.893874
 30
0.0
  0
VERTEX
  5
BC6A
  8
ALPHA
 10
59.227536
 20
62.417181
 30
0.0
  0
SEQEND
  5
BC6B
  8
ALPHA
  0
POLYLINE
  5
AF52
  8
ALPHA
 66
     1
 10
0.0
 20
0.0
 30
0.0
 70
   128
  0
VERTEX
  5
BC6C
  8
ALPHA
 10
58.35318
 20
60.522286
 30
0.0
  0
VERTEX
  5
BC6D
  8
ALPHA
 10
58.941252
 20
60.695217
 30
0.0
  0
VERTEX
  5
BC6E
  8
ALPHA
 10
59.227533
 20
61.217185
 30
0.0
  0
SEQEND
  5
BC6F
  8
ALPHA
  0
POLYLINE
  5
AF53
  8
ALPHA
 66
     1
 10
0.0
 20
0.0
 30
0.0
 70
   128
  0
VERTEX
  5
BC70
  8
ALPHA
 10
58.328506
 20
62.918686
 30
0.0
  0
VERTEX
  5
BC71
  8
ALPHA
 10
58.930738
 20
63.088378
 30
0.0
  0
VERTEX
  5
BC72
  8
ALPHA
 10
59.22757
 20
63.61718
 30
0.0
  0
SEQEND
  5
BC73
  8
ALPHA
  0
POLYLINE
  5
AF54
  8
ALPHA
 66
     1
 10
0.0
 20
0.0
 30
0.0
 70
   128
  0
VERTEX
  5
BC74
  8
ALPHA
 10
58.348856
 20
64.121648
 30
0.0
  0
VERTEX
  5
BC75
  8
ALPHA
 10
58.939399
 20
64.293997
 30
0.0
  0
VERTEX
  5
BC76
  8
ALPHA
 10
59.227558
 20
64.817182
 30
0.0
  0
SEQEND
  5
BC77
  8
ALPHA
  0
POLYLINE
  5
AF55
  8
ALPHA
 66
     1
 10
0.0
 20
0.0
 30
0.0
 70
   128
  0
VERTEX
  5
BC78
  8
ALPHA
 10
58.243676
 20
65.306982
 30
0.0
  0
VERTEX
  5
BC79
  8
ALPHA
 10
58.893855
 20
65.466548
 30
0.0
  0
VERTEX
  5
BC7A
  8
ALPHA
 10
59.227605
 20
66.017174
 30
0.0
  0
SEQEND
  5
BC7B
  8
ALPHA
  0
POLYLINE
  5
AF56
  8
ALPHA
 66
     1
 10
0.0
 20
0.0
 30
0.0
 70
   128
  0
VERTEX
  5
BC7C
  8
ALPHA
 10
58.217001
 20
59.303486
 30
0.0
  0
VERTEX
  5
BC7D
  8
ALPHA
 10
58.882038
 20
59.460221
 30
0.0
  0
VERTEX
  5
BC7E
  8
ALPHA
 10
59.227538
 20
60.017182
 30
0.0
  0
SEQEND
  5
BC7F
  8
ALPHA
  0
POLYLINE
  5
AF57
  8
ALPHA
 66
     1
 10
0.0
 20
0.0
 30
0.0
 70
   128
  0
VERTEX
  5
BC80
  8
ALPHA
 10
58.328237
 20
58.118647
 30
0.0
  0
VERTEX
  5
BC81
  8
ALPHA
 10
58.930695
 20
58.288338
 30
0.0
  0
VERTEX
  5
BC82
  8
ALPHA
 10
59.227509
 20
58.817186
 30
0.0
  0
SEQEND
  5
BC83
  8
ALPHA
  0
POLYLINE
  5
AF58
  8
ALPHA
 66
     1
 10
0.0
 20
0.0
 30
0.0
 70
   128
  0
VERTEX
  5
BC84
  8
ALPHA
 10
58.22144
 20
56.904061
 30
0.0
  0
VERTEX
  5
BC85
  8
ALPHA
 10
58.883982
 20
57.061242
 30
0.0
  0
VERTEX
  5
BC86
  8
ALPHA
 10
59.227621
 20
57.617168
 30
0.0
  0
SEQEND
  5
BC87
  8
ALPHA
  0
POLYLINE
  5
AF59
  8
ALPHA
 66
     1
 10
0.0
 20
0.0
 30
0.0
 70
   128
  0
VERTEX
  5
BC88
  8
ALPHA
 10
59.227609
 20
67.217116
 30
0.0
  0
VERTEX
  5
BC89
  8
ALPHA
 10
59.1005
 20
67.587797
 30
0.0
  0
VERTEX
  5
BC8A
  8
ALPHA
 10
58.782692
 20
67.817476
 30
0.0
  0
SEQEND
  5
BC8B
  8
ALPHA
  0
POLYLINE
  5
AF5A
  8
ALPHA
 66
     1
 10
0.0
 20
0.0
 30
0.0
 70
   128
  0
VERTEX
  5
BC8C
  8
ALPHA
 10
59.227623
 20
68.417119
 30
0.0
  0
VERTEX
  5
BC8D
  8
ALPHA
 10
59.100432
 20
68.78805
 30
0.0
  0
VERTEX
  5
BC8E
  8
ALPHA
 10
58.782321
 20
69.017612
 30
0.0
  0
SEQEND
  5
BC8F
  8
ALPHA
  0
POLYLINE
  5
AF5B
  8
ALPHA
 66
     1
 10
0.0
 20
0.0
 30
0.0
 70
   128
  0
VERTEX
  5
BC90
  8
ALPHA
 10
59.22763
 20
69.617121
 30
0.0
  0
VERTEX
  5
BC91
  8
ALPHA
 10
59.100465
 20
69.98801
 30
0.0
  0
VERTEX
  5
BC92
  8
ALPHA
 10
58.782433
 20
70.217573
 30
0.0
  0
SEQEND
  5
BC93
  8
ALPHA
  0
POLYLINE
  5
AF5C
  8
ALPHA
 66
     1
 10
0.0
 20
0.0
 30
0.0
 70
   128
  0
VERTEX
  5
BC94
  8
ALPHA
 10
59.227624
 20
70.81712
 30
0.0
  0
VERTEX
  5
BC95
  8
ALPHA
 10
59.100441
 20
71.188037
 30
0.0
  0
VERTEX
  5
BC96
  8
ALPHA
 10
58.782362
 20
71.417598
 30
0.0
  0
SEQEND
  5
BC97
  8
ALPHA
  0
POLYLINE
  5
AF5D
  8
ALPHA
 66
     1
 10
0.0
 20
0.0
 30
0.0
 70
   128
  0
VERTEX
  5
BC98
  8
ALPHA
 10
58.386638
 20
66.527328
 30
0.0
  0
VERTEX
  5
BC99
  8
ALPHA
 10
58.955179
 20
66.70482
 30
0.0
  0
VERTEX
  5
BC9A
  8
ALPHA
 10
59.227596
 20
67.217175
 30
0.0
  0
SEQEND
  5
BC9B
  8
ALPHA
  0
POLYLINE
  5
AF5E
  8
ALPHA
 66
     1
 10
0.0
 20
0.0
 30
0.0
 70
   128
  0
VERTEX
  5
BC9C
  8
ALPHA
 10
58.420921
 20
67.732713
 30
0.0
  0
VERTEX
  5
BC9D
  8
ALPHA
 10
58.969217
 20
67.914994
 30
0.0
  0
VERTEX
  5
BC9E
  8
ALPHA
 10
59.227665
 20
68.417165
 30
0.0
  0
SEQEND
  5
BC9F
  8
ALPHA
  0
POLYLINE
  5
AF5F
  8
ALPHA
 66
     1
 10
0.0
 20
0.0
 30
0.0
 70
   128
  0
VERTEX
  5
BCA0
  8
ALPHA
 10
58.403406
 20
68.929934
 30
0.0
  0
VERTEX
  5
BCA1
  8
ALPHA
 10
58.962072
 20
69.109752
 30
0.0
  0
VERTEX
  5
BCA2
  8
ALPHA
 10
59.227609
 20
69.617176
 30
0.0
  0
SEQEND
  5
BCA3
  8
ALPHA
  0
POLYLINE
  5
AF60
  8
ALPHA
 66
     1
 10
0.0
 20
0.0
 30
0.0
 70
   128
  0
VERTEX
  5
BCA4
  8
ALPHA
 10
58.415777
 20
70.131891
 30
0.0
  0
VERTEX
  5
BCA5
  8
ALPHA
 10
58.96714
 20
70.313454
 30
0.0
  0
VERTEX
  5
BCA6
  8
ALPHA
 10
59.227616
 20
70.817175
 30
0.0
  0
SEQEND
  5
BCA7
  8
ALPHA
  0
POLYLINE
  5
AF61
  8
ALPHA
 66
     1
 10
0.0
 20
0.0
 30
0.0
 70
   128
  0
VERTEX
  5
BCA8
  8
ALPHA
 10
59.227543
 20
61.217112
 30
0.0
  0
VERTEX
  5
BCA9
  8
ALPHA
 10
59.0998
 20
61.588882
 30
0.0
  0
VERTEX
  5
BCAA
  8
ALPHA
 10
58.780405
 20
61.818313
 30
0.0
  0
SEQEND
  5
BCAB
  8
ALPHA
  0
POLYLINE
  5
AF62
  8
ALPHA
 66
     1
 10
0.0
 20
0.0
 30
0.0
 70
   128
  0
VERTEX
  5
BCAC
  8
ALPHA
 10
59.227637
 20
72.017121
 30
0.0
  0
VERTEX
  5
BCAD
  8
ALPHA
 10
59.100271
 20
72.388277
 30
0.0
  0
VERTEX
  5
BCAE
  8
ALPHA
 10
58.781797
 20
72.617803
 30
0.0
  0
SEQEND
  5
BCAF
  8
ALPHA
  0
POLYLINE
  5
AF63
  8
ALPHA
 66
     1
 10
0.0
 20
0.0
 30
0.0
 70
   128
  0
VERTEX
  5
BCB0
  8
ALPHA
 10
59.227557
 20
60.017113
 30
0.0
  0
VERTEX
  5
BCB1
  8
ALPHA
 10
59.099878
 20
60.388779
 30
0.0
  0
VERTEX
  5
BCB2
  8
ALPHA
 10
58.78067
 20
60.618216
 30
0.0
  0
SEQEND
  5
BCB3
  8
ALPHA
  0
POLYLINE
  5
AF64
  8
ALPHA
 66
     1
 10
0.0
 20
0.0
 30
0.0
 70
   128
  0
VERTEX
  5
BCB4
  8
ALPHA
 10
59.22756
 20
73.217116
 30
0.0
  0
VERTEX
  5
BCB5
  8
ALPHA
 10
59.100398
 20
73.588095
 30
0.0
  0
VERTEX
  5
BCB6
  8
ALPHA
 10
58.782115
 20
73.817697
 30
0.0
  0
SEQEND
  5
BCB7
  8
ALPHA
  0
POLYLINE
  5
AF65
  8
ALPHA
 66
     1
 10
0.0
 20
0.0
 30
0.0
 70
   128
  0
VERTEX
  5
BCB8
  8
ALPHA
 10
59.227602
 20
74.417116
 30
0.0
  0
VERTEX
  5
BCB9
  8
ALPHA
 10
59.100512
 20
74.787782
 30
0.0
  0
VERTEX
  5
BCBA
  8
ALPHA
 10
58.782741
 20
75.017461
 30
0.0
  0
SEQEND
  5
BCBB
  8
ALPHA
  0
POLYLINE
  5
AF66
  8
ALPHA
 66
     1
 10
0.0
 20
0.0
 30
0.0
 70
   128
  0
VERTEX
  5
BCBC
  8
ALPHA
 10
59.227624
 20
75.617121
 30
0.0
  0
VERTEX
  5
BCBD
  8
ALPHA
 10
59.100111
 20
75.988489
 30
0.0
  0
VERTEX
  5
BCBE
  8
ALPHA
 10
58.781268
 20
76.217996
 30
0.0
  0
SEQEND
  5
BCBF
  8
ALPHA
  0
POLYLINE
  5
AF67
  8
ALPHA
 66
     1
 10
0.0
 20
0.0
 30
0.0
 70
   128
  0
VERTEX
  5
BCC0
  8
ALPHA
 10
59.227511
 20
58.817107
 30
0.0
  0
VERTEX
  5
BCC1
  8
ALPHA
 10
59.099758
 20
59.188927
 30
0.0
  0
VERTEX
  5
BCC2
  8
ALPHA
 10
58.780266
 20
59.418363
 30
0.0
  0
SEQEND
  5
BCC3
  8
ALPHA
  0
POLYLINE
  5
AF68
  8
ALPHA
 66
     1
 10
0.0
 20
0.0
 30
0.0
 70
   128
  0
VERTEX
  5
BCC4
  8
ALPHA
 10
58.405234
 20
71.33022
 30
0.0
  0
VERTEX
  5
BCC5
  8
ALPHA
 10
58.962831
 20
71.510298
 30
0.0
  0
VERTEX
  5
BCC6
  8
ALPHA
 10
59.227607
 20
72.017174
 30
0.0
  0
SEQEND
  5
BCC7
  8
ALPHA
  0
POLYLINE
  5
AF69
  8
ALPHA
 66
     1
 10
0.0
 20
0.0
 30
0.0
 70
   128
  0
VERTEX
  5
BCC8
  8
ALPHA
 10
59.227522
 20
57.617107
 30
0.0
  0
VERTEX
  5
BCC9
  8
ALPHA
 10
59.099953
 20
57.988659
 30
0.0
  0
VERTEX
  5
BCCA
  8
ALPHA
 10
58.780919
 20
58.218124
 30
0.0
  0
SEQEND
  5
BCCB
  8
ALPHA
  0
POLYLINE
  5
AF6A
  8
ALPHA
 66
     1
 10
0.0
 20
0.0
 30
0.0
 70
   128
  0
VERTEX
  5
BCCC
  8
ALPHA
 10
58.410722
 20
72.531086
 30
0.0
  0
VERTEX
  5
BCCD
  8
ALPHA
 10
58.965064
 20
72.711935
 30
0.0
  0
VERTEX
  5
BCCE
  8
ALPHA
 10
59.227606
 20
73.217176
 30
0.0
  0
SEQEND
  5
BCCF
  8
ALPHA
  0
POLYLINE
  5
AF6B
  8
ALPHA
 66
     1
 10
0.0
 20
0.0
 30
0.0
 70
   128
  0
VERTEX
  5
BCD0
  8
ALPHA
 10
58.41821
 20
73.73228
 30
0.0
  0
VERTEX
  5
BCD1
  8
ALPHA
 10
58.968147
 20
73.914188
 30
0.0
  0
VERTEX
  5
BCD2
  8
ALPHA
 10
59.227623
 20
74.417173
 30
0.0
  0
SEQEND
  5
BCD3
  8
ALPHA
  0
POLYLINE
  5
AF6C
  8
ALPHA
 66
     1
 10
0.0
 20
0.0
 30
0.0
 70
   128
  0
VERTEX
  5
BCD4
  8
ALPHA
 10
58.39629
 20
74.928822
 30
0.0
  0
VERTEX
  5
BCD5
  8
ALPHA
 10
58.959252
 20
75.107659
 30
0.0
  0
VERTEX
  5
BCD6
  8
ALPHA
 10
59.227549
 20
75.617181
 30
0.0
  0
SEQEND
  5
BCD7
  8
ALPHA
  0
POLYLINE
  5
AF6D
  8
ALPHA
 66
     1
 10
0.0
 20
0.0
 30
0.0
 70
   128
  0
VERTEX
  5
BCD8
  8
ALPHA
 10
59.227567
 20
76.817113
 30
0.0
  0
VERTEX
  5
BCD9
  8
ALPHA
 10
59.099983
 20
77.188645
 30
0.0
  0
VERTEX
  5
BCDA
  8
ALPHA
 10
58.780981
 20
77.418102
 30
0.0
  0
SEQEND
  5
BCDB
  8
ALPHA
  0
POLYLINE
  5
AF6E
  8
ALPHA
 66
     1
 10
0.0
 20
0.0
 30
0.0
 70
   128
  0
VERTEX
  5
BCDC
  8
ALPHA
 10
59.227546
 20
78.017112
 30
0.0
  0
VERTEX
  5
BCDD
  8
ALPHA
 10
59.099913
 20
78.388737
 30
0.0
  0
VERTEX
  5
BCDE
  8
ALPHA
 10
58.78073
 20
78.618196
 30
0.0
  0
SEQEND
  5
BCDF
  8
ALPHA
  0
POLYLINE
  5
AF6F
  8
ALPHA
 66
     1
 10
0.0
 20
0.0
 30
0.0
 70
   128
  0
VERTEX
  5
BCE0
  8
ALPHA
 10
59.2276
 20
79.217119
 30
0.0
  0
VERTEX
  5
BCE1
  8
ALPHA
 10
59.099839
 20
79.588848
 30
0.0
  0
VERTEX
  5
BCE2
  8
ALPHA
 10
58.780544
 20
79.818262
 30
0.0
  0
SEQEND
  5
BCE3
  8
ALPHA
  0
POLYLINE
  5
AF70
  8
ALPHA
 66
     1
 10
0.0
 20
0.0
 30
0.0
 70
   128
  0
VERTEX
  5
BCE4
  8
ALPHA
 10
59.227586
 20
80.41712
 30
0.0
  0
VERTEX
  5
BCE5
  8
ALPHA
 10
59.09995
 20
80.788722
 30
0.0
  0
VERTEX
  5
BCE6
  8
ALPHA
 10
58.780761
 20
81.018186
 30
0.0
  0
SEQEND
  5
BCE7
  8
ALPHA
  0
POLYLINE
  5
AF71
  8
ALPHA
 66
     1
 10
0.0
 20
0.0
 30
0.0
 70
   128
  0
VERTEX
  5
BCE8
  8
ALPHA
 10
58.349234
 20
76.121703
 30
0.0
  0
VERTEX
  5
BCE9
  8
ALPHA
 10
58.939612
 20
76.294119
 30
0.0
  0
VERTEX
  5
BCEA
  8
ALPHA
 10
59.227548
 20
76.817179
 30
0.0
  0
SEQEND
  5
BCEB
  8
ALPHA
  0
POLYLINE
  5
AF72
  8
ALPHA
 66
     1
 10
0.0
 20
0.0
 30
0.0
 70
   128
  0
VERTEX
  5
BCEC
  8
ALPHA
 10
58.331208
 20
77.319076
 30
0.0
  0
VERTEX
  5
BCED
  8
ALPHA
 10
58.93189
 20
77.489115
 30
0.0
  0
VERTEX
  5
BCEE
  8
ALPHA
 10
59.22757
 20
78.01718
 30
0.0
  0
SEQEND
  5
BCEF
  8
ALPHA
  0
POLYLINE
  5
AF73
  8
ALPHA
 66
     1
 10
0.0
 20
0.0
 30
0.0
 70
   128
  0
VERTEX
  5
BCF0
  8
ALPHA
 10
58.347099
 20
78.52139
 30
0.0
  0
VERTEX
  5
BCF1
  8
ALPHA
 10
58.938654
 20
78.693506
 30
0.0
  0
VERTEX
  5
BCF2
  8
ALPHA
 10
59.227566
 20
79.217181
 30
0.0
  0
SEQEND
  5
BCF3
  8
ALPHA
  0
POLYLINE
  5
AF74
  8
ALPHA
 66
     1
 10
0.0
 20
0.0
 30
0.0
 70
   128
  0
VERTEX
  5
BCF4
  8
ALPHA
 10
58.245167
 20
79.707179
 30
0.0
  0
VERTEX
  5
BCF5
  8
ALPHA
 10
58.894514
 20
79.86691
 30
0.0
  0
VERTEX
  5
BCF6
  8
ALPHA
 10
59.227606
 20
80.417173
 30
0.0
  0
SEQEND
  5
BCF7
  8
ALPHA
  0
POLYLINE
  5
AF75
  8
ALPHA
 66
     1
 10
0.0
 20
0.0
 30
0.0
 70
   128
  0
VERTEX
  5
BCF8
  8
ALPHA
 10
58.426576
 20
55.733626
 30
0.0
  0
VERTEX
  5
BCF9
  8
ALPHA
 10
58.97156
 20
55.916731
 30
0.0
  0
VERTEX
  5
BCFA
  8
ALPHA
 10
59.227625
 20
56.417172
 30
0.0
  0
SEQEND
  5
BCFB
  8
ALPHA
  0
POLYLINE
  5
AF76
  8
ALPHA
 66
     1
 10
0.0
 20
0.0
 30
0.0
 70
   128
  0
VERTEX
  5
BCFC
  8
ALPHA
 10
58.410038
 20
54.530979
 30
0.0
  0
VERTEX
  5
BCFD
  8
ALPHA
 10
58.964811
 20
54.711732
 30
0.0
  0
VERTEX
  5
BCFE
  8
ALPHA
 10
59.227615
 20
55.217174
 30
0.0
  0
SEQEND
  5
BCFF
  8
ALPHA
  0
POLYLINE
  5
AF77
  8
ALPHA
 66
     1
 10
0.0
 20
0.0
 30
0.0
 70
   128
  0
VERTEX
  5
BD00
  8
ALPHA
 10
59.227626
 20
81.617119
 30
0.0
  0
VERTEX
  5
BD01
  8
ALPHA
 10
59.10043
 20
81.98805
 30
0.0
  0
VERTEX
  5
BD02
  8
ALPHA
 10
58.782336
 20
82.217606
 30
0.0
  0
SEQEND
  5
BD03
  8
ALPHA
  0
POLYLINE
  5
AF78
  8
ALPHA
 66
     1
 10
0.0
 20
0.0
 30
0.0
 70
   128
  0
VERTEX
  5
BD04
  8
ALPHA
 10
58.392703
 20
53.328264
 30
0.0
  0
VERTEX
  5
BD05
  8
ALPHA
 10
58.957676
 20
53.506592
 30
0.0
  0
VERTEX
  5
BD06
  8
ALPHA
 10
59.227602
 20
54.017175
 30
0.0
  0
SEQEND
  5
BD07
  8
ALPHA
  0
POLYLINE
  5
AF79
  8
ALPHA
 66
     1
 10
0.0
 20
0.0
 30
0.0
 70
   128
  0
VERTEX
  5
BD08
  8
ALPHA
 10
59.227616
 20
82.817118
 30
0.0
  0
VERTEX
  5
BD09
  8
ALPHA
 10
59.100462
 20
83.187851
 30
0.0
  0
VERTEX
  5
BD0A
  8
ALPHA
 10
58.782556
 20
83.417527
 30
0.0
  0
SEQEND
  5
BD0B
  8
ALPHA
  0
POLYLINE
  5
AF7A
  8
ALPHA
 66
     1
 10
0.0
 20
0.0
 30
0.0
 70
   128
  0
VERTEX
  5
BD0C
  8
ALPHA
 10
59.22763
 20
84.017122
 30
0.0
  0
VERTEX
  5
BD0D
  8
ALPHA
 10
59.100652
 20
84.387762
 30
0.0
  0
VERTEX
  5
BD0E
  8
ALPHA
 10
58.782993
 20
84.61737
 30
0.0
  0
SEQEND
  5
BD0F
  8
ALPHA
  0
POLYLINE
  5
AF7B
  8
ALPHA
 66
     1
 10
0.0
 20
0.0
 30
0.0
 70
   128
  0
VERTEX
  5
BD10
  8
ALPHA
 10
59.22768
 20
85.217131
 30
0.0
  0
VERTEX
  5
BD11
  8
ALPHA
 10
59.100165
 20
85.588467
 30
0.0
  0
VERTEX
  5
BD12
  8
ALPHA
 10
58.781322
 20
85.817983
 30
0.0
  0
SEQEND
  5
BD13
  8
ALPHA
  0
POLYLINE
  5
AF7C
  8
ALPHA
 66
     1
 10
0.0
 20
0.0
 30
0.0
 70
   128
  0
VERTEX
  5
BD14
  8
ALPHA
 10
58.408348
 20
80.93071
 30
0.0
  0
VERTEX
  5
BD15
  8
ALPHA
 10
58.964092
 20
81.111224
 30
0.0
  0
VERTEX
  5
BD16
  8
ALPHA
 10
59.227606
 20
81.617176
 30
0.0
  0
SEQEND
  5
BD17
  8
ALPHA
  0
POLYLINE
  5
AF7D
  8
ALPHA
 66
     1
 10
0.0
 20
0.0
 30
0.0
 70
   128
  0
VERTEX
  5
BD18
  8
ALPHA
 10
58.419556
 20
82.132494
 30
0.0
  0
VERTEX
  5
BD19
  8
ALPHA
 10
58.968678
 20
82.314595
 30
0.0
  0
VERTEX
  5
BD1A
  8
ALPHA
 10
59.227612
 20
82.817175
 30
0.0
  0
SEQEND
  5
BD1B
  8
ALPHA
  0
POLYLINE
  5
AF7E
  8
ALPHA
 66
     1
 10
0.0
 20
0.0
 30
0.0
 70
   128
  0
VERTEX
  5
BD1C
  8
ALPHA
 10
58.405137
 20
83.330206
 30
0.0
  0
VERTEX
  5
BD1D
  8
ALPHA
 10
58.962786
 20
83.510269
 30
0.0
  0
VERTEX
  5
BD1E
  8
ALPHA
 10
59.227608
 20
84.017176
 30
0.0
  0
SEQEND
  5
BD1F
  8
ALPHA
  0
POLYLINE
  5
AF7F
  8
ALPHA
 66
     1
 10
0.0
 20
0.0
 30
0.0
 70
   128
  0
VERTEX
  5
BD20
  8
ALPHA
 10
58.425608
 20
84.533469
 30
0.0
  0
VERTEX
  5
BD21
  8
ALPHA
 10
58.971165
 20
84.716435
 30
0.0
  0
VERTEX
  5
BD22
  8
ALPHA
 10
59.227624
 20
85.217171
 30
0.0
  0
SEQEND
  5
BD23
  8
ALPHA
  0
POLYLINE
  5
AF80
  8
ALPHA
 66
     1
 10
0.0
 20
0.0
 30
0.0
 70
   128
  0
VERTEX
  5
BD24
  8
ALPHA
 10
58.392482
 20
52.12823
 30
0.0
  0
VERTEX
  5
BD25
  8
ALPHA
 10
58.957619
 20
52.306527
 30
0.0
  0
VERTEX
  5
BD26
  8
ALPHA
 10
59.227606
 20
52.817172
 30
0.0
  0
SEQEND
  5
BD27
  8
ALPHA
  0
POLYLINE
  5
AF81
  8
ALPHA
 66
     1
 10
0.0
 20
0.0
 30
0.0
 70
   128
  0
VERTEX
  5
BD28
  8
ALPHA
 10
59.227636
 20
86.417121
 30
0.0
  0
VERTEX
  5
BD29
  8
ALPHA
 10
59.100308
 20
86.788226
 30
0.0
  0
VERTEX
  5
BD2A
  8
ALPHA
 10
58.781916
 20
87.017759
 30
0.0
  0
SEQEND
  5
BD2B
  8
ALPHA
  0
POLYLINE
  5
AF82
  8
ALPHA
 66
     1
 10
0.0
 20
0.0
 30
0.0
 70
   128
  0
VERTEX
  5
BD2C
  8
ALPHA
 10
59.227563
 20
87.617114
 30
0.0
  0
VERTEX
  5
BD2D
  8
ALPHA
 10
59.100442
 20
87.988024
 30
0.0
  0
VERTEX
  5
BD2E
  8
ALPHA
 10
58.782353
 20
88.217607
 30
0.0
  0
SEQEND
  5
BD2F
  8
ALPHA
  0
POLYLINE
  5
AF83
  8
ALPHA
 66
     1
 10
0.0
 20
0.0
 30
0.0
 70
   128
  0
VERTEX
  5
BD30
  8
ALPHA
 10
59.227631
 20
56.417122
 30
0.0
  0
VERTEX
  5
BD31
  8
ALPHA
 10
59.100152
 20
56.788432
 30
0.0
  0
VERTEX
  5
BD32
  8
ALPHA
 10
58.781438
 20
57.017933
 30
0.0
  0
SEQEND
  5
BD33
  8
ALPHA
  0
LINE
  5
AF84
  8
ALPHA
 10
59.227601
 20
88.817116
 30
0.0
 11
58.896604
 21
89.36623
 31
0.0
  0
POLYLINE
  5
AF85
  8
ALPHA
 66
     1
 10
0.0
 20
0.0
 30
0.0
 70
   128
  0
VERTEX
  5
BD34
  8
ALPHA
 10
59.22761
 20
55.217118
 30
0.0
  0
VERTEX
  5
BD35
  8
ALPHA
 10
59.100733
 20
55.587488
 30
0.0
  0
VERTEX
  5
BD36
  8
ALPHA
 10
58.783377
 20
55.817229
 30
0.0
  0
SEQEND
  5
BD37
  8
ALPHA
  0
POLYLINE
  5
AF86
  8
ALPHA
 66
     1
 10
0.0
 20
0.0
 30
0.0
 70
   128
  0
VERTEX
  5
BD38
  8
ALPHA
 10
58.661321
 20
85.780226
 30
0.0
  0
VERTEX
  5
BD39
  8
ALPHA
 10
59.060168
 20
85.997362
 30
0.0
  0
VERTEX
  5
BD3A
  8
ALPHA
 10
59.227608
 20
86.417174
 30
0.0
  0
SEQEND
  5
BD3B
  8
ALPHA
  0
POLYLINE
  5
AF87
  8
ALPHA
 66
     1
 10
0.0
 20
0.0
 30
0.0
 70
   128
  0
VERTEX
  5
BD3C
  8
ALPHA
 10
58.413258
 20
86.931489
 30
0.0
  0
VERTEX
  5
BD3D
  8
ALPHA
 10
58.966104
 20
87.112696
 30
0.0
  0
VERTEX
  5
BD3E
  8
ALPHA
 10
59.227608
 20
87.617176
 30
0.0
  0
SEQEND
  5
BD3F
  8
ALPHA
  0
POLYLINE
  5
AF88
  8
ALPHA
 66
     1
 10
0.0
 20
0.0
 30
0.0
 70
   128
  0
VERTEX
  5
BD40
  8
ALPHA
 10
58.420421
 20
88.132634
 30
0.0
  0
VERTEX
  5
BD41
  8
ALPHA
 10
58.96905
 20
88.314857
 30
0.0
  0
VERTEX
  5
BD42
  8
ALPHA
 10
59.227625
 20
88.817172
 30
0.0
  0
SEQEND
  5
BD43
  8
ALPHA
  0
POLYLINE
  5
AF89
  8
ALPHA
 66
     1
 10
0.0
 20
0.0
 30
0.0
 70
   128
  0
VERTEX
  5
BD44
  8
ALPHA
 10
59.227544
 20
54.017112
 30
0.0
  0
VERTEX
  5
BD45
  8
ALPHA
 10
59.100378
 20
54.388105
 30
0.0
  0
VERTEX
  5
BD46
  8
ALPHA
 10
58.782112
 20
54.617695
 30
0.0
  0
SEQEND
  5
BD47
  8
ALPHA
  0
POLYLINE
  5
AF8A
  8
ALPHA
 66
     1
 10
0.0
 20
0.0
 30
0.0
 70
   128
  0
VERTEX
  5
BD48
  8
ALPHA
 10
59.227626
 20
52.817121
 30
0.0
  0
VERTEX
  5
BD49
  8
ALPHA
 10
59.100368
 20
53.188145
 30
0.0
  0
VERTEX
  5
BD4A
  8
ALPHA
 10
58.782073
 20
53.417703
 30
0.0
  0
SEQEND
  5
BD4B
  8
ALPHA
  0
POLYLINE
  5
AF8B
  8
ALPHA
 66
     1
 10
0.0
 20
0.0
 30
0.0
 70
   128
  0
VERTEX
  5
BD4C
  8
ALPHA
 10
59.227532
 20
90.017109
 30
0.0
  0
VERTEX
  5
BD4D
  8
ALPHA
 10
59.099798
 20
90.388873
 30
0.0
  0
VERTEX
  5
BD4E
  8
ALPHA
 10
58.780425
 20
90.618304
 30
0.0
  0
SEQEND
  5
BD4F
  8
ALPHA
  0
POLYLINE
  5
AF8C
  8
ALPHA
 66
     1
 10
0.0
 20
0.0
 30
0.0
 70
   128
  0
VERTEX
  5
BD50
  8
ALPHA
 10
59.227569
 20
91.217114
 30
0.0
  0
VERTEX
  5
BD51
  8
ALPHA
 10
59.099973
 20
91.588661
 30
0.0
  0
VERTEX
  5
BD52
  8
ALPHA
 10
58.780943
 20
91.818116
 30
0.0
  0
SEQEND
  5
BD53
  8
ALPHA
  0
POLYLINE
  5
AF8D
  8
ALPHA
 66
     1
 10
0.0
 20
0.0
 30
0.0
 70
   128
  0
VERTEX
  5
BD54
  8
ALPHA
 10
59.227517
 20
92.417107
 30
0.0
  0
VERTEX
  5
BD55
  8
ALPHA
 10
59.10004
 20
92.788539
 30
0.0
  0
VERTEX
  5
BD56
  8
ALPHA
 10
58.781199
 20
93.018024
 30
0.0
  0
SEQEND
  5
BD57
  8
ALPHA
  0
POLYLINE
  5
AF8E
  8
ALPHA
 66
     1
 10
0.0
 20
0.0
 30
0.0
 70
   128
  0
VERTEX
  5
BD58
  8
ALPHA
 10
59.227598
 20
93.617118
 30
0.0
  0
VERTEX
  5
BD59
  8
ALPHA
 10
59.099838
 20
93.988848
 30
0.0
  0
VERTEX
  5
BD5A
  8
ALPHA
 10
58.78054
 20
94.218263
 30
0.0
  0
SEQEND
  5
BD5B
  8
ALPHA
  0
POLYLINE
  5
AF8F
  8
ALPHA
 66
     1
 10
0.0
 20
0.0
 30
0.0
 70
   128
  0
VERTEX
  5
BD5C
  8
ALPHA
 10
58.785643
 20
89.417879
 30
0.0
  0
VERTEX
  5
BD5D
  8
ALPHA
 10
59.10148
 20
89.647632
 30
0.0
  0
VERTEX
  5
BD5E
  8
ALPHA
 10
59.227655
 20
90.017164
 30
0.0
  0
SEQEND
  5
BD5F
  8
ALPHA
  0
POLYLINE
  5
AF90
  8
ALPHA
 66
     1
 10
0.0
 20
0.0
 30
0.0
 70
   128
  0
VERTEX
  5
BD60
  8
ALPHA
 10
58.356974
 20
90.522847
 30
0.0
  0
VERTEX
  5
BD61
  8
ALPHA
 10
58.942878
 20
90.69629
 30
0.0
  0
VERTEX
  5
BD62
  8
ALPHA
 10
59.227555
 20
91.217178
 30
0.0
  0
SEQEND
  5
BD63
  8
ALPHA
  0
POLYLINE
  5
AF91
  8
ALPHA
 66
     1
 10
0.0
 20
0.0
 30
0.0
 70
   128
  0
VERTEX
  5
BD64
  8
ALPHA
 10
58.333679
 20
91.719433
 30
0.0
  0
VERTEX
  5
BD65
  8
ALPHA
 10
58.932942
 20
91.88979
 30
0.0
  0
VERTEX
  5
BD66
  8
ALPHA
 10
59.22757
 20
92.417181
 30
0.0
  0
SEQEND
  5
BD67
  8
ALPHA
  0
POLYLINE
  5
AF92
  8
ALPHA
 66
     1
 10
0.0
 20
0.0
 30
0.0
 70
   128
  0
VERTEX
  5
BD68
  8
ALPHA
 10
58.345113
 20
92.921099
 30
0.0
  0
VERTEX
  5
BD69
  8
ALPHA
 10
58.93781
 20
93.092951
 30
0.0
  0
VERTEX
  5
BD6A
  8
ALPHA
 10
59.227574
 20
93.617179
 30
0.0
  0
SEQEND
  5
BD6B
  8
ALPHA
  0
POLYLINE
  5
AF93
  8
ALPHA
 66
     1
 10
0.0
 20
0.0
 30
0.0
 70
   128
  0
VERTEX
  5
BD6C
  8
ALPHA
 10
59.227618
 20
94.817118
 30
0.0
  0
VERTEX
  5
BD6D
  8
ALPHA
 10
59.100738
 20
95.187481
 30
0.0
  0
VERTEX
  5
BD6E
  8
ALPHA
 10
58.783419
 20
95.417213
 30
0.0
  0
SEQEND
  5
BD6F
  8
ALPHA
  0
POLYLINE
  5
AF94
  8
ALPHA
 66
     1
 10
0.0
 20
0.0
 30
0.0
 70
   128
  0
VERTEX
  5
BD70
  8
ALPHA
 10
59.227632
 20
96.017121
 30
0.0
  0
VERTEX
  5
BD71
  8
ALPHA
 10
59.100312
 20
96.38822
 30
0.0
  0
VERTEX
  5
BD72
  8
ALPHA
 10
58.781921
 20
96.617758
 30
0.0
  0
SEQEND
  5
BD73
  8
ALPHA
  0
POLYLINE
  5
AF95
  8
ALPHA
 66
     1
 10
0.0
 20
0.0
 30
0.0
 70
   128
  0
VERTEX
  5
BD74
  8
ALPHA
 10
59.227603
 20
97.217116
 30
0.0
  0
VERTEX
  5
BD75
  8
ALPHA
 10
59.100278
 20
97.588096
 30
0.0
  0
VERTEX
  5
BD76
  8
ALPHA
 10
58.78198
 20
97.817736
 30
0.0
  0
SEQEND
  5
BD77
  8
ALPHA
  0
POLYLINE
  5
AF96
  8
ALPHA
 66
     1
 10
0.0
 20
0.0
 30
0.0
 70
   128
  0
VERTEX
  5
BD78
  8
ALPHA
 10
58.430021
 20
50.934184
 30
0.0
  0
VERTEX
  5
BD79
  8
ALPHA
 10
58.972948
 20
51.117783
 30
0.0
  0
VERTEX
  5
BD7A
  8
ALPHA
 10
59.227624
 20
51.617173
 30
0.0
  0
SEQEND
  5
BD7B
  8
ALPHA
  0
POLYLINE
  5
AF97
  8
ALPHA
 66
     1
 10
0.0
 20
0.0
 30
0.0
 70
   128
  0
VERTEX
  5
BD7C
  8
ALPHA
 10
59.227601
 20
98.417117
 30
0.0
  0
VERTEX
  5
BD7D
  8
ALPHA
 10
59.100486
 20
98.787818
 30
0.0
  0
VERTEX
  5
BD7E
  8
ALPHA
 10
58.782607
 20
99.017509
 30
0.0
  0
SEQEND
  5
BD7F
  8
ALPHA
  0
POLYLINE
  5
AF98
  8
ALPHA
 66
     1
 10
0.0
 20
0.0
 30
0.0
 70
   128
  0
VERTEX
  5
BD80
  8
ALPHA
 10
58.421603
 20
49.732823
 30
0.0
  0
VERTEX
  5
BD81
  8
ALPHA
 10
58.969528
 20
49.915217
 30
0.0
  0
VERTEX
  5
BD82
  8
ALPHA
 10
59.227619
 20
50.417173
 30
0.0
  0
SEQEND
  5
BD83
  8
ALPHA
  0
POLYLINE
  5
AF99
  8
ALPHA
 66
     1
 10
0.0
 20
0.0
 30
0.0
 70
   128
  0
VERTEX
  5
BD84
  8
ALPHA
 10
58.226706
 20
94.104748
 30
0.0
  0
VERTEX
  5
BD85
  8
ALPHA
 10
58.886295
 20
94.26247
 30
0.0
  0
VERTEX
  5
BD86
  8
ALPHA
 10
59.227684
 20
94.817158
 30
0.0
  0
SEQEND
  5
BD87
  8
ALPHA
  0
POLYLINE
  5
AF9A
  8
ALPHA
 66
     1
 10
0.0
 20
0.0
 30
0.0
 70
   128
  0
VERTEX
  5
BD88
  8
ALPHA
 10
58.420573
 20
95.332657
 30
0.0
  0
VERTEX
  5
BD89
  8
ALPHA
 10
58.969123
 20
95.514904
 30
0.0
  0
VERTEX
  5
BD8A
  8
ALPHA
 10
59.227623
 20
96.01717
 30
0.0
  0
SEQEND
  5
BD8B
  8
ALPHA
  0
POLYLINE
  5
AF9B
  8
ALPHA
 66
     1
 10
0.0
 20
0.0
 30
0.0
 70
   128
  0
VERTEX
  5
BD8C
  8
ALPHA
 10
58.381783
 20
96.526585
 30
0.0
  0
VERTEX
  5
BD8D
  8
ALPHA
 10
58.953169
 20
96.703412
 30
0.0
  0
VERTEX
  5
BD8E
  8
ALPHA
 10
59.227589
 20
97.217177
 30
0.0
  0
SEQEND
  5
BD8F
  8
ALPHA
  0
POLYLINE
  5
AF9C
  8
ALPHA
 66
     1
 10
0.0
 20
0.0
 30
0.0
 70
   128
  0
VERTEX
  5
BD90
  8
ALPHA
 10
58.409484
 20
97.730892
 30
0.0
  0
VERTEX
  5
BD91
  8
ALPHA
 10
58.964554
 20
97.911565
 30
0.0
  0
VERTEX
  5
BD92
  8
ALPHA
 10
59.227605
 20
98.417178
 30
0.0
  0
SEQEND
  5
BD93
  8
ALPHA
  0
POLYLINE
  5
AF9D
  8
ALPHA
 66
     1
 10
0.0
 20
0.0
 30
0.0
 70
   128
  0
VERTEX
  5
BD94
  8
ALPHA
 10
58.36993
 20
48.524785
 30
0.0
  0
VERTEX
  5
BD95
  8
ALPHA
 10
58.948237
 20
48.69999
 30
0.0
  0
VERTEX
  5
BD96
  8
ALPHA
 10
59.227591
 20
49.217175
 30
0.0
  0
SEQEND
  5
BD97
  8
ALPHA
  0
POLYLINE
  5
AF9E
  8
ALPHA
 66
     1
 10
0.0
 20
0.0
 30
0.0
 70
   128
  0
VERTEX
  5
BD98
  8
ALPHA
 10
59.227583
 20
99.617114
 30
0.0
  0
VERTEX
  5
BD99
  8
ALPHA
 10
59.100427
 20
99.987895
 30
0.0
  0
VERTEX
  5
BD9A
  8
ALPHA
 10
58.78239
 20
100.217586
 30
0.0
  0
SEQEND
  5
BD9B
  8
ALPHA
  0
POLYLINE
  5
AF9F
  8
ALPHA
 66
     1
 10
0.0
 20
0.0
 30
0.0
 70
   128
  0
VERTEX
  5
BD9C
  8
ALPHA
 10
59.227605
 20
100.817115
 30
0.0
  0
VERTEX
  5
BD9D
  8
ALPHA
 10
59.100245
 20
101.188139
 30
0.0
  0
VERTEX
  5
BD9E
  8
ALPHA
 10
58.781882
 20
101.417771
 30
0.0
  0
SEQEND
  5
BD9F
  8
ALPHA
  0
POLYLINE
  5
AFA0
  8
ALPHA
 66
     1
 10
0.0
 20
0.0
 30
0.0
 70
   128
  0
VERTEX
  5
BDA0
  8
ALPHA
 10
59.227608
 20
102.017117
 30
0.0
  0
VERTEX
  5
BDA1
  8
ALPHA
 10
59.10045
 20
102.387866
 30
0.0
  0
VERTEX
  5
BDA2
  8
ALPHA
 10
58.78253
 20
102.617536
 30
0.0
  0
SEQEND
  5
BDA3
  8
ALPHA
  0
POLYLINE
  5
AFA1
  8
ALPHA
 66
     1
 10
0.0
 20
0.0
 30
0.0
 70
   128
  0
VERTEX
  5
BDA4
  8
ALPHA
 10
59.227624
 20
103.21712
 30
0.0
  0
VERTEX
  5
BDA5
  8
ALPHA
 10
59.100289
 20
103.588241
 30
0.0
  0
VERTEX
  5
BDA6
  8
ALPHA
 10
58.781885
 20
103.817771
 30
0.0
  0
SEQEND
  5
BDA7
  8
ALPHA
  0
POLYLINE
  5
AFA2
  8
ALPHA
 66
     1
 10
0.0
 20
0.0
 30
0.0
 70
   128
  0
VERTEX
  5
BDA8
  8
ALPHA
 10
58.34051
 20
98.920425
 30
0.0
  0
VERTEX
  5
BDA9
  8
ALPHA
 10
58.935786
 20
99.091644
 30
0.0
  0
VERTEX
  5
BDAA
  8
ALPHA
 10
59.227624
 20
99.617174
 30
0.0
  0
SEQEND
  5
BDAB
  8
ALPHA
  0
POLYLINE
  5
AFA3
  8
ALPHA
 66
     1
 10
0.0
 20
0.0
 30
0.0
 70
   128
  0
VERTEX
  5
BDAC
  8
ALPHA
 10
58.406916
 20
100.130485
 30
0.0
  0
VERTEX
  5
BDAD
  8
ALPHA
 10
58.963516
 20
100.310794
 30
0.0
  0
VERTEX
  5
BDAE
  8
ALPHA
 10
59.227615
 20
100.817173
 30
0.0
  0
SEQEND
  5
BDAF
  8
ALPHA
  0
POLYLINE
  5
AFA4
  8
ALPHA
 66
     1
 10
0.0
 20
0.0
 30
0.0
 70
   128
  0
VERTEX
  5
BDB0
  8
ALPHA
 10
59.227538
 20
51.617111
 30
0.0
  0
VERTEX
  5
BDB1
  8
ALPHA
 10
59.100315
 20
51.988188
 30
0.0
  0
VERTEX
  5
BDB2
  8
ALPHA
 10
58.782024
 20
52.217728
 30
0.0
  0
SEQEND
  5
BDB3
  8
ALPHA
  0
POLYLINE
  5
AFA5
  8
ALPHA
 66
     1
 10
0.0
 20
0.0
 30
0.0
 70
   128
  0
VERTEX
  5
BDB4
  8
ALPHA
 10
58.365744
 20
101.324156
 30
0.0
  0
VERTEX
  5
BDB5
  8
ALPHA
 10
58.946446
 20
101.498796
 30
0.0
  0
VERTEX
  5
BDB6
  8
ALPHA
 10
59.227588
 20
102.017178
 30
0.0
  0
SEQEND
  5
BDB7
  8
ALPHA
  0
POLYLINE
  5
AFA6
  8
ALPHA
 66
     1
 10
0.0
 20
0.0
 30
0.0
 70
   128
  0
VERTEX
  5
BDB8
  8
ALPHA
 10
58.413533
 20
102.531534
 30
0.0
  0
VERTEX
  5
BDB9
  8
ALPHA
 10
58.96623
 20
102.712781
 30
0.0
  0
VERTEX
  5
BDBA
  8
ALPHA
 10
59.227613
 20
103.217175
 30
0.0
  0
SEQEND
  5
BDBB
  8
ALPHA
  0
POLYLINE
  5
AFA7
  8
ALPHA
 66
     1
 10
0.0
 20
0.0
 30
0.0
 70
   128
  0
VERTEX
  5
BDBC
  8
ALPHA
 10
59.227531
 20
50.417109
 30
0.0
  0
VERTEX
  5
BDBD
  8
ALPHA
 10
59.10033
 20
50.788161
 30
0.0
  0
VERTEX
  5
BDBE
  8
ALPHA
 10
58.782087
 20
51.017703
 30
0.0
  0
SEQEND
  5
BDBF
  8
ALPHA
  0
POLYLINE
  5
AFA8
  8
ALPHA
 66
     1
 10
0.0
 20
0.0
 30
0.0
 70
   128
  0
VERTEX
  5
BDC0
  8
ALPHA
 10
59.227551
 20
49.217111
 30
0.0
  0
VERTEX
  5
BDC1
  8
ALPHA
 10
59.100262
 20
49.588259
 30
0.0
  0
VERTEX
  5
BDC2
  8
ALPHA
 10
58.781882
 20
49.817776
 30
0.0
  0
SEQEND
  5
BDC3
  8
ALPHA
  0
POLYLINE
  5
AFA9
  8
ALPHA
 66
     1
 10
0.0
 20
0.0
 30
0.0
 70
   128
  0
VERTEX
  5
BDC4
  8
ALPHA
 10
59.227531
 20
104.417109
 30
0.0
  0
VERTEX
  5
BDC5
  8
ALPHA
 10
59.099868
 20
104.788781
 30
0.0
  0
VERTEX
  5
BDC6
  8
ALPHA
 10
58.780631
 20
105.01823
 30
0.0
  0
SEQEND
  5
BDC7
  8
ALPHA
  0
POLYLINE
  5
AFAA
  8
ALPHA
 66
     1
 10
0.0
 20
0.0
 30
0.0
 70
   128
  0
VERTEX
  5
BDC8
  8
ALPHA
 10
59.227536
 20
105.61711
 30
0.0
  0
VERTEX
  5
BDC9
  8
ALPHA
 10
59.099989
 20
105.988623
 30
0.0
  0
VERTEX
  5
BDCA
  8
ALPHA
 10
58.781001
 20
106.218096
 30
0.0
  0
SEQEND
  5
BDCB
  8
ALPHA
  0
POLYLINE
  5
AFAB
  8
ALPHA
 66
     1
 10
0.0
 20
0.0
 30
0.0
 70
   128
  0
VERTEX
  5
BDCC
  8
ALPHA
 10
59.227546
 20
106.817111
 30
0.0
  0
VERTEX
  5
BDCD
  8
ALPHA
 10
59.099995
 20
107.188612
 30
0.0
  0
VERTEX
  5
BDCE
  8
ALPHA
 10
58.781065
 20
107.418072
 30
0.0
  0
SEQEND
  5
BDCF
  8
ALPHA
  0
LINE
  5
AFAC
  8
ALPHA
 10
59.227589
 20
108.017119
 30
0.0
 11
59.077475
 21
108.41714
 31
0.0
  0
POLYLINE
  5
AFAD
  8
ALPHA
 66
     1
 10
0.0
 20
0.0
 30
0.0
 70
   128
  0
VERTEX
  5
BDD0
  8
ALPHA
 10
58.21462
 20
103.703177
 30
0.0
  0
VERTEX
  5
BDD1
  8
ALPHA
 10
58.880918
 20
103.859624
 30
0.0
  0
VERTEX
  5
BDD2
  8
ALPHA
 10
59.227596
 20
104.417174
 30
0.0
  0
SEQEND
  5
BDD3
  8
ALPHA
  0
POLYLINE
  5
AFAE
  8
ALPHA
 66
     1
 10
0.0
 20
0.0
 30
0.0
 70
   128
  0
VERTEX
  5
BDD4
  8
ALPHA
 10
58.339038
 20
104.92021
 30
0.0
  0
VERTEX
  5
BDD5
  8
ALPHA
 10
58.935276
 20
105.091284
 30
0.0
  0
VERTEX
  5
BDD6
  8
ALPHA
 10
59.227551
 20
105.61718
 30
0.0
  0
SEQEND
  5
BDD7
  8
ALPHA
  0
POLYLINE
  5
AFAF
  8
ALPHA
 66
     1
 10
0.0
 20
0.0
 30
0.0
 70
   128
  0
VERTEX
  5
BDD8
  8
ALPHA
 10
58.33594
 20
106.119761
 30
0.0
  0
VERTEX
  5
BDD9
  8
ALPHA
 10
58.933903
 20
106.290411
 30
0.0
  0
VERTEX
  5
BDDA
  8
ALPHA
 10
59.227571
 20
106.817181
 30
0.0
  0
SEQEND
  5
BDDB
  8
ALPHA
  0
POLYLINE
  5
AFB0
  8
ALPHA
 66
     1
 10
0.0
 20
0.0
 30
0.0
 70
   128
  0
VERTEX
  5
BDDC
  8
ALPHA
 10
58.342909
 20
107.320776
 30
0.0
  0
VERTEX
  5
BDDD
  8
ALPHA
 10
58.936873
 20
107.492338
 30
0.0
  0
VERTEX
  5
BDDE
  8
ALPHA
 10
59.227583
 20
108.017178
 30
0.0
  0
SEQEND
  5
BDDF
  8
ALPHA
  0
ARC
  5
AFB1
  8
ALPHA
 10
59.278827
 20
47.61593
 30
0.0
 40
0.2
 50
216.869898
 51
268.623278
  0
LINE
  5
AFB2
  8
ALPHA
 10
59.377918
 20
110.417142
 30
0.0
 11
52.977918
 21
110.417142
 31
0.0
  0
LINE
  5
AFB3
  8
ALPHA
 10
59.377918
 20
108.417142
 30
0.0
 11
52.977918
 21
108.417142
 31
0.0
  0
LINE
  5
AFB4
  8
ALPHA
 10
59.274022
 20
47.415987
 30
0.0
 11
53.081814
 21
47.415987
 31
0.0
  0
LINE
  5
AFB5
  8
ALPHA
 10
60.923224
 20
39.817988
 30
0.0
 11
51.432612
 21
39.817988
 31
0.0
  0
LINE
  5
AFB6
  8
ALPHA
 10
49.777918
 20
38.317142
 30
0.0
 11
62.577918
 21
38.317142
 31
0.0
  0
LINE
  5
AFB7
  8
ALPHA
 10
48.677918
 20
37.217142
 30
0.0
 11
63.677918
 21
37.217142
 31
0.0
  0
LINE
  5
AFB8
  8
ALPHA
 10
63.677918
 20
35.017142
 30
0.0
 11
48.677918
 21
35.017142
 31
0.0
  0
LINE
  5
AFB9
  8
ALPHA
 10
63.477918
 20
34.817142
 30
0.0
 11
48.877918
 21
34.817142
 31
0.0
  0
LINE
  5
AFBA
  8
ALPHA
 10
62.927382
 20
34.567142
 30
0.0
 11
56.472349
 21
34.567142
 31
0.0
  0
LINE
  5
AFBB
  8
ALPHA
 10
62.927382
 20
33.867142
 30
0.0
 11
56.472349
 21
33.867142
 31
0.0
  0
LINE
  5
AFBC
  8
ALPHA
 10
48.877918
 20
33.617142
 30
0.0
 11
63.477918
 21
33.617142
 31
0.0
  0
LINE
  5
AFBD
  8
ALPHA
 10
48.677918
 20
33.417142
 30
0.0
 11
63.677918
 21
33.417142
 31
0.0
  0
LINE
  5
AFBE
  8
ALPHA
 10
63.677918
 20
33.117142
 30
0.0
 11
48.677918
 21
33.117142
 31
0.0
  0
LINE
  5
AFBF
  8
ALPHA
 10
48.677918
 20
32.917142
 30
0.0
 11
63.677918
 21
32.917142
 31
0.0
  0
LINE
  5
AFC0
  8
ALPHA
 10
48.177918
 20
32.417142
 30
0.0
 11
64.177918
 21
32.417142
 31
0.0
  0
LINE
  5
AFC1
  8
ALPHA
 10
48.177918
 20
31.417142
 30
0.0
 11
64.177918
 21
31.417142
 31
0.0
  0
LINE
  5
AFC2
  8
ALPHA
 10
62.87785
 20
29.267142
 30
0.0
 11
49.477985
 21
29.267142
 31
0.0
  0
LINE
  5
AFC3
  8
ALPHA
 10
62.527918
 20
27.967142
 30
0.0
 11
49.827918
 21
27.967142
 31
0.0
  0
POLYLINE
  5
AFC4
  8
ALPHA
 66
     1
 10
0.0
 20
0.0
 30
0.0
 70
   128
  0
VERTEX
  5
BDE0
  8
ALPHA
 10
53.935308
 20
74.501634
 30
0.0
  0
VERTEX
  5
BDE1
  8
ALPHA
 10
53.386746
 20
74.319411
 30
0.0
  0
VERTEX
  5
BDE2
  8
ALPHA
 10
53.128219
 20
73.817119
 30
0.0
  0
SEQEND
  5
BDE3
  8
ALPHA
  0
LINE
  5
AFC5
  8
ALPHA
 10
54.34679
 20
50.555729
 30
0.0
 11
58.022882
 21
50.88008
 31
0.0
  0
POLYLINE
  5
AFC6
  8
ALPHA
 66
     1
 10
0.0
 20
0.0
 30
0.0
 70
   128
  0
VERTEX
  5
BDE4
  8
ALPHA
 10
53.128223
 20
51.017173
 30
0.0
  0
VERTEX
  5
BDE5
  8
ALPHA
 10
53.255646
 20
50.646077
 30
0.0
  0
VERTEX
  5
BDE6
  8
ALPHA
 10
53.574199
 20
50.416425
 30
0.0
  0
SEQEND
  5
BDE7
  8
ALPHA
  0
LINE
  5
AFC7
  8
ALPHA
 10
58.02286
 20
50.880282
 30
0.0
 11
54.346789
 21
50.55576
 31
0.0
  0
ARC
  5
AFC8
  8
ALPHA
 10
53.177918
 20
43.417142
 30
0.0
 40
4.0
 50
91.376722
 51
244.130268
  0
LINE
  5
AFC9
  8
ALPHA
 10
55.883487
 20
34.567142
 30
0.0
 11
49.428454
 21
34.567142
 31
0.0
  0
LINE
  5
AFCA
  8
ALPHA
 10
55.883487
 20
33.867142
 30
0.0
 11
49.428454
 21
33.867142
 31
0.0
  0
ARC
  5
AFCB
  8
ALPHA
 10
48.877918
 20
33.417142
 30
0.0
 40
0.2
 50
90.0
 51
180.0
  0
ARC
  5
AFCC
  8
ALPHA
 10
48.877918
 20
33.117142
 30
0.0
 40
0.2
 50
180.0
 51
270.0
  0
LINE
  5
AFCD
  8
ALPHA
 10
48.177918
 20
32.417142
 30
0.0
 11
48.677918
 21
32.917142
 31
0.0
  0
LINE
  5
AFCE
  8
ALPHA
 10
48.677918
 20
33.117142
 30
0.0
 11
48.677918
 21
33.417142
 31
0.0
  0
LINE
  5
AFCF
  8
ALPHA
 10
48.177918
 20
31.417142
 30
0.0
 11
48.177918
 21
32.417142
 31
0.0
  0
LINE
  5
AFD0
  8
ALPHA
 10
50.677918
 20
29.267142
 30
0.0
 11
50.677918
 21
27.967142
 31
0.0
  0
LINE
  5
AFD1
  8
ALPHA
 10
49.477918
 20
31.417142
 30
0.0
 11
49.477918
 21
29.267142
 31
0.0
  0
ARC
  5
AFD2
  8
ALPHA
 10
49.777918
 20
37.217142
 30
0.0
 40
1.1
 50
90.0
 51
180.0
  0
ARC
  5
AFD3
  8
ALPHA
 10
48.877918
 20
35.017142
 30
0.0
 40
0.2
 50
180.0
 51
270.0
  0
LINE
  5
AFD4
  8
ALPHA
 10
48.677918
 20
35.017142
 30
0.0
 11
48.677918
 21
37.217142
 31
0.0
  0
ARC
  5
AFD5
  8
ALPHA
 10
49.177918
 20
34.217142
 30
0.0
 40
0.6
 50
270.0
 51
323.964466
  0
ARC
  5
AFD6
  8
ALPHA
 10
49.177918
 20
34.217142
 30
0.0
 40
0.6
 50
36.035534
 51
90.0
  0
ARC
  5
AFD7
  8
ALPHA
 10
49.427918
 20
34.217142
 30
0.0
 40
0.35
 50
90.0
 51
270.0
  0
ARC
  5
AFD8
  8
ALPHA
 10
51.087911
 20
39.107149
 30
0.0
 40
0.790007
 50
270.0
 51
64.130268
  0
LINE
  5
AFD9
  8
ALPHA
 10
53.000313
 20
29.267142
 30
0.0
 11
53.000313
 21
31.417142
 31
0.0
  0
LINE
  5
AFDA
  8
ALPHA
 10
54.947094
 20
29.267142
 30
0.0
 11
54.947094
 21
31.417142
 31
0.0
  0
LINE
  5
AFDB
  8
ALPHA
 10
54.779937
 20
29.267142
 30
0.0
 11
54.779937
 21
31.417142
 31
0.0
  0
LINE
  5
AFDC
  8
ALPHA
 10
54.635243
 20
29.267142
 30
0.0
 11
54.635243
 21
31.417142
 31
0.0
  0
LINE
  5
AFDD
  8
ALPHA
 10
54.253923
 20
31.417142
 30
0.0
 11
54.253923
 21
29.267142
 31
0.0
  0
LINE
  5
AFDE
  8
ALPHA
 10
54.061372
 20
31.417142
 30
0.0
 11
54.061372
 21
29.267142
 31
0.0
  0
LINE
  5
AFDF
  8
ALPHA
 10
53.651531
 20
29.267142
 30
0.0
 11
53.651531
 21
31.417142
 31
0.0
  0
LINE
  5
AFE0
  8
ALPHA
 10
53.442482
 20
29.267142
 30
0.0
 11
53.442482
 21
31.417142
 31
0.0
  0
LINE
  5
AFE1
  8
ALPHA
 10
53.250198
 20
29.267142
 30
0.0
 11
53.250198
 21
31.417142
 31
0.0
  0
LINE
  5
AFE2
  8
ALPHA
 10
53.129516
 20
29.267142
 30
0.0
 11
53.129516
 21
31.417142
 31
0.0
  0
LINE
  5
AFE3
  8
ALPHA
 10
53.105269
 20
29.267142
 30
0.0
 11
53.105269
 21
31.417142
 31
0.0
  0
LINE
  5
AFE4
  8
ALPHA
 10
57.040543
 20
29.267142
 30
0.0
 11
57.040543
 21
31.417142
 31
0.0
  0
LINE
  5
AFE5
  8
ALPHA
 10
56.848551
 20
29.267142
 30
0.0
 11
56.848551
 21
31.417142
 31
0.0
  0
LINE
  5
AFE6
  8
ALPHA
 10
56.549874
 20
29.267142
 30
0.0
 11
56.549874
 21
31.417142
 31
0.0
  0
LINE
  5
AFE7
  8
ALPHA
 10
56.375304
 20
29.267142
 30
0.0
 11
56.375304
 21
31.417142
 31
0.0
  0
LINE
  5
AFE8
  8
ALPHA
 10
55.980532
 20
31.417142
 30
0.0
 11
55.980532
 21
29.267142
 31
0.0
  0
LINE
  5
AFE9
  8
ALPHA
 10
55.805961
 20
31.417142
 30
0.0
 11
55.805961
 21
29.267142
 31
0.0
  0
LINE
  5
AFEA
  8
ALPHA
 10
55.507285
 20
29.267142
 30
0.0
 11
55.507285
 21
31.417142
 31
0.0
  0
LINE
  5
AFEB
  8
ALPHA
 10
55.315293
 20
29.267142
 30
0.0
 11
55.315293
 21
31.417142
 31
0.0
  0
LINE
  5
AFEC
  8
ALPHA
 10
55.108946
 20
29.267142
 30
0.0
 11
55.108946
 21
31.417142
 31
0.0
  0
LINE
  5
AFED
  8
ALPHA
 10
59.105637
 20
29.267142
 30
0.0
 11
59.105637
 21
31.417142
 31
0.0
  0
LINE
  5
AFEE
  8
ALPHA
 10
58.913353
 20
29.267142
 30
0.0
 11
58.913353
 21
31.417142
 31
0.0
  0
LINE
  5
AFEF
  8
ALPHA
 10
58.704305
 20
29.267142
 30
0.0
 11
58.704305
 21
31.417142
 31
0.0
  0
LINE
  5
AFF0
  8
ALPHA
 10
58.294464
 20
29.267142
 30
0.0
 11
58.294464
 21
31.417142
 31
0.0
  0
LINE
  5
AFF1
  8
ALPHA
 10
58.101913
 20
29.267142
 30
0.0
 11
58.101913
 21
31.417142
 31
0.0
  0
LINE
  5
AFF2
  8
ALPHA
 10
57.720592
 20
31.417142
 30
0.0
 11
57.720592
 21
29.267142
 31
0.0
  0
LINE
  5
AFF3
  8
ALPHA
 10
57.575899
 20
31.417142
 30
0.0
 11
57.575899
 21
29.267142
 31
0.0
  0
LINE
  5
AFF4
  8
ALPHA
 10
57.408741
 20
29.267142
 30
0.0
 11
57.408741
 21
31.417142
 31
0.0
  0
LINE
  5
AFF5
  8
ALPHA
 10
57.246889
 20
29.267142
 30
0.0
 11
57.246889
 21
31.417142
 31
0.0
  0
POLYLINE
  5
AFF6
  8
ALPHA
 66
     1
 10
0.0
 20
0.0
 30
0.0
  0
VERTEX
  5
BDE8
  8
ALPHA
 10
56.472349
 20
33.86717
 30
0.0
  0
VERTEX
  5
BDE9
  8
ALPHA
 10
56.474189
 20
33.869694
 30
0.0
  0
VERTEX
  5
BDEA
  8
ALPHA
 10
56.477762
 20
33.889886
 30
0.0
  0
VERTEX
  5
BDEB
  8
ALPHA
 10
56.481021
 20
33.929098
 30
0.0
  0
VERTEX
  5
BDEC
  8
ALPHA
 10
56.483776
 20
33.985049
 30
0.0
  0
VERTEX
  5
BDED
  8
ALPHA
 10
56.485867
 20
34.054489
 30
0.0
  0
VERTEX
  5
BDEE
  8
ALPHA
 10
56.487172
 20
34.133382
 30
0.0
  0
VERTEX
  5
BDEF
  8
ALPHA
 10
56.487615
 20
34.217142
 30
0.0
  0
SEQEND
  5
BDF0
  8
ALPHA
  0
POLYLINE
  5
AFF7
  8
ALPHA
 66
     1
 10
0.0
 20
0.0
 30
0.0
  0
VERTEX
  5
BDF1
  8
ALPHA
 10
56.472349
 20
34.567114
 30
0.0
  0
VERTEX
  5
BDF2
  8
ALPHA
 10
56.470508
 20
34.56459
 30
0.0
  0
VERTEX
  5
BDF3
  8
ALPHA
 10
56.466935
 20
34.544398
 30
0.0
  0
VERTEX
  5
BDF4
  8
ALPHA
 10
56.463676
 20
34.505186
 30
0.0
  0
VERTEX
  5
BDF5
  8
ALPHA
 10
56.460921
 20
34.449235
 30
0.0
  0
VERTEX
  5
BDF6
  8
ALPHA
 10
56.458831
 20
34.379795
 30
0.0
  0
VERTEX
  5
BDF7
  8
ALPHA
 10
56.457526
 20
34.300903
 30
0.0
  0
VERTEX
  5
BDF8
  8
ALPHA
 10
56.457082
 20
34.217142
 30
0.0
  0
SEQEND
  5
BDF9
  8
ALPHA
  0
POLYLINE
  5
AFF8
  8
ALPHA
 66
     1
 10
0.0
 20
0.0
 30
0.0
  0
VERTEX
  5
BDFA
  8
ALPHA
 10
55.898754
 20
34.217142
 30
0.0
  0
VERTEX
  5
BDFB
  8
ALPHA
 10
55.89831
 20
34.133382
 30
0.0
  0
VERTEX
  5
BDFC
  8
ALPHA
 10
55.897005
 20
34.054489
 30
0.0
  0
VERTEX
  5
BDFD
  8
ALPHA
 10
55.894914
 20
33.985049
 30
0.0
  0
VERTEX
  5
BDFE
  8
ALPHA
 10
55.892159
 20
33.929098
 30
0.0
  0
VERTEX
  5
BDFF
  8
ALPHA
 10
55.888901
 20
33.889886
 30
0.0
  0
VERTEX
  5
BE00
  8
ALPHA
 10
55.885327
 20
33.869694
 30
0.0
  0
VERTEX
  5
BE01
  8
ALPHA
 10
55.883487
 20
33.86717
 30
0.0
  0
SEQEND
  5
BE02
  8
ALPHA
  0
POLYLINE
  5
AFF9
  8
ALPHA
 66
     1
 10
0.0
 20
0.0
 30
0.0
  0
VERTEX
  5
BE03
  8
ALPHA
 10
55.86822
 20
34.217142
 30
0.0
  0
VERTEX
  5
BE04
  8
ALPHA
 10
55.868664
 20
34.300903
 30
0.0
  0
VERTEX
  5
BE05
  8
ALPHA
 10
55.869969
 20
34.379795
 30
0.0
  0
VERTEX
  5
BE06
  8
ALPHA
 10
55.87206
 20
34.449235
 30
0.0
  0
VERTEX
  5
BE07
  8
ALPHA
 10
55.874814
 20
34.505186
 30
0.0
  0
VERTEX
  5
BE08
  8
ALPHA
 10
55.878073
 20
34.544398
 30
0.0
  0
VERTEX
  5
BE09
  8
ALPHA
 10
55.881647
 20
34.56459
 30
0.0
  0
VERTEX
  5
BE0A
  8
ALPHA
 10
55.883487
 20
34.567114
 30
0.0
  0
SEQEND
  5
BE0B
  8
ALPHA
  0
POLYLINE
  5
AFFA
  8
ALPHA
 66
     1
 10
0.0
 20
0.0
 30
0.0
  0
VERTEX
  5
BE0C
  8
ALPHA
 10
56.487615
 20
34.217142
 30
0.0
  0
VERTEX
  5
BE0D
  8
ALPHA
 10
56.487172
 20
34.300903
 30
0.0
  0
VERTEX
  5
BE0E
  8
ALPHA
 10
56.485867
 20
34.379795
 30
0.0
  0
VERTEX
  5
BE0F
  8
ALPHA
 10
56.483776
 20
34.449235
 30
0.0
  0
VERTEX
  5
BE10
  8
ALPHA
 10
56.481021
 20
34.505186
 30
0.0
  0
VERTEX
  5
BE11
  8
ALPHA
 10
56.477762
 20
34.544398
 30
0.0
  0
VERTEX
  5
BE12
  8
ALPHA
 10
56.474189
 20
34.56459
 30
0.0
  0
VERTEX
  5
BE13
  8
ALPHA
 10
56.472349
 20
34.567114
 30
0.0
  0
SEQEND
  5
BE14
  8
ALPHA
  0
POLYLINE
  5
AFFB
  8
ALPHA
 66
     1
 10
0.0
 20
0.0
 30
0.0
  0
VERTEX
  5
BE15
  8
ALPHA
 10
56.457082
 20
34.217142
 30
0.0
  0
VERTEX
  5
BE16
  8
ALPHA
 10
56.457526
 20
34.133382
 30
0.0
  0
VERTEX
  5
BE17
  8
ALPHA
 10
56.458831
 20
34.054489
 30
0.0
  0
VERTEX
  5
BE18
  8
ALPHA
 10
56.460921
 20
33.985049
 30
0.0
  0
VERTEX
  5
BE19
  8
ALPHA
 10
56.463676
 20
33.929098
 30
0.0
  0
VERTEX
  5
BE1A
  8
ALPHA
 10
56.466935
 20
33.889886
 30
0.0
  0
VERTEX
  5
BE1B
  8
ALPHA
 10
56.470508
 20
33.869694
 30
0.0
  0
VERTEX
  5
BE1C
  8
ALPHA
 10
56.472349
 20
33.86717
 30
0.0
  0
SEQEND
  5
BE1D
  8
ALPHA
  0
POLYLINE
  5
AFFC
  8
ALPHA
 66
     1
 10
0.0
 20
0.0
 30
0.0
  0
VERTEX
  5
BE1E
  8
ALPHA
 10
55.883487
 20
34.567114
 30
0.0
  0
VERTEX
  5
BE1F
  8
ALPHA
 10
55.885327
 20
34.56459
 30
0.0
  0
VERTEX
  5
BE20
  8
ALPHA
 10
55.888901
 20
34.544398
 30
0.0
  0
VERTEX
  5
BE21
  8
ALPHA
 10
55.892159
 20
34.505186
 30
0.0
  0
VERTEX
  5
BE22
  8
ALPHA
 10
55.894914
 20
34.449235
 30
0.0
  0
VERTEX
  5
BE23
  8
ALPHA
 10
55.897005
 20
34.379795
 30
0.0
  0
VERTEX
  5
BE24
  8
ALPHA
 10
55.89831
 20
34.300903
 30
0.0
  0
VERTEX
  5
BE25
  8
ALPHA
 10
55.898754
 20
34.217142
 30
0.0
  0
SEQEND
  5
BE26
  8
ALPHA
  0
POLYLINE
  5
AFFD
  8
ALPHA
 66
     1
 10
0.0
 20
0.0
 30
0.0
  0
VERTEX
  5
BE27
  8
ALPHA
 10
55.883487
 20
33.86717
 30
0.0
  0
VERTEX
  5
BE28
  8
ALPHA
 10
55.881647
 20
33.869694
 30
0.0
  0
VERTEX
  5
BE29
  8
ALPHA
 10
55.878073
 20
33.889886
 30
0.0
  0
VERTEX
  5
BE2A
  8
ALPHA
 10
55.874814
 20
33.929098
 30
0.0
  0
VERTEX
  5
BE2B
  8
ALPHA
 10
55.87206
 20
33.985049
 30
0.0
  0
VERTEX
  5
BE2C
  8
ALPHA
 10
55.869969
 20
34.054489
 30
0.0
  0
VERTEX
  5
BE2D
  8
ALPHA
 10
55.868664
 20
34.133382
 30
0.0
  0
VERTEX
  5
BE2E
  8
ALPHA
 10
55.86822
 20
34.217142
 30
0.0
  0
SEQEND
  5
BE2F
  8
ALPHA
  0
LINE
  5
AFFE
  8
ALPHA
 10
54.347289
 20
49.355786
 30
0.0
 11
58.016306
 21
49.679338
 31
0.0
  0
LINE
  5
AFFF
  8
ALPHA
 10
58.01629
 20
49.6795
 30
0.0
 11
54.347288
 21
49.355815
 31
0.0
  0
LINE
  5
B000
  8
ALPHA
 10
53.163786
 20
48.417142
 30
0.0
 11
59.077617
 21
48.417142
 31
0.0
  0
LINE
  5
B001
  8
ALPHA
 10
59.118827
 20
47.49593
 30
0.0
 11
53.237009
 21
47.49593
 31
0.0
  0
POLYLINE
  5
B002
  8
ALPHA
 66
     1
 10
0.0
 20
0.0
 30
0.0
 70
   128
  0
VERTEX
  5
BE30
  8
ALPHA
 10
53.128218
 20
49.817173
 30
0.0
  0
VERTEX
  5
BE31
  8
ALPHA
 10
53.255645
 20
49.446078
 30
0.0
  0
VERTEX
  5
BE32
  8
ALPHA
 10
53.574121
 20
49.216452
 30
0.0
  0
SEQEND
  5
BE33
  8
ALPHA
  0
LINE
  5
B003
  8
ALPHA
 10
53.128163
 20
48.617159
 30
0.0
 11
53.163346
 21
48.417113
 31
0.0
  0
POLYLINE
  5
B004
  8
ALPHA
 66
     1
 10
0.0
 20
0.0
 30
0.0
 70
   128
  0
VERTEX
  5
BE34
  8
ALPHA
 10
54.119675
 20
50.528296
 30
0.0
  0
VERTEX
  5
BE35
  8
ALPHA
 10
53.465266
 20
50.369507
 30
0.0
  0
VERTEX
  5
BE36
  8
ALPHA
 10
53.128293
 20
49.817112
 30
0.0
  0
SEQEND
  5
BE37
  8
ALPHA
  0
LINE
  5
B005
  8
ALPHA
 10
54.346789
 20
50.55576
 30
0.0
 11
54.119675
 21
50.528296
 31
0.0
  0
POLYLINE
  5
B006
  8
ALPHA
 66
     1
 10
0.0
 20
0.0
 30
0.0
 70
   128
  0
VERTEX
  5
BE38
  8
ALPHA
 10
54.137367
 20
49.330607
 30
0.0
  0
VERTEX
  5
BE39
  8
ALPHA
 10
53.473226
 20
49.173773
 30
0.0
  0
VERTEX
  5
BE3A
  8
ALPHA
 10
53.128245
 20
48.617114
 30
0.0
  0
SEQEND
  5
BE3B
  8
ALPHA
  0
LINE
  5
B007
  8
ALPHA
 10
54.347288
 20
49.355815
 30
0.0
 11
54.137367
 21
49.330607
 31
0.0
  0
ARC
  5
B008
  8
ALPHA
 10
53.077009
 20
47.61593
 30
0.0
 40
0.2
 50
271.376722
 51
323.130102
  0
LINE
  5
B009
  8
ALPHA
 10
53.237009
 20
47.49593
 30
0.0
 11
53.927918
 21
48.417142
 31
0.0
  0
LINE
  5
B00A
  8
ALPHA
 10
58.268589
 20
49.710321
 30
0.0
 11
58.421603
 21
49.732823
 31
0.0
  0
LINE
  5
B00B
  8
ALPHA
 10
58.016306
 20
49.679338
 30
0.0
 11
58.268589
 21
49.710321
 31
0.0
  0
LINE
  5
B00C
  8
ALPHA
 10
58.364593
 20
48.523983
 30
0.0
 11
58.36993
 21
48.524785
 31
0.0
  0
LINE
  5
B00D
  8
ALPHA
 10
58.186795
 20
48.49962
 30
0.0
 11
58.364593
 21
48.523983
 31
0.0
  0
LINE
  5
B00E
  8
ALPHA
 10
58.180868
 20
48.498873
 30
0.0
 11
58.186795
 21
48.49962
 31
0.0
  0
LINE
  5
B00F
  8
ALPHA
 10
58.026524
 20
48.480489
 30
0.0
 11
58.180868
 21
48.498873
 31
0.0
  0
LINE
  5
B010
  8
ALPHA
 10
57.461104
 20
48.424154
 30
0.0
 11
58.026524
 21
48.480489
 31
0.0
  0
LINE
  5
B011
  8
ALPHA
 10
57.382405
 20
48.417142
 30
0.0
 11
57.461104
 21
48.424154
 31
0.0
  0
LINE
  5
B012
  8
ALPHA
 10
59.077473
 20
48.417139
 30
0.0
 11
58.78159
 21
48.617881
 31
0.0
  0
LINE
  5
B013
  8
ALPHA
 10
57.472099
 20
48.421759
 30
0.0
 11
57.422319
 21
48.417142
 31
0.0
  0
LINE
  5
B014
  8
ALPHA
 10
58.026496
 20
48.480745
 30
0.0
 11
57.472099
 21
48.421759
 31
0.0
  0
LINE
  5
B015
  8
ALPHA
 10
59.118827
 20
47.49593
 30
0.0
 11
58.427918
 21
48.417142
 31
0.0
  0
LINE
  5
B016
  8
ALPHA
 10
53.990076
 20
62.510128
 30
0.0
 11
53.570093
 21
62.416347
 31
0.0
  0
LINE
  5
B017
  8
ALPHA
 10
53.438128
 20
62.480277
 30
0.0
 11
53.574142
 21
62.41644
 31
0.0
  0
LINE
  5
B018
  8
ALPHA
 10
54.366558
 20
61.35809
 30
0.0
 11
57.997483
 21
61.677232
 31
0.0
  0
LINE
  5
B019
  8
ALPHA
 10
54.356744
 20
60.156904
 30
0.0
 11
58.007337
 21
60.478334
 31
0.0
  0
LINE
  5
B01A
  8
ALPHA
 10
54.338377
 20
58.95467
 30
0.0
 11
58.011228
 21
59.278769
 31
0.0
  0
LINE
  5
B01B
  8
ALPHA
 10
54.549178
 20
57.779084
 30
0.0
 11
58.005653
 21
58.078143
 31
0.0
  0
LINE
  5
B01C
  8
ALPHA
 10
54.481266
 20
56.571605
 30
0.0
 11
58.012252
 21
56.878883
 31
0.0
  0
LINE
  5
B01D
  8
ALPHA
 10
57.997492
 20
61.677174
 30
0.0
 11
54.366574
 21
61.357965
 31
0.0
  0
LINE
  5
B01E
  8
ALPHA
 10
58.007334
 20
60.478367
 30
0.0
 11
54.356749
 21
60.156873
 31
0.0
  0
LINE
  5
B01F
  8
ALPHA
 10
58.01122
 20
59.278848
 30
0.0
 11
54.338361
 21
58.954813
 31
0.0
  0
LINE
  5
B020
  8
ALPHA
 10
58.005652
 20
58.078173
 30
0.0
 11
54.411199
 21
57.762849
 31
0.0
  0
LINE
  5
B021
  8
ALPHA
 10
54.346756
 20
55.355724
 30
0.0
 11
58.017122
 21
55.679431
 31
0.0
  0
LINE
  5
B022
  8
ALPHA
 10
54.339958
 20
54.154877
 30
0.0
 11
58.018989
 21
54.479641
 31
0.0
  0
LINE
  5
B023
  8
ALPHA
 10
54.36121
 20
52.957512
 30
0.0
 11
55.697652
 21
53.081823
 31
0.0
  0
LINE
  5
B024
  8
ALPHA
 10
58.012246
 20
56.878955
 30
0.0
 11
54.481258
 21
56.570288
 31
0.0
  0
LINE
  5
B025
  8
ALPHA
 10
58.01711
 20
55.679561
 30
0.0
 11
54.346755
 21
55.355757
 31
0.0
  0
LINE
  5
B026
  8
ALPHA
 10
58.018973
 20
54.479796
 30
0.0
 11
54.339948
 21
54.154993
 31
0.0
  0
LINE
  5
B027
  8
ALPHA
 10
54.36064
 20
51.757443
 30
0.0
 11
55.701878
 21
51.882162
 31
0.0
  0
LINE
  5
B028
  8
ALPHA
 10
55.590424
 20
51.868569
 30
0.0
 11
54.360657
 21
51.757308
 31
0.0
  0
LINE
  5
B029
  8
ALPHA
 10
55.698031
 20
53.077124
 30
0.0
 11
54.361228
 21
52.957371
 31
0.0
  0
POLYLINE
  5
B02A
  8
ALPHA
 66
     1
 10
0.0
 20
0.0
 30
0.0
 70
   128
  0
VERTEX
  5
BE3C
  8
ALPHA
 10
53.12821
 20
57.017171
 30
0.0
  0
VERTEX
  5
BE3D
  8
ALPHA
 10
53.25509
 20
56.646821
 30
0.0
  0
VERTEX
  5
BE3E
  8
ALPHA
 10
53.572409
 20
56.417074
 30
0.0
  0
SEQEND
  5
BE3F
  8
ALPHA
  0
LINE
  5
B02B
  8
ALPHA
 10
54.340414
 20
56.554933
 30
0.0
 11
54.481129
 21
56.571582
 31
0.0
  0
POLYLINE
  5
B02C
  8
ALPHA
 66
     1
 10
0.0
 20
0.0
 30
0.0
 70
   128
  0
VERTEX
  5
BE40
  8
ALPHA
 10
53.128225
 20
55.817175
 30
0.0
  0
VERTEX
  5
BE41
  8
ALPHA
 10
53.255454
 20
55.446336
 30
0.0
  0
VERTEX
  5
BE42
  8
ALPHA
 10
53.573511
 20
55.216674
 30
0.0
  0
SEQEND
  5
BE43
  8
ALPHA
  0
POLYLINE
  5
B02D
  8
ALPHA
 66
     1
 10
0.0
 20
0.0
 30
0.0
 70
   128
  0
VERTEX
  5
BE44
  8
ALPHA
 10
53.128224
 20
54.617173
 30
0.0
  0
VERTEX
  5
BE45
  8
ALPHA
 10
53.255229
 20
54.246637
 30
0.0
  0
VERTEX
  5
BE46
  8
ALPHA
 10
53.572832
 20
54.01692
 30
0.0
  0
SEQEND
  5
BE47
  8
ALPHA
  0
POLYLINE
  5
B02E
  8
ALPHA
 66
     1
 10
0.0
 20
0.0
 30
0.0
 70
   128
  0
VERTEX
  5
BE48
  8
ALPHA
 10
53.128223
 20
53.417171
 30
0.0
  0
VERTEX
  5
BE49
  8
ALPHA
 10
53.255549
 20
53.046206
 30
0.0
  0
VERTEX
  5
BE4A
  8
ALPHA
 10
53.573871
 20
52.816542
 30
0.0
  0
SEQEND
  5
BE4B
  8
ALPHA
  0
POLYLINE
  5
B02F
  8
ALPHA
 66
     1
 10
0.0
 20
0.0
 30
0.0
 70
   128
  0
VERTEX
  5
BE4C
  8
ALPHA
 10
53.933952
 20
56.501417
 30
0.0
  0
VERTEX
  5
BE4D
  8
ALPHA
 10
53.386204
 20
56.319001
 30
0.0
  0
VERTEX
  5
BE4E
  8
ALPHA
 10
53.128221
 20
55.817119
 30
0.0
  0
SEQEND
  5
BE4F
  8
ALPHA
  0
LINE
  5
B030
  8
ALPHA
 10
54.089486
 20
56.524268
 30
0.0
 11
53.933952
 21
56.501417
 31
0.0
  0
LINE
  5
B031
  8
ALPHA
 10
54.340404
 20
56.555045
 30
0.0
 11
54.089486
 21
56.524268
 31
0.0
  0
LINE
  5
B032
  8
ALPHA
 10
54.471521
 20
56.569269
 30
0.0
 11
54.340404
 21
56.555045
 31
0.0
  0
LINE
  5
B033
  8
ALPHA
 10
54.481258
 20
56.570288
 30
0.0
 11
54.471521
 21
56.569269
 31
0.0
  0
POLYLINE
  5
B034
  8
ALPHA
 66
     1
 10
0.0
 20
0.0
 30
0.0
 70
   128
  0
VERTEX
  5
BE50
  8
ALPHA
 10
53.946521
 20
55.30342
 30
0.0
  0
VERTEX
  5
BE51
  8
ALPHA
 10
53.391283
 20
55.122782
 30
0.0
  0
VERTEX
  5
BE52
  8
ALPHA
 10
53.128225
 20
54.61712
 30
0.0
  0
SEQEND
  5
BE53
  8
ALPHA
  0
LINE
  5
B035
  8
ALPHA
 10
54.109137
 20
55.326902
 30
0.0
 11
53.946521
 21
55.30342
 31
0.0
  0
LINE
  5
B036
  8
ALPHA
 10
54.346755
 20
55.355757
 30
0.0
 11
54.109137
 21
55.326902
 31
0.0
  0
POLYLINE
  5
B037
  8
ALPHA
 66
     1
 10
0.0
 20
0.0
 30
0.0
 70
   128
  0
VERTEX
  5
BE54
  8
ALPHA
 10
53.916093
 20
54.098509
 30
0.0
  0
VERTEX
  5
BE55
  8
ALPHA
 10
53.378979
 20
53.913528
 30
0.0
  0
VERTEX
  5
BE56
  8
ALPHA
 10
53.128215
 20
53.417118
 30
0.0
  0
SEQEND
  5
BE57
  8
ALPHA
  0
LINE
  5
B038
  8
ALPHA
 10
54.063061
 20
54.120645
 30
0.0
 11
53.916093
 21
54.098509
 31
0.0
  0
LINE
  5
B039
  8
ALPHA
 10
54.339948
 20
54.154993
 30
0.0
 11
54.063061
 21
54.120645
 31
0.0
  0
POLYLINE
  5
B03A
  8
ALPHA
 66
     1
 10
0.0
 20
0.0
 30
0.0
 70
   128
  0
VERTEX
  5
BE58
  8
ALPHA
 10
53.128233
 20
52.217178
 30
0.0
  0
VERTEX
  5
BE59
  8
ALPHA
 10
53.255941
 20
51.845687
 30
0.0
  0
VERTEX
  5
BE5A
  8
ALPHA
 10
53.574993
 20
51.616136
 30
0.0
  0
SEQEND
  5
BE5B
  8
ALPHA
  0
POLYLINE
  5
B03B
  8
ALPHA
 66
     1
 10
0.0
 20
0.0
 30
0.0
 70
   128
  0
VERTEX
  5
BE5C
  8
ALPHA
 10
54.015088
 20
51.713825
 30
0.0
  0
VERTEX
  5
BE5D
  8
ALPHA
 10
53.419842
 20
51.542538
 30
0.0
  0
VERTEX
  5
BE5E
  8
ALPHA
 10
53.128286
 20
51.017112
 30
0.0
  0
SEQEND
  5
BE5F
  8
ALPHA
  0
LINE
  5
B03C
  8
ALPHA
 10
54.360657
 20
51.757308
 30
0.0
 11
54.015088
 21
51.713825
 31
0.0
  0
POLYLINE
  5
B03D
  8
ALPHA
 66
     1
 10
0.0
 20
0.0
 30
0.0
 70
   128
  0
VERTEX
  5
BE60
  8
ALPHA
 10
54.01209
 20
52.913387
 30
0.0
  0
VERTEX
  5
BE61
  8
ALPHA
 10
53.418621
 20
52.741734
 30
0.0
  0
VERTEX
  5
BE62
  8
ALPHA
 10
53.128226
 20
52.217119
 30
0.0
  0
SEQEND
  5
BE63
  8
ALPHA
  0
LINE
  5
B03E
  8
ALPHA
 10
54.361228
 20
52.957371
 30
0.0
 11
54.01209
 21
52.913387
 31
0.0
  0
LINE
  5
B03F
  8
ALPHA
 10
53.570093
 20
62.416347
 30
0.0
 11
53.564316
 21
62.414207
 31
0.0
  0
LINE
  5
B040
  8
ALPHA
 10
54.359331
 20
57.757227
 30
0.0
 11
54.549178
 21
57.779084
 31
0.0
  0
POLYLINE
  5
B041
  8
ALPHA
 66
     1
 10
0.0
 20
0.0
 30
0.0
 70
   128
  0
VERTEX
  5
BE64
  8
ALPHA
 10
53.128288
 20
61.817181
 30
0.0
  0
VERTEX
  5
BE65
  8
ALPHA
 10
53.255931
 20
61.445572
 30
0.0
  0
VERTEX
  5
BE66
  8
ALPHA
 10
53.575051
 20
61.216112
 30
0.0
  0
SEQEND
  5
BE67
  8
ALPHA
  0
POLYLINE
  5
B042
  8
ALPHA
 66
     1
 10
0.0
 20
0.0
 30
0.0
 70
   128
  0
VERTEX
  5
BE68
  8
ALPHA
 10
53.128269
 20
60.617179
 30
0.0
  0
VERTEX
  5
BE69
  8
ALPHA
 10
53.255978
 20
60.245501
 30
0.0
  0
VERTEX
  5
BE6A
  8
ALPHA
 10
53.5752
 20
60.016059
 30
0.0
  0
SEQEND
  5
BE6B
  8
ALPHA
  0
POLYLINE
  5
B043
  8
ALPHA
 66
     1
 10
0.0
 20
0.0
 30
0.0
 70
   128
  0
VERTEX
  5
BE6C
  8
ALPHA
 10
53.128292
 20
59.417182
 30
0.0
  0
VERTEX
  5
BE6D
  8
ALPHA
 10
53.255979
 20
59.04551
 30
0.0
  0
VERTEX
  5
BE6E
  8
ALPHA
 10
53.575199
 20
58.816058
 30
0.0
  0
SEQEND
  5
BE6F
  8
ALPHA
  0
POLYLINE
  5
B044
  8
ALPHA
 66
     1
 10
0.0
 20
0.0
 30
0.0
 70
   128
  0
VERTEX
  5
BE70
  8
ALPHA
 10
53.128239
 20
58.217173
 30
0.0
  0
VERTEX
  5
BE71
  8
ALPHA
 10
53.255966
 20
57.845503
 30
0.0
  0
VERTEX
  5
BE72
  8
ALPHA
 10
53.575168
 20
57.616068
 30
0.0
  0
SEQEND
  5
BE73
  8
ALPHA
  0
POLYLINE
  5
B045
  8
ALPHA
 66
     1
 10
0.0
 20
0.0
 30
0.0
 70
   128
  0
VERTEX
  5
BE74
  8
ALPHA
 10
53.545097
 20
62.406779
 30
0.0
  0
VERTEX
  5
BE75
  8
ALPHA
 10
53.24649
 20
62.17565
 30
0.0
  0
VERTEX
  5
BE76
  8
ALPHA
 10
53.128186
 20
61.817124
 30
0.0
  0
SEQEND
  5
BE77
  8
ALPHA
  0
LINE
  5
B046
  8
ALPHA
 10
53.565268
 20
62.414582
 30
0.0
 11
53.545097
 21
62.406779
 31
0.0
  0
LINE
  5
B047
  8
ALPHA
 10
53.570086
 20
62.416365
 30
0.0
 11
53.565268
 21
62.414582
 31
0.0
  0
POLYLINE
  5
B048
  8
ALPHA
 66
     1
 10
0.0
 20
0.0
 30
0.0
 70
   128
  0
VERTEX
  5
BE78
  8
ALPHA
 10
54.023225
 20
61.315006
 30
0.0
  0
VERTEX
  5
BE79
  8
ALPHA
 10
53.423311
 20
61.144777
 30
0.0
  0
VERTEX
  5
BE7A
  8
ALPHA
 10
53.128298
 20
60.61711
 30
0.0
  0
SEQEND
  5
BE7B
  8
ALPHA
  0
LINE
  5
B049
  8
ALPHA
 10
54.366574
 20
61.357965
 30
0.0
 11
54.023225
 21
61.315006
 31
0.0
  0
POLYLINE
  5
B04A
  8
ALPHA
 66
     1
 10
0.0
 20
0.0
 30
0.0
 70
   128
  0
VERTEX
  5
BE7C
  8
ALPHA
 10
53.99834
 20
60.111359
 30
0.0
  0
VERTEX
  5
BE7D
  8
ALPHA
 10
53.412803
 20
59.937885
 30
0.0
  0
VERTEX
  5
BE7E
  8
ALPHA
 10
53.128251
 20
59.417115
 30
0.0
  0
SEQEND
  5
BE7F
  8
ALPHA
  0
LINE
  5
B04B
  8
ALPHA
 10
54.356749
 20
60.156873
 30
0.0
 11
53.99834
 21
60.111359
 31
0.0
  0
POLYLINE
  5
B04C
  8
ALPHA
 66
     1
 10
0.0
 20
0.0
 30
0.0
 70
   128
  0
VERTEX
  5
BE80
  8
ALPHA
 10
54.137546
 20
58.93063
 30
0.0
  0
VERTEX
  5
BE81
  8
ALPHA
 10
53.473274
 20
58.773787
 30
0.0
  0
VERTEX
  5
BE82
  8
ALPHA
 10
53.128247
 20
58.217116
 30
0.0
  0
SEQEND
  5
BE83
  8
ALPHA
  0
LINE
  5
B04D
  8
ALPHA
 10
54.338361
 20
58.954813
 30
0.0
 11
54.137546
 21
58.93063
 31
0.0
  0
POLYLINE
  5
B04E
  8
ALPHA
 66
     1
 10
0.0
 20
0.0
 30
0.0
 70
   128
  0
VERTEX
  5
BE84
  8
ALPHA
 10
54.130676
 20
57.729738
 30
0.0
  0
VERTEX
  5
BE85
  8
ALPHA
 10
53.470261
 20
57.572198
 30
0.0
  0
VERTEX
  5
BE86
  8
ALPHA
 10
53.128154
 20
57.01713
 30
0.0
  0
SEQEND
  5
BE87
  8
ALPHA
  0
LINE
  5
B04F
  8
ALPHA
 10
54.35934
 20
57.757161
 30
0.0
 11
54.130676
 21
57.729738
 31
0.0
  0
LINE
  5
B050
  8
ALPHA
 10
54.411287
 20
57.762857
 30
0.0
 11
54.35934
 21
57.757161
 31
0.0
  0
LINE
  5
B051
  8
ALPHA
 10
55.708583
 20
53.082696
 30
0.0
 11
58.007245
 21
53.278321
 31
0.0
  0
LINE
  5
B052
  8
ALPHA
 10
55.701883
 20
51.882162
 30
0.0
 11
57.999148
 21
52.077418
 31
0.0
  0
LINE
  5
B053
  8
ALPHA
 10
58.007245
 20
53.278345
 30
0.0
 11
55.698027
 21
53.077124
 31
0.0
  0
LINE
  5
B054
  8
ALPHA
 10
57.999154
 20
52.077385
 30
0.0
 11
55.70225
 21
51.877459
 31
0.0
  0
LINE
  5
B055
  8
ALPHA
 10
55.697652
 20
53.081823
 30
0.0
 11
55.708583
 21
53.082696
 31
0.0
  0
LINE
  5
B056
  8
ALPHA
 10
55.70225
 20
51.877459
 30
0.0
 11
55.590424
 21
51.868569
 31
0.0
  0
LINE
  5
B057
  8
ALPHA
 10
55.137461
 20
55.431241
 30
0.0
 11
55.138986
 21
55.435431
 31
0.0
  0
LINE
  5
B058
  8
ALPHA
 10
58.274961
 20
55.711188
 30
0.0
 11
58.426576
 21
55.733626
 31
0.0
  0
LINE
  5
B059
  8
ALPHA
 10
58.017122
 20
55.679431
 30
0.0
 11
58.274961
 21
55.711188
 31
0.0
  0
LINE
  5
B05A
  8
ALPHA
 10
58.253447
 20
54.508282
 30
0.0
 11
58.410038
 21
54.530979
 31
0.0
  0
LINE
  5
B05B
  8
ALPHA
 10
58.018989
 20
54.479641
 30
0.0
 11
58.253447
 21
54.508282
 31
0.0
  0
LINE
  5
B05C
  8
ALPHA
 10
58.230907
 20
53.305297
 30
0.0
 11
58.392703
 21
53.328264
 31
0.0
  0
LINE
  5
B05D
  8
ALPHA
 10
58.007245
 20
53.278321
 30
0.0
 11
58.230907
 21
53.305297
 31
0.0
  0
LINE
  5
B05E
  8
ALPHA
 10
58.222135
 20
52.104152
 30
0.0
 11
58.392482
 21
52.12823
 31
0.0
  0
LINE
  5
B05F
  8
ALPHA
 10
57.999148
 20
52.077418
 30
0.0
 11
58.222135
 21
52.104152
 31
0.0
  0
LINE
  5
B060
  8
ALPHA
 10
58.280856
 20
50.911995
 30
0.0
 11
58.430021
 21
50.934184
 31
0.0
  0
LINE
  5
B061
  8
ALPHA
 10
58.022882
 20
50.88008
 30
0.0
 11
58.280856
 21
50.911995
 31
0.0
  0
LINE
  5
B062
  8
ALPHA
 10
57.159183
 20
55.593869
 30
0.0
 11
57.157721
 21
55.597884
 31
0.0
  0
LINE
  5
B063
  8
ALPHA
 10
57.581982
 20
54.432237
 30
0.0
 11
57.580871
 21
54.435289
 31
0.0
  0
LINE
  5
B064
  8
ALPHA
 10
57.997483
 20
61.677232
 30
0.0
 11
58.348352
 21
61.721573
 31
0.0
  0
LINE
  5
B065
  8
ALPHA
 10
58.007337
 20
60.478334
 30
0.0
 11
58.35318
 21
60.522286
 31
0.0
  0
LINE
  5
B066
  8
ALPHA
 10
58.011228
 20
59.278769
 30
0.0
 11
58.217001
 21
59.303486
 31
0.0
  0
LINE
  5
B067
  8
ALPHA
 10
58.005653
 20
58.078143
 30
0.0
 11
58.328237
 21
58.118647
 31
0.0
  0
LINE
  5
B068
  8
ALPHA
 10
58.012252
 20
56.878883
 30
0.0
 11
58.22144
 21
56.904061
 31
0.0
  0
LINE
  5
B069
  8
ALPHA
 10
58.009104
 20
65.278629
 30
0.0
 11
54.335039
 21
64.954441
 31
0.0
  0
LINE
  5
B06A
  8
ALPHA
 10
58.00856
 20
66.478522
 30
0.0
 11
54.353979
 21
66.156565
 31
0.0
  0
LINE
  5
B06B
  8
ALPHA
 10
58.008686
 20
64.078524
 30
0.0
 11
54.357756
 21
63.756984
 31
0.0
  0
LINE
  5
B06C
  8
ALPHA
 10
58.015164
 20
62.879342
 30
0.0
 11
54.330779
 21
62.553959
 31
0.0
  0
LINE
  5
B06D
  8
ALPHA
 10
54.33081
 20
62.553667
 30
0.0
 11
58.015177
 21
62.879211
 31
0.0
  0
LINE
  5
B06E
  8
ALPHA
 10
54.357749
 20
63.757033
 30
0.0
 11
58.00869
 21
64.078485
 31
0.0
  0
LINE
  5
B06F
  8
ALPHA
 10
54.335061
 20
64.954229
 30
0.0
 11
58.009113
 21
65.278532
 31
0.0
  0
LINE
  5
B070
  8
ALPHA
 10
58.020182
 20
67.679946
 30
0.0
 11
54.333145
 21
67.354226
 31
0.0
  0
LINE
  5
B071
  8
ALPHA
 10
58.007838
 20
68.878404
 30
0.0
 11
54.325045
 21
68.553309
 31
0.0
  0
LINE
  5
B072
  8
ALPHA
 10
58.012601
 20
70.078997
 30
0.0
 11
54.342331
 21
69.755261
 31
0.0
  0
LINE
  5
B073
  8
ALPHA
 10
58.017899
 20
71.279663
 30
0.0
 11
54.33814
 21
70.954791
 31
0.0
  0
LINE
  5
B074
  8
ALPHA
 10
54.35397
 20
66.15662
 30
0.0
 11
58.008565
 21
66.478469
 31
0.0
  0
LINE
  5
B075
  8
ALPHA
 10
54.333167
 20
67.354022
 30
0.0
 11
58.0202
 21
67.679776
 31
0.0
  0
LINE
  5
B076
  8
ALPHA
 10
54.32508
 20
68.552995
 30
0.0
 11
58.007838
 21
68.878389
 31
0.0
  0
LINE
  5
B077
  8
ALPHA
 10
54.342338
 20
69.755176
 30
0.0
 11
58.012607
 21
70.078923
 31
0.0
  0
LINE
  5
B078
  8
ALPHA
 10
58.01362
 20
72.479121
 30
0.0
 11
54.338546
 21
72.154835
 31
0.0
  0
LINE
  5
B079
  8
ALPHA
 10
58.01868
 20
73.679761
 30
0.0
 11
54.340656
 21
73.355072
 31
0.0
  0
LINE
  5
B07A
  8
ALPHA
 10
54.338154
 20
70.954647
 30
0.0
 11
58.017914
 21
71.279519
 31
0.0
  0
LINE
  5
B07B
  8
ALPHA
 10
54.338559
 20
72.154701
 30
0.0
 11
58.013627
 21
72.479037
 31
0.0
  0
LINE
  5
B07C
  8
ALPHA
 10
54.340665
 20
73.354964
 30
0.0
 11
58.018696
 21
73.679608
 31
0.0
  0
POLYLINE
  5
B07D
  8
ALPHA
 66
     1
 10
0.0
 20
0.0
 30
0.0
 70
   128
  0
VERTEX
  5
BE88
  8
ALPHA
 10
53.916792
 20
68.498624
 30
0.0
  0
VERTEX
  5
BE89
  8
ALPHA
 10
53.379239
 20
68.313743
 30
0.0
  0
VERTEX
  5
BE8A
  8
ALPHA
 10
53.128204
 20
67.81712
 30
0.0
  0
SEQEND
  5
BE8B
  8
ALPHA
  0
POLYLINE
  5
B07E
  8
ALPHA
 66
     1
 10
0.0
 20
0.0
 30
0.0
 70
   128
  0
VERTEX
  5
BE8C
  8
ALPHA
 10
54.045794
 20
64.91823
 30
0.0
  0
VERTEX
  5
BE8D
  8
ALPHA
 10
53.432948
 20
64.750843
 30
0.0
  0
VERTEX
  5
BE8E
  8
ALPHA
 10
53.128347
 20
64.217104
 30
0.0
  0
SEQEND
  5
BE8F
  8
ALPHA
  0
LINE
  5
B07F
  8
ALPHA
 10
54.335039
 20
64.954441
 30
0.0
 11
54.045794
 21
64.91823
 31
0.0
  0
POLYLINE
  5
B080
  8
ALPHA
 66
     1
 10
0.0
 20
0.0
 30
0.0
 70
   128
  0
VERTEX
  5
BE90
  8
ALPHA
 10
53.752749
 20
66.067716
 30
0.0
  0
VERTEX
  5
BE91
  8
ALPHA
 10
53.316335
 20
65.858595
 30
0.0
  0
VERTEX
  5
BE92
  8
ALPHA
 10
53.128234
 20
65.417118
 30
0.0
  0
SEQEND
  5
BE93
  8
ALPHA
  0
LINE
  5
B081
  8
ALPHA
 10
53.86675
 20
66.090087
 30
0.0
 11
53.752749
 21
66.067716
 31
0.0
  0
LINE
  5
B082
  8
ALPHA
 10
53.998294
 20
66.111353
 30
0.0
 11
53.86675
 21
66.090087
 31
0.0
  0
LINE
  5
B083
  8
ALPHA
 10
54.353979
 20
66.156565
 30
0.0
 11
53.998294
 21
66.111353
 31
0.0
  0
POLYLINE
  5
B084
  8
ALPHA
 66
     1
 10
0.0
 20
0.0
 30
0.0
 70
   128
  0
VERTEX
  5
BE94
  8
ALPHA
 10
54.003662
 20
63.712147
 30
0.0
  0
VERTEX
  5
BE95
  8
ALPHA
 10
53.415016
 20
63.539362
 30
0.0
  0
VERTEX
  5
BE96
  8
ALPHA
 10
53.128292
 20
63.01711
 30
0.0
  0
SEQEND
  5
BE97
  8
ALPHA
  0
LINE
  5
B085
  8
ALPHA
 10
54.357756
 20
63.756984
 30
0.0
 11
54.003662
 21
63.712147
 31
0.0
  0
LINE
  5
B086
  8
ALPHA
 10
54.016379
 20
62.514012
 30
0.0
 11
53.990076
 21
62.510128
 31
0.0
  0
LINE
  5
B087
  8
ALPHA
 10
54.330779
 20
62.553959
 30
0.0
 11
54.016379
 21
62.514012
 31
0.0
  0
LINE
  5
B088
  8
ALPHA
 10
53.128272
 20
63.017178
 30
0.0
 11
53.438128
 21
62.480277
 31
0.0
  0
POLYLINE
  5
B089
  8
ALPHA
 66
     1
 10
0.0
 20
0.0
 30
0.0
 70
   128
  0
VERTEX
  5
BE98
  8
ALPHA
 10
53.128328
 20
64.217186
 30
0.0
  0
VERTEX
  5
BE99
  8
ALPHA
 10
53.255919
 20
63.845599
 30
0.0
  0
VERTEX
  5
BE9A
  8
ALPHA
 10
53.575046
 20
63.616113
 30
0.0
  0
SEQEND
  5
BE9B
  8
ALPHA
  0
POLYLINE
  5
B08A
  8
ALPHA
 66
     1
 10
0.0
 20
0.0
 30
0.0
 70
   128
  0
VERTEX
  5
BE9C
  8
ALPHA
 10
53.128281
 20
65.41718
 30
0.0
  0
VERTEX
  5
BE9D
  8
ALPHA
 10
53.255927
 20
65.045569
 30
0.0
  0
VERTEX
  5
BE9E
  8
ALPHA
 10
53.575066
 20
64.816106
 30
0.0
  0
SEQEND
  5
BE9F
  8
ALPHA
  0
POLYLINE
  5
B08B
  8
ALPHA
 66
     1
 10
0.0
 20
0.0
 30
0.0
 70
   128
  0
VERTEX
  5
BEA0
  8
ALPHA
 10
53.927275
 20
67.300337
 30
0.0
  0
VERTEX
  5
BEA1
  8
ALPHA
 10
53.383496
 20
67.116967
 30
0.0
  0
VERTEX
  5
BEA2
  8
ALPHA
 10
53.128219
 20
66.617118
 30
0.0
  0
SEQEND
  5
BEA3
  8
ALPHA
  0
LINE
  5
B08C
  8
ALPHA
 10
54.08081
 20
67.323088
 30
0.0
 11
53.927275
 21
67.300337
 31
0.0
  0
LINE
  5
B08D
  8
ALPHA
 10
54.333145
 20
67.354226
 30
0.0
 11
54.08081
 21
67.323088
 31
0.0
  0
POLYLINE
  5
B08E
  8
ALPHA
 66
     1
 10
0.0
 20
0.0
 30
0.0
 70
   128
  0
VERTEX
  5
BEA4
  8
ALPHA
 10
53.128151
 20
66.617156
 30
0.0
  0
VERTEX
  5
BEA5
  8
ALPHA
 10
53.255914
 20
66.245499
 30
0.0
  0
VERTEX
  5
BEA6
  8
ALPHA
 10
53.575308
 20
66.016014
 30
0.0
  0
SEQEND
  5
BEA7
  8
ALPHA
  0
POLYLINE
  5
B08F
  8
ALPHA
 66
     1
 10
0.0
 20
0.0
 30
0.0
 70
   128
  0
VERTEX
  5
BEA8
  8
ALPHA
 10
53.128252
 20
67.817172
 30
0.0
  0
VERTEX
  5
BEA9
  8
ALPHA
 10
53.255286
 20
67.446414
 30
0.0
  0
VERTEX
  5
BEAA
  8
ALPHA
 10
53.573184
 20
67.216786
 30
0.0
  0
SEQEND
  5
BEAB
  8
ALPHA
  0
LINE
  5
B090
  8
ALPHA
 10
54.068158
 20
68.521351
 30
0.0
 11
53.916792
 21
68.498624
 31
0.0
  0
LINE
  5
B091
  8
ALPHA
 10
54.325045
 20
68.553309
 30
0.0
 11
54.068158
 21
68.521351
 31
0.0
  0
POLYLINE
  5
B092
  8
ALPHA
 66
     1
 10
0.0
 20
0.0
 30
0.0
 70
   128
  0
VERTEX
  5
BEAC
  8
ALPHA
 10
53.936701
 20
69.701857
 30
0.0
  0
VERTEX
  5
BEAD
  8
ALPHA
 10
53.387323
 20
69.519834
 30
0.0
  0
VERTEX
  5
BEAE
  8
ALPHA
 10
53.128221
 20
69.017118
 30
0.0
  0
SEQEND
  5
BEAF
  8
ALPHA
  0
LINE
  5
B093
  8
ALPHA
 10
54.095768
 20
69.725115
 30
0.0
 11
53.936701
 21
69.701857
 31
0.0
  0
LINE
  5
B094
  8
ALPHA
 10
54.342331
 20
69.755261
 30
0.0
 11
54.095768
 21
69.725115
 31
0.0
  0
POLYLINE
  5
B095
  8
ALPHA
 66
     1
 10
0.0
 20
0.0
 30
0.0
 70
   128
  0
VERTEX
  5
BEB0
  8
ALPHA
 10
53.916852
 20
70.898636
 30
0.0
  0
VERTEX
  5
BEB1
  8
ALPHA
 10
53.37928
 20
70.713763
 30
0.0
  0
VERTEX
  5
BEB2
  8
ALPHA
 10
53.128213
 20
70.21712
 30
0.0
  0
SEQEND
  5
BEB3
  8
ALPHA
  0
LINE
  5
B096
  8
ALPHA
 10
54.065017
 20
70.920918
 30
0.0
 11
53.916852
 21
70.898636
 31
0.0
  0
LINE
  5
B097
  8
ALPHA
 10
54.33814
 20
70.954791
 30
0.0
 11
54.065017
 21
70.920918
 31
0.0
  0
POLYLINE
  5
B098
  8
ALPHA
 66
     1
 10
0.0
 20
0.0
 30
0.0
 70
   128
  0
VERTEX
  5
BEB4
  8
ALPHA
 10
53.128213
 20
69.017171
 30
0.0
  0
VERTEX
  5
BEB5
  8
ALPHA
 10
53.255223
 20
68.646643
 30
0.0
  0
VERTEX
  5
BEB6
  8
ALPHA
 10
53.572845
 20
68.416915
 30
0.0
  0
SEQEND
  5
BEB7
  8
ALPHA
  0
POLYLINE
  5
B099
  8
ALPHA
 66
     1
 10
0.0
 20
0.0
 30
0.0
 70
   128
  0
VERTEX
  5
BEB8
  8
ALPHA
 10
53.128211
 20
70.217173
 30
0.0
  0
VERTEX
  5
BEB9
  8
ALPHA
 10
53.255152
 20
69.84674
 30
0.0
  0
VERTEX
  5
BEBA
  8
ALPHA
 10
53.572578
 20
69.617013
 30
0.0
  0
SEQEND
  5
BEBB
  8
ALPHA
  0
POLYLINE
  5
B09A
  8
ALPHA
 66
     1
 10
0.0
 20
0.0
 30
0.0
 70
   128
  0
VERTEX
  5
BEBC
  8
ALPHA
 10
53.933988
 20
72.101421
 30
0.0
  0
VERTEX
  5
BEBD
  8
ALPHA
 10
53.386225
 20
71.919009
 30
0.0
  0
VERTEX
  5
BEBE
  8
ALPHA
 10
53.128227
 20
71.417116
 30
0.0
  0
SEQEND
  5
BEBF
  8
ALPHA
  0
LINE
  5
B09B
  8
ALPHA
 10
54.085604
 20
72.12374
 30
0.0
 11
53.933988
 21
72.101421
 31
0.0
  0
LINE
  5
B09C
  8
ALPHA
 10
54.338546
 20
72.154835
 30
0.0
 11
54.085604
 21
72.12374
 31
0.0
  0
POLYLINE
  5
B09D
  8
ALPHA
 66
     1
 10
0.0
 20
0.0
 30
0.0
 70
   128
  0
VERTEX
  5
BEC0
  8
ALPHA
 10
53.931145
 20
73.300963
 30
0.0
  0
VERTEX
  5
BEC1
  8
ALPHA
 10
53.385067
 20
73.118146
 30
0.0
  0
VERTEX
  5
BEC2
  8
ALPHA
 10
53.128221
 20
72.617117
 30
0.0
  0
SEQEND
  5
BEC3
  8
ALPHA
  0
LINE
  5
B09E
  8
ALPHA
 10
54.085566
 20
73.323735
 30
0.0
 11
53.931145
 21
73.300963
 31
0.0
  0
LINE
  5
B09F
  8
ALPHA
 10
54.340656
 20
73.355072
 30
0.0
 11
54.085566
 21
73.323735
 31
0.0
  0
POLYLINE
  5
B0A0
  8
ALPHA
 66
     1
 10
0.0
 20
0.0
 30
0.0
 70
   128
  0
VERTEX
  5
BEC4
  8
ALPHA
 10
53.128191
 20
71.417166
 30
0.0
  0
VERTEX
  5
BEC5
  8
ALPHA
 10
53.255198
 20
71.04651
 30
0.0
  0
VERTEX
  5
BEC6
  8
ALPHA
 10
53.572914
 20
70.816889
 30
0.0
  0
SEQEND
  5
BEC7
  8
ALPHA
  0
POLYLINE
  5
B0A1
  8
ALPHA
 66
     1
 10
0.0
 20
0.0
 30
0.0
 70
   128
  0
VERTEX
  5
BEC8
  8
ALPHA
 10
53.128232
 20
72.617173
 30
0.0
  0
VERTEX
  5
BEC9
  8
ALPHA
 10
53.255274
 20
72.246577
 30
0.0
  0
VERTEX
  5
BECA
  8
ALPHA
 10
53.573004
 20
72.016857
 30
0.0
  0
SEQEND
  5
BECB
  8
ALPHA
  0
POLYLINE
  5
B0A2
  8
ALPHA
 66
     1
 10
0.0
 20
0.0
 30
0.0
 70
   128
  0
VERTEX
  5
BECC
  8
ALPHA
 10
53.128219
 20
73.817174
 30
0.0
  0
VERTEX
  5
BECD
  8
ALPHA
 10
53.255241
 20
73.446621
 30
0.0
  0
VERTEX
  5
BECE
  8
ALPHA
 10
53.572844
 20
73.216915
 30
0.0
  0
SEQEND
  5
BECF
  8
ALPHA
  0
LINE
  5
B0A3
  8
ALPHA
 10
58.015177
 20
62.879211
 30
0.0
 11
58.328506
 21
62.918686
 31
0.0
  0
LINE
  5
B0A4
  8
ALPHA
 10
58.00869
 20
64.078485
 30
0.0
 11
58.348856
 21
64.121648
 31
0.0
  0
LINE
  5
B0A5
  8
ALPHA
 10
58.009113
 20
65.278532
 30
0.0
 11
58.243676
 21
65.306982
 31
0.0
  0
LINE
  5
B0A6
  8
ALPHA
 10
58.223001
 20
66.504264
 30
0.0
 11
58.386638
 21
66.527328
 31
0.0
  0
LINE
  5
B0A7
  8
ALPHA
 10
58.008565
 20
66.478469
 30
0.0
 11
58.223001
 21
66.504264
 31
0.0
  0
LINE
  5
B0A8
  8
ALPHA
 10
58.268242
 20
67.710273
 30
0.0
 11
58.420921
 21
67.732713
 31
0.0
  0
LINE
  5
B0A9
  8
ALPHA
 10
58.0202
 20
67.679776
 30
0.0
 11
58.268242
 21
67.710273
 31
0.0
  0
LINE
  5
B0AA
  8
ALPHA
 10
58.239804
 20
68.906469
 30
0.0
 11
58.403406
 21
68.929934
 31
0.0
  0
LINE
  5
B0AB
  8
ALPHA
 10
58.007838
 20
68.878389
 30
0.0
 11
58.239804
 21
68.906469
 31
0.0
  0
LINE
  5
B0AC
  8
ALPHA
 10
58.256642
 20
70.10871
 30
0.0
 11
58.415777
 21
70.131891
 31
0.0
  0
LINE
  5
B0AD
  8
ALPHA
 10
58.012607
 20
70.078923
 30
0.0
 11
58.256642
 21
70.10871
 31
0.0
  0
LINE
  5
B0AE
  8
ALPHA
 10
58.250998
 20
71.307954
 30
0.0
 11
58.405234
 21
71.33022
 31
0.0
  0
LINE
  5
B0AF
  8
ALPHA
 10
58.017914
 20
71.279519
 30
0.0
 11
58.250998
 21
71.307954
 31
0.0
  0
LINE
  5
B0B0
  8
ALPHA
 10
58.25561
 20
72.508571
 30
0.0
 11
58.410722
 21
72.531086
 31
0.0
  0
LINE
  5
B0B1
  8
ALPHA
 10
58.013627
 20
72.479037
 30
0.0
 11
58.25561
 21
72.508571
 31
0.0
  0
LINE
  5
B0B2
  8
ALPHA
 10
58.255711
 20
73.708586
 30
0.0
 11
58.41821
 21
73.73228
 31
0.0
  0
LINE
  5
B0B3
  8
ALPHA
 10
58.018696
 20
73.679608
 30
0.0
 11
58.255711
 21
73.708586
 31
0.0
  0
POLYLINE
  5
B0B4
  8
ALPHA
 66
     1
 10
0.0
 20
0.0
 30
0.0
 70
   128
  0
VERTEX
  5
BED0
  8
ALPHA
 10
53.944548
 20
97.303107
 30
0.0
  0
VERTEX
  5
BED1
  8
ALPHA
 10
53.390537
 20
97.122196
 30
0.0
  0
VERTEX
  5
BED2
  8
ALPHA
 10
53.12823
 20
96.617116
 30
0.0
  0
SEQEND
  5
BED3
  8
ALPHA
  0
POLYLINE
  5
B0B5
  8
ALPHA
 66
     1
 10
0.0
 20
0.0
 30
0.0
 70
   128
  0
VERTEX
  5
BED4
  8
ALPHA
 10
53.128276
 20
97.817177
 30
0.0
  0
VERTEX
  5
BED5
  8
ALPHA
 10
53.255428
 20
97.446231
 30
0.0
  0
VERTEX
  5
BED6
  8
ALPHA
 10
53.573619
 20
97.216627
 30
0.0
  0
SEQEND
  5
BED7
  8
ALPHA
  0
LINE
  5
B0B6
  8
ALPHA
 10
58.023932
 20
85.680428
 30
0.0
 11
54.34277
 21
85.355311
 31
0.0
  0
POLYLINE
  5
B0B7
  8
ALPHA
 66
     1
 10
0.0
 20
0.0
 30
0.0
 70
   128
  0
VERTEX
  5
BED8
  8
ALPHA
 10
53.128223
 20
85.817174
 30
0.0
  0
VERTEX
  5
BED9
  8
ALPHA
 10
53.255402
 20
85.446405
 30
0.0
  0
VERTEX
  5
BEDA
  8
ALPHA
 10
53.573338
 20
85.216735
 30
0.0
  0
SEQEND
  5
BEDB
  8
ALPHA
  0
LINE
  5
B0B8
  8
ALPHA
 10
54.342778
 20
85.355225
 30
0.0
 11
58.023958
 21
85.6802
 31
0.0
  0
LINE
  5
B0B9
  8
ALPHA
 10
58.008768
 20
74.87852
 30
0.0
 11
54.336912
 21
74.554652
 31
0.0
  0
LINE
  5
B0BA
  8
ALPHA
 10
57.998936
 20
76.077313
 30
0.0
 11
54.341507
 21
75.75517
 31
0.0
  0
LINE
  5
B0BB
  8
ALPHA
 10
54.336928
 20
74.554498
 30
0.0
 11
58.008769
 21
74.878494
 31
0.0
  0
LINE
  5
B0BC
  8
ALPHA
 10
58.002268
 20
77.277767
 30
0.0
 11
54.359875
 21
76.95722
 31
0.0
  0
LINE
  5
B0BD
  8
ALPHA
 10
58.007805
 20
78.478414
 30
0.0
 11
54.357057
 21
78.156906
 31
0.0
  0
LINE
  5
B0BE
  8
ALPHA
 10
58.009371
 20
79.678661
 30
0.0
 11
54.347358
 21
79.355824
 31
0.0
  0
LINE
  5
B0BF
  8
ALPHA
 10
58.015341
 20
80.879372
 30
0.0
 11
54.354392
 21
80.556611
 31
0.0
  0
LINE
  5
B0C0
  8
ALPHA
 10
54.341525
 20
75.754994
 30
0.0
 11
57.998925
 21
76.077393
 31
0.0
  0
LINE
  5
B0C1
  8
ALPHA
 10
54.359863
 20
76.957313
 30
0.0
 11
58.002266
 21
77.277765
 31
0.0
  0
LINE
  5
B0C2
  8
ALPHA
 10
54.35705
 20
78.156952
 30
0.0
 11
58.007808
 21
78.478386
 31
0.0
  0
LINE
  5
B0C3
  8
ALPHA
 10
54.347362
 20
79.355777
 30
0.0
 11
58.00938
 21
79.678561
 31
0.0
  0
LINE
  5
B0C4
  8
ALPHA
 10
58.014453
 20
82.079227
 30
0.0
 11
54.341505
 21
81.755167
 31
0.0
  0
LINE
  5
B0C5
  8
ALPHA
 10
58.016403
 20
83.279474
 30
0.0
 11
54.340128
 21
82.955013
 31
0.0
  0
LINE
  5
B0C6
  8
ALPHA
 10
58.028332
 20
84.480983
 30
0.0
 11
54.340233
 21
84.155026
 31
0.0
  0
LINE
  5
B0C7
  8
ALPHA
 10
54.354383
 20
80.556672
 30
0.0
 11
58.015356
 21
80.879231
 31
0.0
  0
LINE
  5
B0C8
  8
ALPHA
 10
54.341514
 20
81.755072
 30
0.0
 11
58.014462
 21
82.07913
 31
0.0
  0
LINE
  5
B0C9
  8
ALPHA
 10
54.340138
 20
82.954899
 30
0.0
 11
58.016415
 21
83.279352
 31
0.0
  0
LINE
  5
B0CA
  8
ALPHA
 10
54.340243
 20
84.15491
 30
0.0
 11
58.028365
 21
84.4807
 31
0.0
  0
POLYLINE
  5
B0CB
  8
ALPHA
 66
     1
 10
0.0
 20
0.0
 30
0.0
 70
   128
  0
VERTEX
  5
BEDC
  8
ALPHA
 10
54.002472
 20
80.511972
 30
0.0
  0
VERTEX
  5
BEDD
  8
ALPHA
 10
53.414556
 20
80.339052
 30
0.0
  0
VERTEX
  5
BEDE
  8
ALPHA
 10
53.128232
 20
79.817119
 30
0.0
  0
SEQEND
  5
BEDF
  8
ALPHA
  0
LINE
  5
B0CC
  8
ALPHA
 10
54.091565
 20
74.524548
 30
0.0
 11
53.935308
 21
74.501634
 31
0.0
  0
LINE
  5
B0CD
  8
ALPHA
 10
54.336912
 20
74.554652
 30
0.0
 11
54.091565
 21
74.524548
 31
0.0
  0
POLYLINE
  5
B0CE
  8
ALPHA
 66
     1
 10
0.0
 20
0.0
 30
0.0
 70
   128
  0
VERTEX
  5
BEE0
  8
ALPHA
 10
54.055733
 20
75.719626
 30
0.0
  0
VERTEX
  5
BEE1
  8
ALPHA
 10
53.437374
 20
75.553536
 30
0.0
  0
VERTEX
  5
BEE2
  8
ALPHA
 10
53.128204
 20
75.017122
 30
0.0
  0
SEQEND
  5
BEE3
  8
ALPHA
  0
LINE
  5
B0CF
  8
ALPHA
 10
54.341507
 20
75.75517
 30
0.0
 11
54.055733
 21
75.719626
 31
0.0
  0
POLYLINE
  5
B0D0
  8
ALPHA
 66
     1
 10
0.0
 20
0.0
 30
0.0
 70
   128
  0
VERTEX
  5
BEE4
  8
ALPHA
 10
53.128235
 20
75.017178
 30
0.0
  0
VERTEX
  5
BEE5
  8
ALPHA
 10
53.255444
 20
74.646351
 30
0.0
  0
VERTEX
  5
BEE6
  8
ALPHA
 10
53.573461
 20
74.416691
 30
0.0
  0
SEQEND
  5
BEE7
  8
ALPHA
  0
POLYLINE
  5
B0D1
  8
ALPHA
 66
     1
 10
0.0
 20
0.0
 30
0.0
 70
   128
  0
VERTEX
  5
BEE8
  8
ALPHA
 10
54.01393
 20
76.913654
 30
0.0
  0
VERTEX
  5
BEE9
  8
ALPHA
 10
53.419367
 20
76.742223
 30
0.0
  0
VERTEX
  5
BEEA
  8
ALPHA
 10
53.128299
 20
76.217108
 30
0.0
  0
SEQEND
  5
BEEB
  8
ALPHA
  0
LINE
  5
B0D2
  8
ALPHA
 10
54.359875
 20
76.95722
 30
0.0
 11
54.01393
 21
76.913654
 31
0.0
  0
POLYLINE
  5
B0D3
  8
ALPHA
 66
     1
 10
0.0
 20
0.0
 30
0.0
 70
   128
  0
VERTEX
  5
BEEC
  8
ALPHA
 10
54.003958
 20
78.11219
 30
0.0
  0
VERTEX
  5
BEED
  8
ALPHA
 10
53.415137
 20
77.939443
 30
0.0
  0
VERTEX
  5
BEEE
  8
ALPHA
 10
53.128298
 20
77.417109
 30
0.0
  0
SEQEND
  5
BEEF
  8
ALPHA
  0
LINE
  5
B0D4
  8
ALPHA
 10
54.357057
 20
78.156906
 30
0.0
 11
54.003958
 21
78.11219
 31
0.0
  0
POLYLINE
  5
B0D5
  8
ALPHA
 66
     1
 10
0.0
 20
0.0
 30
0.0
 70
   128
  0
VERTEX
  5
BEF0
  8
ALPHA
 10
53.994575
 20
79.310799
 30
0.0
  0
VERTEX
  5
BEF1
  8
ALPHA
 10
53.411252
 20
79.136829
 30
0.0
  0
VERTEX
  5
BEF2
  8
ALPHA
 10
53.128254
 20
78.617113
 30
0.0
  0
SEQEND
  5
BEF3
  8
ALPHA
  0
LINE
  5
B0D6
  8
ALPHA
 10
54.347358
 20
79.355824
 30
0.0
 11
53.994575
 21
79.310799
 31
0.0
  0
POLYLINE
  5
B0D7
  8
ALPHA
 66
     1
 10
0.0
 20
0.0
 30
0.0
 70
   128
  0
VERTEX
  5
BEF4
  8
ALPHA
 10
53.12827
 20
76.217176
 30
0.0
  0
VERTEX
  5
BEF5
  8
ALPHA
 10
53.25565
 20
75.84593
 30
0.0
  0
VERTEX
  5
BEF6
  8
ALPHA
 10
53.574214
 20
75.616412
 30
0.0
  0
SEQEND
  5
BEF7
  8
ALPHA
  0
POLYLINE
  5
B0D8
  8
ALPHA
 66
     1
 10
0.0
 20
0.0
 30
0.0
 70
   128
  0
VERTEX
  5
BEF8
  8
ALPHA
 10
53.128275
 20
77.417179
 30
0.0
  0
VERTEX
  5
BEF9
  8
ALPHA
 10
53.255928
 20
77.045574
 30
0.0
  0
VERTEX
  5
BEFA
  8
ALPHA
 10
53.575022
 20
76.816122
 30
0.0
  0
SEQEND
  5
BEFB
  8
ALPHA
  0
POLYLINE
  5
B0D9
  8
ALPHA
 66
     1
 10
0.0
 20
0.0
 30
0.0
 70
   128
  0
VERTEX
  5
BEFC
  8
ALPHA
 10
53.128334
 20
78.617187
 30
0.0
  0
VERTEX
  5
BEFD
  8
ALPHA
 10
53.255928
 20
78.245589
 30
0.0
  0
VERTEX
  5
BEFE
  8
ALPHA
 10
53.575061
 20
78.016108
 30
0.0
  0
SEQEND
  5
BEFF
  8
ALPHA
  0
POLYLINE
  5
B0DA
  8
ALPHA
 66
     1
 10
0.0
 20
0.0
 30
0.0
 70
   128
  0
VERTEX
  5
BF00
  8
ALPHA
 10
53.128284
 20
79.817181
 30
0.0
  0
VERTEX
  5
BF01
  8
ALPHA
 10
53.255871
 20
79.445647
 30
0.0
  0
VERTEX
  5
BF02
  8
ALPHA
 10
53.574881
 20
79.216173
 30
0.0
  0
SEQEND
  5
BF03
  8
ALPHA
  0
LINE
  5
B0DB
  8
ALPHA
 10
54.354392
 20
80.556611
 30
0.0
 11
54.002472
 21
80.511972
 31
0.0
  0
POLYLINE
  5
B0DC
  8
ALPHA
 66
     1
 10
0.0
 20
0.0
 30
0.0
 70
   128
  0
VERTEX
  5
BF04
  8
ALPHA
 10
53.933966
 20
81.701418
 30
0.0
  0
VERTEX
  5
BF05
  8
ALPHA
 10
53.386208
 20
81.519005
 30
0.0
  0
VERTEX
  5
BF06
  8
ALPHA
 10
53.128219
 20
81.017118
 30
0.0
  0
SEQEND
  5
BF07
  8
ALPHA
  0
LINE
  5
B0DD
  8
ALPHA
 10
54.091956
 20
81.7246
 30
0.0
 11
53.933966
 21
81.701418
 31
0.0
  0
LINE
  5
B0DE
  8
ALPHA
 10
54.341505
 20
81.755167
 30
0.0
 11
54.091956
 21
81.7246
 31
0.0
  0
POLYLINE
  5
B0DF
  8
ALPHA
 66
     1
 10
0.0
 20
0.0
 30
0.0
 70
   128
  0
VERTEX
  5
BF08
  8
ALPHA
 10
53.915049
 20
82.898338
 30
0.0
  0
VERTEX
  5
BF09
  8
ALPHA
 10
53.378553
 20
82.713204
 30
0.0
  0
VERTEX
  5
BF0A
  8
ALPHA
 10
53.128211
 20
82.217119
 30
0.0
  0
SEQEND
  5
BF0B
  8
ALPHA
  0
LINE
  5
B0E0
  8
ALPHA
 10
54.062381
 20
82.920551
 30
0.0
 11
53.915049
 21
82.898338
 31
0.0
  0
LINE
  5
B0E1
  8
ALPHA
 10
54.340128
 20
82.955013
 30
0.0
 11
54.062381
 21
82.920551
 31
0.0
  0
POLYLINE
  5
B0E2
  8
ALPHA
 66
     1
 10
0.0
 20
0.0
 30
0.0
 70
   128
  0
VERTEX
  5
BF0C
  8
ALPHA
 10
53.929765
 20
84.100741
 30
0.0
  0
VERTEX
  5
BF0D
  8
ALPHA
 10
53.384508
 20
83.917727
 30
0.0
  0
VERTEX
  5
BF0E
  8
ALPHA
 10
53.128221
 20
83.417118
 30
0.0
  0
SEQEND
  5
BF0F
  8
ALPHA
  0
LINE
  5
B0E3
  8
ALPHA
 10
54.083525
 20
84.123458
 30
0.0
 11
53.929765
 21
84.100741
 31
0.0
  0
LINE
  5
B0E4
  8
ALPHA
 10
54.340233
 20
84.155026
 30
0.0
 11
54.083525
 21
84.123458
 31
0.0
  0
POLYLINE
  5
B0E5
  8
ALPHA
 66
     1
 10
0.0
 20
0.0
 30
0.0
 70
   128
  0
VERTEX
  5
BF10
  8
ALPHA
 10
53.946923
 20
85.303484
 30
0.0
  0
VERTEX
  5
BF11
  8
ALPHA
 10
53.39151
 20
85.122908
 30
0.0
  0
VERTEX
  5
BF12
  8
ALPHA
 10
53.128232
 20
84.617117
 30
0.0
  0
SEQEND
  5
BF13
  8
ALPHA
  0
LINE
  5
B0E6
  8
ALPHA
 10
54.107104
 20
85.326632
 30
0.0
 11
53.946923
 21
85.303484
 31
0.0
  0
LINE
  5
B0E7
  8
ALPHA
 10
54.34277
 20
85.355311
 30
0.0
 11
54.107104
 21
85.326632
 31
0.0
  0
POLYLINE
  5
B0E8
  8
ALPHA
 66
     1
 10
0.0
 20
0.0
 30
0.0
 70
   128
  0
VERTEX
  5
BF14
  8
ALPHA
 10
53.128202
 20
81.017168
 30
0.0
  0
VERTEX
  5
BF15
  8
ALPHA
 10
53.255533
 20
80.646074
 30
0.0
  0
VERTEX
  5
BF16
  8
ALPHA
 10
53.573928
 20
80.416521
 30
0.0
  0
SEQEND
  5
BF17
  8
ALPHA
  0
POLYLINE
  5
B0E9
  8
ALPHA
 66
     1
 10
0.0
 20
0.0
 30
0.0
 70
   128
  0
VERTEX
  5
BF18
  8
ALPHA
 10
53.128225
 20
82.217175
 30
0.0
  0
VERTEX
  5
BF19
  8
ALPHA
 10
53.255369
 20
81.846449
 30
0.0
  0
VERTEX
  5
BF1A
  8
ALPHA
 10
53.573219
 20
81.616777
 30
0.0
  0
SEQEND
  5
BF1B
  8
ALPHA
  0
POLYLINE
  5
B0EA
  8
ALPHA
 66
     1
 10
0.0
 20
0.0
 30
0.0
 70
   128
  0
VERTEX
  5
BF1C
  8
ALPHA
 10
53.128235
 20
83.417178
 30
0.0
  0
VERTEX
  5
BF1D
  8
ALPHA
 10
53.255479
 20
83.046305
 30
0.0
  0
VERTEX
  5
BF1E
  8
ALPHA
 10
53.573559
 20
82.816655
 30
0.0
  0
SEQEND
  5
BF1F
  8
ALPHA
  0
POLYLINE
  5
B0EB
  8
ALPHA
 66
     1
 10
0.0
 20
0.0
 30
0.0
 70
   128
  0
VERTEX
  5
BF20
  8
ALPHA
 10
53.12822
 20
84.617174
 30
0.0
  0
VERTEX
  5
BF21
  8
ALPHA
 10
53.255228
 20
84.246638
 30
0.0
  0
VERTEX
  5
BF22
  8
ALPHA
 10
53.572817
 20
84.016926
 30
0.0
  0
SEQEND
  5
BF23
  8
ALPHA
  0
LINE
  5
B0EC
  8
ALPHA
 10
58.229225
 20
74.905078
 30
0.0
 11
58.39629
 21
74.928822
 31
0.0
  0
LINE
  5
B0ED
  8
ALPHA
 10
58.008769
 20
74.878494
 30
0.0
 11
58.229225
 21
74.905078
 31
0.0
  0
LINE
  5
B0EE
  8
ALPHA
 10
57.998925
 20
76.077393
 30
0.0
 11
58.349234
 21
76.121703
 31
0.0
  0
LINE
  5
B0EF
  8
ALPHA
 10
58.002266
 20
77.277765
 30
0.0
 11
58.331208
 21
77.319076
 31
0.0
  0
LINE
  5
B0F0
  8
ALPHA
 10
58.007808
 20
78.478386
 30
0.0
 11
58.347099
 21
78.52139
 31
0.0
  0
LINE
  5
B0F1
  8
ALPHA
 10
58.00938
 20
79.678561
 30
0.0
 11
58.245167
 21
79.707179
 31
0.0
  0
LINE
  5
B0F2
  8
ALPHA
 10
58.252075
 20
80.908098
 30
0.0
 11
58.408348
 21
80.93071
 31
0.0
  0
LINE
  5
B0F3
  8
ALPHA
 10
58.015356
 20
80.879231
 30
0.0
 11
58.252075
 21
80.908098
 31
0.0
  0
LINE
  5
B0F4
  8
ALPHA
 10
58.268236
 20
82.110273
 30
0.0
 11
58.419556
 21
82.132494
 31
0.0
  0
LINE
  5
B0F5
  8
ALPHA
 10
58.014462
 20
82.07913
 30
0.0
 11
58.268236
 21
82.110273
 31
0.0
  0
LINE
  5
B0F6
  8
ALPHA
 10
58.246667
 20
83.307379
 30
0.0
 11
58.405137
 21
83.330206
 31
0.0
  0
LINE
  5
B0F7
  8
ALPHA
 10
58.016415
 20
83.279352
 30
0.0
 11
58.246667
 21
83.307379
 31
0.0
  0
LINE
  5
B0F8
  8
ALPHA
 10
58.273511
 20
84.51099
 30
0.0
 11
58.425608
 21
84.533469
 31
0.0
  0
LINE
  5
B0F9
  8
ALPHA
 10
58.028365
 20
84.4807
 30
0.0
 11
58.273511
 21
84.51099
 31
0.0
  0
LINE
  5
B0FA
  8
ALPHA
 10
58.014394
 20
86.879218
 30
0.0
 11
54.339201
 21
86.554908
 31
0.0
  0
LINE
  5
B0FB
  8
ALPHA
 10
58.020255
 20
88.079959
 30
0.0
 11
54.340792
 21
87.755088
 31
0.0
  0
LINE
  5
B0FC
  8
ALPHA
 10
58.015456
 20
89.279356
 30
0.0
 11
54.341799
 21
88.955202
 31
0.0
  0
LINE
  5
B0FD
  8
ALPHA
 10
58.001797
 20
90.477706
 30
0.0
 11
54.344373
 21
90.155491
 31
0.0
  0
LINE
  5
B0FE
  8
ALPHA
 10
54.339214
 20
86.554783
 30
0.0
 11
58.014402
 21
86.879124
 31
0.0
  0
LINE
  5
B0FF
  8
ALPHA
 10
54.340801
 20
87.75498
 30
0.0
 11
58.020274
 21
88.079786
 31
0.0
  0
LINE
  5
B100
  8
ALPHA
 10
54.341808
 20
88.955105
 30
0.0
 11
58.015467
 21
89.279244
 31
0.0
  0
LINE
  5
B101
  8
ALPHA
 10
57.99959
 20
91.677436
 30
0.0
 11
54.359876
 21
91.35722
 31
0.0
  0
LINE
  5
B102
  8
ALPHA
 10
58.006138
 20
92.878208
 30
0.0
 11
54.354553
 21
92.556627
 31
0.0
  0
LINE
  5
B103
  8
ALPHA
 10
57.813133
 20
94.055901
 30
0.0
 11
54.344726
 21
93.755529
 31
0.0
  0
LINE
  5
B104
  8
ALPHA
 10
57.874597
 20
95.262684
 30
0.0
 11
54.350854
 21
94.956216
 31
0.0
  0
LINE
  5
B105
  8
ALPHA
 10
54.344387
 20
90.155343
 30
0.0
 11
58.001794
 21
90.477712
 31
0.0
  0
LINE
  5
B106
  8
ALPHA
 10
54.359864
 20
91.357313
 30
0.0
 11
57.999584
 21
91.677467
 31
0.0
  0
LINE
  5
B107
  8
ALPHA
 10
54.354549
 20
92.556647
 30
0.0
 11
58.006138
 21
92.8782
 31
0.0
  0
LINE
  5
B108
  8
ALPHA
 10
54.344733
 20
93.755459
 30
0.0
 11
57.944616
 21
94.071434
 31
0.0
  0
LINE
  5
B109
  8
ALPHA
 10
58.00528
 20
96.478085
 30
0.0
 11
54.337554
 21
96.154723
 31
0.0
  0
LINE
  5
B10A
  8
ALPHA
 10
54.35085
 20
94.95623
 30
0.0
 11
57.874578
 21
95.263996
 31
0.0
  0
LINE
  5
B10B
  8
ALPHA
 10
54.337568
 20
96.154578
 30
0.0
 11
58.005277
 21
96.478102
 31
0.0
  0
POLYLINE
  5
B10C
  8
ALPHA
 66
     1
 10
0.0
 20
0.0
 30
0.0
 70
   128
  0
VERTEX
  5
BF24
  8
ALPHA
 10
53.128263
 20
91.817176
 30
0.0
  0
VERTEX
  5
BF25
  8
ALPHA
 10
53.255985
 20
91.445483
 30
0.0
  0
VERTEX
  5
BF26
  8
ALPHA
 10
53.575244
 20
91.216041
 30
0.0
  0
SEQEND
  5
BF27
  8
ALPHA
  0
POLYLINE
  5
B10D
  8
ALPHA
 66
     1
 10
0.0
 20
0.0
 30
0.0
 70
   128
  0
VERTEX
  5
BF28
  8
ALPHA
 10
53.935001
 20
86.501584
 30
0.0
  0
VERTEX
  5
BF29
  8
ALPHA
 10
53.386638
 20
86.319315
 30
0.0
  0
VERTEX
  5
BF2A
  8
ALPHA
 10
53.128228
 20
85.817116
 30
0.0
  0
SEQEND
  5
BF2B
  8
ALPHA
  0
LINE
  5
B10E
  8
ALPHA
 10
54.086885
 20
86.523913
 30
0.0
 11
53.935001
 21
86.501584
 31
0.0
  0
LINE
  5
B10F
  8
ALPHA
 10
54.339201
 20
86.554908
 30
0.0
 11
54.086885
 21
86.523913
 31
0.0
  0
POLYLINE
  5
B110
  8
ALPHA
 66
     1
 10
0.0
 20
0.0
 30
0.0
 70
   128
  0
VERTEX
  5
BF2C
  8
ALPHA
 10
53.931896
 20
87.701084
 30
0.0
  0
VERTEX
  5
BF2D
  8
ALPHA
 10
53.385372
 20
87.518375
 30
0.0
  0
VERTEX
  5
BF2E
  8
ALPHA
 10
53.128222
 20
87.017117
 30
0.0
  0
SEQEND
  5
BF2F
  8
ALPHA
  0
LINE
  5
B111
  8
ALPHA
 10
54.086599
 20
87.723875
 30
0.0
 11
53.931896
 21
87.701084
 31
0.0
  0
LINE
  5
B112
  8
ALPHA
 10
54.340792
 20
87.755088
 30
0.0
 11
54.086599
 21
87.723875
 31
0.0
  0
POLYLINE
  5
B113
  8
ALPHA
 66
     1
 10
0.0
 20
0.0
 30
0.0
 70
   128
  0
VERTEX
  5
BF30
  8
ALPHA
 10
53.93625
 20
88.901785
 30
0.0
  0
VERTEX
  5
BF31
  8
ALPHA
 10
53.38713
 20
88.719696
 30
0.0
  0
VERTEX
  5
BF32
  8
ALPHA
 10
53.12822
 20
88.217119
 30
0.0
  0
SEQEND
  5
BF33
  8
ALPHA
  0
LINE
  5
B114
  8
ALPHA
 10
54.092867
 20
88.924724
 30
0.0
 11
53.93625
 21
88.901785
 31
0.0
  0
LINE
  5
B115
  8
ALPHA
 10
54.341799
 20
88.955202
 30
0.0
 11
54.092867
 21
88.924724
 31
0.0
  0
POLYLINE
  5
B116
  8
ALPHA
 66
     1
 10
0.0
 20
0.0
 30
0.0
 70
   128
  0
VERTEX
  5
BF34
  8
ALPHA
 10
54.054349
 20
90.119433
 30
0.0
  0
VERTEX
  5
BF35
  8
ALPHA
 10
53.436773
 20
89.953172
 30
0.0
  0
VERTEX
  5
BF36
  8
ALPHA
 10
53.128202
 20
89.417122
 30
0.0
  0
SEQEND
  5
BF37
  8
ALPHA
  0
LINE
  5
B117
  8
ALPHA
 10
54.344373
 20
90.155491
 30
0.0
 11
54.054349
 21
90.119433
 31
0.0
  0
POLYLINE
  5
B118
  8
ALPHA
 66
     1
 10
0.0
 20
0.0
 30
0.0
 70
   128
  0
VERTEX
  5
BF38
  8
ALPHA
 10
53.12823
 20
87.017173
 30
0.0
  0
VERTEX
  5
BF39
  8
ALPHA
 10
53.255268
 20
86.646584
 30
0.0
  0
VERTEX
  5
BF3A
  8
ALPHA
 10
53.57299
 20
86.416862
 30
0.0
  0
SEQEND
  5
BF3B
  8
ALPHA
  0
POLYLINE
  5
B119
  8
ALPHA
 66
     1
 10
0.0
 20
0.0
 30
0.0
 70
   128
  0
VERTEX
  5
BF3C
  8
ALPHA
 10
53.128223
 20
88.217175
 30
0.0
  0
VERTEX
  5
BF3D
  8
ALPHA
 10
53.255291
 20
87.846555
 30
0.0
  0
VERTEX
  5
BF3E
  8
ALPHA
 10
53.572988
 20
87.616863
 30
0.0
  0
SEQEND
  5
BF3F
  8
ALPHA
  0
POLYLINE
  5
B11A
  8
ALPHA
 66
     1
 10
0.0
 20
0.0
 30
0.0
 70
   128
  0
VERTEX
  5
BF40
  8
ALPHA
 10
53.128233
 20
89.417177
 30
0.0
  0
VERTEX
  5
BF41
  8
ALPHA
 10
53.255424
 20
89.046378
 30
0.0
  0
VERTEX
  5
BF42
  8
ALPHA
 10
53.573399
 20
88.816714
 30
0.0
  0
SEQEND
  5
BF43
  8
ALPHA
  0
POLYLINE
  5
B11B
  8
ALPHA
 66
     1
 10
0.0
 20
0.0
 30
0.0
 70
   128
  0
VERTEX
  5
BF44
  8
ALPHA
 10
54.013931
 20
91.313654
 30
0.0
  0
VERTEX
  5
BF45
  8
ALPHA
 10
53.419364
 20
91.142221
 30
0.0
  0
VERTEX
  5
BF46
  8
ALPHA
 10
53.128305
 20
90.617107
 30
0.0
  0
SEQEND
  5
BF47
  8
ALPHA
  0
LINE
  5
B11C
  8
ALPHA
 10
54.359876
 20
91.35722
 30
0.0
 11
54.013931
 21
91.313654
 31
0.0
  0
POLYLINE
  5
B11D
  8
ALPHA
 66
     1
 10
0.0
 20
0.0
 30
0.0
 70
   128
  0
VERTEX
  5
BF48
  8
ALPHA
 10
53.128292
 20
90.617182
 30
0.0
  0
VERTEX
  5
BF49
  8
ALPHA
 10
53.255563
 20
90.246068
 30
0.0
  0
VERTEX
  5
BF4A
  8
ALPHA
 10
53.573885
 20
90.016533
 30
0.0
  0
SEQEND
  5
BF4B
  8
ALPHA
  0
POLYLINE
  5
B11E
  8
ALPHA
 66
     1
 10
0.0
 20
0.0
 30
0.0
 70
   128
  0
VERTEX
  5
BF4C
  8
ALPHA
 10
54.000133
 20
92.511625
 30
0.0
  0
VERTEX
  5
BF4D
  8
ALPHA
 10
53.413519
 20
92.338366
 30
0.0
  0
VERTEX
  5
BF4E
  8
ALPHA
 10
53.12831
 20
91.817108
 30
0.0
  0
SEQEND
  5
BF4F
  8
ALPHA
  0
LINE
  5
B11F
  8
ALPHA
 10
54.354553
 20
92.556627
 30
0.0
 11
54.000133
 21
92.511625
 31
0.0
  0
POLYLINE
  5
B120
  8
ALPHA
 66
     1
 10
0.0
 20
0.0
 30
0.0
 70
   128
  0
VERTEX
  5
BF50
  8
ALPHA
 10
53.995599
 20
93.710952
 30
0.0
  0
VERTEX
  5
BF51
  8
ALPHA
 10
53.411682
 20
93.537118
 30
0.0
  0
VERTEX
  5
BF52
  8
ALPHA
 10
53.128254
 20
93.017114
 30
0.0
  0
SEQEND
  5
BF53
  8
ALPHA
  0
LINE
  5
B121
  8
ALPHA
 10
54.344726
 20
93.755529
 30
0.0
 11
53.995599
 21
93.710952
 31
0.0
  0
POLYLINE
  5
B122
  8
ALPHA
 66
     1
 10
0.0
 20
0.0
 30
0.0
 70
   128
  0
VERTEX
  5
BF54
  8
ALPHA
 10
54.137183
 20
94.930585
 30
0.0
  0
VERTEX
  5
BF55
  8
ALPHA
 10
53.473122
 20
94.773704
 30
0.0
  0
VERTEX
  5
BF56
  8
ALPHA
 10
53.128213
 20
94.217122
 30
0.0
  0
SEQEND
  5
BF57
  8
ALPHA
  0
LINE
  5
B123
  8
ALPHA
 10
54.350854
 20
94.956216
 30
0.0
 11
54.137183
 21
94.930585
 31
0.0
  0
POLYLINE
  5
B124
  8
ALPHA
 66
     1
 10
0.0
 20
0.0
 30
0.0
 70
   128
  0
VERTEX
  5
BF58
  8
ALPHA
 10
53.128333
 20
93.017188
 30
0.0
  0
VERTEX
  5
BF59
  8
ALPHA
 10
53.255944
 20
92.645571
 30
0.0
  0
VERTEX
  5
BF5A
  8
ALPHA
 10
53.575088
 20
92.416099
 30
0.0
  0
SEQEND
  5
BF5B
  8
ALPHA
  0
POLYLINE
  5
B125
  8
ALPHA
 66
     1
 10
0.0
 20
0.0
 30
0.0
 70
   128
  0
VERTEX
  5
BF5C
  8
ALPHA
 10
53.128287
 20
94.217181
 30
0.0
  0
VERTEX
  5
BF5D
  8
ALPHA
 10
53.255853
 20
93.845674
 30
0.0
  0
VERTEX
  5
BF5E
  8
ALPHA
 10
53.574817
 20
93.616196
 30
0.0
  0
SEQEND
  5
BF5F
  8
ALPHA
  0
POLYLINE
  5
B126
  8
ALPHA
 66
     1
 10
0.0
 20
0.0
 30
0.0
 70
   128
  0
VERTEX
  5
BF60
  8
ALPHA
 10
53.927688
 20
96.100404
 30
0.0
  0
VERTEX
  5
BF61
  8
ALPHA
 10
53.383664
 20
95.917092
 30
0.0
  0
VERTEX
  5
BF62
  8
ALPHA
 10
53.12822
 20
95.417117
 30
0.0
  0
SEQEND
  5
BF63
  8
ALPHA
  0
LINE
  5
B127
  8
ALPHA
 10
54.080608
 20
96.12306
 30
0.0
 11
53.927688
 21
96.100404
 31
0.0
  0
LINE
  5
B128
  8
ALPHA
 10
54.337554
 20
96.154723
 30
0.0
 11
54.080608
 21
96.12306
 31
0.0
  0
POLYLINE
  5
B129
  8
ALPHA
 66
     1
 10
0.0
 20
0.0
 30
0.0
 70
   128
  0
VERTEX
  5
BF64
  8
ALPHA
 10
53.128226
 20
95.417174
 30
0.0
  0
VERTEX
  5
BF65
  8
ALPHA
 10
53.255844
 20
95.045813
 30
0.0
  0
VERTEX
  5
BF66
  8
ALPHA
 10
53.574719
 20
94.816234
 30
0.0
  0
SEQEND
  5
BF67
  8
ALPHA
  0
POLYLINE
  5
B12A
  8
ALPHA
 66
     1
 10
0.0
 20
0.0
 30
0.0
 70
   128
  0
VERTEX
  5
BF68
  8
ALPHA
 10
53.128219
 20
96.617171
 30
0.0
  0
VERTEX
  5
BF69
  8
ALPHA
 10
53.255102
 20
96.246805
 30
0.0
  0
VERTEX
  5
BF6A
  8
ALPHA
 10
53.572472
 20
96.017051
 30
0.0
  0
SEQEND
  5
BF6B
  8
ALPHA
  0
LINE
  5
B12B
  8
ALPHA
 10
58.896604
 20
89.36623
 30
0.0
 11
58.782844
 21
89.417423
 31
0.0
  0
LINE
  5
B12C
  8
ALPHA
 10
58.541924
 20
85.75398
 30
0.0
 11
58.661321
 21
85.780226
 31
0.0
  0
LINE
  5
B12D
  8
ALPHA
 10
58.406312
 20
85.730389
 30
0.0
 11
58.541924
 21
85.75398
 31
0.0
  0
LINE
  5
B12E
  8
ALPHA
 10
58.25223
 20
85.708118
 30
0.0
 11
58.406312
 21
85.730389
 31
0.0
  0
LINE
  5
B12F
  8
ALPHA
 10
58.023958
 20
85.6802
 30
0.0
 11
58.25223
 21
85.708118
 31
0.0
  0
LINE
  5
B130
  8
ALPHA
 10
58.259027
 20
86.90903
 30
0.0
 11
58.413258
 21
86.931489
 31
0.0
  0
LINE
  5
B131
  8
ALPHA
 10
58.014402
 20
86.879124
 30
0.0
 11
58.259027
 21
86.90903
 31
0.0
  0
LINE
  5
B132
  8
ALPHA
 10
58.258889
 20
88.109012
 30
0.0
 11
58.420421
 21
88.132634
 31
0.0
  0
LINE
  5
B133
  8
ALPHA
 10
58.020274
 20
88.079786
 30
0.0
 11
58.258889
 21
88.109012
 31
0.0
  0
LINE
  5
B134
  8
ALPHA
 10
58.42876
 20
89.333979
 30
0.0
 11
58.788665
 21
89.419016
 31
0.0
  0
LINE
  5
B135
  8
ALPHA
 10
58.252388
 20
89.30814
 30
0.0
 11
58.42876
 21
89.333979
 31
0.0
  0
LINE
  5
B136
  8
ALPHA
 10
58.015467
 20
89.279244
 30
0.0
 11
58.252388
 21
89.30814
 31
0.0
  0
LINE
  5
B137
  8
ALPHA
 10
58.001794
 20
90.477712
 30
0.0
 11
58.356974
 21
90.522847
 31
0.0
  0
LINE
  5
B138
  8
ALPHA
 10
57.99794
 20
94.077234
 30
0.0
 11
57.813133
 21
94.055901
 31
0.0
  0
LINE
  5
B139
  8
ALPHA
 10
57.999584
 20
91.677467
 30
0.0
 11
58.333679
 21
91.719433
 31
0.0
  0
LINE
  5
B13A
  8
ALPHA
 10
58.006138
 20
92.8782
 30
0.0
 11
58.345113
 21
92.921099
 31
0.0
  0
LINE
  5
B13B
  8
ALPHA
 10
58.013232
 20
95.279078
 30
0.0
 11
57.874708
 21
95.262702
 31
0.0
  0
LINE
  5
B13C
  8
ALPHA
 10
57.997932
 20
94.077282
 30
0.0
 11
58.226706
 21
94.104748
 31
0.0
  0
LINE
  5
B13D
  8
ALPHA
 10
57.944548
 20
94.071427
 30
0.0
 11
57.997932
 21
94.077282
 31
0.0
  0
LINE
  5
B13E
  8
ALPHA
 10
58.26716
 20
95.310126
 30
0.0
 11
58.420573
 21
95.332657
 31
0.0
  0
LINE
  5
B13F
  8
ALPHA
 10
58.013239
 20
95.278992
 30
0.0
 11
58.26716
 21
95.310126
 31
0.0
  0
LINE
  5
B140
  8
ALPHA
 10
57.896775
 20
95.266326
 30
0.0
 11
58.013239
 21
95.278992
 31
0.0
  0
LINE
  5
B141
  8
ALPHA
 10
57.874578
 20
95.263996
 30
0.0
 11
57.896775
 21
95.266326
 31
0.0
  0
LINE
  5
B142
  8
ALPHA
 10
58.216217
 20
96.503384
 30
0.0
 11
58.381783
 21
96.526585
 31
0.0
  0
LINE
  5
B143
  8
ALPHA
 10
58.005277
 20
96.478102
 30
0.0
 11
58.216217
 21
96.503384
 31
0.0
  0
LINE
  5
B144
  8
ALPHA
 10
52.977918
 20
110.417142
 30
0.0
 11
52.977918
 21
108.417142
 31
0.0
  0
LINE
  5
B145
  8
ALPHA
 10
56.653952
 20
99.952122
 30
0.0
 11
54.357609
 21
99.756968
 31
0.0
  0
LINE
  5
B146
  8
ALPHA
 10
58.024578
 20
97.680509
 30
0.0
 11
54.340302
 21
97.355032
 31
0.0
  0
LINE
  5
B147
  8
ALPHA
 10
56.632256
 20
98.750393
 30
0.0
 11
54.340251
 21
98.555028
 31
0.0
  0
LINE
  5
B148
  8
ALPHA
 10
54.340313
 20
97.354922
 30
0.0
 11
58.024605
 21
97.680275
 31
0.0
  0
LINE
  5
B149
  8
ALPHA
 10
54.340256
 20
98.554963
 30
0.0
 11
56.657809
 21
98.75716
 31
0.0
  0
LINE
  5
B14A
  8
ALPHA
 10
58.029975
 20
101.281195
 30
0.0
 11
54.348584
 21
100.95596
 31
0.0
  0
LINE
  5
B14B
  8
ALPHA
 10
58.019976
 20
102.479924
 30
0.0
 11
54.338463
 21
102.154826
 31
0.0
  0
LINE
  5
B14C
  8
ALPHA
 10
55.114894
 20
103.429424
 30
0.0
 11
54.341324
 21
103.355149
 31
0.0
  0
LINE
  5
B14D
  8
ALPHA
 10
55.232556
 20
104.639375
 30
0.0
 11
54.35952
 21
104.557181
 31
0.0
  0
LINE
  5
B14E
  8
ALPHA
 10
54.357595
 20
99.757067
 30
0.0
 11
56.564803
 21
99.94982
 31
0.0
  0
LINE
  5
B14F
  8
ALPHA
 10
54.348583
 20
100.955953
 30
0.0
 11
58.030009
 21
101.280885
 31
0.0
  0
LINE
  5
B150
  8
ALPHA
 10
54.338476
 20
102.154689
 30
0.0
 11
58.019994
 21
102.479755
 31
0.0
  0
LINE
  5
B151
  8
ALPHA
 10
54.341338
 20
103.355004
 30
0.0
 11
55.248267
 21
103.444921
 31
0.0
  0
LINE
  5
B152
  8
ALPHA
 10
58.001988
 20
106.077715
 30
0.0
 11
54.358569
 21
105.757074
 31
0.0
  0
LINE
  5
B153
  8
ALPHA
 10
58.004303
 20
107.277981
 30
0.0
 11
54.359543
 21
106.957183
 31
0.0
  0
LINE
  5
B154
  8
ALPHA
 10
57.363529
 20
108.41178
 30
0.0
 11
54.382074
 21
108.159674
 31
0.0
  0
LINE
  5
B155
  8
ALPHA
 10
54.359508
 20
104.55726
 30
0.0
 11
55.183737
 21
104.639393
 31
0.0
  0
LINE
  5
B156
  8
ALPHA
 10
54.358559
 20
105.75715
 30
0.0
 11
58.001984
 21
106.077735
 31
0.0
  0
LINE
  5
B157
  8
ALPHA
 10
54.359531
 20
106.957272
 30
0.0
 11
58.004301
 21
107.277994
 31
0.0
  0
LINE
  5
B158
  8
ALPHA
 10
54.382025
 20
108.160072
 30
0.0
 11
57.382401
 21
108.417137
 31
0.0
  0
POLYLINE
  5
B159
  8
ALPHA
 66
     1
 10
0.0
 20
0.0
 30
0.0
 70
   128
  0
VERTEX
  5
BF6C
  8
ALPHA
 10
53.917733
 20
103.298781
 30
0.0
  0
VERTEX
  5
BF6D
  8
ALPHA
 10
53.379618
 20
103.114036
 30
0.0
  0
VERTEX
  5
BF6E
  8
ALPHA
 10
53.128204
 20
102.617122
 30
0.0
  0
SEQEND
  5
BF6F
  8
ALPHA
  0
POLYLINE
  5
B15A
  8
ALPHA
 66
     1
 10
0.0
 20
0.0
 30
0.0
 70
   128
  0
VERTEX
  5
BF70
  8
ALPHA
 10
53.96634
 20
99.706516
 30
0.0
  0
VERTEX
  5
BF71
  8
ALPHA
 10
53.399478
 20
99.528649
 30
0.0
  0
VERTEX
  5
BF72
  8
ALPHA
 10
53.128244
 20
99.017116
 30
0.0
  0
SEQEND
  5
BF73
  8
ALPHA
  0
LINE
  5
B15B
  8
ALPHA
 10
54.13741
 20
99.730614
 30
0.0
 11
53.96634
 21
99.706516
 31
0.0
  0
LINE
  5
B15C
  8
ALPHA
 10
54.357609
 20
99.756968
 30
0.0
 11
54.13741
 21
99.730614
 31
0.0
  0
LINE
  5
B15D
  8
ALPHA
 10
54.103807
 20
97.326191
 30
0.0
 11
53.944548
 21
97.303107
 31
0.0
  0
LINE
  5
B15E
  8
ALPHA
 10
54.340302
 20
97.355032
 30
0.0
 11
54.103807
 21
97.326191
 31
0.0
  0
POLYLINE
  5
B15F
  8
ALPHA
 66
     1
 10
0.0
 20
0.0
 30
0.0
 70
   128
  0
VERTEX
  5
BF74
  8
ALPHA
 10
53.932435
 20
98.501173
 30
0.0
  0
VERTEX
  5
BF75
  8
ALPHA
 10
53.385557
 20
98.318539
 30
0.0
  0
VERTEX
  5
BF76
  8
ALPHA
 10
53.128212
 20
97.817121
 30
0.0
  0
SEQEND
  5
BF77
  8
ALPHA
  0
LINE
  5
B160
  8
ALPHA
 10
54.089489
 20
98.524268
 30
0.0
 11
53.932435
 21
98.501173
 31
0.0
  0
LINE
  5
B161
  8
ALPHA
 10
54.340251
 20
98.555028
 30
0.0
 11
54.089489
 21
98.524268
 31
0.0
  0
POLYLINE
  5
B162
  8
ALPHA
 66
     1
 10
0.0
 20
0.0
 30
0.0
 70
   128
  0
VERTEX
  5
BF78
  8
ALPHA
 10
53.128227
 20
99.017175
 30
0.0
  0
VERTEX
  5
BF79
  8
ALPHA
 10
53.255422
 20
98.646379
 30
0.0
  0
VERTEX
  5
BF7A
  8
ALPHA
 10
53.573432
 20
98.416702
 30
0.0
  0
SEQEND
  5
BF7B
  8
ALPHA
  0
POLYLINE
  5
B163
  8
ALPHA
 66
     1
 10
0.0
 20
0.0
 30
0.0
 70
   128
  0
VERTEX
  5
BF7C
  8
ALPHA
 10
53.962296
 20
100.905889
 30
0.0
  0
VERTEX
  5
BF7D
  8
ALPHA
 10
53.397826
 20
100.727464
 30
0.0
  0
VERTEX
  5
BF7E
  8
ALPHA
 10
53.128241
 20
100.217114
 30
0.0
  0
SEQEND
  5
BF7F
  8
ALPHA
  0
LINE
  5
B164
  8
ALPHA
 10
54.128368
 20
100.929436
 30
0.0
 11
53.962296
 21
100.905889
 31
0.0
  0
LINE
  5
B165
  8
ALPHA
 10
54.348584
 20
100.95596
 30
0.0
 11
54.128368
 21
100.929436
 31
0.0
  0
POLYLINE
  5
B166
  8
ALPHA
 66
     1
 10
0.0
 20
0.0
 30
0.0
 70
   128
  0
VERTEX
  5
BF80
  8
ALPHA
 10
53.920251
 20
102.099193
 30
0.0
  0
VERTEX
  5
BF81
  8
ALPHA
 10
53.380646
 20
101.914811
 30
0.0
  0
VERTEX
  5
BF82
  8
ALPHA
 10
53.128212
 20
101.417119
 30
0.0
  0
SEQEND
  5
BF83
  8
ALPHA
  0
LINE
  5
B167
  8
ALPHA
 10
54.070663
 20
102.121697
 30
0.0
 11
53.920251
 21
102.099193
 31
0.0
  0
LINE
  5
B168
  8
ALPHA
 10
54.338463
 20
102.154826
 30
0.0
 11
54.070663
 21
102.121697
 31
0.0
  0
POLYLINE
  5
B169
  8
ALPHA
 66
     1
 10
0.0
 20
0.0
 30
0.0
 70
   128
  0
VERTEX
  5
BF84
  8
ALPHA
 10
53.128223
 20
100.217172
 30
0.0
  0
VERTEX
  5
BF85
  8
ALPHA
 10
53.255305
 20
99.846533
 30
0.0
  0
VERTEX
  5
BF86
  8
ALPHA
 10
53.573078
 20
99.61683
 30
0.0
  0
SEQEND
  5
BF87
  8
ALPHA
  0
POLYLINE
  5
B16A
  8
ALPHA
 66
     1
 10
0.0
 20
0.0
 30
0.0
 70
   128
  0
VERTEX
  5
BF88
  8
ALPHA
 10
53.128229
 20
101.417176
 30
0.0
  0
VERTEX
  5
BF89
  8
ALPHA
 10
53.255509
 20
101.046262
 30
0.0
  0
VERTEX
  5
BF8A
  8
ALPHA
 10
53.573655
 20
100.816619
 30
0.0
  0
SEQEND
  5
BF8B
  8
ALPHA
  0
POLYLINE
  5
B16B
  8
ALPHA
 66
     1
 10
0.0
 20
0.0
 30
0.0
 70
   128
  0
VERTEX
  5
BF8C
  8
ALPHA
 10
53.128214
 20
102.617173
 30
0.0
  0
VERTEX
  5
BF8D
  8
ALPHA
 10
53.255227
 20
102.246639
 30
0.0
  0
VERTEX
  5
BF8E
  8
ALPHA
 10
53.572822
 20
102.016924
 30
0.0
  0
SEQEND
  5
BF8F
  8
ALPHA
  0
LINE
  5
B16C
  8
ALPHA
 10
54.069789
 20
103.321578
 30
0.0
 11
53.917733
 21
103.298781
 31
0.0
  0
LINE
  5
B16D
  8
ALPHA
 10
54.341324
 20
103.355149
 30
0.0
 11
54.069789
 21
103.321578
 31
0.0
  0
POLYLINE
  5
B16E
  8
ALPHA
 66
     1
 10
0.0
 20
0.0
 30
0.0
 70
   128
  0
VERTEX
  5
BF90
  8
ALPHA
 10
54.032031
 20
104.516273
 30
0.0
  0
VERTEX
  5
BF91
  8
ALPHA
 10
53.427143
 20
104.347211
 30
0.0
  0
VERTEX
  5
BF92
  8
ALPHA
 10
53.128183
 20
103.817125
 30
0.0
  0
SEQEND
  5
BF93
  8
ALPHA
  0
LINE
  5
B16F
  8
ALPHA
 10
54.35952
 20
104.557181
 30
0.0
 11
54.032031
 21
104.516273
 31
0.0
  0
POLYLINE
  5
B170
  8
ALPHA
 66
     1
 10
0.0
 20
0.0
 30
0.0
 70
   128
  0
VERTEX
  5
BF94
  8
ALPHA
 10
53.128284
 20
103.81718
 30
0.0
  0
VERTEX
  5
BF95
  8
ALPHA
 10
53.255296
 20
103.446429
 30
0.0
  0
VERTEX
  5
BF96
  8
ALPHA
 10
53.573148
 20
103.216804
 30
0.0
  0
SEQEND
  5
BF97
  8
ALPHA
  0
POLYLINE
  5
B171
  8
ALPHA
 66
     1
 10
0.0
 20
0.0
 30
0.0
 70
   128
  0
VERTEX
  5
BF98
  8
ALPHA
 10
54.012505
 20
105.713446
 30
0.0
  0
VERTEX
  5
BF99
  8
ALPHA
 10
53.418799
 20
105.541848
 30
0.0
  0
VERTEX
  5
BF9A
  8
ALPHA
 10
53.128236
 20
105.017116
 30
0.0
  0
SEQEND
  5
BF9B
  8
ALPHA
  0
LINE
  5
B172
  8
ALPHA
 10
54.358569
 20
105.757074
 30
0.0
 11
54.012505
 21
105.713446
 31
0.0
  0
POLYLINE
  5
B173
  8
ALPHA
 66
     1
 10
0.0
 20
0.0
 30
0.0
 70
   128
  0
VERTEX
  5
BF9C
  8
ALPHA
 10
54.008932
 20
106.912923
 30
0.0
  0
VERTEX
  5
BF9D
  8
ALPHA
 10
53.417249
 20
106.74084
 30
0.0
  0
VERTEX
  5
BF9E
  8
ALPHA
 10
53.128257
 20
106.217115
 30
0.0
  0
SEQEND
  5
BF9F
  8
ALPHA
  0
LINE
  5
B174
  8
ALPHA
 10
54.359543
 20
106.957183
 30
0.0
 11
54.008932
 21
106.912923
 31
0.0
  0
POLYLINE
  5
B175
  8
ALPHA
 66
     1
 10
0.0
 20
0.0
 30
0.0
 70
   128
  0
VERTEX
  5
BFA0
  8
ALPHA
 10
54.020106
 20
108.114555
 30
0.0
  0
VERTEX
  5
BFA1
  8
ALPHA
 10
53.421938
 20
107.943898
 30
0.0
  0
VERTEX
  5
BFA2
  8
ALPHA
 10
53.128318
 20
107.41711
 30
0.0
  0
SEQEND
  5
BFA3
  8
ALPHA
  0
LINE
  5
B176
  8
ALPHA
 10
54.181229
 20
108.136197
 30
0.0
 11
54.020106
 21
108.114555
 31
0.0
  0
LINE
  5
B177
  8
ALPHA
 10
54.204075
 20
108.139032
 30
0.0
 11
54.181229
 21
108.136197
 31
0.0
  0
LINE
  5
B178
  8
ALPHA
 10
54.382074
 20
108.159674
 30
0.0
 11
54.204075
 21
108.139032
 31
0.0
  0
POLYLINE
  5
B179
  8
ALPHA
 66
     1
 10
0.0
 20
0.0
 30
0.0
 70
   128
  0
VERTEX
  5
BFA4
  8
ALPHA
 10
53.128294
 20
105.017182
 30
0.0
  0
VERTEX
  5
BFA5
  8
ALPHA
 10
53.255763
 20
104.645802
 30
0.0
  0
VERTEX
  5
BFA6
  8
ALPHA
 10
53.574508
 20
104.416308
 30
0.0
  0
SEQEND
  5
BFA7
  8
ALPHA
  0
POLYLINE
  5
B17A
  8
ALPHA
 66
     1
 10
0.0
 20
0.0
 30
0.0
 70
   128
  0
VERTEX
  5
BFA8
  8
ALPHA
 10
53.128267
 20
106.217177
 30
0.0
  0
VERTEX
  5
BFA9
  8
ALPHA
 10
53.255923
 20
105.845569
 30
0.0
  0
VERTEX
  5
BFAA
  8
ALPHA
 10
53.57504
 20
105.616115
 30
0.0
  0
SEQEND
  5
BFAB
  8
ALPHA
  0
POLYLINE
  5
B17B
  8
ALPHA
 66
     1
 10
0.0
 20
0.0
 30
0.0
 70
   128
  0
VERTEX
  5
BFAC
  8
ALPHA
 10
53.128304
 20
107.417182
 30
0.0
  0
VERTEX
  5
BFAD
  8
ALPHA
 10
53.256097
 20
107.045341
 30
0.0
  0
VERTEX
  5
BFAE
  8
ALPHA
 10
53.575619
 20
106.815904
 30
0.0
  0
SEQEND
  5
BFAF
  8
ALPHA
  0
LINE
  5
B17C
  8
ALPHA
 10
53.163293
 20
108.417094
 30
0.0
 11
53.575451
 21
108.015968
 31
0.0
  0
LINE
  5
B17D
  8
ALPHA
 10
57.994505
 20
98.876757
 30
0.0
 11
56.658183
 21
98.752461
 31
0.0
  0
LINE
  5
B17E
  8
ALPHA
 10
58.005694
 20
100.078137
 30
0.0
 11
56.653958
 21
99.952122
 31
0.0
  0
LINE
  5
B17F
  8
ALPHA
 10
56.657804
 20
98.75716
 30
0.0
 11
57.994486
 21
98.8769
 31
0.0
  0
LINE
  5
B180
  8
ALPHA
 10
56.653584
 20
99.956825
 30
0.0
 11
58.00569
 21
100.078147
 31
0.0
  0
LINE
  5
B181
  8
ALPHA
 10
56.658183
 20
98.752461
 30
0.0
 11
56.632256
 21
98.750393
 31
0.0
  0
LINE
  5
B182
  8
ALPHA
 10
56.564803
 20
99.94982
 30
0.0
 11
56.653584
 21
99.956825
 31
0.0
  0
LINE
  5
B183
  8
ALPHA
 10
58.254193
 20
97.708383
 30
0.0
 11
58.409484
 21
97.730892
 31
0.0
  0
LINE
  5
B184
  8
ALPHA
 10
58.024605
 20
97.680275
 30
0.0
 11
58.254193
 21
97.708383
 31
0.0
  0
LINE
  5
B185
  8
ALPHA
 10
57.994486
 20
98.8769
 30
0.0
 11
58.34051
 21
98.920425
 31
0.0
  0
LINE
  5
B186
  8
ALPHA
 10
58.239727
 20
100.106458
 30
0.0
 11
58.406916
 21
100.130485
 31
0.0
  0
LINE
  5
B187
  8
ALPHA
 10
58.00569
 20
100.078147
 30
0.0
 11
58.239727
 21
100.106458
 31
0.0
  0
LINE
  5
B188
  8
ALPHA
 10
58.359523
 20
101.323227
 30
0.0
 11
58.365744
 21
101.324156
 31
0.0
  0
LINE
  5
B189
  8
ALPHA
 10
58.030009
 20
101.280885
 30
0.0
 11
58.359523
 21
101.323227
 31
0.0
  0
LINE
  5
B18A
  8
ALPHA
 10
58.257798
 20
102.508866
 30
0.0
 11
58.413533
 21
102.531534
 31
0.0
  0
LINE
  5
B18B
  8
ALPHA
 10
58.019994
 20
102.479755
 30
0.0
 11
58.257798
 21
102.508866
 31
0.0
  0
LINE
  5
B18C
  8
ALPHA
 10
58.003991
 20
103.677928
 30
0.0
 11
55.347847
 21
103.448934
 31
0.0
  0
LINE
  5
B18D
  8
ALPHA
 10
57.997659
 20
104.877138
 30
0.0
 11
55.232544
 21
104.639373
 31
0.0
  0
LINE
  5
B18E
  8
ALPHA
 10
55.248284
 20
103.444924
 30
0.0
 11
58.003986
 21
103.677957
 31
0.0
  0
LINE
  5
B18F
  8
ALPHA
 10
55.232192
 20
104.643551
 30
0.0
 11
57.997645
 21
104.87725
 31
0.0
  0
LINE
  5
B190
  8
ALPHA
 10
55.347847
 20
103.448934
 30
0.0
 11
55.114894
 21
103.429424
 31
0.0
  0
LINE
  5
B191
  8
ALPHA
 10
55.183737
 20
104.639393
 30
0.0
 11
55.232192
 21
104.643551
 31
0.0
  0
LINE
  5
B192
  8
ALPHA
 10
58.003986
 20
103.677957
 30
0.0
 11
58.21462
 21
103.703177
 31
0.0
  0
LINE
  5
B193
  8
ALPHA
 10
57.997645
 20
104.87725
 30
0.0
 11
58.339038
 21
104.92021
 31
0.0
  0
LINE
  5
B194
  8
ALPHA
 10
58.001984
 20
106.077735
 30
0.0
 11
58.33594
 21
106.119761
 31
0.0
  0
LINE
  5
B195
  8
ALPHA
 10
58.004301
 20
107.277994
 30
0.0
 11
58.342909
 21
107.320776
 31
0.0
  0
ARC
  5
B196
  8
ALPHA
 10
61.267925
 20
39.107149
 30
0.0
 40
0.790007
 50
115.869732
 51
270.0
  0
ARC
  5
B197
  8
ALPHA
 10
62.577918
 20
37.217142
 30
0.0
 40
1.1
 50
0.0
 51
90.0
  0
LINE
  5
B198
  8
ALPHA
 10
59.355522
 20
31.417142
 30
0.0
 11
59.355522
 21
29.267142
 31
0.0
  0
LINE
  5
B199
  8
ALPHA
 10
59.250567
 20
31.417142
 30
0.0
 11
59.250567
 21
29.267142
 31
0.0
  0
LINE
  5
B19A
  8
ALPHA
 10
59.226319
 20
29.267142
 30
0.0
 11
59.226319
 21
31.417142
 31
0.0
  0
LINE
  5
B19B
  8
ALPHA
 10
62.877918
 20
31.417142
 30
0.0
 11
62.877918
 21
29.267142
 31
0.0
  0
LINE
  5
B19C
  8
ALPHA
 10
61.677918
 20
29.267142
 30
0.0
 11
61.677918
 21
27.967142
 31
0.0
  0
ARC
  5
B19D
  8
ALPHA
 10
63.177918
 20
34.217142
 30
0.0
 40
0.6
 50
216.035534
 51
270.0
  0
ARC
  5
B19E
  8
ALPHA
 10
63.177918
 20
34.217142
 30
0.0
 40
0.6
 50
90.0
 51
143.964466
  0
ARC
  5
B19F
  8
ALPHA
 10
62.927918
 20
34.217142
 30
0.0
 40
0.35
 50
270.0
 51
90.0
  0
ARC
  5
B1A0
  8
ALPHA
 10
63.477918
 20
33.417142
 30
0.0
 40
0.2
 50
0.0
 51
90.0
  0
ARC
  5
B1A1
  8
ALPHA
 10
63.477918
 20
33.117142
 30
0.0
 40
0.2
 50
270.0
 51
0.0
  0
LINE
  5
B1A2
  8
ALPHA
 10
64.177918
 20
31.417142
 30
0.0
 11
64.177918
 21
32.417142
 31
0.0
  0
LINE
  5
B1A3
  8
ALPHA
 10
63.677918
 20
33.117142
 30
0.0
 11
63.677918
 21
33.417142
 31
0.0
  0
LINE
  5
B1A4
  8
ALPHA
 10
64.177918
 20
32.417142
 30
0.0
 11
63.677918
 21
32.917142
 31
0.0
  0
ARC
  5
B1A5
  8
ALPHA
 10
63.477918
 20
35.017142
 30
0.0
 40
0.2
 50
270.0
 51
0.0
  0
LINE
  5
B1A6
  8
ALPHA
 10
63.677918
 20
35.017142
 30
0.0
 11
63.677918
 21
37.217142
 31
0.0
  0
ARC
  5
B1A7
  8
ALPHA
 10
59.177918
 20
43.417142
 30
0.0
 40
4.0
 50
295.869732
 51
88.623278
  0
LINE
  5
B1A8
  8
ALPHA
 10
59.377918
 20
110.417142
 30
0.0
 11
59.377918
 21
108.417142
 31
0.0
  0
ARC
  5
B1A9
  8
ALPHA
 10
56.177918
 20
147.217142
 30
0.0
 40
1.499446
 50
0.0
 51
180.0
  0
LINE
  5
B1AA
  8
ALPHA
 10
57.677918
 20
147.217142
 30
0.0
 11
54.677918
 21
147.217142
 31
0.0
  0
VIEWPORT
  5
494D
 67
     1
  8
0
 10
4.995325
 20
6.556512
 30
0.0
 40
22.70986
 41
13.988421
 68
    -1
 69
     1
1001
ACAD
1000
MVIEW
1002
{
1070
    16
1010
0.0
1020
0.0
1030
0.0
1010
0.0
1020
0.0
1030
1.0
1040
0.0
1040
13.988421
1040
4.995325
1040
6.556512
1040
50.0
1040
0.0
1040
0.0
1070
     0
1070
   100
1070
     1
1070
     1
1070
     0
1070
     0
1070
     0
1070
     0
1040
0.0
1040
0.0
1040
0.0
1040
10.0
1040
10.0
1040
10.0
1040
10.0
1070
     0
1002
{
1002
}
1002
}
  0
ENDSEC
  0
EOF
