  0
SECTION
  2
HEADER
  9
$ACADVER
  1
AC1009
  9
$INSBASE
 10
402.590624
 20
-1.041018
 30
0.0
  9
$EXTMIN
 10
-2.502456
 20
2.54906
 30
0.0
  9
$EXTMAX
 10
71.924063
 20
88.459216
 30
0.0
  9
$LIMMIN
 10
-407.970438
 20
-367.832444
  9
$LIMMAX
 10
429.804077
 20
234.370848
  9
$ORTHOMODE
 70
     1
  9
$REGENMODE
 70
     1
  9
$FILLMODE
 70
     1
  9
$QTEXTMODE
 70
     0
  9
$MIRRTEXT
 70
     1
  9
$DRAGMODE
 70
     2
  9
$LTSCALE
 40
10.0
  9
$OSMODE
 70
    39
  9
$ATTMODE
 70
     1
  9
$TEXTSIZE
 40
6.0
  9
$TRACEWID
 40
1.0
  9
$TEXTSTYLE
  7
ROMANS
  9
$CLAYER
  8
ALPHA
  9
$CELTYPE
  6
BYLAYER
  9
$CECOLOR
 62
   256
  9
$DIMSCALE
 40
1.0
  9
$DIMASZ
 40
5.0
  9
$DIMEXO
 40
2.0
  9
$DIMDLI
 40
0.38
  9
$DIMRND
 40
0.0
  9
$DIMDLE
 40
0.0
  9
$DIMEXE
 40
2.5
  9
$DIMTP
 40
0.0
  9
$DIMTM
 40
0.0
  9
$DIMTXT
 40
2.5
  9
$DIMCEN
 40
0.0
  9
$DIMTSZ
 40
0.0
  9
$DIMTOL
 70
     0
  9
$DIMLIM
 70
     0
  9
$DIMTIH
 70
     1
  9
$DIMTOH
 70
     1
  9
$DIMSE1
 70
     0
  9
$DIMSE2
 70
     0
  9
$DIMTAD
 70
     1
  9
$DIMZIN
 70
    12
  9
$DIMBLK
  1
OPEN30
  9
$DIMASO
 70
     1
  9
$DIMSHO
 70
     1
  9
$DIMPOST
  1

  9
$DIMAPOST
  1

  9
$DIMALT
 70
     0
  9
$DIMALTD
 70
     2
  9
$DIMALTF
 40
25.4
  9
$DIMLFAC
 40
1.0
  9
$DIMTOFL
 70
     0
  9
$DIMTVP
 40
0.0
  9
$DIMTIX
 70
     0
  9
$DIMSOXD
 70
     0
  9
$DIMSAH
 70
     0
  9
$DIMBLK1
  1

  9
$DIMBLK2
  1

  9
$DIMSTYLE
  2
SC_DEFAUT
  9
$DIMCLRD
 70
     0
  9
$DIMCLRE
 70
     0
  9
$DIMCLRT
 70
     0
  9
$DIMTFAC
 40
1.0
  9
$DIMGAP
 40
2.0
  9
$LUNITS
 70
     2
  9
$LUPREC
 70
     4
  9
$SKETCHINC
 40
0.1
  9
$FILLETRAD
 40
0.0
  9
$AUNITS
 70
     0
  9
$AUPREC
 70
     4
  9
$MENU
  1
acad
  9
$ELEVATION
 40
0.0
  9
$PELEVATION
 40
0.0
  9
$THICKNESS
 40
0.0
  9
$LIMCHECK
 70
     0
  9
$BLIPMODE
 70
     0
  9
$CHAMFERA
 40
0.0
  9
$CHAMFERB
 40
0.0
  9
$SKPOLY
 70
     0
  9
$TDCREATE
 40
2450373.687919
  9
$TDUPDATE
 40
2453228.65828
  9
$TDINDWG
 40
1.229959
  9
$TDUSRTIMER
 40
1.229959
  9
$USRTIMER
 70
     1
  9
$ANGBASE
 50
0.0
  9
$ANGDIR
 70
     0
  9
$PDMODE
 70
    32
  9
$PDSIZE
 40
0.0
  9
$PLINEWID
 40
0.0
  9
$COORDS
 70
     0
  9
$SPLFRAME
 70
     0
  9
$SPLINETYPE
 70
     6
  9
$SPLINESEGS
 70
     8
  9
$ATTDIA
 70
     0
  9
$ATTREQ
 70
     1
  9
$HANDLING
 70
     1
  9
$HANDSEED
  5
DC63
  9
$SURFTAB1
 70
     6
  9
$SURFTAB2
 70
     6
  9
$SURFTYPE
 70
     6
  9
$SURFU
 70
     6
  9
$SURFV
 70
     6
  9
$UCSNAME
  2

  9
$UCSORG
 10
0.0
 20
0.0
 30
0.0
  9
$UCSXDIR
 10
1.0
 20
0.0
 30
0.0
  9
$UCSYDIR
 10
0.0
 20
1.0
 30
0.0
  9
$PUCSNAME
  2

  9
$PUCSORG
 10
0.0
 20
0.0
 30
0.0
  9
$PUCSXDIR
 10
1.0
 20
0.0
 30
0.0
  9
$PUCSYDIR
 10
0.0
 20
1.0
 30
0.0
  9
$USERI1
 70
     0
  9
$USERI2
 70
     0
  9
$USERI3
 70
     0
  9
$USERI4
 70
     0
  9
$USERI5
 70
     0
  9
$USERR1
 40
0.0
  9
$USERR2
 40
0.0
  9
$USERR3
 40
0.0
  9
$USERR4
 40
0.0
  9
$USERR5
 40
0.0
  9
$WORLDVIEW
 70
     1
  9
$SHADEDGE
 70
     3
  9
$SHADEDIF
 70
    70
  9
$TILEMODE
 70
     1
  9
$MAXACTVP
 70
    16
  9
$PLIMCHECK
 70
     0
  9
$PEXTMIN
 10
-1.452248
 20
-0.437698
 30
0.0
  9
$PEXTMAX
 10
12.749749
 20
8.310198
 30
0.0
  9
$PLIMMIN
 10
0.0
 20
0.0
  9
$PLIMMAX
 10
12.0
 20
9.0
  9
$UNITMODE
 70
     0
  9
$VISRETAIN
 70
     0
  9
$PLINEGEN
 70
     0
  9
$PSLTSCALE
 70
     0
  0
ENDSEC
  0
SECTION
  2
TABLES
  0
TABLE
  2
VPORT
 70
     2
  0
VPORT
  2
*ACTIVE
 70
     0
 10
0.0
 20
0.0
 11
1.0
 21
1.0
 12
34.72595
 22
45.488559
 13
0.0
 23
0.0
 14
1.0
 24
1.0
 15
10.0
 25
10.0
 16
0.0
 26
0.0
 36
1.0
 17
0.0
 27
0.0
 37
0.0
 40
86.581268
 41
1.466346
 42
50.0
 43
0.0
 44
0.0
 50
0.0
 51
0.0
 71
     0
 72
   100
 73
     1
 74
     0
 75
     0
 76
     0
 77
     0
 78
     0
  0
ENDTAB
  0
TABLE
  2
LTYPE
 70
     2
  0
LTYPE
  2
CONTINUOUS
 70
     0
  3
Solid line
 72
    65
 73
     0
 40
0.0
  0
LTYPE
  2
AXES2
 70
     0
  3
___ _ ___ _ ___ _ ___ _ ___ _ ___ _ ___ _ ___ _
 72
    65
 73
     4
 40
1.125
 49
0.75
 49
-0.125
 49
0.125
 49
-0.125
  0
ENDTAB
  0
TABLE
  2
LAYER
 70
     5
  0
LAYER
  2
0
 70
     0
 62
   255
  6
CONTINUOUS
  0
LAYER
  2
COTATION1
 70
     0
 62
     2
  6
CONTINUOUS
  0
LAYER
  2
AXE
 70
     0
 62
    80
  6
AXES2
  0
LAYER
  2
DEFPOINTS
 70
     0
 62
     7
  6
CONTINUOUS
  0
LAYER
  2
ALPHA
 70
     0
 62
   254
  6
CONTINUOUS
  0
ENDTAB
  0
TABLE
  2
STYLE
 70
     2
  0
STYLE
  2
ROMANS
 70
     0
 40
0.0
 41
1.0
 50
0.0
 71
     0
 42
6.0
  3
romans
  4

  0
STYLE
  2
STANDARD
 70
     0
 40
0.0
 41
1.0
 50
0.0
 71
     0
 42
0.2
  3
txt
  4

  0
ENDTAB
  0
TABLE
  2
VIEW
 70
     0
  0
ENDTAB
  0
TABLE
  2
UCS
 70
     0
  0
ENDTAB
  0
TABLE
  2
APPID
 70
     1
  0
APPID
  2
ACAD
 70
     0
  0
ENDTAB
  0
TABLE
  2
DIMSTYLE
 70
     2
  0
DIMSTYLE
  2
SC_DEFAUT
 70
     0
  3

  4

  5
OPEN30
  6

  7

 40
1.0
 41
5.0
 42
2.0
 43
0.38
 44
2.5
 45
0.0
 46
0.0
 47
0.0
 48
0.0
140
2.5
141
0.0
142
0.0
143
25.4
144
1.0
145
0.0
146
1.0
147
2.0
 71
     0
 72
     0
 73
     1
 74
     1
 75
     0
 76
     0
 77
     1
 78
    12
170
     0
171
     2
172
     0
173
     0
174
     0
175
     0
176
     0
177
     0
178
     0
  0
DIMSTYLE
  2
STANDARD
 70
     0
  3

  4

  5

  6

  7

 40
1.0
 41
0.18
 42
0.0625
 43
0.38
 44
0.18
 45
0.0
 46
0.0
 47
0.0
 48
0.0
140
0.18
141
0.09
142
0.0
143
25.4
144
1.0
145
0.0
146
1.0
147
0.09
 71
     0
 72
     0
 73
     1
 74
     1
 75
     0
 76
     0
 77
     0
 78
     0
170
     0
171
     2
172
     0
173
     0
174
     0
175
     0
176
     0
177
     0
178
     0
  0
ENDTAB
  0
ENDSEC
  0
SECTION
  2
BLOCKS
  0
BLOCK
  8
0
  2
$MODEL_SPACE
 70
     0
 10
0.0
 20
0.0
 30
0.0
  3
$MODEL_SPACE
  1

  0
ENDBLK
  5
DB22
  8
0
  0
BLOCK
 67
     1
  8
0
  2
$PAPER_SPACE
 70
     0
 10
0.0
 20
0.0
 30
0.0
  3
$PAPER_SPACE
  1

  0
ENDBLK
  5
DB20
 67
     1
  8
0
  0
BLOCK
  8
0
  2
COTE
 70
     0
 10
0.0
 20
0.0
 30
0.0
  3
COTE
  1

  0
ENDBLK
  5
F
  8
0
  0
BLOCK
  8
0
  2
FOND
 70
     0
 10
0.0
 20
0.0
 30
0.0
  3
FOND
  1

  0
ENDBLK
  5
75
  8
0
  0
BLOCK
  8
0
  2
_OPEN30
 70
     0
 10
0.0
 20
0.0
 30
0.0
  3
_OPEN30
  1

  0
LINE
  5
4B05
  8
COTATION1
 62
     0
 10
-1.0
 20
0.267949
 30
0.0
 11
0.0
 21
0.0
 31
0.0
1001
ACAD
1000
RTLwPs
1070
   158
  0
LINE
  5
4B06
  8
COTATION1
 62
     0
 10
0.0
 20
0.0
 30
0.0
 11
-1.0
 21
-0.267949
 31
0.0
1001
ACAD
1000
RTLwPs
1070
   158
  0
LINE
  5
4B07
  8
COTATION1
 62
     0
 10
0.0
 20
0.0
 30
0.0
 11
-1.0
 21
0.0
 31
0.0
1001
ACAD
1000
RTLwPs
1070
   158
  0
ENDBLK
  5
4B09
  8
0
  0
BLOCK
  8
0
  2
*D3
 70
     1
 10
0.0
 20
0.0
 30
0.0
  3
*D3
  1

  0
LINE
  5
D752
  8
COTATION1
 62
     0
 10
7.497544
 20
59.241541
 30
0.0
 11
7.497544
 21
76.465706
 31
0.0
1001
ACAD
1000
RTLwPs
1070
   158
  0
LINE
  5
D753
  8
COTATION1
 62
     0
 10
16.498905
 20
66.086452
 30
0.0
 11
16.498905
 21
76.465706
 31
0.0
1001
ACAD
1000
RTLwPs
1070
   158
  0
LINE
  5
D754
  8
COTATION1
 62
     0
 10
2.497544
 20
73.965706
 30
0.0
 11
-2.502456
 21
73.965706
 31
0.0
1001
ACAD
1000
RTLwPs
1070
   158
  0
LINE
  5
D755
  8
COTATION1
 62
     0
 10
21.498905
 20
73.965706
 30
0.0
 11
26.498905
 21
73.965706
 31
0.0
1001
ACAD
1000
RTLwPs
1070
   158
  0
TEXT
  5
D756
  8
COTATION1
 62
     0
 10
10.796802
 20
76.079963
 30
0.0
 40
2.5
  1
9
1001
ACAD
1000
MTEXTBEGIN
1070
    73
1070
     1
1070
    44
1040
1.0
1070
    74
1070
     0
1000
MTEXTEND
  0
INSERT
  5
D757
  8
COTATION1
 62
     0
  2
_OPEN30
 10
7.497544
 20
73.965706
 30
0.0
 41
5.0
 42
5.0
 43
5.0
1001
ACAD
1000
RTLwPs
1070
   158
  0
INSERT
  5
D758
  8
COTATION1
 62
     0
  2
_OPEN30
 10
16.498905
 20
73.965706
 30
0.0
 41
5.0
 42
5.0
 43
5.0
 50
180.0
1001
ACAD
1000
RTLwPs
1070
   158
  0
POINT
  5
D759
  8
DEFPOINTS
 62
     0
 10
7.497544
 20
57.241541
 30
0.0
  0
POINT
  5
D75A
  8
DEFPOINTS
 62
     0
 10
16.498905
 20
64.086452
 30
0.0
  0
POINT
  5
D75B
  8
DEFPOINTS
 62
     0
 10
16.498905
 20
73.965706
 30
0.0
  0
ENDBLK
  5
D3A1
  8
0
  0
BLOCK
  8
0
  2
*D4
 70
     1
 10
0.0
 20
0.0
 30
0.0
  3
*D4
  1

  0
LINE
  5
D536
  8
COTATION1
 62
     0
 10
7.497544
 20
59.241541
 30
0.0
 11
7.497544
 21
86.344959
 31
0.0
1001
ACAD
1000
RTLwPs
1070
   158
  0
LINE
  5
D537
  8
COTATION1
 62
     0
 10
25.500234
 20
59.241541
 30
0.0
 11
25.500234
 21
86.344959
 31
0.0
1001
ACAD
1000
RTLwPs
1070
   158
  0
LINE
  5
D538
  8
COTATION1
 62
     0
 10
12.497544
 20
83.844959
 30
0.0
 11
20.500234
 21
83.844959
 31
0.0
1001
ACAD
1000
RTLwPs
1070
   158
  0
TEXT
  5
D539
  8
COTATION1
 62
     0
 10
14.014928
 20
85.959216
 30
0.0
 40
2.5
  1
18
1001
ACAD
1000
MTEXTBEGIN
1070
    73
1070
     1
1070
    44
1040
1.0
1070
    74
1070
     0
1000
MTEXTEND
  0
INSERT
  5
D53A
  8
COTATION1
 62
     0
  2
_OPEN30
 10
7.497544
 20
83.844959
 30
0.0
 41
5.0
 42
5.0
 43
5.0
 50
180.0
1001
ACAD
1000
RTLwPs
1070
   158
  0
INSERT
  5
D53B
  8
COTATION1
 62
     0
  2
_OPEN30
 10
25.500234
 20
83.844959
 30
0.0
 41
5.0
 42
5.0
 43
5.0
1001
ACAD
1000
RTLwPs
1070
   158
  0
POINT
  5
D53C
  8
DEFPOINTS
 62
     0
 10
7.497544
 20
57.241541
 30
0.0
  0
POINT
  5
D53D
  8
DEFPOINTS
 62
     0
 10
25.500234
 20
57.241541
 30
0.0
  0
POINT
  5
D53E
  8
DEFPOINTS
 62
     0
 10
25.500234
 20
83.844959
 30
0.0
  0
ENDBLK
  5
D3AD
  8
0
  0
BLOCK
  8
0
  2
*D5
 70
     1
 10
0.0
 20
0.0
 30
0.0
  3
*D5
  1

  0
LINE
  5
D748
  8
COTATION1
 62
     0
 10
25.594949
 20
59.146825
 30
0.0
 11
60.614539
 21
59.146825
 31
0.0
1001
ACAD
1000
RTLwPs
1070
   158
  0
LINE
  5
D749
  8
COTATION1
 62
     0
 10
25.594949
 20
26.121892
 30
0.0
 11
60.614539
 21
26.121892
 31
0.0
1001
ACAD
1000
RTLwPs
1070
   158
  0
LINE
  5
D74A
  8
COTATION1
 62
     0
 10
58.114539
 20
54.146825
 30
0.0
 11
58.114539
 21
45.884359
 31
0.0
1001
ACAD
1000
RTLwPs
1070
   158
  0
LINE
  5
D74B
  8
COTATION1
 62
     0
 10
58.114539
 20
31.121892
 30
0.0
 11
58.114539
 21
39.384359
 31
0.0
1001
ACAD
1000
RTLwPs
1070
   158
  0
TEXT
  5
D74C
  8
COTATION1
 62
     0
 10
55.733587
 20
41.384359
 30
0.0
 40
2.5
  1
33
1001
ACAD
1000
MTEXTBEGIN
1070
    73
1070
     1
1070
    44
1040
1.0
1070
    74
1070
     0
1000
MTEXTEND
  0
INSERT
  5
D74D
  8
COTATION1
 62
     0
  2
_OPEN30
 10
58.114539
 20
59.146825
 30
0.0
 41
5.0
 42
5.0
 43
5.0
 50
90.0
1001
ACAD
1000
RTLwPs
1070
   158
  0
INSERT
  5
D74E
  8
COTATION1
 62
     0
  2
_OPEN30
 10
58.114539
 20
26.121892
 30
0.0
 41
5.0
 42
5.0
 43
5.0
 50
270.0
1001
ACAD
1000
RTLwPs
1070
   158
  0
POINT
  5
D74F
  8
DEFPOINTS
 62
     0
 10
23.594949
 20
59.146825
 30
0.0
  0
POINT
  5
D750
  8
DEFPOINTS
 62
     0
 10
23.594949
 20
26.121892
 30
0.0
  0
POINT
  5
D751
  8
DEFPOINTS
 62
     0
 10
58.114539
 20
26.121892
 30
0.0
  0
ENDBLK
  5
D71F
  8
0
  0
BLOCK
  8
0
  2
*D6
 70
     1
 10
0.0
 20
0.0
 30
0.0
  3
*D6
  1

  0
LINE
  5
D7CC
  8
COTATION1
 62
     0
 10
25.594949
 20
59.146825
 30
0.0
 11
50.735286
 21
59.146825
 31
0.0
1001
ACAD
1000
RTLwPs
1070
   158
  0
LINE
  5
D7CD
  8
COTATION1
 62
     0
 10
40.356032
 20
42.634359
 30
0.0
 11
50.735286
 21
42.634359
 31
0.0
1001
ACAD
1000
RTLwPs
1070
   158
  0
LINE
  5
D7CE
  8
COTATION1
 62
     0
 10
48.235286
 20
54.146825
 30
0.0
 11
48.235286
 21
54.142222
 31
0.0
1001
ACAD
1000
RTLwPs
1070
   158
  0
LINE
  5
D7CF
  8
COTATION1
 62
     0
 10
48.235286
 20
47.634359
 30
0.0
 11
48.235286
 21
47.642222
 31
0.0
1001
ACAD
1000
RTLwPs
1070
   158
  0
TEXT
  5
D7D0
  8
COTATION1
 62
     0
 10
43.890048
 20
49.642222
 30
0.0
 40
2.5
  1
16.5
1001
ACAD
1000
MTEXTBEGIN
1070
    73
1070
     1
1070
    44
1040
1.0
1070
    74
1070
     0
1000
MTEXTEND
  0
INSERT
  5
D7D1
  8
COTATION1
 62
     0
  2
_OPEN30
 10
48.235286
 20
59.146825
 30
0.0
 41
5.0
 42
5.0
 43
5.0
 50
90.0
1001
ACAD
1000
RTLwPs
1070
   158
  0
INSERT
  5
D7D2
  8
COTATION1
 62
     0
  2
_OPEN30
 10
48.235286
 20
42.634359
 30
0.0
 41
5.0
 42
5.0
 43
5.0
 50
270.0
1001
ACAD
1000
RTLwPs
1070
   158
  0
POINT
  5
D7D3
  8
DEFPOINTS
 62
     0
 10
23.594949
 20
59.146825
 30
0.0
  0
POINT
  5
D7D4
  8
DEFPOINTS
 62
     0
 10
38.356032
 20
42.634359
 30
0.0
  0
POINT
  5
D7D5
  8
DEFPOINTS
 62
     0
 10
48.235286
 20
42.634359
 30
0.0
  0
ENDBLK
  5
D7C1
  8
0
  0
BLOCK
  8
0
  2
*D7
 70
     1
 10
0.0
 20
0.0
 30
0.0
  3
*D7
  1

  0
LINE
  5
D8F0
  8
COTATION1
 62
     0
 10
25.594949
 20
59.146825
 30
0.0
 11
70.614539
 21
59.146825
 31
0.0
1001
ACAD
1000
RTLwPs
1070
   158
  0
LINE
  5
D8F1
  8
COTATION1
 62
     0
 10
23.699666
 20
15.342089
 30
0.0
 11
70.614539
 21
15.342089
 31
0.0
1001
ACAD
1000
RTLwPs
1070
   158
  0
LINE
  5
D8F2
  8
COTATION1
 62
     0
 10
68.114539
 20
54.146825
 30
0.0
 11
68.114539
 21
40.519457
 31
0.0
1001
ACAD
1000
RTLwPs
1070
   158
  0
LINE
  5
D8F3
  8
COTATION1
 62
     0
 10
68.114539
 20
20.342089
 30
0.0
 11
68.114539
 21
34.019457
 31
0.0
1001
ACAD
1000
RTLwPs
1070
   158
  0
TEXT
  5
D8F4
  8
COTATION1
 62
     0
 10
63.947873
 20
36.019457
 30
0.0
 40
2.5
  1
43.8
1001
ACAD
1000
MTEXTBEGIN
1070
    73
1070
     1
1070
    44
1040
1.0
1070
    74
1070
     0
1000
MTEXTEND
  0
INSERT
  5
D8F5
  8
COTATION1
 62
     0
  2
_OPEN30
 10
68.114539
 20
59.146825
 30
0.0
 41
5.0
 42
5.0
 43
5.0
 50
90.0
1001
ACAD
1000
RTLwPs
1070
   158
  0
INSERT
  5
D8F6
  8
COTATION1
 62
     0
  2
_OPEN30
 10
68.114539
 20
15.342089
 30
0.0
 41
5.0
 42
5.0
 43
5.0
 50
270.0
1001
ACAD
1000
RTLwPs
1070
   158
  0
POINT
  5
D8F7
  8
DEFPOINTS
 62
     0
 10
23.594949
 20
59.146825
 30
0.0
  0
POINT
  5
D8F8
  8
DEFPOINTS
 62
     0
 10
21.699666
 20
15.342089
 30
0.0
  0
POINT
  5
D8F9
  8
DEFPOINTS
 62
     0
 10
68.114539
 20
15.342089
 30
0.0
  0
ENDBLK
  5
D8AA
  8
0
  0
ENDSEC
  0
SECTION
  2
ENTITIES
  0
INSERT
  5
A
  8
0
  2
COTE
 10
0.0
 20
0.0
 30
0.0
  0
INSERT
  5
17
  8
0
  2
COTE
 10
284.010391
 20
6.373258
 30
0.0
  0
INSERT
  5
72
  8
0
  2
FOND
 10
0.0
 20
0.0
 30
0.0
  0
POLYLINE
  5
D178
  8
ALPHA
 66
     1
 10
0.0
 20
0.0
 30
0.0
  0
VERTEX
  5
DB26
  8
ALPHA
 10
16.498889
 20
28.803483
 30
0.0
  0
VERTEX
  5
DB27
  8
ALPHA
 10
16.235451
 20
28.955579
 30
0.0
  0
VERTEX
  5
DB28
  8
ALPHA
 10
15.974532
 20
29.106221
 30
0.0
  0
VERTEX
  5
DB29
  8
ALPHA
 10
15.715948
 20
29.255515
 30
0.0
  0
VERTEX
  5
DB2A
  8
ALPHA
 10
15.459521
 20
29.403563
 30
0.0
  0
VERTEX
  5
DB2B
  8
ALPHA
 10
15.205071
 20
29.55047
 30
0.0
  0
VERTEX
  5
DB2C
  8
ALPHA
 10
14.952424
 20
29.696336
 30
0.0
  0
VERTEX
  5
DB2D
  8
ALPHA
 10
14.701403
 20
29.841262
 30
0.0
  0
VERTEX
  5
DB2E
  8
ALPHA
 10
14.451833
 20
29.985352
 30
0.0
  0
VERTEX
  5
DB2F
  8
ALPHA
 10
14.203542
 20
30.128702
 30
0.0
  0
VERTEX
  5
DB30
  8
ALPHA
 10
13.956355
 20
30.271416
 30
0.0
  0
VERTEX
  5
DB31
  8
ALPHA
 10
13.710097
 20
30.413593
 30
0.0
  0
VERTEX
  5
DB32
  8
ALPHA
 10
13.464593
 20
30.555335
 30
0.0
  0
VERTEX
  5
DB33
  8
ALPHA
 10
13.219665
 20
30.696744
 30
0.0
  0
VERTEX
  5
DB34
  8
ALPHA
 10
12.975136
 20
30.837923
 30
0.0
  0
VERTEX
  5
DB35
  8
ALPHA
 10
12.730822
 20
30.978977
 30
0.0
  0
VERTEX
  5
DB36
  8
ALPHA
 10
12.486542
 20
31.120013
 30
0.0
  0
VERTEX
  5
DB37
  8
ALPHA
 10
12.242105
 20
31.261139
 30
0.0
  0
VERTEX
  5
DB38
  8
ALPHA
 10
11.997322
 20
31.402464
 30
0.0
  0
VERTEX
  5
DB39
  8
ALPHA
 10
11.751996
 20
31.544103
 30
0.0
  0
VERTEX
  5
DB3A
  8
ALPHA
 10
11.505926
 20
31.686173
 30
0.0
  0
VERTEX
  5
DB3B
  8
ALPHA
 10
11.258903
 20
31.828791
 30
0.0
  0
VERTEX
  5
DB3C
  8
ALPHA
 10
11.010714
 20
31.972083
 30
0.0
  0
VERTEX
  5
DB3D
  8
ALPHA
 10
10.761138
 20
32.116176
 30
0.0
  0
VERTEX
  5
DB3E
  8
ALPHA
 10
10.509944
 20
32.261203
 30
0.0
  0
SEQEND
  5
DB3F
  8
ALPHA
  0
ARC
  5
D193
  8
ALPHA
 10
16.498889
 20
42.634359
 30
0.0
 40
11.977889
 50
240.0
 51
300.0
  0
POLYLINE
  5
D194
  8
ALPHA
 66
     1
 10
0.0
 20
0.0
 30
0.0
  0
VERTEX
  5
DB40
  8
ALPHA
 10
22.487834
 20
32.261203
 30
0.0
  0
VERTEX
  5
DB41
  8
ALPHA
 10
22.23664
 20
32.116176
 30
0.0
  0
VERTEX
  5
DB42
  8
ALPHA
 10
21.987064
 20
31.972083
 30
0.0
  0
VERTEX
  5
DB43
  8
ALPHA
 10
21.738875
 20
31.828791
 30
0.0
  0
VERTEX
  5
DB44
  8
ALPHA
 10
21.491852
 20
31.686173
 30
0.0
  0
VERTEX
  5
DB45
  8
ALPHA
 10
21.245782
 20
31.544103
 30
0.0
  0
VERTEX
  5
DB46
  8
ALPHA
 10
21.000456
 20
31.402464
 30
0.0
  0
VERTEX
  5
DB47
  8
ALPHA
 10
20.755673
 20
31.261139
 30
0.0
  0
VERTEX
  5
DB48
  8
ALPHA
 10
20.511237
 20
31.120013
 30
0.0
  0
VERTEX
  5
DB49
  8
ALPHA
 10
20.266956
 20
30.978977
 30
0.0
  0
VERTEX
  5
DB4A
  8
ALPHA
 10
20.022642
 20
30.837923
 30
0.0
  0
VERTEX
  5
DB4B
  8
ALPHA
 10
19.778113
 20
30.696744
 30
0.0
  0
VERTEX
  5
DB4C
  8
ALPHA
 10
19.533185
 20
30.555335
 30
0.0
  0
VERTEX
  5
DB4D
  8
ALPHA
 10
19.287681
 20
30.413593
 30
0.0
  0
VERTEX
  5
DB4E
  8
ALPHA
 10
19.041423
 20
30.271416
 30
0.0
  0
VERTEX
  5
DB4F
  8
ALPHA
 10
18.794236
 20
30.128702
 30
0.0
  0
VERTEX
  5
DB50
  8
ALPHA
 10
18.545945
 20
29.985352
 30
0.0
  0
VERTEX
  5
DB51
  8
ALPHA
 10
18.296376
 20
29.841262
 30
0.0
  0
VERTEX
  5
DB52
  8
ALPHA
 10
18.045354
 20
29.696336
 30
0.0
  0
VERTEX
  5
DB53
  8
ALPHA
 10
17.792707
 20
29.55047
 30
0.0
  0
VERTEX
  5
DB54
  8
ALPHA
 10
17.538257
 20
29.403563
 30
0.0
  0
VERTEX
  5
DB55
  8
ALPHA
 10
17.28183
 20
29.255515
 30
0.0
  0
VERTEX
  5
DB56
  8
ALPHA
 10
17.023247
 20
29.106221
 30
0.0
  0
VERTEX
  5
DB57
  8
ALPHA
 10
16.762327
 20
28.955579
 30
0.0
  0
VERTEX
  5
DB58
  8
ALPHA
 10
16.498889
 20
28.803483
 30
0.0
  0
SEQEND
  5
DB59
  8
ALPHA
  0
LINE
  5
D1AF
  8
ALPHA
 10
7.497544
 20
28.027177
 30
0.0
 11
7.497544
 21
32.472841
 31
0.0
  0
LINE
  5
D1B0
  8
ALPHA
 10
25.500234
 20
32.472841
 30
0.0
 11
25.500234
 21
28.027177
 31
0.0
  0
LINE
  5
D1B2
  8
ALPHA
 10
16.498889
 20
24.470645
 30
0.0
 11
9.500144
 21
24.470645
 31
0.0
  0
LINE
  5
D1B3
  8
ALPHA
 10
9.402829
 20
26.121892
 30
0.0
 11
23.594949
 21
26.121892
 31
0.0
  0
ARC
  5
D1C1
  8
ALPHA
 10
9.402829
 20
28.027177
 30
0.0
 40
1.905285
 50
180.0
 51
270.0
  0
LINE
  5
D1C2
  8
ALPHA
 10
9.500144
 20
26.121892
 30
0.0
 11
9.500144
 21
24.470645
 31
0.0
  0
LINE
  5
D1D1
  8
ALPHA
 10
23.497635
 20
24.470645
 30
0.0
 11
16.498889
 21
24.470645
 31
0.0
  0
LINE
  5
D1ED
  8
ALPHA
 10
21.699666
 20
15.342089
 30
0.0
 11
11.298143
 21
15.342089
 31
0.0
  0
LINE
  5
D1F6
  8
ALPHA
 10
11.298143
 20
15.342089
 30
0.0
 11
11.298112
 21
15.342089
 31
0.0
  0
LINE
  5
D1F7
  8
ALPHA
 10
11.298112
 20
15.342089
 30
0.0
 11
11.298112
 21
16.392239
 31
0.0
  0
LINE
  5
D202
  8
ALPHA
 10
21.699666
 20
15.342089
 30
0.0
 11
21.699666
 21
16.392239
 31
0.0
  0
ARC
  5
D20B
  8
ALPHA
 10
23.594949
 20
28.027177
 30
0.0
 40
1.905285
 50
270.0
 51
0.0
  0
LINE
  5
D20C
  8
ALPHA
 10
23.497635
 20
26.121892
 30
0.0
 11
23.497635
 21
24.470645
 31
0.0
  0
ARC
  5
D20E
  8
ALPHA
 10
16.498889
 20
42.634359
 30
0.0
 40
11.977889
 50
120.0
 51
180.0
  0
ARC
  5
D20F
  8
ALPHA
 10
16.498889
 20
42.634359
 30
0.0
 40
11.977889
 50
180.0
 51
240.0
  0
POLYLINE
  5
D210
  8
ALPHA
 66
     1
 10
0.0
 20
0.0
 30
0.0
  0
VERTEX
  5
DB5A
  8
ALPHA
 10
10.509944
 20
32.261203
 30
0.0
  0
VERTEX
  5
DB5B
  8
ALPHA
 10
10.258751
 20
32.406229
 30
0.0
  0
VERTEX
  5
DB5C
  8
ALPHA
 10
10.009174
 20
32.550321
 30
0.0
  0
VERTEX
  5
DB5D
  8
ALPHA
 10
9.760986
 20
32.693614
 30
0.0
  0
VERTEX
  5
DB5E
  8
ALPHA
 10
9.513963
 20
32.836232
 30
0.0
  0
VERTEX
  5
DB5F
  8
ALPHA
 10
9.267892
 20
32.978301
 30
0.0
  0
VERTEX
  5
DB60
  8
ALPHA
 10
9.022567
 20
33.11994
 30
0.0
  0
VERTEX
  5
DB61
  8
ALPHA
 10
8.777783
 20
33.261266
 30
0.0
  0
VERTEX
  5
DB62
  8
ALPHA
 10
8.533347
 20
33.402391
 30
0.0
  0
VERTEX
  5
DB63
  8
ALPHA
 10
8.289067
 20
33.543427
 30
0.0
  0
VERTEX
  5
DB64
  8
ALPHA
 10
8.044753
 20
33.684481
 30
0.0
  0
VERTEX
  5
DB65
  8
ALPHA
 10
7.800224
 20
33.82566
 30
0.0
  0
VERTEX
  5
DB66
  8
ALPHA
 10
7.555296
 20
33.96707
 30
0.0
  0
VERTEX
  5
DB67
  8
ALPHA
 10
7.309792
 20
34.108812
 30
0.0
  0
VERTEX
  5
DB68
  8
ALPHA
 10
7.063534
 20
34.250989
 30
0.0
  0
VERTEX
  5
DB69
  8
ALPHA
 10
6.816347
 20
34.393702
 30
0.0
  0
VERTEX
  5
DB6A
  8
ALPHA
 10
6.568056
 20
34.537053
 30
0.0
  0
VERTEX
  5
DB6B
  8
ALPHA
 10
6.318486
 20
34.681142
 30
0.0
  0
VERTEX
  5
DB6C
  8
ALPHA
 10
6.067466
 20
34.826069
 30
0.0
  0
VERTEX
  5
DB6D
  8
ALPHA
 10
5.814818
 20
34.971935
 30
0.0
  0
VERTEX
  5
DB6E
  8
ALPHA
 10
5.560368
 20
35.118842
 30
0.0
  0
VERTEX
  5
DB6F
  8
ALPHA
 10
5.30394
 20
35.26689
 30
0.0
  0
VERTEX
  5
DB70
  8
ALPHA
 10
5.045357
 20
35.416183
 30
0.0
  0
VERTEX
  5
DB71
  8
ALPHA
 10
4.784438
 20
35.566825
 30
0.0
  0
VERTEX
  5
DB72
  8
ALPHA
 10
4.521
 20
35.718921
 30
0.0
  0
SEQEND
  5
DB73
  8
ALPHA
  0
POLYLINE
  5
D22B
  8
ALPHA
 66
     1
 10
0.0
 20
0.0
 30
0.0
  0
VERTEX
  5
DB74
  8
ALPHA
 10
4.521
 20
49.549796
 30
0.0
  0
VERTEX
  5
DB75
  8
ALPHA
 10
4.784438
 20
49.701893
 30
0.0
  0
VERTEX
  5
DB76
  8
ALPHA
 10
5.045357
 20
49.852534
 30
0.0
  0
VERTEX
  5
DB77
  8
ALPHA
 10
5.30394
 20
50.001827
 30
0.0
  0
VERTEX
  5
DB78
  8
ALPHA
 10
5.560368
 20
50.149876
 30
0.0
  0
VERTEX
  5
DB79
  8
ALPHA
 10
5.814818
 20
50.296782
 30
0.0
  0
VERTEX
  5
DB7A
  8
ALPHA
 10
6.067466
 20
50.442648
 30
0.0
  0
VERTEX
  5
DB7B
  8
ALPHA
 10
6.318486
 20
50.587576
 30
0.0
  0
VERTEX
  5
DB7C
  8
ALPHA
 10
6.568056
 20
50.731664
 30
0.0
  0
VERTEX
  5
DB7D
  8
ALPHA
 10
6.816347
 20
50.875015
 30
0.0
  0
VERTEX
  5
DB7E
  8
ALPHA
 10
7.063534
 20
51.017729
 30
0.0
  0
VERTEX
  5
DB7F
  8
ALPHA
 10
7.309792
 20
51.159906
 30
0.0
  0
VERTEX
  5
DB80
  8
ALPHA
 10
7.555296
 20
51.301648
 30
0.0
  0
VERTEX
  5
DB81
  8
ALPHA
 10
7.800224
 20
51.443057
 30
0.0
  0
VERTEX
  5
DB82
  8
ALPHA
 10
8.044753
 20
51.584236
 30
0.0
  0
VERTEX
  5
DB83
  8
ALPHA
 10
8.289067
 20
51.72529
 30
0.0
  0
VERTEX
  5
DB84
  8
ALPHA
 10
8.533347
 20
51.866326
 30
0.0
  0
VERTEX
  5
DB85
  8
ALPHA
 10
8.777783
 20
52.007451
 30
0.0
  0
VERTEX
  5
DB86
  8
ALPHA
 10
9.022567
 20
52.148777
 30
0.0
  0
VERTEX
  5
DB87
  8
ALPHA
 10
9.267892
 20
52.290416
 30
0.0
  0
VERTEX
  5
DB88
  8
ALPHA
 10
9.513963
 20
52.432485
 30
0.0
  0
VERTEX
  5
DB89
  8
ALPHA
 10
9.760986
 20
52.575104
 30
0.0
  0
VERTEX
  5
DB8A
  8
ALPHA
 10
10.009174
 20
52.718396
 30
0.0
  0
VERTEX
  5
DB8B
  8
ALPHA
 10
10.258751
 20
52.862488
 30
0.0
  0
VERTEX
  5
DB8C
  8
ALPHA
 10
10.509944
 20
53.007515
 30
0.0
  0
SEQEND
  5
DB8D
  8
ALPHA
  0
CIRCLE
  5
D246
  8
ALPHA
 10
16.498889
 20
42.634359
 30
0.0
 40
9.0
  0
CIRCLE
  5
D247
  8
ALPHA
 10
16.498889
 20
42.634359
 30
0.0
 40
8.002195
  0
LINE
  5
D248
  8
ALPHA
 10
23.594949
 20
59.146825
 30
0.0
 11
9.402829
 21
59.146825
 31
0.0
  0
POLYLINE
  5
D249
  8
ALPHA
 66
     1
 10
0.0
 20
0.0
 30
0.0
  0
VERTEX
  5
DB8E
  8
ALPHA
 10
4.521
 20
42.634359
 30
0.0
  0
VERTEX
  5
DB8F
  8
ALPHA
 10
4.521
 20
42.924412
 30
0.0
  0
VERTEX
  5
DB90
  8
ALPHA
 10
4.521
 20
43.212598
 30
0.0
  0
VERTEX
  5
DB91
  8
ALPHA
 10
4.521
 20
43.499182
 30
0.0
  0
VERTEX
  5
DB92
  8
ALPHA
 10
4.521
 20
43.784419
 30
0.0
  0
VERTEX
  5
DB93
  8
ALPHA
 10
4.521
 20
44.068557
 30
0.0
  0
VERTEX
  5
DB94
  8
ALPHA
 10
4.521
 20
44.351835
 30
0.0
  0
VERTEX
  5
DB95
  8
ALPHA
 10
4.521
 20
44.634486
 30
0.0
  0
VERTEX
  5
DB96
  8
ALPHA
 10
4.521
 20
44.916737
 30
0.0
  0
VERTEX
  5
DB97
  8
ALPHA
 10
4.521
 20
45.198808
 30
0.0
  0
VERTEX
  5
DB98
  8
ALPHA
 10
4.521
 20
45.480916
 30
0.0
  0
VERTEX
  5
DB99
  8
ALPHA
 10
4.521
 20
45.763275
 30
0.0
  0
VERTEX
  5
DB9A
  8
ALPHA
 10
4.521
 20
46.046093
 30
0.0
  0
VERTEX
  5
DB9B
  8
ALPHA
 10
4.521
 20
46.329577
 30
0.0
  0
VERTEX
  5
DB9C
  8
ALPHA
 10
4.521
 20
46.613931
 30
0.0
  0
VERTEX
  5
DB9D
  8
ALPHA
 10
4.521
 20
46.899358
 30
0.0
  0
VERTEX
  5
DB9E
  8
ALPHA
 10
4.521
 20
47.18606
 30
0.0
  0
VERTEX
  5
DB9F
  8
ALPHA
 10
4.521
 20
47.474238
 30
0.0
  0
VERTEX
  5
DBA0
  8
ALPHA
 10
4.521
 20
47.764092
 30
0.0
  0
VERTEX
  5
DBA1
  8
ALPHA
 10
4.521
 20
48.055824
 30
0.0
  0
VERTEX
  5
DBA2
  8
ALPHA
 10
4.521
 20
48.349637
 30
0.0
  0
VERTEX
  5
DBA3
  8
ALPHA
 10
4.521
 20
48.645734
 30
0.0
  0
VERTEX
  5
DBA4
  8
ALPHA
 10
4.521
 20
48.944321
 30
0.0
  0
VERTEX
  5
DBA5
  8
ALPHA
 10
4.521
 20
49.245605
 30
0.0
  0
VERTEX
  5
DBA6
  8
ALPHA
 10
4.521
 20
49.549796
 30
0.0
  0
SEQEND
  5
DBA7
  8
ALPHA
  0
POLYLINE
  5
D272
  8
ALPHA
 66
     1
 10
0.0
 20
0.0
 30
0.0
  0
VERTEX
  5
DBA8
  8
ALPHA
 10
4.521
 20
35.718921
 30
0.0
  0
VERTEX
  5
DBA9
  8
ALPHA
 10
4.521
 20
36.023113
 30
0.0
  0
VERTEX
  5
DBAA
  8
ALPHA
 10
4.521
 20
36.324397
 30
0.0
  0
VERTEX
  5
DBAB
  8
ALPHA
 10
4.521
 20
36.622983
 30
0.0
  0
VERTEX
  5
DBAC
  8
ALPHA
 10
4.521
 20
36.91908
 30
0.0
  0
VERTEX
  5
DBAD
  8
ALPHA
 10
4.521
 20
37.212893
 30
0.0
  0
VERTEX
  5
DBAE
  8
ALPHA
 10
4.521
 20
37.504625
 30
0.0
  0
VERTEX
  5
DBAF
  8
ALPHA
 10
4.521
 20
37.79448
 30
0.0
  0
VERTEX
  5
DBB0
  8
ALPHA
 10
4.521
 20
38.082657
 30
0.0
  0
VERTEX
  5
DBB1
  8
ALPHA
 10
4.521
 20
38.369359
 30
0.0
  0
VERTEX
  5
DBB2
  8
ALPHA
 10
4.521
 20
38.654786
 30
0.0
  0
VERTEX
  5
DBB3
  8
ALPHA
 10
4.521
 20
38.939141
 30
0.0
  0
VERTEX
  5
DBB4
  8
ALPHA
 10
4.521
 20
39.222625
 30
0.0
  0
VERTEX
  5
DBB5
  8
ALPHA
 10
4.521
 20
39.505443
 30
0.0
  0
VERTEX
  5
DBB6
  8
ALPHA
 10
4.521
 20
39.787801
 30
0.0
  0
VERTEX
  5
DBB7
  8
ALPHA
 10
4.521
 20
40.06991
 30
0.0
  0
VERTEX
  5
DBB8
  8
ALPHA
 10
4.521
 20
40.351981
 30
0.0
  0
VERTEX
  5
DBB9
  8
ALPHA
 10
4.521
 20
40.634231
 30
0.0
  0
VERTEX
  5
DBBA
  8
ALPHA
 10
4.521
 20
40.916883
 30
0.0
  0
VERTEX
  5
DBBB
  8
ALPHA
 10
4.521
 20
41.200161
 30
0.0
  0
VERTEX
  5
DBBC
  8
ALPHA
 10
4.521
 20
41.484299
 30
0.0
  0
VERTEX
  5
DBBD
  8
ALPHA
 10
4.521
 20
41.769536
 30
0.0
  0
VERTEX
  5
DBBE
  8
ALPHA
 10
4.521
 20
42.05612
 30
0.0
  0
VERTEX
  5
DBBF
  8
ALPHA
 10
4.521
 20
42.344305
 30
0.0
  0
VERTEX
  5
DBC0
  8
ALPHA
 10
4.521
 20
42.634359
 30
0.0
  0
SEQEND
  5
DBC1
  8
ALPHA
  0
LINE
  5
D28D
  8
ALPHA
 10
7.497544
 20
34.000412
 30
0.0
 11
7.497544
 21
32.472841
 31
0.0
  0
ARC
  5
D29B
  8
ALPHA
 10
9.402829
 20
57.241541
 30
0.0
 40
1.905285
 50
90.0
 51
180.0
  0
LINE
  5
D29C
  8
ALPHA
 10
7.497544
 20
52.795877
 30
0.0
 11
7.497544
 21
57.241541
 31
0.0
  0
LINE
  5
D29D
  8
ALPHA
 10
7.497544
 20
52.795877
 30
0.0
 11
7.497544
 21
51.268305
 31
0.0
  0
ARC
  5
D29E
  8
ALPHA
 10
16.498889
 20
42.634359
 30
0.0
 40
11.977889
 50
0.0
 51
60.0
  0
POLYLINE
  5
D29F
  8
ALPHA
 66
     1
 10
0.0
 20
0.0
 30
0.0
  0
VERTEX
  5
DBC2
  8
ALPHA
 10
28.476779
 20
49.549796
 30
0.0
  0
VERTEX
  5
DBC3
  8
ALPHA
 10
28.476779
 20
49.245605
 30
0.0
  0
VERTEX
  5
DBC4
  8
ALPHA
 10
28.476779
 20
48.944321
 30
0.0
  0
VERTEX
  5
DBC5
  8
ALPHA
 10
28.476779
 20
48.645734
 30
0.0
  0
VERTEX
  5
DBC6
  8
ALPHA
 10
28.476779
 20
48.349637
 30
0.0
  0
VERTEX
  5
DBC7
  8
ALPHA
 10
28.476779
 20
48.055824
 30
0.0
  0
VERTEX
  5
DBC8
  8
ALPHA
 10
28.476779
 20
47.764092
 30
0.0
  0
VERTEX
  5
DBC9
  8
ALPHA
 10
28.476779
 20
47.474238
 30
0.0
  0
VERTEX
  5
DBCA
  8
ALPHA
 10
28.476779
 20
47.18606
 30
0.0
  0
VERTEX
  5
DBCB
  8
ALPHA
 10
28.476779
 20
46.899358
 30
0.0
  0
VERTEX
  5
DBCC
  8
ALPHA
 10
28.476779
 20
46.613931
 30
0.0
  0
VERTEX
  5
DBCD
  8
ALPHA
 10
28.476779
 20
46.329577
 30
0.0
  0
VERTEX
  5
DBCE
  8
ALPHA
 10
28.476779
 20
46.046093
 30
0.0
  0
VERTEX
  5
DBCF
  8
ALPHA
 10
28.476779
 20
45.763275
 30
0.0
  0
VERTEX
  5
DBD0
  8
ALPHA
 10
28.476779
 20
45.480916
 30
0.0
  0
VERTEX
  5
DBD1
  8
ALPHA
 10
28.476779
 20
45.198808
 30
0.0
  0
VERTEX
  5
DBD2
  8
ALPHA
 10
28.476779
 20
44.916737
 30
0.0
  0
VERTEX
  5
DBD3
  8
ALPHA
 10
28.476779
 20
44.634486
 30
0.0
  0
VERTEX
  5
DBD4
  8
ALPHA
 10
28.476779
 20
44.351835
 30
0.0
  0
VERTEX
  5
DBD5
  8
ALPHA
 10
28.476779
 20
44.068557
 30
0.0
  0
VERTEX
  5
DBD6
  8
ALPHA
 10
28.476779
 20
43.784419
 30
0.0
  0
VERTEX
  5
DBD7
  8
ALPHA
 10
28.476779
 20
43.499182
 30
0.0
  0
VERTEX
  5
DBD8
  8
ALPHA
 10
28.476779
 20
43.212598
 30
0.0
  0
VERTEX
  5
DBD9
  8
ALPHA
 10
28.476779
 20
42.924412
 30
0.0
  0
VERTEX
  5
DBDA
  8
ALPHA
 10
28.476779
 20
42.634359
 30
0.0
  0
SEQEND
  5
DBDB
  8
ALPHA
  0
CIRCLE
  5
D2BA
  8
ALPHA
 10
16.498889
 20
42.634359
 30
0.0
 40
3.68355
  0
CIRCLE
  5
D2BB
  8
ALPHA
 10
16.498889
 20
42.634359
 30
0.0
 40
3.68355
  0
ARC
  5
D2BC
  8
ALPHA
 10
16.498889
 20
42.634359
 30
0.0
 40
11.977889
 50
300.0
 51
0.0
  0
POLYLINE
  5
D2BD
  8
ALPHA
 66
     1
 10
0.0
 20
0.0
 30
0.0
  0
VERTEX
  5
DBDC
  8
ALPHA
 10
28.476779
 20
42.634359
 30
0.0
  0
VERTEX
  5
DBDD
  8
ALPHA
 10
28.476779
 20
42.344305
 30
0.0
  0
VERTEX
  5
DBDE
  8
ALPHA
 10
28.476779
 20
42.05612
 30
0.0
  0
VERTEX
  5
DBDF
  8
ALPHA
 10
28.476779
 20
41.769536
 30
0.0
  0
VERTEX
  5
DBE0
  8
ALPHA
 10
28.476779
 20
41.484299
 30
0.0
  0
VERTEX
  5
DBE1
  8
ALPHA
 10
28.476779
 20
41.200161
 30
0.0
  0
VERTEX
  5
DBE2
  8
ALPHA
 10
28.476779
 20
40.916883
 30
0.0
  0
VERTEX
  5
DBE3
  8
ALPHA
 10
28.476779
 20
40.634231
 30
0.0
  0
VERTEX
  5
DBE4
  8
ALPHA
 10
28.476779
 20
40.351981
 30
0.0
  0
VERTEX
  5
DBE5
  8
ALPHA
 10
28.476779
 20
40.06991
 30
0.0
  0
VERTEX
  5
DBE6
  8
ALPHA
 10
28.476779
 20
39.787801
 30
0.0
  0
VERTEX
  5
DBE7
  8
ALPHA
 10
28.476779
 20
39.505443
 30
0.0
  0
VERTEX
  5
DBE8
  8
ALPHA
 10
28.476779
 20
39.222625
 30
0.0
  0
VERTEX
  5
DBE9
  8
ALPHA
 10
28.476779
 20
38.939141
 30
0.0
  0
VERTEX
  5
DBEA
  8
ALPHA
 10
28.476779
 20
38.654786
 30
0.0
  0
VERTEX
  5
DBEB
  8
ALPHA
 10
28.476779
 20
38.369359
 30
0.0
  0
VERTEX
  5
DBEC
  8
ALPHA
 10
28.476779
 20
38.082657
 30
0.0
  0
VERTEX
  5
DBED
  8
ALPHA
 10
28.476779
 20
37.79448
 30
0.0
  0
VERTEX
  5
DBEE
  8
ALPHA
 10
28.476779
 20
37.504625
 30
0.0
  0
VERTEX
  5
DBEF
  8
ALPHA
 10
28.476779
 20
37.212893
 30
0.0
  0
VERTEX
  5
DBF0
  8
ALPHA
 10
28.476779
 20
36.91908
 30
0.0
  0
VERTEX
  5
DBF1
  8
ALPHA
 10
28.476779
 20
36.622983
 30
0.0
  0
VERTEX
  5
DBF2
  8
ALPHA
 10
28.476779
 20
36.324397
 30
0.0
  0
VERTEX
  5
DBF3
  8
ALPHA
 10
28.476779
 20
36.023113
 30
0.0
  0
VERTEX
  5
DBF4
  8
ALPHA
 10
28.476779
 20
35.718921
 30
0.0
  0
SEQEND
  5
DBF5
  8
ALPHA
  0
POLYLINE
  5
D2D8
  8
ALPHA
 66
     1
 10
0.0
 20
0.0
 30
0.0
  0
VERTEX
  5
DBF6
  8
ALPHA
 10
28.476779
 20
35.718921
 30
0.0
  0
VERTEX
  5
DBF7
  8
ALPHA
 10
28.21334
 20
35.566825
 30
0.0
  0
VERTEX
  5
DBF8
  8
ALPHA
 10
27.952421
 20
35.416183
 30
0.0
  0
VERTEX
  5
DBF9
  8
ALPHA
 10
27.693838
 20
35.26689
 30
0.0
  0
VERTEX
  5
DBFA
  8
ALPHA
 10
27.43741
 20
35.118842
 30
0.0
  0
VERTEX
  5
DBFB
  8
ALPHA
 10
27.182961
 20
34.971935
 30
0.0
  0
VERTEX
  5
DBFC
  8
ALPHA
 10
26.930313
 20
34.826069
 30
0.0
  0
VERTEX
  5
DBFD
  8
ALPHA
 10
26.679292
 20
34.681142
 30
0.0
  0
VERTEX
  5
DBFE
  8
ALPHA
 10
26.429723
 20
34.537053
 30
0.0
  0
VERTEX
  5
DBFF
  8
ALPHA
 10
26.181432
 20
34.393702
 30
0.0
  0
VERTEX
  5
DC00
  8
ALPHA
 10
25.934245
 20
34.250989
 30
0.0
  0
VERTEX
  5
DC01
  8
ALPHA
 10
25.687986
 20
34.108812
 30
0.0
  0
VERTEX
  5
DC02
  8
ALPHA
 10
25.442482
 20
33.96707
 30
0.0
  0
VERTEX
  5
DC03
  8
ALPHA
 10
25.197555
 20
33.82566
 30
0.0
  0
VERTEX
  5
DC04
  8
ALPHA
 10
24.953025
 20
33.684481
 30
0.0
  0
VERTEX
  5
DC05
  8
ALPHA
 10
24.708712
 20
33.543427
 30
0.0
  0
VERTEX
  5
DC06
  8
ALPHA
 10
24.464431
 20
33.402391
 30
0.0
  0
VERTEX
  5
DC07
  8
ALPHA
 10
24.219995
 20
33.261266
 30
0.0
  0
VERTEX
  5
DC08
  8
ALPHA
 10
23.975212
 20
33.11994
 30
0.0
  0
VERTEX
  5
DC09
  8
ALPHA
 10
23.729886
 20
32.978301
 30
0.0
  0
VERTEX
  5
DC0A
  8
ALPHA
 10
23.483815
 20
32.836232
 30
0.0
  0
VERTEX
  5
DC0B
  8
ALPHA
 10
23.236792
 20
32.693614
 30
0.0
  0
VERTEX
  5
DC0C
  8
ALPHA
 10
22.988604
 20
32.550321
 30
0.0
  0
VERTEX
  5
DC0D
  8
ALPHA
 10
22.739027
 20
32.406229
 30
0.0
  0
VERTEX
  5
DC0E
  8
ALPHA
 10
22.487834
 20
32.261203
 30
0.0
  0
SEQEND
  5
DC0F
  8
ALPHA
  0
LINE
  5
D2F3
  8
ALPHA
 10
25.500234
 20
32.472841
 30
0.0
 11
25.500234
 21
34.000412
 31
0.0
  0
ARC
  5
D2F4
  8
ALPHA
 10
16.498889
 20
42.634359
 30
0.0
 40
11.977889
 50
60.0
 51
120.0
  0
POLYLINE
  5
D2F5
  8
ALPHA
 66
     1
 10
0.0
 20
0.0
 30
0.0
  0
VERTEX
  5
DC10
  8
ALPHA
 10
16.498889
 20
56.465234
 30
0.0
  0
VERTEX
  5
DC11
  8
ALPHA
 10
16.762327
 20
56.313138
 30
0.0
  0
VERTEX
  5
DC12
  8
ALPHA
 10
17.023247
 20
56.162496
 30
0.0
  0
VERTEX
  5
DC13
  8
ALPHA
 10
17.28183
 20
56.013202
 30
0.0
  0
VERTEX
  5
DC14
  8
ALPHA
 10
17.538257
 20
55.865155
 30
0.0
  0
VERTEX
  5
DC15
  8
ALPHA
 10
17.792707
 20
55.718248
 30
0.0
  0
VERTEX
  5
DC16
  8
ALPHA
 10
18.045354
 20
55.572382
 30
0.0
  0
VERTEX
  5
DC17
  8
ALPHA
 10
18.296376
 20
55.427455
 30
0.0
  0
VERTEX
  5
DC18
  8
ALPHA
 10
18.545945
 20
55.283366
 30
0.0
  0
VERTEX
  5
DC19
  8
ALPHA
 10
18.794236
 20
55.140015
 30
0.0
  0
VERTEX
  5
DC1A
  8
ALPHA
 10
19.041423
 20
54.997302
 30
0.0
  0
VERTEX
  5
DC1B
  8
ALPHA
 10
19.287681
 20
54.855125
 30
0.0
  0
VERTEX
  5
DC1C
  8
ALPHA
 10
19.533185
 20
54.713383
 30
0.0
  0
VERTEX
  5
DC1D
  8
ALPHA
 10
19.778113
 20
54.571973
 30
0.0
  0
VERTEX
  5
DC1E
  8
ALPHA
 10
20.022642
 20
54.430794
 30
0.0
  0
VERTEX
  5
DC1F
  8
ALPHA
 10
20.266956
 20
54.28974
 30
0.0
  0
VERTEX
  5
DC20
  8
ALPHA
 10
20.511237
 20
54.148704
 30
0.0
  0
VERTEX
  5
DC21
  8
ALPHA
 10
20.755673
 20
54.007578
 30
0.0
  0
VERTEX
  5
DC22
  8
ALPHA
 10
21.000456
 20
53.866254
 30
0.0
  0
VERTEX
  5
DC23
  8
ALPHA
 10
21.245782
 20
53.724614
 30
0.0
  0
VERTEX
  5
DC24
  8
ALPHA
 10
21.491852
 20
53.582545
 30
0.0
  0
VERTEX
  5
DC25
  8
ALPHA
 10
21.738875
 20
53.439926
 30
0.0
  0
VERTEX
  5
DC26
  8
ALPHA
 10
21.987064
 20
53.296634
 30
0.0
  0
VERTEX
  5
DC27
  8
ALPHA
 10
22.23664
 20
53.152541
 30
0.0
  0
VERTEX
  5
DC28
  8
ALPHA
 10
22.487834
 20
53.007515
 30
0.0
  0
SEQEND
  5
DC29
  8
ALPHA
  0
POLYLINE
  5
D310
  8
ALPHA
 66
     1
 10
0.0
 20
0.0
 30
0.0
  0
VERTEX
  5
DC2A
  8
ALPHA
 10
10.509944
 20
53.007515
 30
0.0
  0
VERTEX
  5
DC2B
  8
ALPHA
 10
10.761138
 20
53.152541
 30
0.0
  0
VERTEX
  5
DC2C
  8
ALPHA
 10
11.010714
 20
53.296634
 30
0.0
  0
VERTEX
  5
DC2D
  8
ALPHA
 10
11.258903
 20
53.439926
 30
0.0
  0
VERTEX
  5
DC2E
  8
ALPHA
 10
11.505926
 20
53.582545
 30
0.0
  0
VERTEX
  5
DC2F
  8
ALPHA
 10
11.751996
 20
53.724614
 30
0.0
  0
VERTEX
  5
DC30
  8
ALPHA
 10
11.997322
 20
53.866254
 30
0.0
  0
VERTEX
  5
DC31
  8
ALPHA
 10
12.242105
 20
54.007578
 30
0.0
  0
VERTEX
  5
DC32
  8
ALPHA
 10
12.486542
 20
54.148704
 30
0.0
  0
VERTEX
  5
DC33
  8
ALPHA
 10
12.730822
 20
54.28974
 30
0.0
  0
VERTEX
  5
DC34
  8
ALPHA
 10
12.975136
 20
54.430794
 30
0.0
  0
VERTEX
  5
DC35
  8
ALPHA
 10
13.219665
 20
54.571973
 30
0.0
  0
VERTEX
  5
DC36
  8
ALPHA
 10
13.464593
 20
54.713383
 30
0.0
  0
VERTEX
  5
DC37
  8
ALPHA
 10
13.710097
 20
54.855125
 30
0.0
  0
VERTEX
  5
DC38
  8
ALPHA
 10
13.956355
 20
54.997302
 30
0.0
  0
VERTEX
  5
DC39
  8
ALPHA
 10
14.203542
 20
55.140015
 30
0.0
  0
VERTEX
  5
DC3A
  8
ALPHA
 10
14.451833
 20
55.283366
 30
0.0
  0
VERTEX
  5
DC3B
  8
ALPHA
 10
14.701403
 20
55.427455
 30
0.0
  0
VERTEX
  5
DC3C
  8
ALPHA
 10
14.952424
 20
55.572382
 30
0.0
  0
VERTEX
  5
DC3D
  8
ALPHA
 10
15.205071
 20
55.718248
 30
0.0
  0
VERTEX
  5
DC3E
  8
ALPHA
 10
15.459521
 20
55.865155
 30
0.0
  0
VERTEX
  5
DC3F
  8
ALPHA
 10
15.715948
 20
56.013202
 30
0.0
  0
VERTEX
  5
DC40
  8
ALPHA
 10
15.974532
 20
56.162496
 30
0.0
  0
VERTEX
  5
DC41
  8
ALPHA
 10
16.235451
 20
56.313138
 30
0.0
  0
VERTEX
  5
DC42
  8
ALPHA
 10
16.498889
 20
56.465234
 30
0.0
  0
SEQEND
  5
DC43
  8
ALPHA
  0
ARC
  5
D32B
  8
ALPHA
 10
23.594949
 20
57.241541
 30
0.0
 40
1.905285
 50
0.0
 51
90.0
  0
POLYLINE
  5
D32C
  8
ALPHA
 66
     1
 10
0.0
 20
0.0
 30
0.0
  0
VERTEX
  5
DC44
  8
ALPHA
 10
22.487834
 20
53.007515
 30
0.0
  0
VERTEX
  5
DC45
  8
ALPHA
 10
22.739027
 20
52.862488
 30
0.0
  0
VERTEX
  5
DC46
  8
ALPHA
 10
22.988604
 20
52.718396
 30
0.0
  0
VERTEX
  5
DC47
  8
ALPHA
 10
23.236792
 20
52.575104
 30
0.0
  0
VERTEX
  5
DC48
  8
ALPHA
 10
23.483815
 20
52.432485
 30
0.0
  0
VERTEX
  5
DC49
  8
ALPHA
 10
23.729886
 20
52.290416
 30
0.0
  0
VERTEX
  5
DC4A
  8
ALPHA
 10
23.975212
 20
52.148777
 30
0.0
  0
VERTEX
  5
DC4B
  8
ALPHA
 10
24.219995
 20
52.007451
 30
0.0
  0
VERTEX
  5
DC4C
  8
ALPHA
 10
24.464431
 20
51.866326
 30
0.0
  0
VERTEX
  5
DC4D
  8
ALPHA
 10
24.708712
 20
51.72529
 30
0.0
  0
VERTEX
  5
DC4E
  8
ALPHA
 10
24.953025
 20
51.584236
 30
0.0
  0
VERTEX
  5
DC4F
  8
ALPHA
 10
25.197555
 20
51.443057
 30
0.0
  0
VERTEX
  5
DC50
  8
ALPHA
 10
25.442482
 20
51.301648
 30
0.0
  0
VERTEX
  5
DC51
  8
ALPHA
 10
25.687986
 20
51.159906
 30
0.0
  0
VERTEX
  5
DC52
  8
ALPHA
 10
25.934245
 20
51.017729
 30
0.0
  0
VERTEX
  5
DC53
  8
ALPHA
 10
26.181432
 20
50.875015
 30
0.0
  0
VERTEX
  5
DC54
  8
ALPHA
 10
26.429723
 20
50.731664
 30
0.0
  0
VERTEX
  5
DC55
  8
ALPHA
 10
26.679292
 20
50.587576
 30
0.0
  0
VERTEX
  5
DC56
  8
ALPHA
 10
26.930313
 20
50.442648
 30
0.0
  0
VERTEX
  5
DC57
  8
ALPHA
 10
27.182961
 20
50.296782
 30
0.0
  0
VERTEX
  5
DC58
  8
ALPHA
 10
27.43741
 20
50.149876
 30
0.0
  0
VERTEX
  5
DC59
  8
ALPHA
 10
27.693838
 20
50.001827
 30
0.0
  0
VERTEX
  5
DC5A
  8
ALPHA
 10
27.952421
 20
49.852534
 30
0.0
  0
VERTEX
  5
DC5B
  8
ALPHA
 10
28.21334
 20
49.701893
 30
0.0
  0
VERTEX
  5
DC5C
  8
ALPHA
 10
28.476779
 20
49.549796
 30
0.0
  0
SEQEND
  5
DC5D
  8
ALPHA
  0
LINE
  5
D347
  8
ALPHA
 10
25.500234
 20
57.241541
 30
0.0
 11
25.500234
 21
52.795877
 31
0.0
  0
LINE
  5
D353
  8
ALPHA
 10
25.500234
 20
51.268305
 30
0.0
 11
25.500234
 21
52.795877
 31
0.0
  0
LINE
  5
D356
  8
AXE
 10
-0.418627
 20
42.634359
 30
0.0
 11
38.356032
 21
42.634359
 31
0.0
  0
TEXT
  5
D357
  8
AXE
 10
34.357287
 20
43.622284
 30
0.0
 40
4.939627
  1
X
 72
     2
 11
38.356032
 21
43.622284
 31
0.0
  0
LINE
  5
D374
  8
AXE
 10
16.498905
 20
2.54906
 30
0.0
 11
16.498905
 21
64.086452
 31
0.0
  0
TEXT
  5
D375
  8
AXE
 10
11.512234
 20
2.54906
 30
0.0
 40
4.939627
  1
Y
 72
     2
 11
15.510979
 21
2.54906
 31
0.0
  0
DIMENSION
  5
D393
  8
COTATION1
  2
*D4
 10
25.500234
 20
83.844959
 30
0.0
 11
16.574451
 21
87.209216
 31
0.0
 70
   128
 13
7.497544
 23
57.241541
 33
0.0
 14
25.500234
 24
57.241541
 34
0.0
  0
DIMENSION
  5
D394
  8
COTATION1
  2
*D3
 10
16.498905
 20
73.965706
 30
0.0
 11
11.927755
 21
77.329963
 31
0.0
 70
   128
 13
7.497544
 23
57.241541
 33
0.0
 14
16.498905
 24
64.086452
 34
0.0
1001
ACAD
1000
DSTYLE
1002
{
1070
   271
1070
     2
1002
}
  0
LINE
  5
D6D5
  8
ALPHA
 10
10.498905
 20
16.887059
 30
0.0
 11
22.498905
 21
16.887059
 31
0.0
  0
LINE
  5
D6D6
  8
ALPHA
 10
21.69968
 20
16.392239
 30
0.0
 11
11.29813
 21
16.392239
 31
0.0
  0
LINE
  5
D6D7
  8
ALPHA
 62
   255
 10
11.498905
 20
16.392239
 30
0.0
 11
11.498905
 21
24.470645
 31
0.0
  0
LINE
  5
D6D8
  8
ALPHA
 10
10.498905
 20
16.887059
 30
0.0
 11
10.498905
 21
24.470645
 31
0.0
  0
LINE
  5
D6D9
  8
ALPHA
 10
10.498905
 20
16.887059
 30
0.0
 11
11.29813
 21
16.392239
 31
0.0
  0
LINE
  5
D6DA
  8
ALPHA
 10
22.498905
 20
16.887059
 30
0.0
 11
21.69968
 21
16.392239
 31
0.0
  0
LINE
  5
D6DB
  8
ALPHA
 10
22.498905
 20
16.887059
 30
0.0
 11
22.498905
 21
24.470645
 31
0.0
  0
LINE
  5
D6DC
  8
ALPHA
 62
   255
 10
21.498905
 20
16.392239
 30
0.0
 11
21.498905
 21
24.470645
 31
0.0
  0
DIMENSION
  5
D704
  8
COTATION1
  2
*D5
 10
58.114539
 20
26.121892
 30
0.0
 11
58.114539
 21
42.634359
 31
0.0
 70
   128
 13
23.594949
 23
59.146825
 33
0.0
 14
23.594949
 24
26.121892
 34
0.0
 50
90.0
1001
ACAD
1000
DSTYLE
1002
{
1070
   271
1070
     0
1002
}
  0
SOLID
  5
D79C
  8
COTATION1
  6
CONTINUOUS
 10
-25.102804
 20
16.329811
 30
0.0
 11
-22.498905
 21
20.678852
 31
0.0
 12
-26.372552
 22
17.409403
 32
0.0
 13
-26.372552
 23
17.409403
 33
0.0
210
0.0
220
0.0
230
-1.0
1001
ACAD
1000
DSTYLE
1002
{
1070
     5
1000
OPEN30
1070
   147
1040
1.0
1070
   271
1070
     1
1070
   342
1005
8C2614020000A0EA
1002
}
  0
POLYLINE
  5
DAEC
  8
COTATION1
 66
     1
 10
0.0
 20
0.0
 30
0.0
 70
   128
1001
ACAD
1000
R13OBJECT
1002
{
1005
D79C
1002
}
  0
VERTEX
  5
DC5E
  8
COTATION1
 10
25.737678
 20
16.869607
 30
0.0
  0
VERTEX
  5
DC5F
  8
COTATION1
 10
36.581373
 20
4.115924
 30
0.0
  0
VERTEX
  5
DC60
  8
COTATION1
 10
61.390897
 20
4.115924
 30
0.0
  0
SEQEND
  5
DC61
  8
COTATION1
  0
TEXT
  5
D79D
  8
COTATION1
 10
42.105182
 20
7.199257
 30
0.0
 40
2.5
  1
M12x1-6g
1001
ACAD
1000
MTEXTBEGIN
1070
    73
1070
     1
1070
    44
1040
1.0
1070
    74
1070
     0
1000
MTEXTEND
  0
DIMENSION
  5
D7B4
  8
COTATION1
  2
*D6
 10
48.235286
 20
42.634359
 30
0.0
 11
48.235286
 21
50.892222
 31
0.0
 70
   128
 13
23.594949
 23
59.146825
 33
0.0
 14
38.356032
 24
42.634359
 34
0.0
 50
90.0
1001
ACAD
1000
DSTYLE
1002
{
1070
   271
1070
     1
1002
}
  0
DIMENSION
  5
D89D
  8
COTATION1
  2
*D7
 10
68.114539
 20
15.342089
 30
0.0
 11
68.114539
 21
37.269457
 31
0.0
 70
   128
 13
23.594949
 23
59.146825
 33
0.0
 14
21.699666
 24
15.342089
 34
0.0
 50
90.0
1001
ACAD
1000
DSTYLE
1002
{
1070
   271
1070
     2
1002
}
  0
VIEWPORT
  5
494D
 67
     1
  8
0
 10
4.995325
 20
6.556512
 30
0.0
 40
22.70986
 41
13.988421
 68
    -1
 69
     1
1001
ACAD
1000
MVIEW
1002
{
1070
    16
1010
0.0
1020
0.0
1030
0.0
1010
0.0
1020
0.0
1030
1.0
1040
0.0
1040
13.988421
1040
4.995325
1040
6.556512
1040
50.0
1040
0.0
1040
0.0
1070
     0
1070
   100
1070
     1
1070
     1
1070
     0
1070
     0
1070
     0
1070
     0
1040
0.0
1040
0.0
1040
0.0
1040
10.0
1040
10.0
1040
10.0
1040
10.0
1070
     0
1002
{
1002
}
1002
}
  0
ENDSEC
  0
EOF
