  0
SECTION
  2
HEADER
  9
$ACADVER
  1
AC1009
  9
$INSBASE
 10
402.590624
 20
-1.041018
 30
0.0
  9
$EXTMIN
 10
-2.061229
 20
1.68498
 30
0.0
  9
$EXTMAX
 10
56.460791
 20
74.340355
 30
0.0
  9
$LIMMIN
 10
-407.970438
 20
-367.832444
  9
$LIMMAX
 10
429.804077
 20
234.370848
  9
$ORTHOMODE
 70
     0
  9
$REGENMODE
 70
     1
  9
$FILLMODE
 70
     1
  9
$QTEXTMODE
 70
     0
  9
$MIRRTEXT
 70
     1
  9
$DRAGMODE
 70
     2
  9
$LTSCALE
 40
10.0
  9
$OSMODE
 70
    39
  9
$ATTMODE
 70
     1
  9
$TEXTSIZE
 40
6.0
  9
$TRACEWID
 40
1.0
  9
$TEXTSTYLE
  7
ROMANS
  9
$CLAYER
  8
ALPHA
  9
$CELTYPE
  6
BYLAYER
  9
$CECOLOR
 62
   256
  9
$DIMSCALE
 40
1.0
  9
$DIMASZ
 40
5.0
  9
$DIMEXO
 40
2.0
  9
$DIMDLI
 40
0.38
  9
$DIMRND
 40
0.0
  9
$DIMDLE
 40
0.0
  9
$DIMEXE
 40
2.5
  9
$DIMTP
 40
0.0
  9
$DIMTM
 40
0.0
  9
$DIMTXT
 40
2.5
  9
$DIMCEN
 40
0.0
  9
$DIMTSZ
 40
0.0
  9
$DIMTOL
 70
     0
  9
$DIMLIM
 70
     0
  9
$DIMTIH
 70
     1
  9
$DIMTOH
 70
     1
  9
$DIMSE1
 70
     0
  9
$DIMSE2
 70
     0
  9
$DIMTAD
 70
     1
  9
$DIMZIN
 70
    12
  9
$DIMBLK
  1
OPEN30
  9
$DIMASO
 70
     1
  9
$DIMSHO
 70
     1
  9
$DIMPOST
  1

  9
$DIMAPOST
  1

  9
$DIMALT
 70
     0
  9
$DIMALTD
 70
     2
  9
$DIMALTF
 40
25.4
  9
$DIMLFAC
 40
1.0
  9
$DIMTOFL
 70
     0
  9
$DIMTVP
 40
0.0
  9
$DIMTIX
 70
     0
  9
$DIMSOXD
 70
     0
  9
$DIMSAH
 70
     0
  9
$DIMBLK1
  1

  9
$DIMBLK2
  1

  9
$DIMSTYLE
  2
SC_DEFAUT
  9
$DIMCLRD
 70
     0
  9
$DIMCLRE
 70
     0
  9
$DIMCLRT
 70
     0
  9
$DIMTFAC
 40
1.0
  9
$DIMGAP
 40
2.0
  9
$LUNITS
 70
     2
  9
$LUPREC
 70
     1
  9
$SKETCHINC
 40
0.1
  9
$FILLETRAD
 40
0.0
  9
$AUNITS
 70
     0
  9
$AUPREC
 70
     0
  9
$MENU
  1
acad
  9
$ELEVATION
 40
0.0
  9
$PELEVATION
 40
0.0
  9
$THICKNESS
 40
0.0
  9
$LIMCHECK
 70
     0
  9
$BLIPMODE
 70
     0
  9
$CHAMFERA
 40
0.0
  9
$CHAMFERB
 40
0.0
  9
$SKPOLY
 70
     0
  9
$TDCREATE
 40
2450373.687919
  9
$TDUPDATE
 40
2453264.662476
  9
$TDINDWG
 40
1.183391
  9
$TDUSRTIMER
 40
1.183391
  9
$USRTIMER
 70
     1
  9
$ANGBASE
 50
0.0
  9
$ANGDIR
 70
     0
  9
$PDMODE
 70
    32
  9
$PDSIZE
 40
0.0
  9
$PLINEWID
 40
0.0
  9
$COORDS
 70
     0
  9
$SPLFRAME
 70
     0
  9
$SPLINETYPE
 70
     6
  9
$SPLINESEGS
 70
     8
  9
$ATTDIA
 70
     0
  9
$ATTREQ
 70
     1
  9
$HANDLING
 70
     1
  9
$HANDSEED
  5
BC3A
  9
$SURFTAB1
 70
     6
  9
$SURFTAB2
 70
     6
  9
$SURFTYPE
 70
     6
  9
$SURFU
 70
     6
  9
$SURFV
 70
     6
  9
$UCSNAME
  2

  9
$UCSORG
 10
0.0
 20
0.0
 30
0.0
  9
$UCSXDIR
 10
1.0
 20
0.0
 30
0.0
  9
$UCSYDIR
 10
0.0
 20
1.0
 30
0.0
  9
$PUCSNAME
  2

  9
$PUCSORG
 10
0.0
 20
0.0
 30
0.0
  9
$PUCSXDIR
 10
1.0
 20
0.0
 30
0.0
  9
$PUCSYDIR
 10
0.0
 20
1.0
 30
0.0
  9
$USERI1
 70
     0
  9
$USERI2
 70
     0
  9
$USERI3
 70
     0
  9
$USERI4
 70
     0
  9
$USERI5
 70
     0
  9
$USERR1
 40
0.0
  9
$USERR2
 40
0.0
  9
$USERR3
 40
0.0
  9
$USERR4
 40
0.0
  9
$USERR5
 40
0.0
  9
$WORLDVIEW
 70
     1
  9
$SHADEDGE
 70
     3
  9
$SHADEDIF
 70
    70
  9
$TILEMODE
 70
     1
  9
$MAXACTVP
 70
    16
  9
$PLIMCHECK
 70
     0
  9
$PEXTMIN
 10
-1.452248
 20
-0.437698
 30
0.0
  9
$PEXTMAX
 10
12.749749
 20
8.310198
 30
0.0
  9
$PLIMMIN
 10
0.0
 20
0.0
  9
$PLIMMAX
 10
12.0
 20
9.0
  9
$UNITMODE
 70
     0
  9
$VISRETAIN
 70
     0
  9
$PLINEGEN
 70
     0
  9
$PSLTSCALE
 70
     0
  0
ENDSEC
  0
SECTION
  2
TABLES
  0
TABLE
  2
VPORT
 70
     2
  0
VPORT
  2
*ACTIVE
 70
     0
 10
0.0
 20
0.0
 11
1.0
 21
1.0
 12
27.183729
 22
38.022584
 13
0.0
 23
0.0
 14
1.0
 24
1.0
 15
10.0
 25
10.0
 16
0.0
 26
0.0
 36
1.0
 17
0.0
 27
0.0
 37
0.0
 40
73.207678
 41
1.466346
 42
50.0
 43
0.0
 44
0.0
 50
0.0
 51
0.0
 71
     0
 72
   100
 73
     1
 74
     0
 75
     0
 76
     0
 77
     0
 78
     0
  0
ENDTAB
  0
TABLE
  2
LTYPE
 70
     2
  0
LTYPE
  2
CONTINUOUS
 70
     0
  3
Solid line
 72
    65
 73
     0
 40
0.0
  0
LTYPE
  2
AXES2
 70
     0
  3
___ _ ___ _ ___ _ ___ _ ___ _ ___ _ ___ _ ___ _
 72
    65
 73
     4
 40
1.125
 49
0.75
 49
-0.125
 49
0.125
 49
-0.125
  0
ENDTAB
  0
TABLE
  2
LAYER
 70
     5
  0
LAYER
  2
0
 70
     0
 62
   255
  6
CONTINUOUS
  0
LAYER
  2
COTATION1
 70
     0
 62
     2
  6
CONTINUOUS
  0
LAYER
  2
AXE
 70
     0
 62
    80
  6
AXES2
  0
LAYER
  2
DEFPOINTS
 70
     0
 62
     7
  6
CONTINUOUS
  0
LAYER
  2
ALPHA
 70
     0
 62
   254
  6
CONTINUOUS
  0
ENDTAB
  0
TABLE
  2
STYLE
 70
     2
  0
STYLE
  2
ROMANS
 70
     0
 40
0.0
 41
1.0
 50
0.0
 71
     0
 42
6.0
  3
romans
  4

  0
STYLE
  2
STANDARD
 70
     0
 40
0.0
 41
1.0
 50
0.0
 71
     0
 42
0.2
  3
txt
  4

  0
ENDTAB
  0
TABLE
  2
VIEW
 70
     0
  0
ENDTAB
  0
TABLE
  2
UCS
 70
     0
  0
ENDTAB
  0
TABLE
  2
APPID
 70
     1
  0
APPID
  2
ACAD
 70
     0
  0
ENDTAB
  0
TABLE
  2
DIMSTYLE
 70
     2
  0
DIMSTYLE
  2
SC_DEFAUT
 70
     0
  3

  4

  5
OPEN30
  6

  7

 40
1.0
 41
5.0
 42
2.0
 43
0.38
 44
2.5
 45
0.0
 46
0.0
 47
0.0
 48
0.0
140
2.5
141
0.0
142
0.0
143
25.4
144
1.0
145
0.0
146
1.0
147
2.0
 71
     0
 72
     0
 73
     1
 74
     1
 75
     0
 76
     0
 77
     1
 78
    12
170
     0
171
     2
172
     0
173
     0
174
     0
175
     0
176
     0
177
     0
178
     0
  0
DIMSTYLE
  2
STANDARD
 70
     0
  3

  4

  5

  6

  7

 40
1.0
 41
0.18
 42
0.0625
 43
0.38
 44
0.18
 45
0.0
 46
0.0
 47
0.0
 48
0.0
140
0.18
141
0.09
142
0.0
143
25.4
144
1.0
145
0.0
146
1.0
147
0.09
 71
     0
 72
     0
 73
     1
 74
     1
 75
     0
 76
     0
 77
     0
 78
     0
170
     0
171
     2
172
     0
173
     0
174
     0
175
     0
176
     0
177
     0
178
     0
  0
ENDTAB
  0
ENDSEC
  0
SECTION
  2
BLOCKS
  0
BLOCK
  8
0
  2
$MODEL_SPACE
 70
     0
 10
0.0
 20
0.0
 30
0.0
  3
$MODEL_SPACE
  1

  0
ENDBLK
  5
BC33
  8
0
  0
BLOCK
 67
     1
  8
0
  2
$PAPER_SPACE
 70
     0
 10
0.0
 20
0.0
 30
0.0
  3
$PAPER_SPACE
  1

  0
ENDBLK
  5
BC31
 67
     1
  8
0
  0
BLOCK
  8
0
  2
COTE
 70
     0
 10
0.0
 20
0.0
 30
0.0
  3
COTE
  1

  0
ENDBLK
  5
F
  8
0
  0
BLOCK
  8
0
  2
FOND
 70
     0
 10
0.0
 20
0.0
 30
0.0
  3
FOND
  1

  0
ENDBLK
  5
75
  8
0
  0
BLOCK
  8
0
  2
_OPEN30
 70
     0
 10
0.0
 20
0.0
 30
0.0
  3
_OPEN30
  1

  0
LINE
  5
4B05
  8
COTATION1
 62
     0
 10
-1.0
 20
0.267949
 30
0.0
 11
0.0
 21
0.0
 31
0.0
1001
ACAD
1000
RTLwPs
1070
   158
  0
LINE
  5
4B06
  8
COTATION1
 62
     0
 10
0.0
 20
0.0
 30
0.0
 11
-1.0
 21
-0.267949
 31
0.0
1001
ACAD
1000
RTLwPs
1070
   158
  0
LINE
  5
4B07
  8
COTATION1
 62
     0
 10
0.0
 20
0.0
 30
0.0
 11
-1.0
 21
0.0
 31
0.0
1001
ACAD
1000
RTLwPs
1070
   158
  0
ENDBLK
  5
4B09
  8
0
  0
BLOCK
  8
0
  2
*D3
 70
     1
 10
0.0
 20
0.0
 30
0.0
  3
*D3
  1

  0
LINE
  5
BAFA
  8
COTATION1
 62
     0
 10
7.938771
 20
45.43498
 30
0.0
 11
7.938771
 21
62.18498
 31
0.0
1001
ACAD
1000
RTLwPs
1070
   158
  0
LINE
  5
BAFB
  8
COTATION1
 62
     0
 10
15.954771
 20
51.68498
 30
0.0
 11
15.954771
 21
62.18498
 31
0.0
1001
ACAD
1000
RTLwPs
1070
   158
  0
LINE
  5
BAFC
  8
COTATION1
 62
     0
 10
2.938771
 20
59.68498
 30
0.0
 11
-2.061229
 21
59.68498
 31
0.0
1001
ACAD
1000
RTLwPs
1070
   158
  0
LINE
  5
BAFD
  8
COTATION1
 62
     0
 10
20.954771
 20
59.68498
 30
0.0
 11
25.954771
 21
59.68498
 31
0.0
1001
ACAD
1000
RTLwPs
1070
   158
  0
TEXT
  5
BAFE
  8
COTATION1
 62
     0
 10
10.720095
 20
61.840355
 30
0.0
 40
2.5
  1
8
1001
ACAD
1000
MTEXTBEGIN
1070
    73
1070
     1
1070
    44
1040
1.0
1070
    74
1070
     0
1000
MTEXTEND
  0
INSERT
  5
BAFF
  8
COTATION1
 62
     0
  2
_OPEN30
 10
7.938771
 20
59.68498
 30
0.0
 41
5.0
 42
5.0
 43
5.0
1001
ACAD
1000
RTLwPs
1070
   158
  0
INSERT
  5
BB00
  8
COTATION1
 62
     0
  2
_OPEN30
 10
15.954771
 20
59.68498
 30
0.0
 41
5.0
 42
5.0
 43
5.0
 50
180.0
1001
ACAD
1000
RTLwPs
1070
   158
  0
POINT
  5
BB01
  8
DEFPOINTS
 62
     0
 10
7.938771
 20
43.43498
 30
0.0
  0
POINT
  5
BB02
  8
DEFPOINTS
 62
     0
 10
15.954771
 20
49.68498
 30
0.0
  0
POINT
  5
BB03
  8
DEFPOINTS
 62
     0
 10
15.954771
 20
59.68498
 30
0.0
  0
ENDBLK
  5
B8E9
  8
0
  0
BLOCK
  8
0
  2
*D4
 70
     1
 10
0.0
 20
0.0
 30
0.0
  3
*D4
  1

  0
LINE
  5
BAF0
  8
COTATION1
 62
     0
 10
23.804771
 20
44.68498
 30
0.0
 11
56.460791
 21
44.68498
 31
0.0
1001
ACAD
1000
RTLwPs
1070
   158
  0
LINE
  5
BAF1
  8
COTATION1
 62
     0
 10
23.804771
 20
14.68498
 30
0.0
 11
56.460791
 21
14.68498
 31
0.0
1001
ACAD
1000
RTLwPs
1070
   158
  0
LINE
  5
BAF2
  8
COTATION1
 62
     0
 10
53.960791
 20
39.68498
 30
0.0
 11
53.960791
 21
32.93498
 31
0.0
1001
ACAD
1000
RTLwPs
1070
   158
  0
LINE
  5
BAF3
  8
COTATION1
 62
     0
 10
53.960791
 20
19.68498
 30
0.0
 11
53.960791
 21
26.43498
 31
0.0
1001
ACAD
1000
RTLwPs
1070
   158
  0
TEXT
  5
BAF4
  8
COTATION1
 62
     0
 10
51.579838
 20
28.43498
 30
0.0
 40
2.5
  1
30
1001
ACAD
1000
MTEXTBEGIN
1070
    73
1070
     1
1070
    44
1040
1.0
1070
    74
1070
     0
1000
MTEXTEND
  0
INSERT
  5
BAF5
  8
COTATION1
 62
     0
  2
_OPEN30
 10
53.960791
 20
44.68498
 30
0.0
 41
5.0
 42
5.0
 43
5.0
 50
90.0
1001
ACAD
1000
RTLwPs
1070
   158
  0
INSERT
  5
BAF6
  8
COTATION1
 62
     0
  2
_OPEN30
 10
53.960791
 20
14.68498
 30
0.0
 41
5.0
 42
5.0
 43
5.0
 50
270.0
1001
ACAD
1000
RTLwPs
1070
   158
  0
POINT
  5
BAF7
  8
DEFPOINTS
 62
     0
 10
21.804771
 20
44.68498
 30
0.0
  0
POINT
  5
BAF8
  8
DEFPOINTS
 62
     0
 10
21.804771
 20
14.68498
 30
0.0
  0
POINT
  5
BAF9
  8
DEFPOINTS
 62
     0
 10
53.960791
 20
14.68498
 30
0.0
  0
ENDBLK
  5
B924
  8
0
  0
BLOCK
  8
0
  2
*D5
 70
     1
 10
0.0
 20
0.0
 30
0.0
  3
*D5
  1

  0
LINE
  5
BAE6
  8
COTATION1
 62
     0
 10
23.804771
 20
44.68498
 30
0.0
 11
46.460791
 21
44.68498
 31
0.0
1001
ACAD
1000
RTLwPs
1070
   158
  0
LINE
  5
BAE7
  8
COTATION1
 62
     0
 10
35.960791
 20
29.68498
 30
0.0
 11
46.460791
 21
29.68498
 31
0.0
1001
ACAD
1000
RTLwPs
1070
   158
  0
LINE
  5
BAE8
  8
COTATION1
 62
     0
 10
43.960791
 20
49.68498
 30
0.0
 11
43.960791
 21
54.68498
 31
0.0
1001
ACAD
1000
RTLwPs
1070
   158
  0
LINE
  5
BAE9
  8
COTATION1
 62
     0
 10
43.960791
 20
24.68498
 30
0.0
 11
43.960791
 21
19.68498
 31
0.0
1001
ACAD
1000
RTLwPs
1070
   158
  0
TEXT
  5
BAEA
  8
COTATION1
 62
     0
 10
41.401267
 20
35.93498
 30
0.0
 40
2.5
  1
15
1001
ACAD
1000
MTEXTBEGIN
1070
    73
1070
     1
1070
    44
1040
1.0
1070
    74
1070
     0
1000
MTEXTEND
  0
INSERT
  5
BAEB
  8
COTATION1
 62
     0
  2
_OPEN30
 10
43.960791
 20
44.68498
 30
0.0
 41
5.0
 42
5.0
 43
5.0
 50
270.0
1001
ACAD
1000
RTLwPs
1070
   158
  0
INSERT
  5
BAEC
  8
COTATION1
 62
     0
  2
_OPEN30
 10
43.960791
 20
29.68498
 30
0.0
 41
5.0
 42
5.0
 43
5.0
 50
90.0
1001
ACAD
1000
RTLwPs
1070
   158
  0
POINT
  5
BAED
  8
DEFPOINTS
 62
     0
 10
21.804771
 20
44.68498
 30
0.0
  0
POINT
  5
BAEE
  8
DEFPOINTS
 62
     0
 10
33.960791
 20
29.68498
 30
0.0
  0
POINT
  5
BAEF
  8
DEFPOINTS
 62
     0
 10
43.960791
 20
29.68498
 30
0.0
  0
ENDBLK
  5
B97D
  8
0
  0
BLOCK
  8
0
  2
*D6
 70
     1
 10
0.0
 20
0.0
 30
0.0
  3
*D6
  1

  0
LINE
  5
BB04
  8
COTATION1
 62
     0
 10
7.938771
 20
45.43498
 30
0.0
 11
7.938771
 21
72.18498
 31
0.0
1001
ACAD
1000
RTLwPs
1070
   158
  0
LINE
  5
BB05
  8
COTATION1
 62
     0
 10
24.204771
 20
44.28498
 30
0.0
 11
24.204771
 21
72.18498
 31
0.0
1001
ACAD
1000
RTLwPs
1070
   158
  0
LINE
  5
BB06
  8
COTATION1
 62
     0
 10
12.938771
 20
69.68498
 30
0.0
 11
19.204771
 21
69.68498
 31
0.0
1001
ACAD
1000
RTLwPs
1070
   158
  0
TEXT
  5
BB07
  8
COTATION1
 62
     0
 10
11.686003
 20
71.840355
 30
0.0
 40
2.5
  1
16.3
1001
ACAD
1000
MTEXTBEGIN
1070
    73
1070
     1
1070
    44
1040
1.0
1070
    74
1070
     0
1000
MTEXTEND
  0
INSERT
  5
BB08
  8
COTATION1
 62
     0
  2
_OPEN30
 10
7.938771
 20
69.68498
 30
0.0
 41
5.0
 42
5.0
 43
5.0
 50
180.0
1001
ACAD
1000
RTLwPs
1070
   158
  0
INSERT
  5
BB09
  8
COTATION1
 62
     0
  2
_OPEN30
 10
24.204771
 20
69.68498
 30
0.0
 41
5.0
 42
5.0
 43
5.0
1001
ACAD
1000
RTLwPs
1070
   158
  0
POINT
  5
BB0A
  8
DEFPOINTS
 62
     0
 10
7.938771
 20
43.43498
 30
0.0
  0
POINT
  5
BB0B
  8
DEFPOINTS
 62
     0
 10
24.204771
 20
42.28498
 30
0.0
  0
POINT
  5
BB0C
  8
DEFPOINTS
 62
     0
 10
24.204771
 20
69.68498
 30
0.0
  0
ENDBLK
  5
BA76
  8
0
  0
ENDSEC
  0
SECTION
  2
ENTITIES
  0
INSERT
  5
A
  8
0
  2
COTE
 10
0.0
 20
0.0
 30
0.0
  0
INSERT
  5
17
  8
0
  2
COTE
 10
284.010391
 20
6.373258
 30
0.0
  0
INSERT
  5
72
  8
0
  2
FOND
 10
0.0
 20
0.0
 30
0.0
  0
LINE
  5
B52B
  8
AXE
 10
2.938771
 20
29.68498
 30
0.0
 11
33.960791
 21
29.68498
 31
0.0
  0
TEXT
  5
B52C
  8
AXE
 10
29.913172
 20
30.68498
 30
0.0
 40
5.0
  1
Z
 72
     2
 11
33.960791
 21
30.68498
 31
0.0
  0
LINE
  5
B52D
  8
AXE
 10
15.954771
 20
1.68498
 30
0.0
 11
15.954771
 21
49.68498
 31
0.0
  0
TEXT
  5
B52E
  8
AXE
 10
10.907152
 20
1.68498
 30
0.0
 40
5.0
  1
Y
 72
     2
 11
14.954771
 21
1.68498
 31
0.0
  0
ARC
  5
B595
  8
ALPHA
 10
21.804771
 20
42.28498
 30
0.0
 40
2.4
 50
0.0
 51
90.0
  0
LINE
  5
B59C
  8
ALPHA
 10
8.954771
 20
44.68498
 30
0.0
 11
8.954771
 21
14.68498
 31
0.0
  0
LINE
  5
B59D
  8
ALPHA
 10
7.938771
 20
43.43498
 30
0.0
 11
7.938771
 21
15.93498
 31
0.0
  0
ARC
  5
B5A5
  8
ALPHA
 10
21.804771
 20
17.08498
 30
0.0
 40
2.4
 50
270.0
 51
0.0
  0
LINE
  5
B5A6
  8
ALPHA
 10
8.954771
 20
14.68498
 30
0.0
 11
21.804771
 21
14.68498
 31
0.0
  0
ARC
  5
B5A7
  8
ALPHA
 10
8.938771
 20
15.93498
 30
0.0
 40
1.0
 50
180.0
 51
270.0
  0
LINE
  5
B5A8
  8
ALPHA
 10
8.938771
 20
14.93498
 30
0.0
 11
8.954771
 21
14.93498
 31
0.0
  0
CIRCLE
  5
B5AA
  8
ALPHA
 10
15.954771
 20
29.68498
 30
0.0
 40
4.025
  0
CIRCLE
  5
B5AB
  8
ALPHA
 10
15.954771
 20
29.68498
 30
0.0
 40
6.2485
  0
CIRCLE
  5
B5AC
  8
ALPHA
 10
15.954771
 20
29.68498
 30
0.0
 40
6.0
  0
CIRCLE
  5
B5AD
  8
ALPHA
 10
15.954771
 20
29.68498
 30
0.0
 40
5.025
  0
LINE
  5
B5AE
  8
ALPHA
 10
11.974743
 20
29.08498
 30
0.0
 11
12.429771
 21
29.08498
 31
0.0
  0
LINE
  5
B5AF
  8
ALPHA
 10
11.974743
 20
30.28498
 30
0.0
 11
12.429771
 21
30.28498
 31
0.0
  0
CIRCLE
  5
B5B2
  8
ALPHA
 10
18.954771
 20
20.79498
 30
0.0
 40
2.41
  0
CIRCLE
  5
B5B4
  8
ALPHA
 10
17.579771
 20
28.05998
 30
0.0
 40
0.5
  0
CIRCLE
  5
B5B5
  8
ALPHA
 10
14.329771
 20
28.05998
 30
0.0
 40
0.5
  0
ARC
  5
B5B6
  8
ALPHA
 10
12.429771
 20
29.68498
 30
0.0
 40
0.6
 50
270.0
 51
90.0
  0
CIRCLE
  5
B5B8
  8
ALPHA
 10
18.954771
 20
38.57498
 30
0.0
 40
2.41
  0
CIRCLE
  5
B5B9
  8
ALPHA
 10
17.579771
 20
31.30998
 30
0.0
 40
0.5
  0
CIRCLE
  5
B5BB
  8
ALPHA
 10
14.329771
 20
31.30998
 30
0.0
 40
0.5
  0
LINE
  5
B5BC
  8
ALPHA
 10
24.204771
 20
42.28498
 30
0.0
 11
24.204771
 21
17.08498
 31
0.0
  0
LINE
  5
B5BD
  8
ALPHA
 10
8.954771
 20
44.68498
 30
0.0
 11
21.804771
 21
44.68498
 31
0.0
  0
ARC
  5
B5BE
  8
ALPHA
 10
8.938771
 20
43.43498
 30
0.0
 40
1.0
 50
90.0
 51
180.0
  0
LINE
  5
B5BF
  8
ALPHA
 10
8.938771
 20
44.43498
 30
0.0
 11
8.954771
 21
44.43498
 31
0.0
  0
DIMENSION
  5
B8DD
  8
COTATION1
  2
*D3
 10
15.954771
 20
59.68498
 30
0.0
 11
11.910571
 21
63.090355
 31
0.0
 70
   128
 13
7.938771
 23
43.43498
 33
0.0
 14
15.954771
 24
49.68498
 34
0.0
1001
ACAD
1000
DSTYLE
1002
{
1070
   271
1070
     0
1002
}
  0
DIMENSION
  5
B917
  8
COTATION1
  2
*D4
 10
53.960791
 20
14.68498
 30
0.0
 11
53.960791
 21
29.68498
 31
0.0
 70
   128
 13
21.804771
 23
44.68498
 33
0.0
 14
21.804771
 24
14.68498
 34
0.0
 50
90.0
  0
DIMENSION
  5
B970
  8
COTATION1
  2
*D5
 10
43.960791
 20
29.68498
 30
0.0
 11
43.960791
 21
37.18498
 31
0.0
 70
   128
 13
21.804771
 23
44.68498
 33
0.0
 14
33.960791
 24
29.68498
 34
0.0
 50
90.0
  0
DIMENSION
  5
BA6A
  8
COTATION1
  2
*D6
 10
24.204771
 20
69.68498
 30
0.0
 11
16.031241
 21
73.090355
 31
0.0
 70
   128
  1
16.3
 13
7.938771
 23
43.43498
 33
0.0
 14
24.204771
 24
42.28498
 34
0.0
  0
VIEWPORT
  5
494D
 67
     1
  8
0
 10
4.995325
 20
6.556512
 30
0.0
 40
22.70986
 41
13.988421
 68
    -1
 69
     1
1001
ACAD
1000
MVIEW
1002
{
1070
    16
1010
0.0
1020
0.0
1030
0.0
1010
0.0
1020
0.0
1030
1.0
1040
0.0
1040
13.988421
1040
4.995325
1040
6.556512
1040
50.0
1040
0.0
1040
0.0
1070
     0
1070
   100
1070
     1
1070
     1
1070
     0
1070
     0
1070
     0
1070
     0
1040
0.0
1040
0.0
1040
0.0
1040
10.0
1040
10.0
1040
10.0
1040
10.0
1070
     0
1002
{
1002
}
1002
}
  0
ENDSEC
  0
EOF
