  0
SECTION
  2
HEADER
  9
$ACADVER
  1
AC1009
  9
$INSBASE
 10
402.590624
 20
-1.041018
 30
0.0
  9
$EXTMIN
 10
-11.483449
 20
3.681487
 30
0.0
  9
$EXTMAX
 10
151.571992
 20
74.044332
 30
0.0
  9
$LIMMIN
 10
-407.970438
 20
-367.832444
  9
$LIMMAX
 10
429.804077
 20
234.370848
  9
$ORTHOMODE
 70
     1
  9
$REGENMODE
 70
     1
  9
$FILLMODE
 70
     1
  9
$QTEXTMODE
 70
     0
  9
$MIRRTEXT
 70
     1
  9
$DRAGMODE
 70
     2
  9
$LTSCALE
 40
10.0
  9
$OSMODE
 70
    39
  9
$ATTMODE
 70
     1
  9
$TEXTSIZE
 40
6.0
  9
$TRACEWID
 40
1.0
  9
$TEXTSTYLE
  7
ROMANS
  9
$CLAYER
  8
COTATION1
  9
$CELTYPE
  6
BYLAYER
  9
$CECOLOR
 62
   256
  9
$DIMSCALE
 40
1.0
  9
$DIMASZ
 40
5.0
  9
$DIMEXO
 40
2.0
  9
$DIMDLI
 40
0.38
  9
$DIMRND
 40
0.0
  9
$DIMDLE
 40
0.0
  9
$DIMEXE
 40
2.5
  9
$DIMTP
 40
0.0
  9
$DIMTM
 40
0.0
  9
$DIMTXT
 40
2.5
  9
$DIMCEN
 40
0.0
  9
$DIMTSZ
 40
0.0
  9
$DIMTOL
 70
     0
  9
$DIMLIM
 70
     0
  9
$DIMTIH
 70
     1
  9
$DIMTOH
 70
     1
  9
$DIMSE1
 70
     0
  9
$DIMSE2
 70
     0
  9
$DIMTAD
 70
     1
  9
$DIMZIN
 70
    12
  9
$DIMBLK
  1
OPEN30
  9
$DIMASO
 70
     1
  9
$DIMSHO
 70
     1
  9
$DIMPOST
  1

  9
$DIMAPOST
  1

  9
$DIMALT
 70
     0
  9
$DIMALTD
 70
     2
  9
$DIMALTF
 40
25.4
  9
$DIMLFAC
 40
1.0
  9
$DIMTOFL
 70
     0
  9
$DIMTVP
 40
0.0
  9
$DIMTIX
 70
     0
  9
$DIMSOXD
 70
     0
  9
$DIMSAH
 70
     0
  9
$DIMBLK1
  1

  9
$DIMBLK2
  1

  9
$DIMSTYLE
  2
SC_DEFAUT
  9
$DIMCLRD
 70
     0
  9
$DIMCLRE
 70
     0
  9
$DIMCLRT
 70
     0
  9
$DIMTFAC
 40
1.0
  9
$DIMGAP
 40
2.0
  9
$LUNITS
 70
     2
  9
$LUPREC
 70
     1
  9
$SKETCHINC
 40
0.1
  9
$FILLETRAD
 40
0.0
  9
$AUNITS
 70
     0
  9
$AUPREC
 70
     0
  9
$MENU
  1
acad
  9
$ELEVATION
 40
0.0
  9
$PELEVATION
 40
0.0
  9
$THICKNESS
 40
0.0
  9
$LIMCHECK
 70
     0
  9
$BLIPMODE
 70
     0
  9
$CHAMFERA
 40
0.0
  9
$CHAMFERB
 40
0.0
  9
$SKPOLY
 70
     0
  9
$TDCREATE
 40
2450373.687919
  9
$TDUPDATE
 40
2453264.661298
  9
$TDINDWG
 40
1.208322
  9
$TDUSRTIMER
 40
1.208322
  9
$USRTIMER
 70
     1
  9
$ANGBASE
 50
0.0
  9
$ANGDIR
 70
     0
  9
$PDMODE
 70
    32
  9
$PDSIZE
 40
0.0
  9
$PLINEWID
 40
0.0
  9
$COORDS
 70
     0
  9
$SPLFRAME
 70
     0
  9
$SPLINETYPE
 70
     6
  9
$SPLINESEGS
 70
     8
  9
$ATTDIA
 70
     0
  9
$ATTREQ
 70
     1
  9
$HANDLING
 70
     1
  9
$HANDSEED
  5
C1C0
  9
$SURFTAB1
 70
     6
  9
$SURFTAB2
 70
     6
  9
$SURFTYPE
 70
     6
  9
$SURFU
 70
     6
  9
$SURFV
 70
     6
  9
$UCSNAME
  2

  9
$UCSORG
 10
0.0
 20
0.0
 30
0.0
  9
$UCSXDIR
 10
1.0
 20
0.0
 30
0.0
  9
$UCSYDIR
 10
0.0
 20
1.0
 30
0.0
  9
$PUCSNAME
  2

  9
$PUCSORG
 10
0.0
 20
0.0
 30
0.0
  9
$PUCSXDIR
 10
1.0
 20
0.0
 30
0.0
  9
$PUCSYDIR
 10
0.0
 20
1.0
 30
0.0
  9
$USERI1
 70
     0
  9
$USERI2
 70
     0
  9
$USERI3
 70
     0
  9
$USERI4
 70
     0
  9
$USERI5
 70
     0
  9
$USERR1
 40
0.0
  9
$USERR2
 40
0.0
  9
$USERR3
 40
0.0
  9
$USERR4
 40
0.0
  9
$USERR5
 40
0.0
  9
$WORLDVIEW
 70
     1
  9
$SHADEDGE
 70
     3
  9
$SHADEDIF
 70
    70
  9
$TILEMODE
 70
     1
  9
$MAXACTVP
 70
    16
  9
$PLIMCHECK
 70
     0
  9
$PEXTMIN
 10
-1.452248
 20
-0.437698
 30
0.0
  9
$PEXTMAX
 10
12.749749
 20
8.310198
 30
0.0
  9
$PLIMMIN
 10
0.0
 20
0.0
  9
$PLIMMAX
 10
12.0
 20
9.0
  9
$UNITMODE
 70
     0
  9
$VISRETAIN
 70
     0
  9
$PLINEGEN
 70
     0
  9
$PSLTSCALE
 70
     0
  0
ENDSEC
  0
SECTION
  2
TABLES
  0
TABLE
  2
VPORT
 70
     2
  0
VPORT
  2
*ACTIVE
 70
     0
 10
0.0
 20
0.0
 11
1.0
 21
1.0
 12
70.04016
 22
38.872556
 13
0.0
 23
0.0
 14
1.0
 24
1.0
 15
10.0
 25
10.0
 16
0.0
 26
0.0
 36
1.0
 17
0.0
 27
0.0
 37
0.0
 40
111.786529
 41
1.466346
 42
50.0
 43
0.0
 44
0.0
 50
0.0
 51
0.0
 71
     0
 72
   100
 73
     1
 74
     0
 75
     0
 76
     0
 77
     0
 78
     0
  0
ENDTAB
  0
TABLE
  2
LTYPE
 70
     2
  0
LTYPE
  2
CONTINUOUS
 70
     0
  3
Solid line
 72
    65
 73
     0
 40
0.0
  0
LTYPE
  2
AXES2
 70
     0
  3
___ _ ___ _ ___ _ ___ _ ___ _ ___ _ ___ _ ___ _
 72
    65
 73
     4
 40
1.125
 49
0.75
 49
-0.125
 49
0.125
 49
-0.125
  0
ENDTAB
  0
TABLE
  2
LAYER
 70
     5
  0
LAYER
  2
0
 70
     0
 62
   255
  6
CONTINUOUS
  0
LAYER
  2
COTATION1
 70
     0
 62
     2
  6
CONTINUOUS
  0
LAYER
  2
AXE
 70
     0
 62
    80
  6
AXES2
  0
LAYER
  2
DEFPOINTS
 70
     0
 62
     7
  6
CONTINUOUS
  0
LAYER
  2
ALPHA
 70
     0
 62
   254
  6
CONTINUOUS
  0
ENDTAB
  0
TABLE
  2
STYLE
 70
     2
  0
STYLE
  2
ROMANS
 70
     0
 40
0.0
 41
1.0
 50
0.0
 71
     0
 42
6.0
  3
romans
  4

  0
STYLE
  2
STANDARD
 70
     0
 40
0.0
 41
1.0
 50
0.0
 71
     0
 42
0.2
  3
txt
  4

  0
ENDTAB
  0
TABLE
  2
VIEW
 70
     0
  0
ENDTAB
  0
TABLE
  2
UCS
 70
     0
  0
ENDTAB
  0
TABLE
  2
APPID
 70
     1
  0
APPID
  2
ACAD
 70
     0
  0
ENDTAB
  0
TABLE
  2
DIMSTYLE
 70
     2
  0
DIMSTYLE
  2
SC_DEFAUT
 70
     0
  3

  4

  5
OPEN30
  6

  7

 40
1.0
 41
5.0
 42
2.0
 43
0.38
 44
2.5
 45
0.0
 46
0.0
 47
0.0
 48
0.0
140
2.5
141
0.0
142
0.0
143
25.4
144
1.0
145
0.0
146
1.0
147
2.0
 71
     0
 72
     0
 73
     1
 74
     1
 75
     0
 76
     0
 77
     1
 78
    12
170
     0
171
     2
172
     0
173
     0
174
     0
175
     0
176
     0
177
     0
178
     0
  0
DIMSTYLE
  2
STANDARD
 70
     0
  3

  4

  5

  6

  7

 40
1.0
 41
0.18
 42
0.0625
 43
0.38
 44
0.18
 45
0.0
 46
0.0
 47
0.0
 48
0.0
140
0.18
141
0.09
142
0.0
143
25.4
144
1.0
145
0.0
146
1.0
147
0.09
 71
     0
 72
     0
 73
     1
 74
     1
 75
     0
 76
     0
 77
     0
 78
     0
170
     0
171
     2
172
     0
173
     0
174
     0
175
     0
176
     0
177
     0
178
     0
  0
ENDTAB
  0
ENDSEC
  0
SECTION
  2
BLOCKS
  0
BLOCK
  8
0
  2
$MODEL_SPACE
 70
     0
 10
0.0
 20
0.0
 30
0.0
  3
$MODEL_SPACE
  1

  0
ENDBLK
  5
C1B5
  8
0
  0
BLOCK
 67
     1
  8
0
  2
$PAPER_SPACE
 70
     0
 10
0.0
 20
0.0
 30
0.0
  3
$PAPER_SPACE
  1

  0
ENDBLK
  5
C1B3
 67
     1
  8
0
  0
BLOCK
  8
0
  2
COTE
 70
     0
 10
0.0
 20
0.0
 30
0.0
  3
COTE
  1

  0
ENDBLK
  5
F
  8
0
  0
BLOCK
  8
0
  2
FOND
 70
     0
 10
0.0
 20
0.0
 30
0.0
  3
FOND
  1

  0
ENDBLK
  5
75
  8
0
  0
BLOCK
  8
0
  2
_OPEN30
 70
     0
 10
0.0
 20
0.0
 30
0.0
  3
_OPEN30
  1

  0
LINE
  5
4B05
  8
COTATION1
 62
     0
 10
-1.0
 20
0.267949
 30
0.0
 11
0.0
 21
0.0
 31
0.0
1001
ACAD
1000
RTLwPs
1070
   158
  0
LINE
  5
4B06
  8
COTATION1
 62
     0
 10
0.0
 20
0.0
 30
0.0
 11
-1.0
 21
-0.267949
 31
0.0
1001
ACAD
1000
RTLwPs
1070
   158
  0
LINE
  5
4B07
  8
COTATION1
 62
     0
 10
0.0
 20
0.0
 30
0.0
 11
-1.0
 21
0.0
 31
0.0
1001
ACAD
1000
RTLwPs
1070
   158
  0
ENDBLK
  5
4B09
  8
0
  0
BLOCK
  8
0
  2
*D3
 70
     1
 10
0.0
 20
0.0
 30
0.0
  3
*D3
  1

  0
LINE
  5
BEA4
  8
COTATION1
 62
     0
 10
120.377866
 20
44.544332
 30
0.0
 11
141.571992
 21
44.544332
 31
0.0
1001
ACAD
1000
RTLwPs
1070
   158
  0
LINE
  5
BEA5
  8
COTATION1
 62
     0
 10
131.071992
 20
35.03766
 30
0.0
 11
141.571992
 21
35.03766
 31
0.0
1001
ACAD
1000
RTLwPs
1070
   158
  0
LINE
  5
BEA6
  8
COTATION1
 62
     0
 10
139.071992
 20
49.544332
 30
0.0
 11
139.071992
 21
54.544332
 31
0.0
1001
ACAD
1000
RTLwPs
1070
   158
  0
LINE
  5
BEA7
  8
COTATION1
 62
     0
 10
139.071992
 20
30.03766
 30
0.0
 11
139.071992
 21
25.03766
 31
0.0
1001
ACAD
1000
RTLwPs
1070
   158
  0
TEXT
  5
BEA8
  8
COTATION1
 62
     0
 10
136.231404
 20
38.340862
 30
0.0
 40
2.5
  1
9.5
1001
ACAD
1000
MTEXTBEGIN
1070
    73
1070
     1
1070
    44
1040
1.0
1070
    74
1070
     0
1000
MTEXTEND
  0
INSERT
  5
BEA9
  8
COTATION1
 62
     0
  2
_OPEN30
 10
139.071992
 20
44.544332
 30
0.0
 41
5.0
 42
5.0
 43
5.0
 50
270.0
1001
ACAD
1000
RTLwPs
1070
   158
  0
INSERT
  5
BEAA
  8
COTATION1
 62
     0
  2
_OPEN30
 10
139.071992
 20
35.03766
 30
0.0
 41
5.0
 42
5.0
 43
5.0
 50
90.0
1001
ACAD
1000
RTLwPs
1070
   158
  0
POINT
  5
BEAB
  8
DEFPOINTS
 62
     0
 10
118.377866
 20
44.544332
 30
0.0
  0
POINT
  5
BEAC
  8
DEFPOINTS
 62
     0
 10
129.071992
 20
35.03766
 30
0.0
  0
POINT
  5
BEAD
  8
DEFPOINTS
 62
     0
 10
139.071992
 20
35.03766
 30
0.0
  0
ENDBLK
  5
BCFA
  8
0
  0
BLOCK
  8
0
  2
*D4
 70
     1
 10
0.0
 20
0.0
 30
0.0
  3
*D4
  1

  0
LINE
  5
BE7E
  8
COTATION1
 62
     0
 10
120.377866
 20
44.544332
 30
0.0
 11
151.571992
 21
44.544332
 31
0.0
1001
ACAD
1000
RTLwPs
1070
   158
  0
LINE
  5
BE7F
  8
COTATION1
 62
     0
 10
120.377866
 20
25.530989
 30
0.0
 11
151.571992
 21
25.530989
 31
0.0
1001
ACAD
1000
RTLwPs
1070
   158
  0
LINE
  5
BE80
  8
COTATION1
 62
     0
 10
149.071992
 20
39.544332
 30
0.0
 11
149.071992
 21
38.28766
 31
0.0
1001
ACAD
1000
RTLwPs
1070
   158
  0
LINE
  5
BE81
  8
COTATION1
 62
     0
 10
149.071992
 20
30.530989
 30
0.0
 11
149.071992
 21
31.78766
 31
0.0
1001
ACAD
1000
RTLwPs
1070
   158
  0
TEXT
  5
BE82
  8
COTATION1
 62
     0
 10
146.571992
 20
33.78766
 30
0.0
 40
2.5
  1
19
1001
ACAD
1000
MTEXTBEGIN
1070
    73
1070
     1
1070
    44
1040
1.0
1070
    74
1070
     0
1000
MTEXTEND
  0
INSERT
  5
BE83
  8
COTATION1
 62
     0
  2
_OPEN30
 10
149.071992
 20
44.544332
 30
0.0
 41
5.0
 42
5.0
 43
5.0
 50
90.0
1001
ACAD
1000
RTLwPs
1070
   158
  0
INSERT
  5
BE84
  8
COTATION1
 62
     0
  2
_OPEN30
 10
149.071992
 20
25.530989
 30
0.0
 41
5.0
 42
5.0
 43
5.0
 50
270.0
1001
ACAD
1000
RTLwPs
1070
   158
  0
POINT
  5
BE85
  8
DEFPOINTS
 62
     0
 10
118.377866
 20
44.544332
 30
0.0
  0
POINT
  5
BE86
  8
DEFPOINTS
 62
     0
 10
118.377866
 20
25.530989
 30
0.0
  0
POINT
  5
BE87
  8
DEFPOINTS
 62
     0
 10
149.071992
 20
25.530989
 30
0.0
  0
ENDBLK
  5
BD07
  8
0
  0
BLOCK
  8
0
  2
*D5
 70
     1
 10
0.0
 20
0.0
 30
0.0
  3
*D5
  1

  0
LINE
  5
BE91
  8
COTATION1
 62
     0
 10
119.011644
 20
45.910554
 30
0.0
 11
119.011644
 21
72.044332
 31
0.0
1001
ACAD
1000
RTLwPs
1070
   158
  0
LINE
  5
BE92
  8
COTATION1
 62
     0
 10
86.055183
 20
45.910554
 30
0.0
 11
86.055183
 21
72.044332
 31
0.0
1001
ACAD
1000
RTLwPs
1070
   158
  0
LINE
  5
BE93
  8
COTATION1
 62
     0
 10
114.011644
 20
69.544332
 30
0.0
 11
91.055183
 21
69.544332
 31
0.0
1001
ACAD
1000
RTLwPs
1070
   158
  0
INSERT
  5
BE94
  8
COTATION1
 62
     0
  2
_OPEN30
 10
119.011644
 20
69.544332
 30
0.0
 41
5.0
 42
5.0
 43
5.0
1001
ACAD
1000
RTLwPs
1070
   158
  0
INSERT
  5
BE95
  8
COTATION1
 62
     0
  2
_OPEN30
 10
86.055183
 20
69.544332
 30
0.0
 41
5.0
 42
5.0
 43
5.0
 50
180.0
1001
ACAD
1000
RTLwPs
1070
   158
  0
TEXT
  5
BE96
  8
COTATION1
 62
     0
 10
100.152461
 20
71.544332
 30
0.0
 40
2.5
  1
33
1001
ACAD
1000
MTEXTBEGIN
1070
    73
1070
     1
1070
    44
1040
1.0
1070
    74
1070
     0
1000
MTEXTEND
  0
POINT
  5
BE97
  8
DEFPOINTS
 62
     0
 10
119.011644
 20
43.910554
 30
0.0
  0
POINT
  5
BE98
  8
DEFPOINTS
 62
     0
 10
86.055183
 20
43.910554
 30
0.0
  0
POINT
  5
BE99
  8
DEFPOINTS
 62
     0
 10
86.055183
 20
69.544332
 30
0.0
  0
ENDBLK
  5
BD13
  8
0
  0
BLOCK
  8
0
  2
*D6
 70
     1
 10
0.0
 20
0.0
 30
0.0
  3
*D6
  1

  0
LINE
  5
BE9A
  8
COTATION1
 62
     0
 10
94.846545
 20
41.527548
 30
0.0
 11
100.239898
 21
41.527548
 31
0.0
1001
ACAD
1000
RTLwPs
1070
   158
  0
LINE
  5
BE9B
  8
COTATION1
 62
     0
 10
94.846545
 20
28.547773
 30
0.0
 11
100.239898
 21
28.547773
 31
0.0
1001
ACAD
1000
RTLwPs
1070
   158
  0
LINE
  5
BE9C
  8
COTATION1
 62
     0
 10
97.739898
 20
46.527548
 30
0.0
 11
97.739898
 21
51.527548
 31
0.0
1001
ACAD
1000
RTLwPs
1070
   158
  0
LINE
  5
BE9D
  8
COTATION1
 62
     0
 10
97.739898
 20
23.547773
 30
0.0
 11
97.739898
 21
18.547773
 31
0.0
1001
ACAD
1000
RTLwPs
1070
   158
  0
TEXT
  5
BE9E
  8
COTATION1
 62
     0
 10
95.180374
 20
33.78766
 30
0.0
 40
2.5
  1
13
1001
ACAD
1000
MTEXTBEGIN
1070
    73
1070
     1
1070
    44
1040
1.0
1070
    74
1070
     0
1000
MTEXTEND
  0
INSERT
  5
BE9F
  8
COTATION1
 62
     0
  2
_OPEN30
 10
97.739898
 20
41.527548
 30
0.0
 41
5.0
 42
5.0
 43
5.0
 50
270.0
1001
ACAD
1000
RTLwPs
1070
   158
  0
INSERT
  5
BEA0
  8
COTATION1
 62
     0
  2
_OPEN30
 10
97.739898
 20
28.547773
 30
0.0
 41
5.0
 42
5.0
 43
5.0
 50
90.0
1001
ACAD
1000
RTLwPs
1070
   158
  0
POINT
  5
BEA1
  8
DEFPOINTS
 62
     0
 10
92.846545
 20
41.527548
 30
0.0
  0
POINT
  5
BEA2
  8
DEFPOINTS
 62
     0
 10
92.846545
 20
28.547773
 30
0.0
  0
POINT
  5
BEA3
  8
DEFPOINTS
 62
     0
 10
97.739898
 20
28.547773
 30
0.0
  0
ENDBLK
  5
BD20
  8
0
  0
BLOCK
  8
0
  2
*D7
 70
     1
 10
0.0
 20
0.0
 30
0.0
  3
*D7
  1

  0
LINE
  5
BE88
  8
COTATION1
 62
     0
 10
109.124706
 20
42.369964
 30
0.0
 11
109.124706
 21
62.044332
 31
0.0
1001
ACAD
1000
RTLwPs
1070
   158
  0
LINE
  5
BE89
  8
COTATION1
 62
     0
 10
89.097318
 20
47.276775
 30
0.0
 11
89.097318
 21
62.044332
 31
0.0
1001
ACAD
1000
RTLwPs
1070
   158
  0
LINE
  5
BE8A
  8
COTATION1
 62
     0
 10
104.124706
 20
59.544332
 30
0.0
 11
94.097318
 21
59.544332
 31
0.0
1001
ACAD
1000
RTLwPs
1070
   158
  0
INSERT
  5
BE8B
  8
COTATION1
 62
     0
  2
_OPEN30
 10
109.124706
 20
59.544332
 30
0.0
 41
5.0
 42
5.0
 43
5.0
1001
ACAD
1000
RTLwPs
1070
   158
  0
INSERT
  5
BE8C
  8
COTATION1
 62
     0
  2
_OPEN30
 10
89.097318
 20
59.544332
 30
0.0
 41
5.0
 42
5.0
 43
5.0
 50
180.0
1001
ACAD
1000
RTLwPs
1070
   158
  0
TEXT
  5
BE8D
  8
COTATION1
 62
     0
 10
96.730059
 20
61.544332
 30
0.0
 40
2.5
  1
20
1001
ACAD
1000
MTEXTBEGIN
1070
    73
1070
     1
1070
    44
1040
1.0
1070
    74
1070
     0
1000
MTEXTEND
  0
POINT
  5
BE8E
  8
DEFPOINTS
 62
     0
 10
109.124706
 20
40.369964
 30
0.0
  0
POINT
  5
BE8F
  8
DEFPOINTS
 62
     0
 10
89.097318
 20
45.276775
 30
0.0
  0
POINT
  5
BE90
  8
DEFPOINTS
 62
     0
 10
89.097318
 20
59.544332
 30
0.0
  0
ENDBLK
  5
BD2C
  8
0
  0
BLOCK
  8
0
  2
*D8
 70
     1
 10
0.0
 20
0.0
 30
0.0
  3
*D8
  1

  0
LINE
  5
BE74
  8
COTATION1
 62
     0
 10
89.097318
 20
47.276775
 30
0.0
 11
89.097318
 21
62.044332
 31
0.0
1001
ACAD
1000
RTLwPs
1070
   158
  0
LINE
  5
BE75
  8
COTATION1
 62
     0
 10
86.055183
 20
45.910554
 30
0.0
 11
86.055183
 21
62.044332
 31
0.0
1001
ACAD
1000
RTLwPs
1070
   158
  0
LINE
  5
BE76
  8
COTATION1
 62
     0
 10
94.097318
 20
59.544332
 30
0.0
 11
99.097318
 21
59.544332
 31
0.0
1001
ACAD
1000
RTLwPs
1070
   158
  0
LINE
  5
BE77
  8
COTATION1
 62
     0
 10
81.055183
 20
59.544332
 30
0.0
 11
76.055183
 21
59.544332
 31
0.0
1001
ACAD
1000
RTLwPs
1070
   158
  0
TEXT
  5
BE78
  8
COTATION1
 62
     0
 10
76.806952
 20
61.51159
 30
0.0
 40
2.5
  1
3
1001
ACAD
1000
MTEXTBEGIN
1070
    73
1070
     1
1070
    44
1040
1.0
1070
    74
1070
     0
1000
MTEXTEND
  0
INSERT
  5
BE79
  8
COTATION1
 62
     0
  2
_OPEN30
 10
89.097318
 20
59.544332
 30
0.0
 41
5.0
 42
5.0
 43
5.0
 50
180.0
1001
ACAD
1000
RTLwPs
1070
   158
  0
INSERT
  5
BE7A
  8
COTATION1
 62
     0
  2
_OPEN30
 10
86.055183
 20
59.544332
 30
0.0
 41
5.0
 42
5.0
 43
5.0
1001
ACAD
1000
RTLwPs
1070
   158
  0
POINT
  5
BE7B
  8
DEFPOINTS
 62
     0
 10
89.097318
 20
45.276775
 30
0.0
  0
POINT
  5
BE7C
  8
DEFPOINTS
 62
     0
 10
86.055183
 20
43.910554
 30
0.0
  0
POINT
  5
BE7D
  8
DEFPOINTS
 62
     0
 10
86.055183
 20
59.544332
 30
0.0
  0
ENDBLK
  5
BD39
  8
0
  0
BLOCK
  8
0
  2
*D9
 70
     1
 10
0.0
 20
0.0
 30
0.0
  3
*D9
  1

  0
LINE
  5
BE6B
  8
COTATION1
 62
     0
 10
86.055183
 20
45.910554
 30
0.0
 11
86.055183
 21
72.044332
 31
0.0
1001
ACAD
1000
RTLwPs
1070
   158
  0
LINE
  5
BE6C
  8
COTATION1
 62
     0
 10
47.618266
 20
40.396684
 30
0.0
 11
47.618266
 21
72.044332
 31
0.0
1001
ACAD
1000
RTLwPs
1070
   158
  0
LINE
  5
BE6D
  8
COTATION1
 62
     0
 10
81.055183
 20
69.544332
 30
0.0
 11
52.618266
 21
69.544332
 31
0.0
1001
ACAD
1000
RTLwPs
1070
   158
  0
INSERT
  5
BE6E
  8
COTATION1
 62
     0
  2
_OPEN30
 10
86.055183
 20
69.544332
 30
0.0
 41
5.0
 42
5.0
 43
5.0
1001
ACAD
1000
RTLwPs
1070
   158
  0
INSERT
  5
BE6F
  8
COTATION1
 62
     0
  2
_OPEN30
 10
47.618266
 20
69.544332
 30
0.0
 41
5.0
 42
5.0
 43
5.0
 50
180.0
1001
ACAD
1000
RTLwPs
1070
   158
  0
TEXT
  5
BE70
  8
COTATION1
 62
     0
 10
63.086725
 20
71.544332
 30
0.0
 40
2.5
  1
152
1001
ACAD
1000
MTEXTBEGIN
1070
    73
1070
     1
1070
    44
1040
1.0
1070
    74
1070
     0
1000
MTEXTEND
  0
POINT
  5
BE71
  8
DEFPOINTS
 62
     0
 10
86.055183
 20
43.910554
 30
0.0
  0
POINT
  5
BE72
  8
DEFPOINTS
 62
     0
 10
47.618266
 20
38.396684
 30
0.0
  0
POINT
  5
BE73
  8
DEFPOINTS
 62
     0
 10
47.618266
 20
69.544332
 30
0.0
  0
ENDBLK
  5
BE0E
  8
0
  0
BLOCK
  8
0
  2
*D10
 70
     1
 10
0.0
 20
0.0
 30
0.0
  3
*D10
  1

  0
LINE
  5
C170
  8
COTATION1
 62
     0
 10
113.141419
 20
3.681487
 30
0.0
 11
99.236657
 21
3.681487
 31
0.0
  0
LINE
  5
C171
  8
COTATION1
 62
     0
 10
99.236657
 20
3.681487
 30
0.0
 11
91.645641
 21
22.298123
 31
0.0
  0
TEXT
  5
C172
  8
COTATION1
 62
     0
 10
100.879514
 20
5.681487
 30
0.0
 40
2.5
  1
2x%%c3.5
  0
INSERT
  5
C173
  8
COTATION1
 62
     0
  2
_OPEN30
 10
89.757778
 20
26.928023
 30
0.0
 41
5.0
 42
5.0
 43
5.0
 50
112.183398
  0
POINT
  5
C174
  8
DEFPOINTS
 62
     0
 10
89.757778
 20
26.928023
 30
0.0
  0
POINT
  5
C175
  8
DEFPOINTS
 62
     0
 10
88.436858
 20
30.167522
 30
0.0
  0
ENDBLK
  5
BE45
  8
0
  0
BLOCK
  8
0
  2
*D11
 70
     1
 10
0.0
 20
0.0
 30
0.0
  3
*D11
  1

  0
LINE
  5
C124
  8
COTATION1
 62
     0
 10
16.618266
 20
43.53766
 30
0.0
 11
-7.313276
 21
43.53766
 31
0.0
1001
ACAD
1000
RTLwPs
1070
   158
  0
LINE
  5
C125
  8
COTATION1
 62
     0
 10
16.618266
 20
26.53766
 30
0.0
 11
-7.313276
 21
26.53766
 31
0.0
1001
ACAD
1000
RTLwPs
1070
   158
  0
LINE
  5
C126
  8
COTATION1
 62
     0
 10
-4.813276
 20
38.53766
 30
0.0
 11
-4.813276
 21
38.28766
 31
0.0
1001
ACAD
1000
RTLwPs
1070
   158
  0
LINE
  5
C127
  8
COTATION1
 62
     0
 10
-4.813276
 20
31.53766
 30
0.0
 11
-4.813276
 21
31.78766
 31
0.0
1001
ACAD
1000
RTLwPs
1070
   158
  0
TEXT
  5
C128
  8
COTATION1
 62
     0
 10
-7.3728
 20
33.78766
 30
0.0
 40
2.5
  1
17
1001
ACAD
1000
MTEXTBEGIN
1070
    73
1070
     1
1070
    44
1040
1.0
1070
    74
1070
     0
1000
MTEXTEND
  0
INSERT
  5
C129
  8
COTATION1
 62
     0
  2
_OPEN30
 10
-4.813276
 20
43.53766
 30
0.0
 41
5.0
 42
5.0
 43
5.0
 50
90.0
1001
ACAD
1000
RTLwPs
1070
   158
  0
INSERT
  5
C12A
  8
COTATION1
 62
     0
  2
_OPEN30
 10
-4.813276
 20
26.53766
 30
0.0
 41
5.0
 42
5.0
 43
5.0
 50
270.0
1001
ACAD
1000
RTLwPs
1070
   158
  0
POINT
  5
C12B
  8
DEFPOINTS
 62
     0
 10
18.618266
 20
43.53766
 30
0.0
  0
POINT
  5
C12C
  8
DEFPOINTS
 62
     0
 10
18.618266
 20
26.53766
 30
0.0
  0
POINT
  5
C12D
  8
DEFPOINTS
 62
     0
 10
-4.813276
 20
26.53766
 30
0.0
  0
ENDBLK
  5
BF96
  8
0
  0
BLOCK
  8
0
  2
*D12
 70
     1
 10
0.0
 20
0.0
 30
0.0
  3
*D12
  1

  0
LINE
  5
C0EF
  8
COTATION1
 62
     0
 10
47.618266
 20
40.396684
 30
0.0
 11
47.618266
 21
72.044332
 31
0.0
1001
ACAD
1000
RTLwPs
1070
   158
  0
LINE
  5
C0F0
  8
COTATION1
 62
     0
 10
7.618266
 20
41.886063
 30
0.0
 11
7.618266
 21
72.044332
 31
0.0
1001
ACAD
1000
RTLwPs
1070
   158
  0
LINE
  5
C0F1
  8
COTATION1
 62
     0
 10
42.618266
 20
69.544332
 30
0.0
 11
12.618266
 21
69.544332
 31
0.0
1001
ACAD
1000
RTLwPs
1070
   158
  0
INSERT
  5
C0F2
  8
COTATION1
 62
     0
  2
_OPEN30
 10
47.618266
 20
69.544332
 30
0.0
 41
5.0
 42
5.0
 43
5.0
1001
ACAD
1000
RTLwPs
1070
   158
  0
INSERT
  5
C0F3
  8
COTATION1
 62
     0
  2
_OPEN30
 10
7.618266
 20
69.544332
 30
0.0
 41
5.0
 42
5.0
 43
5.0
 50
180.0
1001
ACAD
1000
RTLwPs
1070
   158
  0
TEXT
  5
C0F4
  8
COTATION1
 62
     0
 10
25.237314
 20
71.544332
 30
0.0
 40
2.5
  1
40
1001
ACAD
1000
MTEXTBEGIN
1070
    73
1070
     1
1070
    44
1040
1.0
1070
    74
1070
     0
1000
MTEXTEND
  0
POINT
  5
C0F5
  8
DEFPOINTS
 62
     0
 10
47.618266
 20
38.396684
 30
0.0
  0
POINT
  5
C0F6
  8
DEFPOINTS
 62
     0
 10
7.618266
 20
39.886063
 30
0.0
  0
POINT
  5
C0F7
  8
DEFPOINTS
 62
     0
 10
7.618266
 20
69.544332
 30
0.0
  0
ENDBLK
  5
BFB9
  8
0
  0
ENDSEC
  0
SECTION
  2
ENTITIES
  0
INSERT
  5
A
  8
0
  2
COTE
 10
0.0
 20
0.0
 30
0.0
  0
INSERT
  5
17
  8
0
  2
COTE
 10
284.010391
 20
6.373258
 30
0.0
  0
INSERT
  5
72
  8
0
  2
FOND
 10
0.0
 20
0.0
 30
0.0
  0
DIMENSION
  5
BBC5
  8
COTATION1
  2
*D8
 10
86.055183
 20
59.544332
 30
0.0
 11
77.997428
 21
62.76159
 31
0.0
 70
   128
 13
89.097318
 23
45.276775
 33
0.0
 14
86.055183
 24
43.910554
 34
0.0
 50
180.0
  0
DIMENSION
  5
BBC6
  8
COTATION1
  2
*D7
 10
89.097318
 20
59.544332
 30
0.0
 11
99.111012
 21
62.794332
 31
0.0
 13
109.124706
 23
40.369964
 33
0.0
 14
89.097318
 24
45.276775
 34
0.0
 50
180.0
  0
LINE
  5
BBC7
  8
AXE
 10
92.846545
 20
28.547773
 30
0.0
 11
85.34809
 21
28.547773
 31
0.0
  0
LINE
  5
BBC8
  8
AXE
 10
92.846545
 20
41.527548
 30
0.0
 11
85.34809
 21
41.527548
 31
0.0
  0
DIMENSION
  5
BBC9
  8
COTATION1
  2
*D5
 10
86.055183
 20
69.544332
 30
0.0
 11
102.533413
 21
72.794332
 31
0.0
 13
119.011644
 23
43.910554
 33
0.0
 14
86.055183
 24
43.910554
 34
0.0
 50
180.0
  0
LINE
  5
BBCA
  8
ALPHA
 10
118.377866
 20
25.530989
 30
0.0
 11
86.688961
 21
25.530989
 31
0.0
  0
LINE
  5
BBCB
  8
ALPHA
 10
86.688961
 20
44.544332
 30
0.0
 11
118.377866
 21
44.544332
 31
0.0
  0
DIMENSION
  5
BBCC
  8
COTATION1
  2
*D4
 10
149.071992
 20
25.530989
 30
0.0
 11
149.071992
 21
35.03766
 31
0.0
 70
   128
 13
118.377866
 23
44.544332
 33
0.0
 14
118.377866
 24
25.530989
 34
0.0
 50
90.0
  0
DIMENSION
  5
BBCD
  8
COTATION1
  2
*D3
 10
139.071992
 20
35.03766
 30
0.0
 11
139.207594
 21
39.590862
 31
0.0
 70
   128
 13
118.377866
 23
44.544332
 33
0.0
 14
129.071992
 24
35.03766
 34
0.0
 50
90.0
  0
DIMENSION
  5
BBCE
  8
COTATION1
  2
*D6
 10
97.739898
 20
28.547773
 30
0.0
 11
97.739898
 21
35.03766
 31
0.0
 70
   128
 13
92.846545
 23
41.527548
 33
0.0
 14
92.846545
 24
28.547773
 34
0.0
 50
90.0
  0
LINE
  5
BBCF
  8
AXE
 10
109.124706
 20
29.705357
 30
0.0
 11
109.124706
 21
40.369964
 31
0.0
  0
LINE
  5
BBD0
  8
AXE
 10
102.533413
 20
13.530989
 30
0.0
 11
102.533413
 21
49.544332
 31
0.0
  0
LINE
  5
BBD1
  8
ALPHA
 10
119.011644
 20
43.910554
 30
0.0
 11
119.011644
 21
26.164767
 31
0.0
  0
LINE
  5
BBD2
  8
AXE
 10
129.071992
 20
35.03766
 30
0.0
 11
103.792402
 21
35.03766
 31
0.0
  0
TEXT
  5
BBD3
  8
AXE
 10
107.581032
 20
13.530989
 30
0.0
 40
5.0
  1
Y
 71
     2
 72
     2
 11
103.533413
 21
13.530989
 31
0.0
  0
CIRCLE
  5
BBD4
  8
ALPHA
 10
109.124706
 20
35.03766
 30
0.0
 40
2.332303
  0
ARC
  5
BBD5
  8
ALPHA
 10
118.377866
 20
26.164767
 30
0.0
 40
0.633778
 50
270.0
 51
0.0
  0
ARC
  5
BBD6
  8
ALPHA
 10
118.377866
 20
43.910554
 30
0.0
 40
0.633778
 50
0.0
 51
90.0
  0
LINE
  5
BBD7
  8
ALPHA
 10
85.294649
 20
37.015048
 30
0.0
 11
68.759692
 21
37.015048
 31
0.0
  0
LINE
  5
BBD8
  8
ALPHA
 10
85.294649
 20
33.060273
 30
0.0
 11
67.700013
 21
33.060273
 31
0.0
  0
LINE
  5
BBD9
  8
AXE
 10
89.097318
 20
37.77832
 30
0.0
 11
89.097318
 21
45.276775
 31
0.0
  0
LINE
  5
BBDA
  8
ALPHA
 10
86.055183
 20
26.164767
 30
0.0
 11
86.055183
 21
43.910554
 31
0.0
  0
LINE
  5
BBDE
  8
AXE
 10
89.097318
 20
24.798545
 30
0.0
 11
89.097318
 21
32.297
 31
0.0
  0
CIRCLE
  5
BBDF
  8
ALPHA
 10
89.097318
 20
28.547773
 30
0.0
 40
1.749228
  0
ARC
  5
BBE0
  8
ALPHA
 10
86.688961
 20
26.164767
 30
0.0
 40
0.633778
 50
180.0
 51
270.0
  0
ARC
  5
BBE1
  8
ALPHA
 10
86.105885
 20
37.015048
 30
0.0
 40
0.811236
 50
93.583322
 51
180.0
  0
ARC
  5
BBE2
  8
ALPHA
 10
86.105885
 20
33.060273
 30
0.0
 40
0.811236
 50
180.0
 51
266.416678
  0
LINE
  5
BBE3
  8
ALPHA
 10
85.294649
 20
33.060273
 30
0.0
 11
85.294649
 21
37.015048
 31
0.0
  0
CIRCLE
  5
BBE4
  8
ALPHA
 10
89.097318
 20
41.527548
 30
0.0
 40
1.749228
  0
ARC
  5
BBE5
  8
ALPHA
 10
86.688961
 20
43.910554
 30
0.0
 40
0.633778
 50
90.0
 51
180.0
  0
LINE
  5
BBF5
  8
ALPHA
 10
17.618266
 20
28.03766
 30
0.0
 11
17.618266
 21
42.03766
 31
0.0
  0
LINE
  5
BBFA
  8
ALPHA
 10
47.618266
 20
38.396684
 30
0.0
 11
28.618266
 21
41.53766
 31
0.0
  0
LINE
  5
BBFC
  8
ALPHA
 10
47.618266
 20
31.678636
 30
0.0
 11
47.618266
 21
38.396684
 31
0.0
  0
LINE
  5
BCA5
  8
ALPHA
 10
8.801482
 20
39.886063
 30
0.0
 11
7.618266
 21
39.886063
 31
0.0
  0
LINE
  5
BCA8
  8
ALPHA
 10
8.801482
 20
30.189258
 30
0.0
 11
7.618266
 21
30.189258
 31
0.0
  0
LINE
  5
BCAC
  8
ALPHA
 10
7.618266
 20
30.189258
 30
0.0
 11
7.618266
 21
39.886063
 31
0.0
  0
LINE
  5
BCAD
  8
ALPHA
 10
8.801482
 20
29.513828
 30
0.0
 11
8.801482
 21
40.502012
 31
0.0
  0
TEXT
  5
BDC4
  8
AXE
 10
125.024372
 20
36.03766
 30
0.0
 40
5.0
  1
Z
 72
     2
 11
129.071992
 21
36.03766
 31
0.0
  0
DIMENSION
  5
BE02
  8
COTATION1
  2
*D9
 10
47.618266
 20
69.544332
 30
0.0
 11
66.836725
 21
72.794332
 31
0.0
  1
152
 13
86.055183
 23
43.910554
 33
0.0
 14
47.618266
 24
38.396684
 34
0.0
 50
180.0
  0
LINE
  5
BE21
  8
AXE
 10
66.360267
 20
28.060273
 30
0.0
 11
70.099438
 21
42.015048
 31
0.0
  0
LINE
  5
BE24
  8
AXE
 10
63.254439
 20
28.060273
 30
0.0
 11
66.993609
 21
42.015048
 31
0.0
  0
LINE
  5
BE25
  8
AXE
 10
93.318249
 20
35.03766
 30
0.0
 11
2.609979
 21
35.03766
 31
0.0
  0
LINE
  5
BE26
  8
ALPHA
 10
65.653864
 20
37.015048
 30
0.0
 11
47.618266
 21
37.015048
 31
0.0
  0
LINE
  5
BE27
  8
ALPHA
 10
64.594185
 20
33.060273
 30
0.0
 11
47.618266
 21
33.060273
 31
0.0
  0
DIMENSION
  5
BE3A
  8
COTATION1
  2
*D10
 10
88.436858
 20
30.167522
 30
0.0
 11
107.189038
 21
3.681487
 31
0.0
 70
   131
  1
2x<>
 15
89.757778
 25
26.928023
 35
0.0
 40
0.0
1001
ACAD
1000
DSTYLE
1002
{
1070
   287
1070
     3
1070
   287
1070
     3
1070
   287
1070
     3
1070
   279
1070
     0
1070
   288
1070
     1
1002
}
  0
LINE
  5
BEFB
  8
ALPHA
 62
   255
 10
8.801482
 20
30.03766
 30
0.0
 11
17.618266
 21
30.03766
 31
0.0
  0
LINE
  5
BEFC
  8
ALPHA
 10
9.228482
 20
29.03766
 30
0.0
 11
17.618266
 21
29.03766
 31
0.0
  0
LINE
  5
BF03
  8
ALPHA
 10
9.228482
 20
29.03766
 30
0.0
 11
8.801482
 21
29.573308
 31
0.0
  0
LINE
  5
BF0E
  8
ALPHA
 62
   255
 10
8.801482
 20
40.03766
 30
0.0
 11
17.618266
 21
40.03766
 31
0.0
  0
LINE
  5
BF0F
  8
ALPHA
 10
9.228482
 20
41.03766
 30
0.0
 11
17.618266
 21
41.03766
 31
0.0
  0
LINE
  5
BF17
  8
ALPHA
 10
9.228482
 20
41.03766
 30
0.0
 11
8.801482
 21
40.502012
 31
0.0
  0
DIMENSION
  5
BF89
  8
COTATION1
  2
*D11
 10
-4.813276
 20
26.53766
 30
0.0
 11
-4.813276
 21
35.03766
 31
0.0
 70
   128
 13
18.618266
 23
43.53766
 33
0.0
 14
18.618266
 24
26.53766
 34
0.0
 50
90.0
  0
DIMENSION
  5
BFAD
  8
COTATION1
  2
*D12
 10
7.618266
 20
69.544332
 30
0.0
 11
27.618266
 21
72.794332
 31
0.0
 13
47.618266
 23
38.396684
 33
0.0
 14
7.618266
 24
39.886063
 34
0.0
 50
180.0
  0
LINE
  5
C0F9
  8
ALPHA
 10
17.618266
 20
42.03766
 30
0.0
 11
18.618266
 21
42.03766
 31
0.0
  0
LINE
  5
C0FA
  8
ALPHA
 10
18.618266
 20
35.03766
 30
0.0
 11
18.618266
 21
43.53766
 31
0.0
  0
LINE
  5
C0FB
  8
ALPHA
 10
20.618266
 20
43.53766
 30
0.0
 11
18.618266
 21
43.53766
 31
0.0
  0
LINE
  5
C0FC
  8
ALPHA
 10
20.618266
 20
35.03766
 30
0.0
 11
20.618266
 21
43.53766
 31
0.0
  0
LINE
  5
C0FE
  8
ALPHA
 10
28.618266
 20
42.53766
 30
0.0
 11
20.618266
 21
42.53766
 31
0.0
  0
LINE
  5
C0FF
  8
ALPHA
 10
28.618266
 20
35.03766
 30
0.0
 11
28.618266
 21
42.53766
 31
0.0
  0
LINE
  5
C101
  8
ALPHA
 10
47.618266
 20
31.678636
 30
0.0
 11
28.618266
 21
28.53766
 31
0.0
  0
LINE
  5
C102
  8
ALPHA
 10
28.618266
 20
27.53766
 30
0.0
 11
20.618266
 21
27.53766
 31
0.0
  0
LINE
  5
C103
  8
ALPHA
 10
20.618266
 20
35.03766
 30
0.0
 11
20.618266
 21
26.53766
 31
0.0
  0
LINE
  5
C104
  8
ALPHA
 10
18.618266
 20
35.03766
 30
0.0
 11
18.618266
 21
26.53766
 31
0.0
  0
LINE
  5
C105
  8
ALPHA
 10
20.618266
 20
26.53766
 30
0.0
 11
18.618266
 21
26.53766
 31
0.0
  0
LINE
  5
C106
  8
ALPHA
 10
17.618266
 20
28.03766
 30
0.0
 11
18.618266
 21
28.03766
 31
0.0
  0
LINE
  5
C107
  8
ALPHA
 10
28.618266
 20
35.03766
 30
0.0
 11
28.618266
 21
27.53766
 31
0.0
  0
SOLID
  5
C132
  8
COTATION1
  6
CONTINUOUS
 10
-11.614815
 20
45.773012
 30
0.0
 11
-13.423374
 21
41.03766
 31
0.0
 12
-10.176785
 22
44.930487
 32
0.0
 13
-10.176785
 23
44.930487
 33
0.0
210
0.0
220
0.0
230
-1.0
1001
ACAD
1000
DSTYLE
1002
{
1070
     5
1000
OPEN30
1070
   279
1070
     0
1070
   288
1070
     1
1002
}
  0
POLYLINE
  5
C17A
  8
COTATION1
 66
     1
 10
0.0
 20
0.0
 30
0.0
 70
   128
1001
ACAD
1000
R13OBJECT
1002
{
1005
C132
1002
}
  0
VERTEX
  5
C1BB
  8
COTATION1
 10
10.8958
 20
45.35175
 30
0.0
  0
VERTEX
  5
C1BC
  8
COTATION1
 10
5.992741
 20
53.720341
 30
0.0
  0
VERTEX
  5
C1BD
  8
COTATION1
 10
-11.483449
 20
53.720341
 30
0.0
  0
SEQEND
  5
C1BE
  8
COTATION1
  0
TEXT
  5
C133
  8
COTATION1
 10
-11.95964
 20
54.470341
 30
0.0
 40
2.5
  1
M12x1
1001
ACAD
1000
MTEXTBEGIN
1070
    73
1070
     1
1070
    44
1040
1.0
1070
    74
1070
     0
1000
MTEXTEND
  0
VIEWPORT
  5
494D
 67
     1
  8
0
 10
4.995325
 20
6.556512
 30
0.0
 40
22.70986
 41
13.988421
 68
    -1
 69
     1
1001
ACAD
1000
MVIEW
1002
{
1070
    16
1010
0.0
1020
0.0
1030
0.0
1010
0.0
1020
0.0
1030
1.0
1040
0.0
1040
13.988421
1040
4.995325
1040
6.556512
1040
50.0
1040
0.0
1040
0.0
1070
     0
1070
   100
1070
     1
1070
     1
1070
     0
1070
     0
1070
     0
1070
     0
1040
0.0
1040
0.0
1040
0.0
1040
10.0
1040
10.0
1040
10.0
1040
10.0
1070
     0
1002
{
1002
}
1002
}
  0
ENDSEC
  0
EOF
