  0
SECTION
  2
HEADER
  9
$ACADVER
  1
AC1009
  9
$INSBASE
 10
-146.27124
 20
-153.796096
 30
0.0
  9
$EXTMIN
 10
203.47194
 20
-184.705055
 30
0.0
  9
$EXTMAX
 10
338.971918
 20
-23.358473
 30
0.0
  9
$LIMMIN
 10
-407.970438
 20
-367.832444
  9
$LIMMAX
 10
429.804077
 20
234.370848
  9
$ORTHOMODE
 70
     1
  9
$REGENMODE
 70
     1
  9
$FILLMODE
 70
     1
  9
$QTEXTMODE
 70
     0
  9
$MIRRTEXT
 70
     1
  9
$DRAGMODE
 70
     2
  9
$LTSCALE
 40
10.0
  9
$OSMODE
 70
    37
  9
$ATTMODE
 70
     1
  9
$TEXTSIZE
 40
6.0
  9
$TRACEWID
 40
1.0
  9
$TEXTSTYLE
  7
ROMANS
  9
$CLAYER
  8
COTATION1
  9
$CELTYPE
  6
BYLAYER
  9
$CECOLOR
 62
   256
  9
$DIMSCALE
 40
1.0
  9
$DIMASZ
 40
2.0
  9
$DIMEXO
 40
0.5
  9
$DIMDLI
 40
0.38
  9
$DIMRND
 40
0.0
  9
$DIMDLE
 40
0.0
  9
$DIMEXE
 40
0.18
  9
$DIMTP
 40
0.0
  9
$DIMTM
 40
0.0
  9
$DIMTXT
 40
2.0
  9
$DIMCEN
 40
0.09
  9
$DIMTSZ
 40
0.0
  9
$DIMTOL
 70
     0
  9
$DIMLIM
 70
     0
  9
$DIMTIH
 70
     0
  9
$DIMTOH
 70
     1
  9
$DIMSE1
 70
     0
  9
$DIMSE2
 70
     0
  9
$DIMTAD
 70
     1
  9
$DIMZIN
 70
    12
  9
$DIMBLK
  1
OPEN30
  9
$DIMASO
 70
     1
  9
$DIMSHO
 70
     1
  9
$DIMPOST
  1

  9
$DIMAPOST
  1

  9
$DIMALT
 70
     0
  9
$DIMALTD
 70
     2
  9
$DIMALTF
 40
25.4
  9
$DIMLFAC
 40
1.0
  9
$DIMTOFL
 70
     0
  9
$DIMTVP
 40
0.0
  9
$DIMTIX
 70
     0
  9
$DIMSOXD
 70
     0
  9
$DIMSAH
 70
     0
  9
$DIMBLK1
  1

  9
$DIMBLK2
  1

  9
$DIMSTYLE
  2
ROMANS
  9
$DIMCLRD
 70
     0
  9
$DIMCLRE
 70
     0
  9
$DIMCLRT
 70
     0
  9
$DIMTFAC
 40
1.0
  9
$DIMGAP
 40
0.5
  9
$LUNITS
 70
     2
  9
$LUPREC
 70
     1
  9
$SKETCHINC
 40
0.1
  9
$FILLETRAD
 40
0.0
  9
$AUNITS
 70
     0
  9
$AUPREC
 70
     0
  9
$MENU
  1
acad
  9
$ELEVATION
 40
0.0
  9
$PELEVATION
 40
0.0
  9
$THICKNESS
 40
0.0
  9
$LIMCHECK
 70
     0
  9
$BLIPMODE
 70
     0
  9
$CHAMFERA
 40
0.0
  9
$CHAMFERB
 40
0.0
  9
$SKPOLY
 70
     0
  9
$TDCREATE
 40
2450365.355314
  9
$TDUPDATE
 40
2452608.392671
  9
$TDINDWG
 40
0.624974
  9
$TDUSRTIMER
 40
0.624974
  9
$USRTIMER
 70
     1
  9
$ANGBASE
 50
0.0
  9
$ANGDIR
 70
     0
  9
$PDMODE
 70
    32
  9
$PDSIZE
 40
0.0
  9
$PLINEWID
 40
0.0
  9
$COORDS
 70
     2
  9
$SPLFRAME
 70
     0
  9
$SPLINETYPE
 70
     6
  9
$SPLINESEGS
 70
     8
  9
$ATTDIA
 70
     0
  9
$ATTREQ
 70
     1
  9
$HANDLING
 70
     1
  9
$HANDSEED
  5
5931
  9
$SURFTAB1
 70
     6
  9
$SURFTAB2
 70
     6
  9
$SURFTYPE
 70
     6
  9
$SURFU
 70
     6
  9
$SURFV
 70
     6
  9
$UCSNAME
  2

  9
$UCSORG
 10
0.0
 20
0.0
 30
0.0
  9
$UCSXDIR
 10
1.0
 20
0.0
 30
0.0
  9
$UCSYDIR
 10
0.0
 20
1.0
 30
0.0
  9
$PUCSNAME
  2

  9
$PUCSORG
 10
0.0
 20
0.0
 30
0.0
  9
$PUCSXDIR
 10
1.0
 20
0.0
 30
0.0
  9
$PUCSYDIR
 10
0.0
 20
1.0
 30
0.0
  9
$USERI1
 70
     0
  9
$USERI2
 70
     0
  9
$USERI3
 70
     0
  9
$USERI4
 70
     0
  9
$USERI5
 70
     0
  9
$USERR1
 40
0.0
  9
$USERR2
 40
0.0
  9
$USERR3
 40
0.0
  9
$USERR4
 40
0.0
  9
$USERR5
 40
0.0
  9
$WORLDVIEW
 70
     1
  9
$SHADEDGE
 70
     3
  9
$SHADEDIF
 70
    70
  9
$TILEMODE
 70
     1
  9
$MAXACTVP
 70
    16
  9
$PLIMCHECK
 70
     0
  9
$PEXTMIN
 10
1.000000E+020
 20
1.000000E+020
 30
1.000000E+020
  9
$PEXTMAX
 10
-1.000000E+020
 20
-1.000000E+020
 30
-1.000000E+020
  9
$PLIMMIN
 10
0.0
 20
0.0
  9
$PLIMMAX
 10
12.0
 20
9.0
  9
$UNITMODE
 70
     0
  9
$VISRETAIN
 70
     0
  9
$PLINEGEN
 70
     0
  9
$PSLTSCALE
 70
     0
  0
ENDSEC
  0
SECTION
  2
TABLES
  0
TABLE
  2
VPORT
 70
     2
  0
VPORT
  2
*ACTIVE
 70
     0
 10
0.0
 20
0.0
 11
1.0
 21
1.0
 12
271.219305
 22
-104.01473
 13
0.0
 23
0.0
 14
1.0
 24
1.0
 15
10.0
 25
10.0
 16
0.0
 26
0.0
 36
1.0
 17
0.0
 27
0.0
 37
0.0
 40
162.863565
 41
1.63142
 42
50.0
 43
0.0
 44
0.0
 50
0.0
 51
0.0
 71
     0
 72
   100
 73
     1
 74
     0
 75
     0
 76
     0
 77
     0
 78
     0
  0
ENDTAB
  0
TABLE
  2
LTYPE
 70
    26
  0
LTYPE
  2
CONTINUOUS
 70
     0
  3
Solid line
 72
    65
 73
     0
 40
0.0
  0
LTYPE
  2
AXES2
 70
     0
  3
___ _ ___ _ ___ _ ___ _ ___ _ ___ _ ___ _ ___ _
 72
    65
 73
     4
 40
1.125
 49
0.75
 49
-0.125
 49
0.125
 49
-0.125
  0
LTYPE
  2
ACAD_ISO04W100
 70
     0
  3
ISO Lang gestrichelt punktiert ____ . ____ . __
 72
    65
 73
     4
 40
30.5
 49
24.0
 49
-3.0
 49
0.5
 49
-3.0
  0
LTYPE
  2
AXES
 70
     0
  3
____ _ ____ _ ____ _ ____ _ ____ _ ____ _ ____ 
 72
    65
 73
     4
 40
2.0
 49
1.25
 49
-0.25
 49
0.25
 49
-0.25
  0
LTYPE
  2
AXESX2
 70
     0
  3
________  __  ________  __  ________  __  _____
 72
    65
 73
     4
 40
4.0
 49
2.5
 49
-0.5
 49
0.5
 49
-0.5
  0
LTYPE
  2
TIRETPT
 70
     0
  3
__ . __ . __ . __ . __ . __ . __ . __ . __ . __
 72
    65
 73
     4
 40
1.0
 49
0.5
 49
-0.25
 49
0.0
 49
-0.25
  0
LTYPE
  2
TIRETPT2
 70
     0
  3
_._._._._._._._._._._._._._._._._._._._._._._._
 72
    65
 73
     4
 40
0.5
 49
0.25
 49
-0.125
 49
0.0
 49
-0.125
  0
LTYPE
  2
TIRETPTX2
 70
     0
  3
____  .  ____  .  ____  .  ____  .  ____  .  __
 72
    65
 73
     4
 40
2.0
 49
1.0
 49
-0.5
 49
0.0
 49
-0.5
  0
LTYPE
  2
DISCONTINU
 70
     0
  3
__ __ __ __ __ __ __ __ __ __ __ __ __ __ __ __
 72
    65
 73
     2
 40
0.75
 49
0.5
 49
-0.25
  0
LTYPE
  2
DISCONTINU2
 70
     0
  3
_ _ _ _ _ _ _ _ _ _ _ _ _ _ _ _ _ _ _ _ _ _ _ _
 72
    65
 73
     2
 40
0.375
 49
0.25
 49
-0.125
  0
LTYPE
  2
DISCONTINUX2
 70
     0
  3
____  ____  ____  ____  ____  ____  ____  ____ 
 72
    65
 73
     2
 40
1.5
 49
1.0
 49
-0.5
  0
LTYPE
  2
DIVISE
 70
     0
  3
____ . . ____ . . ____ . . ____ . . ____ . . __
 72
    65
 73
     6
 40
1.25
 49
0.5
 49
-0.25
 49
0.0
 49
-0.25
 49
0.0
 49
-0.25
  0
LTYPE
  2
DIVISE2
 70
     0
  3
__..__..__..__..__..__..__..__..__..__..__..__.
 72
    65
 73
     6
 40
0.625
 49
0.25
 49
-0.125
 49
0.0
 49
-0.125
 49
0.0
 49
-0.125
  0
LTYPE
  2
DIVISEX2
 70
     0
  3
________  .  .  ________  .  .  ________  .  . 
 72
    65
 73
     6
 40
2.5
 49
1.0
 49
-0.5
 49
0.0
 49
-0.5
 49
0.0
 49
-0.5
  0
LTYPE
  2
POINTILLE
 70
     0
  3
. . . . . . . . . . . . . . . . . . . . . . . .
 72
    65
 73
     2
 40
0.25
 49
0.0
 49
-0.25
  0
LTYPE
  2
POINTILLE2
 70
     0
  3
...............................................
 72
    65
 73
     2
 40
0.125
 49
0.0
 49
-0.125
  0
LTYPE
  2
POINTILLEX2
 70
     0
  3
.  .  .  .  .  .  .  .  .  .  .  .  .  .  .  . 
 72
    65
 73
     2
 40
0.5
 49
0.0
 49
-0.5
  0
LTYPE
  2
CACHE
 70
     0
  3
__ __ __ __ __ __ __ __ __ __ __ __ __ __ __ __
 72
    65
 73
     2
 40
0.375
 49
0.25
 49
-0.125
  0
LTYPE
  2
CACHE2
 70
     0
  3
_ _ _ _ _ _ _ _ _ _ _ _ _ _ _ _ _ _ _ _ _ _ _ _
 72
    65
 73
     2
 40
0.1875
 49
0.125
 49
-0.0625
  0
LTYPE
  2
CACHEX2
 70
     0
  3
____ ____ ____ ____ ____ ____ ____ ____ ____ __
 72
    65
 73
     2
 40
0.75
 49
0.5
 49
-0.25
  0
LTYPE
  2
FANTOME
 70
     0
  3
______  __  __  ______  __  __  ______  __  __ 
 72
    65
 73
     6
 40
2.5
 49
1.25
 49
-0.25
 49
0.25
 49
-0.25
 49
0.25
 49
-0.25
  0
LTYPE
  2
FANTOME2
 70
     0
  3
___ _ _ ___ _ _ ___ _ _ ___ _ _ ___ _ _ ___ _ _
 72
    65
 73
     6
 40
1.25
 49
0.625
 49
-0.125
 49
0.125
 49
-0.125
 49
0.125
 49
-0.125
  0
LTYPE
  2
FANTOMEX2
 70
     0
  3
____________    ____    ____    ____________   
 72
    65
 73
     6
 40
5.0
 49
2.5
 49
-0.5
 49
0.5
 49
-0.5
 49
0.5
 49
-0.5
  0
LTYPE
  2
0
 70
     0
  3
MEDUSA PEN 0
 72
    65
 73
     0
 40
0.0
  0
LTYPE
  2
AI9-LTYPE1
 70
     0
  3
Illustrator Dash Style No.1
 72
    65
 73
     4
 40
5.64621
 49
4.106333
 49
-0.307975
 49
0.923926
 49
-0.307975
  0
LTYPE
  2
AI9-LTYPE2
 70
     0
  3
Illustrator Dash Style No.2
 72
    65
 73
     2
 40
1.33456
 49
1.026585
 49
-0.307975
  0
ENDTAB
  0
TABLE
  2
LAYER
 70
    18
  0
LAYER
  2
0
 70
     0
 62
     7
  6
CONTINUOUS
  0
LAYER
  2
TEXTE_MOYEN
 70
     0
 62
   131
  6
CONTINUOUS
  0
LAYER
  2
ALPHA
 70
     0
 62
   254
  6
CONTINUOUS
  0
LAYER
  2
COTATION1
 70
     0
 62
    50
  6
CONTINUOUS
  0
LAYER
  2
AXE
 70
     0
 62
    80
  6
AXES2
  0
LAYER
  2
DEFPOINTS
 70
     0
 62
     7
  6
CONTINUOUS
  0
LAYER
  2
HACHURES1
 70
     0
 62
   130
  6
CONTINUOUS
  0
LAYER
  2
FMULT
 70
     0
 62
   210
  6
CONTINUOUS
  0
LAYER
  2
FDP_CARTOUCHE
 70
     0
 62
   136
  6
CONTINUOUS
  0
LAYER
  2
FDP_TEXTES
 70
     0
 62
   171
  6
CONTINUOUS
  0
LAYER
  2
FDP_LOGO_MG
 70
     0
 62
    30
  6
CONTINUOUS
  0
LAYER
  2
FDP_LOGO_SCH
 70
     0
 62
    90
  6
CONTINUOUS
  0
LAYER
  2
FDP_FDP
 70
     0
 62
   170
  6
CONTINUOUS
  0
LAYER
  2
POINTILLE_COURT2
 70
     0
 62
    41
  6
CACHE2
  0
LAYER
  2
POINTILLE_MOYEN2
 70
     0
 62
   141
  6
CACHE
  0
LAYER
  2
POINTILLE_LONG2
 70
     0
 62
   241
  6
CACHEX2
  0
LAYER
  2
ALPHA_FIN
 70
     0
 62
   255
  6
CONTINUOUS
  0
LAYER
  2
CALQUE_1
 70
     0
 62
   160
  6
CONTINUOUS
  0
ENDTAB
  0
TABLE
  2
STYLE
 70
     5
  0
STYLE
  2
ROMANS
 70
     0
 40
0.0
 41
1.0
 50
0.0
 71
     0
 42
6.0
  3
romans
  4

  0
STYLE
  2
STANDARD
 70
     0
 40
0.2
 41
1.0
 50
0.0
 71
     0
 42
0.2
  3
txt
  4

  0
STYLE
  2
STD
 70
     0
 40
0.0
 41
1.0
 50
0.0
 71
     0
 42
0.0
  3
txt
  4

  0
STYLE
  2
INFOCAR
 70
     0
 40
0.0
 41
1.34
 50
0.0
 71
     0
 42
2.0
  3
ROMANS.SHX
  4

  0
STYLE
  2
CARTOUCHE
 70
     0
 40
0.0
 41
1.0
 50
0.0
 71
     0
 42
0.2
  3
ROMANS.SHX
  4

  0
ENDTAB
  0
TABLE
  2
VIEW
 70
     0
  0
ENDTAB
  0
TABLE
  2
UCS
 70
     0
  0
ENDTAB
  0
TABLE
  2
APPID
 70
     3
  0
APPID
  2
ACAD
 70
     0
  0
APPID
  2
AVE_RENDER
 70
     0
  0
APPID
  2
AVE_MATERIAL
 70
     0
  0
ENDTAB
  0
TABLE
  2
DIMSTYLE
 70
     1
  0
DIMSTYLE
  2
ROMANS
 70
     0
  3

  4

  5
OPEN30
  6

  7

 40
1.0
 41
2.0
 42
0.5
 43
0.38
 44
0.18
 45
0.0
 46
0.0
 47
0.0
 48
0.0
140
2.0
141
0.09
142
0.0
143
25.4
144
1.0
145
0.0
146
1.0
147
0.5
 71
     0
 72
     0
 73
     0
 74
     1
 75
     0
 76
     0
 77
     1
 78
    12
170
     0
171
     2
172
     0
173
     0
174
     0
175
     0
176
     0
177
     0
178
     0
  0
ENDTAB
  0
ENDSEC
  0
SECTION
  2
BLOCKS
  0
BLOCK
  8
0
  2
$MODEL_SPACE
 70
     0
 10
0.0
 20
0.0
 30
0.0
  3
$MODEL_SPACE
  1

  0
ENDBLK
  5
58B4
  8
0
  0
BLOCK
 67
     1
  8
0
  2
$PAPER_SPACE
 70
     0
 10
0.0
 20
0.0
 30
0.0
  3
$PAPER_SPACE
  1

  0
ENDBLK
  5
58B2
 67
     1
  8
0
  0
BLOCK
  8
0
  2
COTE
 70
     0
 10
0.0
 20
0.0
 30
0.0
  3
COTE
  1

  0
ENDBLK
  5
35
  8
0
  0
BLOCK
  8
0
  2
FOND
 70
     0
 10
0.0
 20
0.0
 30
0.0
  3
FOND
  1

  0
ENDBLK
  5
39
  8
0
  0
BLOCK
  8
0
  2
SCH_ISO
 70
     0
 10
0.0
 20
0.0
 30
0.0
  3
SCH_ISO
  1

  0
ENDBLK
  5
24AD
  8
0
  0
BLOCK
  8
0
  2
_OPEN30
 70
     0
 10
0.0
 20
0.0
 30
0.0
  3
_OPEN30
  1

  0
LINE
  5
27E1
  8
COTATION1
 62
     0
 10
-1.0
 20
0.267949
 30
0.0
 11
0.0
 21
0.0
 31
0.0
1001
ACAD
1000
RTLwPs
1070
   158
  0
LINE
  5
27E2
  8
COTATION1
 62
     0
 10
0.0
 20
0.0
 30
0.0
 11
-1.0
 21
-0.267949
 31
0.0
1001
ACAD
1000
RTLwPs
1070
   158
  0
LINE
  5
27E3
  8
COTATION1
 62
     0
 10
0.0
 20
0.0
 30
0.0
 11
-1.0
 21
0.0
 31
0.0
1001
ACAD
1000
RTLwPs
1070
   158
  0
ENDBLK
  5
27E5
  8
0
  0
BLOCK
  8
0
  2
*D4
 70
     1
 10
0.0
 20
0.0
 30
0.0
  3
*D4
  1

  0
LINE
  5
5761
  8
COTATION1
 62
     0
 10
255.244063
 20
-70.858473
 30
0.0
 11
205.79194
 21
-70.858473
 31
0.0
1001
ACAD
1000
RTLwPs
1070
   158
  0
LINE
  5
5762
  8
COTATION1
 62
     0
 10
250.47194
 20
-169.858473
 30
0.0
 11
205.79194
 21
-169.858473
 31
0.0
1001
ACAD
1000
RTLwPs
1070
   158
  0
LINE
  5
5763
  8
COTATION1
 62
     0
 10
205.97194
 20
-72.858473
 30
0.0
 11
205.97194
 21
-167.858473
 31
0.0
1001
ACAD
1000
RTLwPs
1070
   158
  0
INSERT
  5
5764
  8
COTATION1
 62
     0
  2
_OPEN30
 10
205.97194
 20
-70.858473
 30
0.0
 41
2.0
 42
2.0
 43
2.0
 50
90.0
1001
ACAD
1000
RTLwPs
1070
   158
  0
INSERT
  5
5765
  8
COTATION1
 62
     0
  2
_OPEN30
 10
205.97194
 20
-169.858473
 30
0.0
 41
2.0
 42
2.0
 43
2.0
 50
270.0
1001
ACAD
1000
RTLwPs
1070
   158
  0
TEXT
  5
5766
  8
COTATION1
 62
     0
 10
205.47194
 20
-122.215616
 30
0.0
 40
2.0
  1
99
 50
90.0
1001
ACAD
1000
MTEXTBEGIN
1070
    73
1070
     1
1070
    44
1040
1.0
1070
    74
1070
     0
1000
MTEXTEND
  0
POINT
  5
5767
  8
DEFPOINTS
 62
     0
 10
255.744063
 20
-70.858473
 30
0.0
  0
POINT
  5
5768
  8
DEFPOINTS
 62
     0
 10
250.97194
 20
-169.858473
 30
0.0
  0
POINT
  5
5769
  8
DEFPOINTS
 62
     0
 10
205.97194
 20
-169.858473
 30
0.0
  0
ENDBLK
  5
532A
  8
0
  0
BLOCK
  8
0
  2
*D5
 70
     1
 10
0.0
 20
0.0
 30
0.0
  3
*D5
  1

  0
LINE
  5
56CC
  8
COTATION1
 62
     0
 10
287.97188
 20
-66.321201
 30
0.0
 11
287.97188
 21
-45.678473
 31
0.0
1001
ACAD
1000
RTLwPs
1070
   158
  0
LINE
  5
56CD
  8
COTATION1
 62
     0
 10
323.971918
 20
-70.358473
 30
0.0
 11
323.971918
 21
-45.678473
 31
0.0
1001
ACAD
1000
RTLwPs
1070
   158
  0
LINE
  5
56CE
  8
COTATION1
 62
     0
 10
289.97188
 20
-45.858473
 30
0.0
 11
321.971918
 21
-45.858473
 31
0.0
1001
ACAD
1000
RTLwPs
1070
   158
  0
INSERT
  5
56CF
  8
COTATION1
 62
     0
  2
_OPEN30
 10
287.97188
 20
-45.858473
 30
0.0
 41
2.0
 42
2.0
 43
2.0
 50
180.0
1001
ACAD
1000
RTLwPs
1070
   158
  0
INSERT
  5
56D0
  8
COTATION1
 62
     0
  2
_OPEN30
 10
323.971918
 20
-45.858473
 30
0.0
 41
2.0
 42
2.0
 43
2.0
1001
ACAD
1000
RTLwPs
1070
   158
  0
TEXT
  5
56D1
  8
COTATION1
 62
     0
 10
304.067137
 20
-45.358473
 30
0.0
 40
2.0
  1
36
1001
ACAD
1000
MTEXTBEGIN
1070
    73
1070
     1
1070
    44
1040
1.0
1070
    74
1070
     0
1000
MTEXTEND
  0
POINT
  5
56D2
  8
DEFPOINTS
 62
     0
 10
287.97188
 20
-66.821201
 30
0.0
  0
POINT
  5
56D3
  8
DEFPOINTS
 62
     0
 10
323.971918
 20
-70.858473
 30
0.0
  0
POINT
  5
56D4
  8
DEFPOINTS
 62
     0
 10
323.971918
 20
-45.858473
 30
0.0
  0
ENDBLK
  5
53D1
  8
0
  0
BLOCK
  8
0
  2
*D6
 70
     1
 10
0.0
 20
0.0
 30
0.0
  3
*D6
  1

  0
LINE
  5
56DE
  8
COTATION1
 62
     0
 10
250.97194
 20
-84.160037
 30
0.0
 11
250.97194
 21
-25.678473
 31
0.0
1001
ACAD
1000
RTLwPs
1070
   158
  0
LINE
  5
56DF
  8
COTATION1
 62
     0
 10
323.971918
 20
-70.358473
 30
0.0
 11
323.971918
 21
-25.678473
 31
0.0
1001
ACAD
1000
RTLwPs
1070
   158
  0
LINE
  5
56E0
  8
COTATION1
 62
     0
 10
252.97194
 20
-25.858473
 30
0.0
 11
321.971918
 21
-25.858473
 31
0.0
1001
ACAD
1000
RTLwPs
1070
   158
  0
INSERT
  5
56E1
  8
COTATION1
 62
     0
  2
_OPEN30
 10
250.97194
 20
-25.858473
 30
0.0
 41
2.0
 42
2.0
 43
2.0
 50
180.0
1001
ACAD
1000
RTLwPs
1070
   158
  0
INSERT
  5
56E2
  8
COTATION1
 62
     0
  2
_OPEN30
 10
323.971918
 20
-25.858473
 30
0.0
 41
2.0
 42
2.0
 43
2.0
1001
ACAD
1000
RTLwPs
1070
   158
  0
TEXT
  5
56E3
  8
COTATION1
 62
     0
 10
285.567167
 20
-25.358473
 30
0.0
 40
2.0
  1
73
1001
ACAD
1000
MTEXTBEGIN
1070
    73
1070
     1
1070
    44
1040
1.0
1070
    74
1070
     0
1000
MTEXTEND
  0
POINT
  5
56E4
  8
DEFPOINTS
 62
     0
 10
250.97194
 20
-84.660037
 30
0.0
  0
POINT
  5
56E5
  8
DEFPOINTS
 62
     0
 10
323.971918
 20
-70.858473
 30
0.0
  0
POINT
  5
56E6
  8
DEFPOINTS
 62
     0
 10
323.971918
 20
-25.858473
 30
0.0
  0
ENDBLK
  5
53DE
  8
0
  0
BLOCK
  8
0
  2
*D7
 70
     1
 10
0.0
 20
0.0
 30
0.0
  3
*D7
  1

  0
LINE
  5
5729
  8
COTATION1
 62
     0
 10
255.744063
 20
-70.858473
 30
0.0
 11
225.79194
 21
-70.858473
 31
0.0
1001
ACAD
1000
RTLwPs
1070
   158
  0
LINE
  5
572A
  8
COTATION1
 62
     0
 10
244.97194
 20
-122.85851
 30
0.0
 11
225.79194
 21
-122.85851
 31
0.0
1001
ACAD
1000
RTLwPs
1070
   158
  0
LINE
  5
572B
  8
COTATION1
 62
     0
 10
225.97194
 20
-72.858473
 30
0.0
 11
225.97194
 21
-120.85851
 31
0.0
1001
ACAD
1000
RTLwPs
1070
   158
  0
INSERT
  5
572C
  8
COTATION1
 62
     0
  2
_OPEN30
 10
225.97194
 20
-70.858473
 30
0.0
 41
2.0
 42
2.0
 43
2.0
 50
90.0
1001
ACAD
1000
RTLwPs
1070
   158
  0
INSERT
  5
572D
  8
COTATION1
 62
     0
  2
_OPEN30
 10
225.97194
 20
-122.85851
 30
0.0
 41
2.0
 42
2.0
 43
2.0
 50
270.0
1001
ACAD
1000
RTLwPs
1070
   158
  0
TEXT
  5
572E
  8
COTATION1
 62
     0
 10
225.47194
 20
-98.763253
 30
0.0
 40
2.0
  1
52
 50
90.0
1001
ACAD
1000
MTEXTBEGIN
1070
    73
1070
     1
1070
    44
1040
1.0
1070
    74
1070
     0
1000
MTEXTEND
  0
POINT
  5
572F
  8
DEFPOINTS
 62
     0
 10
256.244063
 20
-70.858473
 30
0.0
  0
POINT
  5
5730
  8
DEFPOINTS
 62
     0
 10
245.47194
 20
-122.85851
 30
0.0
  0
POINT
  5
5731
  8
DEFPOINTS
 62
     0
 10
225.97194
 20
-122.85851
 30
0.0
  0
ENDBLK
  5
5418
  8
0
  0
BLOCK
  8
0
  2
*D8
 70
     1
 10
0.0
 20
0.0
 30
0.0
  3
*D8
  1

  0
LINE
  5
56F0
  8
COTATION1
 62
     0
 10
245.47194
 20
-122.85851
 30
0.0
 11
235.79194
 21
-122.85851
 31
0.0
1001
ACAD
1000
RTLwPs
1070
   158
  0
LINE
  5
56F1
  8
COTATION1
 62
     0
 10
310.9719
 20
-84.85851
 30
0.0
 11
235.79194
 21
-84.85851
 31
0.0
1001
ACAD
1000
RTLwPs
1070
   158
  0
LINE
  5
56F2
  8
COTATION1
 62
     0
 10
235.97194
 20
-120.85851
 30
0.0
 11
235.97194
 21
-86.85851
 31
0.0
1001
ACAD
1000
RTLwPs
1070
   158
  0
INSERT
  5
56F3
  8
COTATION1
 62
     0
  2
_OPEN30
 10
235.97194
 20
-122.85851
 30
0.0
 41
2.0
 42
2.0
 43
2.0
 50
270.0
1001
ACAD
1000
RTLwPs
1070
   158
  0
INSERT
  5
56F4
  8
COTATION1
 62
     0
  2
_OPEN30
 10
235.97194
 20
-84.85851
 30
0.0
 41
2.0
 42
2.0
 43
2.0
 50
90.0
1001
ACAD
1000
RTLwPs
1070
   158
  0
TEXT
  5
56F5
  8
COTATION1
 62
     0
 10
235.47194
 20
-105.763272
 30
0.0
 40
2.0
  1
38
 50
90.0
1001
ACAD
1000
MTEXTBEGIN
1070
    73
1070
     1
1070
    44
1040
1.0
1070
    74
1070
     0
1000
MTEXTEND
  0
POINT
  5
56F6
  8
DEFPOINTS
 62
     0
 10
245.97194
 20
-122.85851
 30
0.0
  0
POINT
  5
56F7
  8
DEFPOINTS
 62
     0
 10
311.4719
 20
-84.85851
 30
0.0
  0
POINT
  5
56F8
  8
DEFPOINTS
 62
     0
 10
235.97194
 20
-84.85851
 30
0.0
  0
ENDBLK
  5
546F
  8
0
  0
BLOCK
  8
0
  2
*D9
 70
     1
 10
0.0
 20
0.0
 30
0.0
  3
*D9
  1

  0
LINE
  5
56D5
  8
COTATION1
 62
     0
 10
287.97188
 20
-66.321201
 30
0.0
 11
287.97188
 21
-55.678473
 31
0.0
1001
ACAD
1000
RTLwPs
1070
   158
  0
LINE
  5
56D6
  8
COTATION1
 62
     0
 10
311.4719
 20
-84.35851
 30
0.0
 11
311.4719
 21
-55.678473
 31
0.0
1001
ACAD
1000
RTLwPs
1070
   158
  0
LINE
  5
56D7
  8
COTATION1
 62
     0
 10
289.97188
 20
-55.858473
 30
0.0
 11
309.4719
 21
-55.858473
 31
0.0
1001
ACAD
1000
RTLwPs
1070
   158
  0
INSERT
  5
56D8
  8
COTATION1
 62
     0
  2
_OPEN30
 10
287.97188
 20
-55.858473
 30
0.0
 41
2.0
 42
2.0
 43
2.0
 50
180.0
1001
ACAD
1000
RTLwPs
1070
   158
  0
INSERT
  5
56D9
  8
COTATION1
 62
     0
  2
_OPEN30
 10
311.4719
 20
-55.858473
 30
0.0
 41
2.0
 42
2.0
 43
2.0
1001
ACAD
1000
RTLwPs
1070
   158
  0
TEXT
  5
56DA
  8
COTATION1
 62
     0
 10
296.388557
 20
-55.358473
 30
0.0
 40
2.0
  1
23.5
1001
ACAD
1000
MTEXTBEGIN
1070
    73
1070
     1
1070
    44
1040
1.0
1070
    74
1070
     0
1000
MTEXTEND
  0
POINT
  5
56DB
  8
DEFPOINTS
 62
     0
 10
287.97188
 20
-66.821201
 30
0.0
  0
POINT
  5
56DC
  8
DEFPOINTS
 62
     0
 10
311.4719
 20
-84.85851
 30
0.0
  0
POINT
  5
56DD
  8
DEFPOINTS
 62
     0
 10
311.4719
 20
-55.858473
 30
0.0
  0
ENDBLK
  5
5494
  8
0
  0
BLOCK
  8
0
  2
*D10
 70
     1
 10
0.0
 20
0.0
 30
0.0
  3
*D10
  1

  0
LINE
  5
56C3
  8
COTATION1
 62
     0
 10
311.482571
 20
-84.362665
 30
0.0
 11
311.482571
 21
-35.678473
 31
0.0
1001
ACAD
1000
RTLwPs
1070
   158
  0
LINE
  5
56C4
  8
COTATION1
 62
     0
 10
261.4826
 20
-157.35851
 30
0.0
 11
261.4826
 21
-35.678473
 31
0.0
1001
ACAD
1000
RTLwPs
1070
   158
  0
LINE
  5
56C5
  8
COTATION1
 62
     0
 10
309.482571
 20
-35.858473
 30
0.0
 11
263.4826
 21
-35.858473
 31
0.0
1001
ACAD
1000
RTLwPs
1070
   158
  0
INSERT
  5
56C6
  8
COTATION1
 62
     0
  2
_OPEN30
 10
311.482571
 20
-35.858473
 30
0.0
 41
2.0
 42
2.0
 43
2.0
1001
ACAD
1000
RTLwPs
1070
   158
  0
INSERT
  5
56C7
  8
COTATION1
 62
     0
  2
_OPEN30
 10
261.4826
 20
-35.858473
 30
0.0
 41
2.0
 42
2.0
 43
2.0
 50
180.0
1001
ACAD
1000
RTLwPs
1070
   158
  0
TEXT
  5
56C8
  8
COTATION1
 62
     0
 10
284.577824
 20
-35.358473
 30
0.0
 40
2.0
  1
50
1001
ACAD
1000
MTEXTBEGIN
1070
    73
1070
     1
1070
    44
1040
1.0
1070
    74
1070
     0
1000
MTEXTEND
  0
POINT
  5
56C9
  8
DEFPOINTS
 62
     0
 10
311.482571
 20
-84.862665
 30
0.0
  0
POINT
  5
56CA
  8
DEFPOINTS
 62
     0
 10
261.4826
 20
-157.85851
 30
0.0
  0
POINT
  5
56CB
  8
DEFPOINTS
 62
     0
 10
261.4826
 20
-35.858473
 30
0.0
  0
ENDBLK
  5
5507
  8
0
  0
BLOCK
  8
0
  2
*D11
 70
     1
 10
0.0
 20
0.0
 30
0.0
  3
*D11
  1

  0
LINE
  5
570E
  8
COTATION1
 62
     0
 10
310.982571
 20
-84.862665
 30
0.0
 11
215.79194
 21
-84.862665
 31
0.0
1001
ACAD
1000
RTLwPs
1070
   158
  0
LINE
  5
570F
  8
COTATION1
 62
     0
 10
260.993271
 20
-157.862665
 30
0.0
 11
215.79194
 21
-157.862665
 31
0.0
1001
ACAD
1000
RTLwPs
1070
   158
  0
LINE
  5
5710
  8
COTATION1
 62
     0
 10
215.97194
 20
-86.862665
 30
0.0
 11
215.97194
 21
-155.862665
 31
0.0
1001
ACAD
1000
RTLwPs
1070
   158
  0
INSERT
  5
5711
  8
COTATION1
 62
     0
  2
_OPEN30
 10
215.97194
 20
-84.862665
 30
0.0
 41
2.0
 42
2.0
 43
2.0
 50
90.0
1001
ACAD
1000
RTLwPs
1070
   158
  0
INSERT
  5
5712
  8
COTATION1
 62
     0
  2
_OPEN30
 10
215.97194
 20
-157.862665
 30
0.0
 41
2.0
 42
2.0
 43
2.0
 50
270.0
1001
ACAD
1000
RTLwPs
1070
   158
  0
TEXT
  5
5713
  8
COTATION1
 62
     0
 10
215.47194
 20
-123.267427
 30
0.0
 40
2.0
  1
73
 50
90.0
1001
ACAD
1000
MTEXTBEGIN
1070
    73
1070
     1
1070
    44
1040
1.0
1070
    74
1070
     0
1000
MTEXTEND
  0
POINT
  5
5714
  8
DEFPOINTS
 62
     0
 10
311.482571
 20
-84.862665
 30
0.0
  0
POINT
  5
5715
  8
DEFPOINTS
 62
     0
 10
261.493271
 20
-157.862665
 30
0.0
  0
POINT
  5
5716
  8
DEFPOINTS
 62
     0
 10
215.97194
 20
-157.862665
 30
0.0
  0
ENDBLK
  5
551D
  8
0
  0
ENDSEC
  0
SECTION
  2
ENTITIES
  0
INSERT
  5
32
  8
0
  2
COTE
 10
0.0
 20
0.0
 30
0.0
  0
INSERT
  5
36
  8
0
  2
FOND
 10
0.0
 20
0.0
 30
0.0
  0
INSERT
  5
24AE
  8
ALPHA
  2
SCH_ISO
 10
-66.27012
 20
-238.940658
 30
0.0
  0
POLYLINE
  5
50EB
  8
ALPHA
 66
     1
 10
0.0
 20
0.0
 30
0.0
 70
   128
  0
VERTEX
  5
58BA
  8
ALPHA
 10
250.97194
 20
-169.858473
 30
0.0
  0
VERTEX
  5
58BB
  8
ALPHA
 10
250.97194
 20
-169.706661
 30
0.0
  0
VERTEX
  5
58BC
  8
ALPHA
 10
250.97194
 20
-169.260861
 30
0.0
  0
VERTEX
  5
58BD
  8
ALPHA
 10
250.97194
 20
-168.535534
 30
0.0
  0
VERTEX
  5
58BE
  8
ALPHA
 10
250.97194
 20
-167.545137
 30
0.0
  0
VERTEX
  5
58BF
  8
ALPHA
 10
250.97194
 20
-164.826966
 30
0.0
  0
VERTEX
  5
58C0
  8
ALPHA
 10
250.97194
 20
-161.222017
 30
0.0
  0
VERTEX
  5
58C1
  8
ALPHA
 10
250.97194
 20
-156.845955
 30
0.0
  0
VERTEX
  5
58C2
  8
ALPHA
 10
250.97194
 20
-151.814448
 30
0.0
  0
VERTEX
  5
58C3
  8
ALPHA
 10
250.97194
 20
-146.243162
 30
0.0
  0
VERTEX
  5
58C4
  8
ALPHA
 10
250.97194
 20
-140.247765
 30
0.0
  0
VERTEX
  5
58C5
  8
ALPHA
 10
250.97194
 20
-127.447302
 30
0.0
  0
VERTEX
  5
58C6
  8
ALPHA
 10
250.97194
 20
-114.338395
 30
0.0
  0
VERTEX
  5
58C7
  8
ALPHA
 10
250.97194
 20
-107.957442
 30
0.0
  0
VERTEX
  5
58C8
  8
ALPHA
 10
250.97194
 20
-101.846377
 30
0.0
  0
VERTEX
  5
58C9
  8
ALPHA
 10
250.97194
 20
-96.120869
 30
0.0
  0
VERTEX
  5
58CA
  8
ALPHA
 10
250.97194
 20
-90.896584
 30
0.0
  0
VERTEX
  5
58CB
  8
ALPHA
 10
250.97194
 20
-86.289189
 30
0.0
  0
VERTEX
  5
58CC
  8
ALPHA
 10
250.97194
 20
-82.41435
 30
0.0
  0
VERTEX
  5
58CD
  8
ALPHA
 10
250.97194
 20
-79.387735
 30
0.0
  0
VERTEX
  5
58CE
  8
ALPHA
 10
250.97194
 20
-78.228657
 30
0.0
  0
VERTEX
  5
58CF
  8
ALPHA
 10
250.97194
 20
-77.325009
 30
0.0
  0
VERTEX
  5
58D0
  8
ALPHA
 10
250.97194
 20
-76.691252
 30
0.0
  0
VERTEX
  5
58D1
  8
ALPHA
 10
250.97194
 20
-76.341841
 30
0.0
  0
VERTEX
  5
58D2
  8
ALPHA
 10
250.97574
 20
-75.945053
 30
0.0
  0
VERTEX
  5
58D3
  8
ALPHA
 10
251.034838
 20
-75.018527
 30
0.0
  0
VERTEX
  5
58D4
  8
ALPHA
 10
251.391142
 20
-73.439432
 30
0.0
  0
VERTEX
  5
58D5
  8
ALPHA
 10
252.111882
 20
-72.230359
 30
0.0
  0
VERTEX
  5
58D6
  8
ALPHA
 10
253.253405
 20
-71.397003
 30
0.0
  0
VERTEX
  5
58D7
  8
ALPHA
 10
254.872061
 20
-70.94506
 30
0.0
  0
VERTEX
  5
58D8
  8
ALPHA
 10
255.877921
 20
-70.863898
 30
0.0
  0
VERTEX
  5
58D9
  8
ALPHA
 10
256.437368
 20
-70.858473
 30
0.0
  0
VERTEX
  5
58DA
  8
ALPHA
 10
257.444117
 20
-70.858473
 30
0.0
  0
VERTEX
  5
58DB
  8
ALPHA
 10
259.045253
 20
-70.858473
 30
0.0
  0
VERTEX
  5
58DC
  8
ALPHA
 10
261.181807
 20
-70.858473
 30
0.0
  0
VERTEX
  5
58DD
  8
ALPHA
 10
263.794811
 20
-70.858473
 30
0.0
  0
VERTEX
  5
58DE
  8
ALPHA
 10
266.825296
 20
-70.858473
 30
0.0
  0
VERTEX
  5
58DF
  8
ALPHA
 10
270.214292
 20
-70.858473
 30
0.0
  0
VERTEX
  5
58E0
  8
ALPHA
 10
273.902832
 20
-70.858473
 30
0.0
  0
VERTEX
  5
58E1
  8
ALPHA
 10
281.942667
 20
-70.858473
 30
0.0
  0
VERTEX
  5
58E2
  8
ALPHA
 10
299.022229
 20
-70.858473
 30
0.0
  0
VERTEX
  5
58E3
  8
ALPHA
 10
307.118456
 20
-70.858473
 30
0.0
  0
VERTEX
  5
58E4
  8
ALPHA
 10
310.84929
 20
-70.858473
 30
0.0
  0
VERTEX
  5
58E5
  8
ALPHA
 10
314.28998
 20
-70.858473
 30
0.0
  0
VERTEX
  5
58E6
  8
ALPHA
 10
317.381556
 20
-70.858473
 30
0.0
  0
VERTEX
  5
58E7
  8
ALPHA
 10
320.065051
 20
-70.858473
 30
0.0
  0
VERTEX
  5
58E8
  8
ALPHA
 10
322.281494
 20
-70.858473
 30
0.0
  0
VERTEX
  5
58E9
  8
ALPHA
 10
323.971918
 20
-70.858473
 30
0.0
  0
SEQEND
  5
58EA
  8
ALPHA
  0
POLYLINE
  5
50EC
  8
ALPHA
 66
     1
 10
0.0
 20
0.0
 30
0.0
 70
   128
  0
VERTEX
  5
58EB
  8
ALPHA
 10
289.999514
 20
-169.858473
 30
0.0
  0
VERTEX
  5
58EC
  8
ALPHA
 10
289.561216
 20
-169.858473
 30
0.0
  0
VERTEX
  5
58ED
  8
ALPHA
 10
288.322548
 20
-169.858473
 30
0.0
  0
VERTEX
  5
58EE
  8
ALPHA
 10
286.397848
 20
-169.858473
 30
0.0
  0
VERTEX
  5
58EF
  8
ALPHA
 10
283.901455
 20
-169.858473
 30
0.0
  0
VERTEX
  5
58F0
  8
ALPHA
 10
280.947708
 20
-169.858473
 30
0.0
  0
VERTEX
  5
58F1
  8
ALPHA
 10
277.650946
 20
-169.858473
 30
0.0
  0
VERTEX
  5
58F2
  8
ALPHA
 10
270.485727
 20
-169.858473
 30
0.0
  0
VERTEX
  5
58F3
  8
ALPHA
 10
263.320508
 20
-169.858473
 30
0.0
  0
VERTEX
  5
58F4
  8
ALPHA
 10
260.023745
 20
-169.858473
 30
0.0
  0
VERTEX
  5
58F5
  8
ALPHA
 10
257.069998
 20
-169.858473
 30
0.0
  0
VERTEX
  5
58F6
  8
ALPHA
 10
254.573605
 20
-169.858473
 30
0.0
  0
VERTEX
  5
58F7
  8
ALPHA
 10
252.648906
 20
-169.858473
 30
0.0
  0
VERTEX
  5
58F8
  8
ALPHA
 10
251.410238
 20
-169.858473
 30
0.0
  0
VERTEX
  5
58F9
  8
ALPHA
 10
250.97194
 20
-169.858473
 30
0.0
  0
SEQEND
  5
58FA
  8
ALPHA
  0
LINE
  5
50ED
  8
ALPHA
 10
323.971918
 20
-147.878815
 30
0.0
 11
250.97194
 21
-147.878815
 31
0.0
  0
LINE
  5
50EE
  8
ALPHA
 10
323.971918
 20
-151.458878
 30
0.0
 11
250.97194
 21
-151.458878
 31
0.0
  0
LINE
  5
50EF
  8
ALPHA
 10
323.971918
 20
-91.91982
 30
0.0
 11
250.97194
 21
-91.91982
 31
0.0
  0
LINE
  5
50F0
  8
ALPHA
 10
323.971918
 20
-95.499883
 30
0.0
 11
250.97194
 21
-95.499883
 31
0.0
  0
LINE
  5
50F7
  8
ALPHA
 10
288.545298
 20
-163.793747
 30
0.0
 11
252.426156
 21
-163.793747
 31
0.0
  0
POLYLINE
  5
5139
  8
ALPHA
 66
     1
 10
0.0
 20
0.0
 30
0.0
 70
   128
  0
VERTEX
  5
58FB
  8
ALPHA
 10
323.971918
 20
-70.858473
 30
0.0
  0
VERTEX
  5
58FC
  8
ALPHA
 10
323.971918
 20
-71.001719
 30
0.0
  0
VERTEX
  5
58FD
  8
ALPHA
 10
323.971918
 20
-71.422362
 30
0.0
  0
VERTEX
  5
58FE
  8
ALPHA
 10
323.971918
 20
-72.106759
 30
0.0
  0
VERTEX
  5
58FF
  8
ALPHA
 10
323.971918
 20
-73.041269
 30
0.0
  0
VERTEX
  5
5900
  8
ALPHA
 10
323.971918
 20
-75.606053
 30
0.0
  0
VERTEX
  5
5901
  8
ALPHA
 10
323.971918
 20
-79.007576
 30
0.0
  0
VERTEX
  5
5902
  8
ALPHA
 10
323.971918
 20
-83.136697
 30
0.0
  0
VERTEX
  5
5903
  8
ALPHA
 10
323.971918
 20
-87.884276
 30
0.0
  0
VERTEX
  5
5904
  8
ALPHA
 10
323.971918
 20
-93.141175
 30
0.0
  0
VERTEX
  5
5905
  8
ALPHA
 10
323.971918
 20
-98.798253
 30
0.0
  0
VERTEX
  5
5906
  8
ALPHA
 10
323.971918
 20
-110.876387
 30
0.0
  0
VERTEX
  5
5907
  8
ALPHA
 10
323.971918
 20
-123.24556
 30
0.0
  0
VERTEX
  5
5908
  8
ALPHA
 10
323.971918
 20
-129.266437
 30
0.0
  0
VERTEX
  5
5909
  8
ALPHA
 10
323.971918
 20
-135.032655
 30
0.0
  0
VERTEX
  5
590A
  8
ALPHA
 10
323.971918
 20
-140.435073
 30
0.0
  0
VERTEX
  5
590B
  8
ALPHA
 10
323.971918
 20
-145.364552
 30
0.0
  0
VERTEX
  5
590C
  8
ALPHA
 10
323.971918
 20
-149.711953
 30
0.0
  0
VERTEX
  5
590D
  8
ALPHA
 10
323.971918
 20
-153.368135
 30
0.0
  0
VERTEX
  5
590E
  8
ALPHA
 10
323.971918
 20
-156.223959
 30
0.0
  0
VERTEX
  5
590F
  8
ALPHA
 10
323.971918
 20
-158.170285
 30
0.0
  0
VERTEX
  5
5910
  8
ALPHA
 10
323.971918
 20
-158.76828
 30
0.0
  0
VERTEX
  5
5911
  8
ALPHA
 10
323.971918
 20
-159.097973
 30
0.0
  0
VERTEX
  5
5912
  8
ALPHA
 10
323.964507
 20
-159.476223
 30
0.0
  0
VERTEX
  5
5913
  8
ALPHA
 10
323.858365
 20
-160.343115
 30
0.0
  0
VERTEX
  5
5914
  8
ALPHA
 10
323.324825
 20
-161.752008
 30
0.0
  0
VERTEX
  5
5915
  8
ALPHA
 10
322.475651
 20
-162.760628
 30
0.0
  0
VERTEX
  5
5916
  8
ALPHA
 10
321.446087
 20
-163.40847
 30
0.0
  0
VERTEX
  5
5917
  8
ALPHA
 10
320.37138
 20
-163.735029
 30
0.0
  0
VERTEX
  5
5918
  8
ALPHA
 10
319.859362
 20
-163.790169
 30
0.0
  0
VERTEX
  5
5919
  8
ALPHA
 10
319.597405
 20
-163.793747
 30
0.0
  0
VERTEX
  5
591A
  8
ALPHA
 10
319.081246
 20
-163.793747
 30
0.0
  0
VERTEX
  5
591B
  8
ALPHA
 10
318.263381
 20
-163.793747
 30
0.0
  0
VERTEX
  5
591C
  8
ALPHA
 10
317.177344
 20
-163.793747
 30
0.0
  0
VERTEX
  5
591D
  8
ALPHA
 10
314.334887
 20
-163.793747
 30
0.0
  0
VERTEX
  5
591E
  8
ALPHA
 10
310.822145
 20
-163.793747
 30
0.0
  0
VERTEX
  5
591F
  8
ALPHA
 10
306.907386
 20
-163.793747
 30
0.0
  0
VERTEX
  5
5920
  8
ALPHA
 10
298.94489
 20
-163.793747
 30
0.0
  0
VERTEX
  5
5921
  8
ALPHA
 10
295.433691
 20
-163.793747
 30
0.0
  0
VERTEX
  5
5922
  8
ALPHA
 10
292.59355
 20
-163.793747
 30
0.0
  0
VERTEX
  5
5923
  8
ALPHA
 10
291.508959
 20
-163.793747
 30
0.0
  0
VERTEX
  5
5924
  8
ALPHA
 10
290.692734
 20
-163.793747
 30
0.0
  0
VERTEX
  5
5925
  8
ALPHA
 10
290.178408
 20
-163.793747
 30
0.0
  0
VERTEX
  5
5926
  8
ALPHA
 10
289.999514
 20
-163.793747
 30
0.0
  0
SEQEND
  5
5927
  8
ALPHA
  0
LINE
  5
513D
  8
ALPHA
 10
289.495496
 20
-121.352947
 30
0.0
 11
289.495496
 21
-112.236948
 31
0.0
  0
LINE
  5
513E
  8
ALPHA
 10
285.388988
 20
-112.552107
 30
0.0
 11
285.388988
 21
-133.380921
 31
0.0
  0
LINE
  5
513F
  8
ALPHA
 10
290.891874
 20
-112.552107
 30
0.0
 11
290.891874
 21
-133.02799
 31
0.0
  0
CIRCLE
  5
5140
  8
ALPHA
 10
287.9799
 20
-122.85851
 30
0.0
 40
10.724254
  0
LINE
  5
5141
  8
ALPHA
 10
290.891874
 20
-121.352947
 30
0.0
 11
285.508205
 21
-121.352947
 31
0.0
  0
LINE
  5
5142
  8
ALPHA
 10
290.891874
 20
-124.362892
 30
0.0
 11
285.508205
 21
-124.362892
 31
0.0
  0
LINE
  5
5143
  8
ALPHA
 10
290.891874
 20
-123.158914
 30
0.0
 11
285.508205
 21
-123.158914
 31
0.0
  0
LINE
  5
5144
  8
ALPHA
 10
290.891874
 20
-122.558105
 30
0.0
 11
285.508205
 21
-122.558105
 31
0.0
  0
LINE
  5
5145
  8
ALPHA
 10
286.165671
 20
-133.478891
 30
0.0
 11
286.165671
 21
-124.362892
 31
0.0
  0
POLYLINE
  5
5146
  8
ALPHA
 66
     1
 10
0.0
 20
0.0
 30
0.0
 70
   128
  0
VERTEX
  5
5928
  8
ALPHA
 10
289.999514
 20
-163.793747
 30
0.0
  0
VERTEX
  5
5929
  8
ALPHA
 10
289.999514
 20
-164.054341
 30
0.0
  0
VERTEX
  5
592A
  8
ALPHA
 10
289.999514
 20
-164.741361
 30
0.0
  0
VERTEX
  5
592B
  8
ALPHA
 10
289.999514
 20
-166.82611
 30
0.0
  0
VERTEX
  5
592C
  8
ALPHA
 10
289.999514
 20
-168.91086
 30
0.0
  0
VERTEX
  5
592D
  8
ALPHA
 10
289.999514
 20
-169.59788
 30
0.0
  0
VERTEX
  5
592E
  8
ALPHA
 10
289.999514
 20
-169.858473
 30
0.0
  0
SEQEND
  5
592F
  8
ALPHA
  0
CIRCLE
  5
5154
  8
ALPHA
 10
311.4719
 20
-84.85851
 30
0.0
 40
1.85
  0
DIMENSION
  5
531E
  8
COTATION1
  2
*D4
 10
205.97194
 20
-169.858473
 30
0.0
 11
204.47194
 21
-120.358473
 31
0.0
 13
255.744063
 23
-70.858473
 33
0.0
 14
250.97194
 24
-169.858473
 34
0.0
 50
90.0
  0
LINE
  5
53BC
  8
COTATION1
 10
309.4719
 20
-84.85851
 30
0.0
 11
313.4719
 21
-84.85851
 31
0.0
  0
LINE
  5
53BD
  8
COTATION1
 10
311.4719
 20
-86.85851
 30
0.0
 11
311.4719
 21
-82.85851
 31
0.0
  0
LINE
  5
53BE
  8
AXE
 10
245.97194
 20
-122.85851
 30
0.0
 11
338.971918
 21
-122.85851
 31
0.0
  0
TEXT
  5
53BF
  8
AXE
 10
332.495727
 20
-120.918632
 30
0.0
 40
8.0
  1
Z
 72
     2
 11
338.971918
 21
-120.918632
 31
0.0
  0
TEXT
  5
53C0
  8
AXE
 10
280.242839
 20
-184.409914
 30
0.0
 40
8.0
  1
Y
 72
     2
 11
286.719029
 21
-184.409914
 31
0.0
  0
LINE
  5
53C1
  8
AXE
 10
287.984185
 20
-184.705055
 30
0.0
 11
287.97188
 21
-65.858473
 31
0.0
  0
ARC
  5
53C2
  8
ALPHA
 10
311.482571
 20
-84.862665
 30
0.0
 40
2.498774
 50
254.738998
 51
179.904729
  0
DIMENSION
  5
53C5
  8
COTATION1
  2
*D5
 10
323.971918
 20
-45.858473
 30
0.0
 11
305.971899
 21
-45.858473
 31
0.0
 70
   128
 13
287.97188
 23
-66.821201
 33
0.0
 14
323.971918
 24
-70.858473
 34
0.0
  0
DIMENSION
  5
53D2
  8
COTATION1
  2
*D6
 10
323.971918
 20
-25.858473
 30
0.0
 11
287.471929
 21
-25.858473
 31
0.0
 70
   128
 13
250.97194
 23
-84.660037
 33
0.0
 14
323.971918
 24
-70.858473
 34
0.0
  0
DIMENSION
  5
540C
  8
COTATION1
  2
*D7
 10
225.97194
 20
-122.85851
 30
0.0
 11
225.97194
 21
-96.858491
 31
0.0
 70
   128
 13
256.244063
 23
-70.858473
 33
0.0
 14
245.47194
 24
-122.85851
 34
0.0
 50
90.0
  0
LINE
  5
5461
  8
COTATION1
 10
309.4719
 20
-84.85851
 30
0.0
 11
313.4719
 21
-84.85851
 31
0.0
  0
LINE
  5
5462
  8
COTATION1
 10
311.4719
 20
-86.85851
 30
0.0
 11
311.4719
 21
-82.85851
 31
0.0
  0
DIMENSION
  5
5463
  8
COTATION1
  2
*D8
 10
235.97194
 20
-84.85851
 30
0.0
 11
234.47194
 21
-103.85851
 31
0.0
 13
245.97194
 23
-122.85851
 33
0.0
 14
311.4719
 24
-84.85851
 34
0.0
 50
90.0
  0
CIRCLE
  5
5479
  8
ALPHA
 10
261.4826
 20
-157.85851
 30
0.0
 40
1.85
  0
ARC
  5
547A
  8
ALPHA
 10
261.493271
 20
-157.862665
 30
0.0
 40
2.498774
 50
254.738998
 51
179.904729
  0
LINE
  5
547B
  8
COTATION1
 10
261.4826
 20
-159.85851
 30
0.0
 11
261.4826
 21
-155.85851
 31
0.0
  0
LINE
  5
547C
  8
COTATION1
 10
259.4826
 20
-157.85851
 30
0.0
 11
263.4826
 21
-157.85851
 31
0.0
  0
LINE
  5
547D
  8
COTATION1
 10
261.4826
 20
-159.85851
 30
0.0
 11
261.4826
 21
-155.85851
 31
0.0
  0
LINE
  5
547E
  8
COTATION1
 10
259.4826
 20
-157.85851
 30
0.0
 11
263.4826
 21
-157.85851
 31
0.0
  0
DIMENSION
  5
5488
  8
COTATION1
  2
*D9
 10
311.4719
 20
-55.858473
 30
0.0
 11
299.72189
 21
-54.358473
 31
0.0
 13
287.97188
 23
-66.821201
 33
0.0
 14
311.4719
 24
-84.85851
 34
0.0
  0
LINE
  5
54CB
  8
COTATION1
 10
285.9799
 20
-122.85851
 30
0.0
 11
289.9799
 21
-122.85851
 31
0.0
  0
LINE
  5
54CC
  8
COTATION1
 10
287.9799
 20
-124.85851
 30
0.0
 11
287.9799
 21
-120.85851
 31
0.0
  0
DIMENSION
  5
54FB
  8
COTATION1
  2
*D10
 10
261.4826
 20
-35.858473
 30
0.0
 11
286.482586
 21
-34.358473
 31
0.0
 13
311.482571
 23
-84.862665
 33
0.0
 14
261.4826
 24
-157.85851
 34
0.0
  0
DIMENSION
  5
5511
  8
COTATION1
  2
*D11
 10
215.97194
 20
-157.862665
 30
0.0
 11
215.97194
 21
-121.362665
 31
0.0
 70
   128
 13
311.482571
 23
-84.862665
 33
0.0
 14
261.493271
 24
-157.862665
 34
0.0
 50
90.0
  0
ENDSEC
  0
EOF
