  0
SECTION
  2
HEADER
  9
$ACADVER
  1
AC1009
  9
$INSBASE
 10
-146.27124
 20
-153.796096
 30
0.0
  9
$EXTMIN
 10
799.022005
 20
-17.168091
 30
0.0
  9
$EXTMAX
 10
882.29929
 20
58.260375
 30
0.0
  9
$LIMMIN
 10
-407.970438
 20
-367.832444
  9
$LIMMAX
 10
429.804077
 20
234.370848
  9
$ORTHOMODE
 70
     1
  9
$REGENMODE
 70
     1
  9
$FILLMODE
 70
     1
  9
$QTEXTMODE
 70
     0
  9
$MIRRTEXT
 70
     1
  9
$DRAGMODE
 70
     2
  9
$LTSCALE
 40
10.0
  9
$OSMODE
 70
    37
  9
$ATTMODE
 70
     1
  9
$TEXTSIZE
 40
6.0
  9
$TRACEWID
 40
1.0
  9
$TEXTSTYLE
  7
ROMANS
  9
$CLAYER
  8
COTATION1
  9
$CELTYPE
  6
BYLAYER
  9
$CECOLOR
 62
   256
  9
$DIMSCALE
 40
1.0
  9
$DIMASZ
 40
2.0
  9
$DIMEXO
 40
0.5
  9
$DIMDLI
 40
0.38
  9
$DIMRND
 40
0.0
  9
$DIMDLE
 40
0.0
  9
$DIMEXE
 40
0.18
  9
$DIMTP
 40
0.0
  9
$DIMTM
 40
0.0
  9
$DIMTXT
 40
2.0
  9
$DIMCEN
 40
0.09
  9
$DIMTSZ
 40
0.0
  9
$DIMTOL
 70
     0
  9
$DIMLIM
 70
     0
  9
$DIMTIH
 70
     0
  9
$DIMTOH
 70
     0
  9
$DIMSE1
 70
     0
  9
$DIMSE2
 70
     0
  9
$DIMTAD
 70
     1
  9
$DIMZIN
 70
    12
  9
$DIMBLK
  1
OPEN30
  9
$DIMASO
 70
     1
  9
$DIMSHO
 70
     1
  9
$DIMPOST
  1

  9
$DIMAPOST
  1

  9
$DIMALT
 70
     0
  9
$DIMALTD
 70
     2
  9
$DIMALTF
 40
25.4
  9
$DIMLFAC
 40
1.0
  9
$DIMTOFL
 70
     0
  9
$DIMTVP
 40
0.0
  9
$DIMTIX
 70
     0
  9
$DIMSOXD
 70
     0
  9
$DIMSAH
 70
     0
  9
$DIMBLK1
  1

  9
$DIMBLK2
  1

  9
$DIMSTYLE
  2
ROMANS
  9
$DIMCLRD
 70
     0
  9
$DIMCLRE
 70
     0
  9
$DIMCLRT
 70
     0
  9
$DIMTFAC
 40
1.0
  9
$DIMGAP
 40
0.5
  9
$LUNITS
 70
     2
  9
$LUPREC
 70
     1
  9
$SKETCHINC
 40
0.1
  9
$FILLETRAD
 40
0.0
  9
$AUNITS
 70
     0
  9
$AUPREC
 70
     0
  9
$MENU
  1
acad
  9
$ELEVATION
 40
0.0
  9
$PELEVATION
 40
0.0
  9
$THICKNESS
 40
0.0
  9
$LIMCHECK
 70
     0
  9
$BLIPMODE
 70
     0
  9
$CHAMFERA
 40
0.0
  9
$CHAMFERB
 40
0.0
  9
$SKPOLY
 70
     0
  9
$TDCREATE
 40
2450365.355314
  9
$TDUPDATE
 40
2452598.719114
  9
$TDINDWG
 40
0.594451
  9
$TDUSRTIMER
 40
0.594451
  9
$USRTIMER
 70
     1
  9
$ANGBASE
 50
0.0
  9
$ANGDIR
 70
     0
  9
$PDMODE
 70
    32
  9
$PDSIZE
 40
0.0
  9
$PLINEWID
 40
0.0
  9
$COORDS
 70
     2
  9
$SPLFRAME
 70
     0
  9
$SPLINETYPE
 70
     6
  9
$SPLINESEGS
 70
     8
  9
$ATTDIA
 70
     0
  9
$ATTREQ
 70
     1
  9
$HANDLING
 70
     1
  9
$HANDSEED
  5
470D
  9
$SURFTAB1
 70
     6
  9
$SURFTAB2
 70
     6
  9
$SURFTYPE
 70
     6
  9
$SURFU
 70
     6
  9
$SURFV
 70
     6
  9
$UCSNAME
  2

  9
$UCSORG
 10
0.0
 20
0.0
 30
0.0
  9
$UCSXDIR
 10
1.0
 20
0.0
 30
0.0
  9
$UCSYDIR
 10
0.0
 20
1.0
 30
0.0
  9
$PUCSNAME
  2

  9
$PUCSORG
 10
0.0
 20
0.0
 30
0.0
  9
$PUCSXDIR
 10
1.0
 20
0.0
 30
0.0
  9
$PUCSYDIR
 10
0.0
 20
1.0
 30
0.0
  9
$USERI1
 70
     0
  9
$USERI2
 70
     0
  9
$USERI3
 70
     0
  9
$USERI4
 70
     0
  9
$USERI5
 70
     0
  9
$USERR1
 40
0.0
  9
$USERR2
 40
0.0
  9
$USERR3
 40
0.0
  9
$USERR4
 40
0.0
  9
$USERR5
 40
0.0
  9
$WORLDVIEW
 70
     1
  9
$SHADEDGE
 70
     3
  9
$SHADEDIF
 70
    70
  9
$TILEMODE
 70
     1
  9
$MAXACTVP
 70
    16
  9
$PLIMCHECK
 70
     0
  9
$PEXTMIN
 10
1.000000E+020
 20
1.000000E+020
 30
1.000000E+020
  9
$PEXTMAX
 10
-1.000000E+020
 20
-1.000000E+020
 30
-1.000000E+020
  9
$PLIMMIN
 10
0.0
 20
0.0
  9
$PLIMMAX
 10
12.0
 20
9.0
  9
$UNITMODE
 70
     0
  9
$VISRETAIN
 70
     0
  9
$PLINEGEN
 70
     0
  9
$PSLTSCALE
 70
     0
  0
ENDSEC
  0
SECTION
  2
TABLES
  0
TABLE
  2
VPORT
 70
     2
  0
VPORT
  2
*ACTIVE
 70
     0
 10
0.0
 20
0.0
 11
1.0
 21
1.0
 12
840.674959
 22
20.540715
 13
0.0
 23
0.0
 14
1.0
 24
1.0
 15
10.0
 25
10.0
 16
0.0
 26
0.0
 36
1.0
 17
0.0
 27
0.0
 37
0.0
 40
76.169893
 41
1.63142
 42
50.0
 43
0.0
 44
0.0
 50
0.0
 51
0.0
 71
     0
 72
   100
 73
     1
 74
     0
 75
     0
 76
     0
 77
     0
 78
     0
  0
ENDTAB
  0
TABLE
  2
LTYPE
 70
    26
  0
LTYPE
  2
CONTINUOUS
 70
     0
  3
Solid line
 72
    65
 73
     0
 40
0.0
  0
LTYPE
  2
AXES2
 70
     0
  3
___ _ ___ _ ___ _ ___ _ ___ _ ___ _ ___ _ ___ _
 72
    65
 73
     4
 40
1.125
 49
0.75
 49
-0.125
 49
0.125
 49
-0.125
  0
LTYPE
  2
ACAD_ISO04W100
 70
     0
  3
ISO Lang gestrichelt punktiert ____ . ____ . __
 72
    65
 73
     4
 40
30.5
 49
24.0
 49
-3.0
 49
0.5
 49
-3.0
  0
LTYPE
  2
AXES
 70
     0
  3
____ _ ____ _ ____ _ ____ _ ____ _ ____ _ ____ 
 72
    65
 73
     4
 40
2.0
 49
1.25
 49
-0.25
 49
0.25
 49
-0.25
  0
LTYPE
  2
AXESX2
 70
     0
  3
________  __  ________  __  ________  __  _____
 72
    65
 73
     4
 40
4.0
 49
2.5
 49
-0.5
 49
0.5
 49
-0.5
  0
LTYPE
  2
TIRETPT
 70
     0
  3
__ . __ . __ . __ . __ . __ . __ . __ . __ . __
 72
    65
 73
     4
 40
1.0
 49
0.5
 49
-0.25
 49
0.0
 49
-0.25
  0
LTYPE
  2
TIRETPT2
 70
     0
  3
_._._._._._._._._._._._._._._._._._._._._._._._
 72
    65
 73
     4
 40
0.5
 49
0.25
 49
-0.125
 49
0.0
 49
-0.125
  0
LTYPE
  2
TIRETPTX2
 70
     0
  3
____  .  ____  .  ____  .  ____  .  ____  .  __
 72
    65
 73
     4
 40
2.0
 49
1.0
 49
-0.5
 49
0.0
 49
-0.5
  0
LTYPE
  2
DISCONTINU
 70
     0
  3
__ __ __ __ __ __ __ __ __ __ __ __ __ __ __ __
 72
    65
 73
     2
 40
0.75
 49
0.5
 49
-0.25
  0
LTYPE
  2
DISCONTINU2
 70
     0
  3
_ _ _ _ _ _ _ _ _ _ _ _ _ _ _ _ _ _ _ _ _ _ _ _
 72
    65
 73
     2
 40
0.375
 49
0.25
 49
-0.125
  0
LTYPE
  2
DISCONTINUX2
 70
     0
  3
____  ____  ____  ____  ____  ____  ____  ____ 
 72
    65
 73
     2
 40
1.5
 49
1.0
 49
-0.5
  0
LTYPE
  2
DIVISE
 70
     0
  3
____ . . ____ . . ____ . . ____ . . ____ . . __
 72
    65
 73
     6
 40
1.25
 49
0.5
 49
-0.25
 49
0.0
 49
-0.25
 49
0.0
 49
-0.25
  0
LTYPE
  2
DIVISE2
 70
     0
  3
__..__..__..__..__..__..__..__..__..__..__..__.
 72
    65
 73
     6
 40
0.625
 49
0.25
 49
-0.125
 49
0.0
 49
-0.125
 49
0.0
 49
-0.125
  0
LTYPE
  2
DIVISEX2
 70
     0
  3
________  .  .  ________  .  .  ________  .  . 
 72
    65
 73
     6
 40
2.5
 49
1.0
 49
-0.5
 49
0.0
 49
-0.5
 49
0.0
 49
-0.5
  0
LTYPE
  2
POINTILLE
 70
     0
  3
. . . . . . . . . . . . . . . . . . . . . . . .
 72
    65
 73
     2
 40
0.25
 49
0.0
 49
-0.25
  0
LTYPE
  2
POINTILLE2
 70
     0
  3
...............................................
 72
    65
 73
     2
 40
0.125
 49
0.0
 49
-0.125
  0
LTYPE
  2
POINTILLEX2
 70
     0
  3
.  .  .  .  .  .  .  .  .  .  .  .  .  .  .  . 
 72
    65
 73
     2
 40
0.5
 49
0.0
 49
-0.5
  0
LTYPE
  2
CACHE
 70
     0
  3
__ __ __ __ __ __ __ __ __ __ __ __ __ __ __ __
 72
    65
 73
     2
 40
0.375
 49
0.25
 49
-0.125
  0
LTYPE
  2
CACHE2
 70
     0
  3
_ _ _ _ _ _ _ _ _ _ _ _ _ _ _ _ _ _ _ _ _ _ _ _
 72
    65
 73
     2
 40
0.1875
 49
0.125
 49
-0.0625
  0
LTYPE
  2
CACHEX2
 70
     0
  3
____ ____ ____ ____ ____ ____ ____ ____ ____ __
 72
    65
 73
     2
 40
0.75
 49
0.5
 49
-0.25
  0
LTYPE
  2
FANTOME
 70
     0
  3
______  __  __  ______  __  __  ______  __  __ 
 72
    65
 73
     6
 40
2.5
 49
1.25
 49
-0.25
 49
0.25
 49
-0.25
 49
0.25
 49
-0.25
  0
LTYPE
  2
FANTOME2
 70
     0
  3
___ _ _ ___ _ _ ___ _ _ ___ _ _ ___ _ _ ___ _ _
 72
    65
 73
     6
 40
1.25
 49
0.625
 49
-0.125
 49
0.125
 49
-0.125
 49
0.125
 49
-0.125
  0
LTYPE
  2
FANTOMEX2
 70
     0
  3
____________    ____    ____    ____________   
 72
    65
 73
     6
 40
5.0
 49
2.5
 49
-0.5
 49
0.5
 49
-0.5
 49
0.5
 49
-0.5
  0
LTYPE
  2
0
 70
     0
  3
MEDUSA PEN 0
 72
    65
 73
     0
 40
0.0
  0
LTYPE
  2
AI9-LTYPE1
 70
     0
  3
Illustrator Dash Style No.1
 72
    65
 73
     4
 40
5.64621
 49
4.106333
 49
-0.307975
 49
0.923926
 49
-0.307975
  0
LTYPE
  2
AI9-LTYPE2
 70
     0
  3
Illustrator Dash Style No.2
 72
    65
 73
     2
 40
1.33456
 49
1.026585
 49
-0.307975
  0
ENDTAB
  0
TABLE
  2
LAYER
 70
    17
  0
LAYER
  2
0
 70
     0
 62
     7
  6
CONTINUOUS
  0
LAYER
  2
TEXTE_MOYEN
 70
     0
 62
   131
  6
CONTINUOUS
  0
LAYER
  2
ALPHA
 70
     0
 62
   254
  6
CONTINUOUS
  0
LAYER
  2
COTATION1
 70
     0
 62
    50
  6
CONTINUOUS
  0
LAYER
  2
AXE
 70
     0
 62
    80
  6
AXES2
  0
LAYER
  2
DEFPOINTS
 70
     0
 62
     7
  6
CONTINUOUS
  0
LAYER
  2
HACHURES1
 70
     0
 62
   130
  6
CONTINUOUS
  0
LAYER
  2
FMULT
 70
     0
 62
   210
  6
CONTINUOUS
  0
LAYER
  2
FDP_CARTOUCHE
 70
     0
 62
   136
  6
CONTINUOUS
  0
LAYER
  2
FDP_TEXTES
 70
     0
 62
   171
  6
CONTINUOUS
  0
LAYER
  2
FDP_LOGO_MG
 70
     0
 62
    30
  6
CONTINUOUS
  0
LAYER
  2
FDP_LOGO_SCH
 70
     0
 62
    90
  6
CONTINUOUS
  0
LAYER
  2
FDP_FDP
 70
     0
 62
   170
  6
CONTINUOUS
  0
LAYER
  2
POINTILLE_COURT2
 70
     0
 62
    41
  6
CACHE2
  0
LAYER
  2
POINTILLE_MOYEN2
 70
     0
 62
   141
  6
CACHE
  0
LAYER
  2
POINTILLE_LONG2
 70
     0
 62
   241
  6
CACHEX2
  0
LAYER
  2
ALPHA_FIN
 70
     0
 62
   255
  6
CONTINUOUS
  0
ENDTAB
  0
TABLE
  2
STYLE
 70
     5
  0
STYLE
  2
ROMANS
 70
     0
 40
0.0
 41
1.0
 50
0.0
 71
     0
 42
6.0
  3
romans
  4

  0
STYLE
  2
STANDARD
 70
     0
 40
0.2
 41
1.0
 50
0.0
 71
     0
 42
0.2
  3
txt
  4

  0
STYLE
  2
STD
 70
     0
 40
0.0
 41
1.0
 50
0.0
 71
     0
 42
0.0
  3
txt
  4

  0
STYLE
  2
INFOCAR
 70
     0
 40
0.0
 41
1.34
 50
0.0
 71
     0
 42
2.0
  3
ROMANS.SHX
  4

  0
STYLE
  2
CARTOUCHE
 70
     0
 40
0.0
 41
1.0
 50
0.0
 71
     0
 42
0.2
  3
ROMANS.SHX
  4

  0
ENDTAB
  0
TABLE
  2
VIEW
 70
     0
  0
ENDTAB
  0
TABLE
  2
UCS
 70
     0
  0
ENDTAB
  0
TABLE
  2
APPID
 70
     3
  0
APPID
  2
ACAD
 70
     0
  0
APPID
  2
AVE_RENDER
 70
     0
  0
APPID
  2
AVE_MATERIAL
 70
     0
  0
ENDTAB
  0
TABLE
  2
DIMSTYLE
 70
     3
  0
DIMSTYLE
  2
SC_DEFAUT
 70
     0
  3

  4

  5
OPEN30
  6

  7

 40
1.0
 41
2.0
 42
0.3
 43
0.1
 44
0.5
 45
0.0
 46
0.0
 47
0.0
 48
0.0
140
2.0
141
1.0
142
0.0
143
25.4
144
1.0
145
0.0
146
1.0
147
0.6
 71
     0
 72
     0
 73
     0
 74
     0
 75
     0
 76
     0
 77
     1
 78
    12
170
     0
171
     2
172
     0
173
     0
174
     0
175
     0
176
     0
177
     0
178
     0
  0
DIMSTYLE
  2
ROMANS
 70
     0
  3

  4

  5
OPEN30
  6

  7

 40
1.0
 41
2.0
 42
0.5
 43
0.38
 44
0.18
 45
0.0
 46
0.0
 47
0.0
 48
0.0
140
2.0
141
0.09
142
0.0
143
25.4
144
1.0
145
0.0
146
1.0
147
0.5
 71
     0
 72
     0
 73
     0
 74
     0
 75
     0
 76
     0
 77
     1
 78
    12
170
     0
171
     2
172
     0
173
     0
174
     0
175
     0
176
     0
177
     0
178
     0
  0
DIMSTYLE
  2
SC_DEFAUT-2
 70
     0
  3

  4

  5
OPEN30
  6

  7

 40
1.0
 41
2.0
 42
0.3
 43
0.1
 44
0.5
 45
0.0
 46
0.0
 47
0.0
 48
0.0
140
2.0
141
0.0
142
0.0
143
25.4
144
1.0
145
0.0
146
1.0
147
0.6
 71
     0
 72
     0
 73
     0
 74
     1
 75
     0
 76
     0
 77
     1
 78
    12
170
     0
171
     2
172
     0
173
     0
174
     0
175
     0
176
     0
177
     0
178
     0
  0
ENDTAB
  0
ENDSEC
  0
SECTION
  2
BLOCKS
  0
BLOCK
  8
0
  2
$MODEL_SPACE
 70
     0
 10
0.0
 20
0.0
 30
0.0
  3
$MODEL_SPACE
  1

  0
ENDBLK
  5
4628
  8
0
  0
BLOCK
 67
     1
  8
0
  2
$PAPER_SPACE
 70
     0
 10
0.0
 20
0.0
 30
0.0
  3
$PAPER_SPACE
  1

  0
ENDBLK
  5
4626
 67
     1
  8
0
  0
BLOCK
  8
0
  2
COTE
 70
     0
 10
0.0
 20
0.0
 30
0.0
  3
COTE
  1

  0
ENDBLK
  5
35
  8
0
  0
BLOCK
  8
0
  2
FOND
 70
     0
 10
0.0
 20
0.0
 30
0.0
  3
FOND
  1

  0
ENDBLK
  5
39
  8
0
  0
BLOCK
  8
0
  2
SCH_ISO
 70
     0
 10
0.0
 20
0.0
 30
0.0
  3
SCH_ISO
  1

  0
ENDBLK
  5
24AD
  8
0
  0
BLOCK
  8
0
  2
_OPEN30
 70
     0
 10
0.0
 20
0.0
 30
0.0
  3
_OPEN30
  1

  0
LINE
  5
27E1
  8
COTATION1
 62
     0
 10
-1.0
 20
0.267949
 30
0.0
 11
0.0
 21
0.0
 31
0.0
1001
ACAD
1000
RTLwPs
1070
   158
  0
LINE
  5
27E2
  8
COTATION1
 62
     0
 10
0.0
 20
0.0
 30
0.0
 11
-1.0
 21
-0.267949
 31
0.0
1001
ACAD
1000
RTLwPs
1070
   158
  0
LINE
  5
27E3
  8
COTATION1
 62
     0
 10
0.0
 20
0.0
 30
0.0
 11
-1.0
 21
0.0
 31
0.0
1001
ACAD
1000
RTLwPs
1070
   158
  0
ENDBLK
  5
27E5
  8
0
  0
BLOCK
  8
0
  2
*D4
 70
     1
 10
0.0
 20
0.0
 30
0.0
  3
*D4
  1

  0
LINE
  5
446A
  8
COTATION1
 62
     0
 10
822.73053
 20
40.660375
 30
0.0
 11
801.122005
 21
40.660375
 31
0.0
1001
ACAD
1000
RTLwPs
1070
   158
  0
LINE
  5
446B
  8
COTATION1
 62
     0
 10
822.73053
 20
-1.339641
 30
0.0
 11
801.122005
 21
-1.339641
 31
0.0
1001
ACAD
1000
RTLwPs
1070
   158
  0
LINE
  5
446C
  8
COTATION1
 62
     0
 10
801.622005
 20
38.660375
 30
0.0
 11
801.622005
 21
0.660359
 31
0.0
1001
ACAD
1000
RTLwPs
1070
   158
  0
INSERT
  5
446D
  8
COTATION1
 62
     0
  2
_OPEN30
 10
801.622005
 20
40.660375
 30
0.0
 41
2.0
 42
2.0
 43
2.0
 50
90.0
1001
ACAD
1000
RTLwPs
1070
   158
  0
INSERT
  5
446E
  8
COTATION1
 62
     0
  2
_OPEN30
 10
801.622005
 20
-1.339641
 30
0.0
 41
2.0
 42
2.0
 43
2.0
 50
270.0
1001
ACAD
1000
RTLwPs
1070
   158
  0
TEXT
  5
446F
  8
COTATION1
 62
     0
 10
801.022005
 20
17.755605
 30
0.0
 40
2.0
  1
42
 50
90.0
1001
ACAD
1000
MTEXTBEGIN
1070
    73
1070
     1
1070
    44
1040
1.0
1070
    74
1070
     0
1000
MTEXTEND
  0
POINT
  5
4470
  8
DEFPOINTS
 62
     0
 10
823.03053
 20
40.660375
 30
0.0
  0
POINT
  5
4471
  8
DEFPOINTS
 62
     0
 10
823.03053
 20
-1.339641
 30
0.0
  0
POINT
  5
4472
  8
DEFPOINTS
 62
     0
 10
801.622005
 20
-1.339641
 30
0.0
  0
ENDBLK
  5
3F4E
  8
0
  0
BLOCK
  8
0
  2
*D5
 70
     1
 10
0.0
 20
0.0
 30
0.0
  3
*D5
  1

  0
LINE
  5
4426
  8
COTATION1
 62
     0
 10
823.03053
 20
40.960375
 30
0.0
 11
823.03053
 21
56.160375
 31
0.0
1001
ACAD
1000
RTLwPs
1070
   158
  0
LINE
  5
4427
  8
COTATION1
 62
     0
 10
852.030546
 20
45.960375
 30
0.0
 11
852.030546
 21
56.160375
 31
0.0
1001
ACAD
1000
RTLwPs
1070
   158
  0
LINE
  5
4428
  8
COTATION1
 62
     0
 10
825.03053
 20
55.660375
 30
0.0
 11
850.030546
 21
55.660375
 31
0.0
1001
ACAD
1000
RTLwPs
1070
   158
  0
INSERT
  5
4429
  8
COTATION1
 62
     0
  2
_OPEN30
 10
823.03053
 20
55.660375
 30
0.0
 41
2.0
 42
2.0
 43
2.0
 50
180.0
1001
ACAD
1000
RTLwPs
1070
   158
  0
INSERT
  5
442A
  8
COTATION1
 62
     0
  2
_OPEN30
 10
852.030546
 20
55.660375
 30
0.0
 41
2.0
 42
2.0
 43
2.0
1001
ACAD
1000
RTLwPs
1070
   158
  0
TEXT
  5
442B
  8
COTATION1
 62
     0
 10
835.673395
 20
56.260375
 30
0.0
 40
2.0
  1
29
1001
ACAD
1000
MTEXTBEGIN
1070
    73
1070
     1
1070
    44
1040
1.0
1070
    74
1070
     0
1000
MTEXTEND
  0
POINT
  5
442C
  8
DEFPOINTS
 62
     0
 10
823.03053
 20
40.660375
 30
0.0
  0
POINT
  5
442D
  8
DEFPOINTS
 62
     0
 10
852.030546
 20
45.660375
 30
0.0
  0
POINT
  5
442E
  8
DEFPOINTS
 62
     0
 10
852.030546
 20
55.660375
 30
0.0
  0
ENDBLK
  5
4140
  8
0
  0
BLOCK
  8
0
  2
*D6
 70
     1
 10
0.0
 20
0.0
 30
0.0
  3
*D6
  1

  0
LINE
  5
444F
  8
COTATION1
 62
     0
 10
831.730546
 20
32.160375
 30
0.0
 11
811.122005
 21
32.160375
 31
0.0
1001
ACAD
1000
RTLwPs
1070
   158
  0
LINE
  5
4450
  8
COTATION1
 62
     0
 10
816.322005
 20
19.660379
 30
0.0
 11
811.122005
 21
19.660379
 31
0.0
1001
ACAD
1000
RTLwPs
1070
   158
  0
LINE
  5
4451
  8
COTATION1
 62
     0
 10
811.622005
 20
30.160375
 30
0.0
 11
811.622005
 21
21.660379
 31
0.0
1001
ACAD
1000
RTLwPs
1070
   158
  0
INSERT
  5
4452
  8
COTATION1
 62
     0
  2
_OPEN30
 10
811.622005
 20
32.160375
 30
0.0
 41
2.0
 42
2.0
 43
2.0
 50
90.0
1001
ACAD
1000
RTLwPs
1070
   158
  0
INSERT
  5
4453
  8
COTATION1
 62
     0
  2
_OPEN30
 10
811.622005
 20
19.660379
 30
0.0
 41
2.0
 42
2.0
 43
2.0
 50
270.0
1001
ACAD
1000
RTLwPs
1070
   158
  0
TEXT
  5
4454
  8
COTATION1
 62
     0
 10
811.022005
 20
22.42673
 30
0.0
 40
2.0
  1
12.5
 50
90.0
1001
ACAD
1000
MTEXTBEGIN
1070
    73
1070
     1
1070
    44
1040
1.0
1070
    74
1070
     0
1000
MTEXTEND
  0
POINT
  5
4455
  8
DEFPOINTS
 62
     0
 10
832.030546
 20
32.160375
 30
0.0
  0
POINT
  5
4456
  8
DEFPOINTS
 62
     0
 10
816.622005
 20
19.660379
 30
0.0
  0
POINT
  5
4457
  8
DEFPOINTS
 62
     0
 10
811.622005
 20
19.660379
 30
0.0
  0
ENDBLK
  5
41E1
  8
0
  0
BLOCK
  8
0
  2
*D7
 70
     1
 10
0.0
 20
0.0
 30
0.0
  3
*D7
  1

  0
LINE
  5
4461
  8
COTATION1
 62
     0
 10
830.730546
 20
32.160375
 30
0.0
 11
806.122005
 21
32.160375
 31
0.0
1001
ACAD
1000
RTLwPs
1070
   158
  0
LINE
  5
4462
  8
COTATION1
 62
     0
 10
830.730546
 20
7.160375
 30
0.0
 11
806.122005
 21
7.160375
 31
0.0
1001
ACAD
1000
RTLwPs
1070
   158
  0
LINE
  5
4463
  8
COTATION1
 62
     0
 10
806.622005
 20
30.160375
 30
0.0
 11
806.622005
 21
9.160375
 31
0.0
1001
ACAD
1000
RTLwPs
1070
   158
  0
INSERT
  5
4464
  8
COTATION1
 62
     0
  2
_OPEN30
 10
806.622005
 20
32.160375
 30
0.0
 41
2.0
 42
2.0
 43
2.0
 50
90.0
1001
ACAD
1000
RTLwPs
1070
   158
  0
INSERT
  5
4465
  8
COTATION1
 62
     0
  2
_OPEN30
 10
806.622005
 20
7.160375
 30
0.0
 41
2.0
 42
2.0
 43
2.0
 50
270.0
1001
ACAD
1000
RTLwPs
1070
   158
  0
TEXT
  5
4466
  8
COTATION1
 62
     0
 10
806.022005
 20
17.755617
 30
0.0
 40
2.0
  1
25
 50
90.0
1001
ACAD
1000
MTEXTBEGIN
1070
    73
1070
     1
1070
    44
1040
1.0
1070
    74
1070
     0
1000
MTEXTEND
  0
POINT
  5
4467
  8
DEFPOINTS
 62
     0
 10
831.030546
 20
32.160375
 30
0.0
  0
POINT
  5
4468
  8
DEFPOINTS
 62
     0
 10
831.030546
 20
7.160375
 30
0.0
  0
POINT
  5
4469
  8
DEFPOINTS
 62
     0
 10
806.622005
 20
7.160375
 30
0.0
  0
ENDBLK
  5
420C
  8
0
  0
BLOCK
  8
0
  2
*D8
 70
     1
 10
0.0
 20
0.0
 30
0.0
  3
*D8
  1

  0
LINE
  5
421E
  8
COTATION1
 62
     0
 10
814.345502
 20
44.800641
 30
0.0
 11
818.469311
 21
44.800641
 31
0.0
1001
ACAD
1000
RTLwPs
1070
   158
  0
LINE
  5
421F
  8
COTATION1
 62
     0
 10
818.469311
 20
44.800641
 30
0.0
 11
828.563446
 21
34.642998
 31
0.0
1001
ACAD
1000
RTLwPs
1070
   158
  0
TEXT
  5
4220
  8
COTATION1
 62
     0
 10
813.96455
 20
45.400641
 30
0.0
 40
2.0
  1
M3
1001
ACAD
1000
MTEXTBEGIN
1070
    73
1070
     1
1070
    44
1040
1.0
1070
    74
1070
     0
1000
MTEXTEND
1000
MTEXTBEGIN
1070
    73
1070
     1
1070
    44
1040
1.0
1070
    74
1070
     0
1000
MTEXTEND
  0
INSERT
  5
4221
  8
COTATION1
 62
     0
  2
_OPEN30
 10
829.973218
 20
33.224357
 30
0.0
 41
2.0
 42
2.0
 43
2.0
 50
314.820324
1001
ACAD
1000
RTLwPs
1070
   158
  0
POINT
  5
4222
  8
DEFPOINTS
 62
     0
 10
829.973218
 20
33.224357
 30
0.0
  0
POINT
  5
4223
  8
DEFPOINTS
 62
     0
 10
832.087875
 20
31.096394
 30
0.0
  0
ENDBLK
  5
4217
  8
0
  0
BLOCK
  8
0
  2
*D9
 70
     1
 10
0.0
 20
0.0
 30
0.0
  3
*D9
  1

  0
LINE
  5
442F
  8
COTATION1
 62
     0
 10
831.030546
 20
32.460375
 30
0.0
 11
831.030546
 21
51.160375
 31
0.0
1001
ACAD
1000
RTLwPs
1070
   158
  0
LINE
  5
4430
  8
COTATION1
 62
     0
 10
852.030546
 20
45.960375
 30
0.0
 11
852.030546
 21
51.160375
 31
0.0
1001
ACAD
1000
RTLwPs
1070
   158
  0
LINE
  5
4431
  8
COTATION1
 62
     0
 10
833.030546
 20
50.660375
 30
0.0
 11
850.030546
 21
50.660375
 31
0.0
1001
ACAD
1000
RTLwPs
1070
   158
  0
INSERT
  5
4432
  8
COTATION1
 62
     0
  2
_OPEN30
 10
831.030546
 20
50.660375
 30
0.0
 41
2.0
 42
2.0
 43
2.0
 50
180.0
1001
ACAD
1000
RTLwPs
1070
   158
  0
INSERT
  5
4433
  8
COTATION1
 62
     0
  2
_OPEN30
 10
852.030546
 20
50.660375
 30
0.0
 41
2.0
 42
2.0
 43
2.0
1001
ACAD
1000
RTLwPs
1070
   158
  0
TEXT
  5
4434
  8
COTATION1
 62
     0
 10
839.911499
 20
51.260375
 30
0.0
 40
2.0
  1
21
1001
ACAD
1000
MTEXTBEGIN
1070
    73
1070
     1
1070
    44
1040
1.0
1070
    74
1070
     0
1000
MTEXTEND
  0
POINT
  5
4435
  8
DEFPOINTS
 62
     0
 10
831.030546
 20
32.160375
 30
0.0
  0
POINT
  5
4436
  8
DEFPOINTS
 62
     0
 10
852.030546
 20
45.660375
 30
0.0
  0
POINT
  5
4437
  8
DEFPOINTS
 62
     0
 10
852.030546
 20
50.660375
 30
0.0
  0
ENDBLK
  5
4230
  8
0
  0
ENDSEC
  0
SECTION
  2
ENTITIES
  0
INSERT
  5
32
  8
0
  2
COTE
 10
0.0
 20
0.0
 30
0.0
  0
INSERT
  5
36
  8
0
  2
FOND
 10
0.0
 20
0.0
 30
0.0
  0
INSERT
  5
24AE
  8
ALPHA
  2
SCH_ISO
 10
-66.27012
 20
-238.940658
 30
0.0
  0
TEXT
  5
3BE1
  8
AXE
 10
875.8231
 20
20.660379
 30
0.0
 40
8.0
  1
X
 72
     2
 11
882.29929
 21
20.660379
 31
0.0
  0
TEXT
  5
3BE2
  8
AXE
 10
844.554356
 20
-17.168091
 30
0.0
 40
8.0
  1
Y
 72
     2
 11
851.030546
 21
-17.168091
 31
0.0
  0
POLYLINE
  5
3EE6
  8
ALPHA
 66
     1
 10
0.0
 20
0.0
 30
0.0
 70
   128
  0
VERTEX
  5
462E
  8
ALPHA
 10
823.03053
 20
-1.339641
 30
0.0
  0
VERTEX
  5
462F
  8
ALPHA
 10
823.175158
 20
-1.339641
 30
0.0
  0
VERTEX
  5
4630
  8
ALPHA
 10
823.583889
 20
-1.339641
 30
0.0
  0
VERTEX
  5
4631
  8
ALPHA
 10
824.218996
 20
-1.339641
 30
0.0
  0
VERTEX
  5
4632
  8
ALPHA
 10
825.042747
 20
-1.339641
 30
0.0
  0
VERTEX
  5
4633
  8
ALPHA
 10
827.10527
 20
-1.339641
 30
0.0
  0
VERTEX
  5
4634
  8
ALPHA
 10
829.469626
 20
-1.339641
 30
0.0
  0
VERTEX
  5
4635
  8
ALPHA
 10
831.833982
 20
-1.339641
 30
0.0
  0
VERTEX
  5
4636
  8
ALPHA
 10
833.896505
 20
-1.339641
 30
0.0
  0
VERTEX
  5
4637
  8
ALPHA
 10
834.720256
 20
-1.339641
 30
0.0
  0
VERTEX
  5
4638
  8
ALPHA
 10
835.355363
 20
-1.339641
 30
0.0
  0
VERTEX
  5
4639
  8
ALPHA
 10
835.764094
 20
-1.339641
 30
0.0
  0
VERTEX
  5
463A
  8
ALPHA
 10
835.908723
 20
-1.339641
 30
0.0
  0
VERTEX
  5
463B
  8
ALPHA
 10
838.801006
 20
-1.099545
 30
0.0
  0
VERTEX
  5
463C
  8
ALPHA
 10
841.636391
 20
-0.656301
 30
0.0
  0
VERTEX
  5
463D
  8
ALPHA
 10
844.396983
 20
-0.023118
 30
0.0
  0
VERTEX
  5
463E
  8
ALPHA
 10
847.064885
 20
0.78679
 30
0.0
  0
VERTEX
  5
463F
  8
ALPHA
 10
849.6222
 20
1.760213
 30
0.0
  0
VERTEX
  5
4640
  8
ALPHA
 10
852.051031
 20
2.883938
 30
0.0
  0
VERTEX
  5
4641
  8
ALPHA
 10
854.333483
 20
4.144754
 30
0.0
  0
VERTEX
  5
4642
  8
ALPHA
 10
856.451658
 20
5.529449
 30
0.0
  0
VERTEX
  5
4643
  8
ALPHA
 10
858.38766
 20
7.024811
 30
0.0
  0
VERTEX
  5
4644
  8
ALPHA
 10
860.123593
 20
8.617629
 30
0.0
  0
VERTEX
  5
4645
  8
ALPHA
 10
861.64156
 20
10.294691
 30
0.0
  0
VERTEX
  5
4646
  8
ALPHA
 10
862.923665
 20
12.042785
 30
0.0
  0
VERTEX
  5
4647
  8
ALPHA
 10
863.952011
 20
13.848699
 30
0.0
  0
VERTEX
  5
4648
  8
ALPHA
 10
864.708701
 20
15.699222
 30
0.0
  0
VERTEX
  5
4649
  8
ALPHA
 10
865.175839
 20
17.581142
 30
0.0
  0
VERTEX
  5
464A
  8
ALPHA
 10
865.335529
 20
19.481247
 30
0.0
  0
SEQEND
  5
464B
  8
ALPHA
  0
POLYLINE
  5
3EE7
  8
ALPHA
 66
     1
 10
0.0
 20
0.0
 30
0.0
 70
   128
  0
VERTEX
  5
464C
  8
ALPHA
 10
823.03053
 20
40.660375
 30
0.0
  0
VERTEX
  5
464D
  8
ALPHA
 10
823.03053
 20
40.539892
 30
0.0
  0
VERTEX
  5
464E
  8
ALPHA
 10
823.03053
 20
40.188696
 30
0.0
  0
VERTEX
  5
464F
  8
ALPHA
 10
823.03053
 20
39.622167
 30
0.0
  0
VERTEX
  5
4650
  8
ALPHA
 10
823.03053
 20
38.855687
 30
0.0
  0
VERTEX
  5
4651
  8
ALPHA
 10
823.03053
 20
37.904637
 30
0.0
  0
VERTEX
  5
4652
  8
ALPHA
 10
823.03053
 20
36.784397
 30
0.0
  0
VERTEX
  5
4653
  8
ALPHA
 10
823.03053
 20
35.510349
 30
0.0
  0
VERTEX
  5
4654
  8
ALPHA
 10
823.03053
 20
34.097873
 30
0.0
  0
VERTEX
  5
4655
  8
ALPHA
 10
823.03053
 20
30.919161
 30
0.0
  0
VERTEX
  5
4656
  8
ALPHA
 10
823.03053
 20
27.371308
 30
0.0
  0
VERTEX
  5
4657
  8
ALPHA
 10
823.03053
 20
23.577361
 30
0.0
  0
VERTEX
  5
4658
  8
ALPHA
 10
823.03053
 20
19.660367
 30
0.0
  0
VERTEX
  5
4659
  8
ALPHA
 10
823.03053
 20
15.743374
 30
0.0
  0
VERTEX
  5
465A
  8
ALPHA
 10
823.03053
 20
11.949427
 30
0.0
  0
VERTEX
  5
465B
  8
ALPHA
 10
823.03053
 20
8.401574
 30
0.0
  0
VERTEX
  5
465C
  8
ALPHA
 10
823.03053
 20
5.222862
 30
0.0
  0
VERTEX
  5
465D
  8
ALPHA
 10
823.03053
 20
3.810386
 30
0.0
  0
VERTEX
  5
465E
  8
ALPHA
 10
823.03053
 20
2.536337
 30
0.0
  0
VERTEX
  5
465F
  8
ALPHA
 10
823.03053
 20
1.416098
 30
0.0
  0
VERTEX
  5
4660
  8
ALPHA
 10
823.03053
 20
0.465047
 30
0.0
  0
VERTEX
  5
4661
  8
ALPHA
 10
823.03053
 20
-0.301432
 30
0.0
  0
VERTEX
  5
4662
  8
ALPHA
 10
823.03053
 20
-0.867961
 30
0.0
  0
VERTEX
  5
4663
  8
ALPHA
 10
823.03053
 20
-1.219157
 30
0.0
  0
VERTEX
  5
4664
  8
ALPHA
 10
823.03053
 20
-1.339641
 30
0.0
  0
SEQEND
  5
4665
  8
ALPHA
  0
POLYLINE
  5
3EE8
  8
ALPHA
 66
     1
 10
0.0
 20
0.0
 30
0.0
 70
   128
  0
VERTEX
  5
4666
  8
ALPHA
 10
857.01373
 20
28.465915
 30
0.0
  0
VERTEX
  5
4667
  8
ALPHA
 10
857.134365
 20
28.465749
 30
0.0
  0
VERTEX
  5
4668
  8
ALPHA
 10
857.427334
 20
28.465346
 30
0.0
  0
VERTEX
  5
4669
  8
ALPHA
 10
858.116673
 20
28.464397
 30
0.0
  0
VERTEX
  5
466A
  8
ALPHA
 10
858.306242
 20
28.464136
 30
0.0
  0
VERTEX
  5
466B
  8
ALPHA
 10
858.319975
 20
28.464117
 30
0.0
  0
VERTEX
  5
466C
  8
ALPHA
 10
858.393648
 20
28.42289
 30
0.0
  0
VERTEX
  5
466D
  8
ALPHA
 10
858.609574
 20
28.295898
 30
0.0
  0
VERTEX
  5
466E
  8
ALPHA
 10
859.437974
 20
27.739546
 30
0.0
  0
VERTEX
  5
466F
  8
ALPHA
 10
860.907856
 20
26.410188
 30
0.0
  0
VERTEX
  5
4670
  8
ALPHA
 10
862.092659
 20
24.823962
 30
0.0
  0
VERTEX
  5
4671
  8
ALPHA
 10
862.949358
 20
23.019273
 30
0.0
  0
VERTEX
  5
4672
  8
ALPHA
 10
863.434927
 20
21.034523
 30
0.0
  0
VERTEX
  5
4673
  8
ALPHA
 10
863.507534
 20
18.929361
 30
0.0
  0
VERTEX
  5
4674
  8
ALPHA
 10
863.164634
 20
16.90701
 30
0.0
  0
VERTEX
  5
4675
  8
ALPHA
 10
862.446071
 20
15.038685
 30
0.0
  0
VERTEX
  5
4676
  8
ALPHA
 10
861.393171
 20
13.367291
 30
0.0
  0
VERTEX
  5
4677
  8
ALPHA
 10
860.047263
 20
11.935735
 30
0.0
  0
VERTEX
  5
4678
  8
ALPHA
 10
858.449674
 20
10.786926
 30
0.0
  0
SEQEND
  5
4679
  8
ALPHA
  0
POLYLINE
  5
3EE9
  8
ALPHA
 66
     1
 10
0.0
 20
0.0
 30
0.0
 70
   128
210
0.0
220
0.0
230
-1.0
  0
VERTEX
  5
467A
  8
ALPHA
 10
-845.802162
 20
10.756526
 30
0.0
  0
VERTEX
  5
467B
  8
ALPHA
 10
-844.696964
 20
11.472347
 30
0.0
  0
VERTEX
  5
467C
  8
ALPHA
 10
-843.771405
 20
12.322349
 30
0.0
  0
VERTEX
  5
467D
  8
ALPHA
 10
-843.015535
 20
13.29564
 30
0.0
  0
VERTEX
  5
467E
  8
ALPHA
 10
-842.419407
 20
14.38133
 30
0.0
  0
VERTEX
  5
467F
  8
ALPHA
 10
-841.973069
 20
15.56853
 30
0.0
  0
VERTEX
  5
4680
  8
ALPHA
 10
-841.666575
 20
16.84635
 30
0.0
  0
VERTEX
  5
4681
  8
ALPHA
 10
-841.489974
 20
18.2039
 30
0.0
  0
VERTEX
  5
4682
  8
ALPHA
 10
-841.433318
 20
19.630289
 30
0.0
  0
VERTEX
  5
4683
  8
ALPHA
 10
-841.485095
 20
21.043997
 30
0.0
  0
VERTEX
  5
4684
  8
ALPHA
 10
-841.648441
 20
22.390115
 30
0.0
  0
VERTEX
  5
4685
  8
ALPHA
 10
-841.93538
 20
23.65811
 30
0.0
  0
VERTEX
  5
4686
  8
ALPHA
 10
-842.357936
 20
24.837448
 30
0.0
  0
VERTEX
  5
4687
  8
ALPHA
 10
-842.928133
 20
25.917596
 30
0.0
  0
VERTEX
  5
4688
  8
ALPHA
 10
-843.657993
 20
26.88802
 30
0.0
  0
VERTEX
  5
4689
  8
ALPHA
 10
-844.55954
 20
27.738185
 30
0.0
  0
VERTEX
  5
468A
  8
ALPHA
 10
-845.644799
 20
28.457559
 30
0.0
  0
SEQEND
  5
468B
  8
ALPHA
  0
LINE
  5
3EEA
  8
ALPHA
 10
850.370478
 20
9.659152
 30
0.0
 11
850.370478
 21
18.147279
 31
0.0
  0
LINE
  5
3EEC
  8
ALPHA
 10
849.574719
 20
29.495932
 30
0.0
 11
849.574719
 21
9.765254
 31
0.0
  0
LINE
  5
3EED
  8
ALPHA
 10
854.488162
 20
29.495932
 30
0.0
 11
854.488162
 21
9.80221
 31
0.0
  0
POLYLINE
  5
3EEE
  8
ALPHA
 66
     1
 10
0.0
 20
0.0
 30
0.0
 70
   128
  0
VERTEX
  5
468C
  8
ALPHA
 10
859.029059
 20
7.54366
 30
0.0
  0
VERTEX
  5
468D
  8
ALPHA
 10
860.533699
 20
8.390472
 30
0.0
  0
VERTEX
  5
468E
  8
ALPHA
 10
862.016874
 20
9.457879
 30
0.0
  0
VERTEX
  5
468F
  8
ALPHA
 10
863.423364
 20
10.729814
 30
0.0
  0
VERTEX
  5
4690
  8
ALPHA
 10
864.697952
 20
12.190211
 30
0.0
  0
VERTEX
  5
4691
  8
ALPHA
 10
865.78542
 20
13.823004
 30
0.0
  0
VERTEX
  5
4692
  8
ALPHA
 10
866.630547
 20
15.612126
 30
0.0
  0
VERTEX
  5
4693
  8
ALPHA
 10
867.178118
 20
17.541513
 30
0.0
  0
VERTEX
  5
4694
  8
ALPHA
 10
867.372912
 20
19.595097
 30
0.0
  0
VERTEX
  5
4695
  8
ALPHA
 10
867.209689
 20
21.619985
 30
0.0
  0
VERTEX
  5
4696
  8
ALPHA
 10
866.738605
 20
23.541847
 30
0.0
  0
VERTEX
  5
4697
  8
ALPHA
 10
865.987538
 20
25.34042
 30
0.0
  0
VERTEX
  5
4698
  8
ALPHA
 10
864.984366
 20
26.995438
 30
0.0
  0
VERTEX
  5
4699
  8
ALPHA
 10
863.756968
 20
28.486639
 30
0.0
  0
VERTEX
  5
469A
  8
ALPHA
 10
862.333222
 20
29.793758
 30
0.0
  0
VERTEX
  5
469B
  8
ALPHA
 10
860.741005
 20
30.896529
 30
0.0
  0
VERTEX
  5
469C
  8
ALPHA
 10
859.008196
 20
31.774691
 30
0.0
  0
SEQEND
  5
469D
  8
ALPHA
  0
POLYLINE
  5
3EEF
  8
ALPHA
 66
     1
 10
0.0
 20
0.0
 30
0.0
 70
   128
210
0.0
220
0.0
230
-1.0
  0
VERTEX
  5
469E
  8
ALPHA
 10
-857.597288
 20
32.947765
 30
0.0
  0
VERTEX
  5
469F
  8
ALPHA
 10
-859.170872
 20
32.570378
 30
0.0
  0
VERTEX
  5
46A0
  8
ALPHA
 10
-860.754743
 20
31.958018
 30
0.0
  0
VERTEX
  5
46A1
  8
ALPHA
 10
-862.312854
 20
31.147551
 30
0.0
  0
VERTEX
  5
46A2
  8
ALPHA
 10
-863.809158
 20
30.175844
 30
0.0
  0
VERTEX
  5
46A3
  8
ALPHA
 10
-865.20761
 20
29.079761
 30
0.0
  0
VERTEX
  5
46A4
  8
ALPHA
 10
-866.472163
 20
27.89617
 30
0.0
  0
VERTEX
  5
46A5
  8
ALPHA
 10
-867.566769
 20
26.661935
 30
0.0
  0
VERTEX
  5
46A6
  8
ALPHA
 10
-868.455383
 20
25.413922
 30
0.0
  0
VERTEX
  5
46A7
  8
ALPHA
 10
-869.101959
 20
24.188997
 30
0.0
  0
VERTEX
  5
46A8
  8
ALPHA
 10
-869.470449
 20
23.024026
 30
0.0
  0
VERTEX
  5
46A9
  8
ALPHA
 10
-869.539147
 20
22.475544
 30
0.0
  0
VERTEX
  5
46AA
  8
ALPHA
 10
-869.543816
 20
22.079015
 30
0.0
  0
VERTEX
  5
46AB
  8
ALPHA
 10
-869.543816
 20
21.404667
 30
0.0
  0
VERTEX
  5
46AC
  8
ALPHA
 10
-869.543816
 20
18.797028
 30
0.0
  0
VERTEX
  5
46AD
  8
ALPHA
 10
-869.543816
 20
17.791588
 30
0.0
  0
VERTEX
  5
46AE
  8
ALPHA
 10
-869.543816
 20
17.171375
 30
0.0
  0
VERTEX
  5
46AF
  8
ALPHA
 10
-869.543816
 20
17.049394
 30
0.0
  0
VERTEX
  5
46B0
  8
ALPHA
 10
-869.543816
 20
17.041452
 30
0.0
  0
VERTEX
  5
46B1
  8
ALPHA
 10
-869.536446
 20
16.978485
 30
0.0
  0
VERTEX
  5
46B2
  8
ALPHA
 10
-869.511087
 20
16.791801
 30
0.0
  0
VERTEX
  5
46B3
  8
ALPHA
 10
-869.362225
 20
16.054597
 30
0.0
  0
VERTEX
  5
46B4
  8
ALPHA
 10
-868.852428
 20
14.629762
 30
0.0
  0
VERTEX
  5
46B5
  8
ALPHA
 10
-868.091778
 20
13.278876
 30
0.0
  0
VERTEX
  5
46B6
  8
ALPHA
 10
-867.118574
 20
12.011359
 30
0.0
  0
VERTEX
  5
46B7
  8
ALPHA
 10
-865.971114
 20
10.836634
 30
0.0
  0
VERTEX
  5
46B8
  8
ALPHA
 10
-864.687695
 20
9.764121
 30
0.0
  0
VERTEX
  5
46B9
  8
ALPHA
 10
-863.306616
 20
8.803241
 30
0.0
  0
VERTEX
  5
46BA
  8
ALPHA
 10
-861.866175
 20
7.963416
 30
0.0
  0
VERTEX
  5
46BB
  8
ALPHA
 10
-860.404669
 20
7.254068
 30
0.0
  0
VERTEX
  5
46BC
  8
ALPHA
 10
-858.960397
 20
6.684616
 30
0.0
  0
VERTEX
  5
46BD
  8
ALPHA
 10
-857.571656
 20
6.264484
 30
0.0
  0
SEQEND
  5
46BE
  8
ALPHA
  0
POLYLINE
  5
3EF3
  8
ALPHA
 66
     1
 10
0.0
 20
0.0
 30
0.0
 70
   128
  0
VERTEX
  5
46BF
  8
ALPHA
 10
858.449674
 20
10.785126
 30
0.0
  0
VERTEX
  5
46C0
  8
ALPHA
 10
858.303076
 20
10.785126
 30
0.0
  0
VERTEX
  5
46C1
  8
ALPHA
 10
857.947051
 20
10.785126
 30
0.0
  0
VERTEX
  5
46C2
  8
ALPHA
 10
857.109345
 20
10.785126
 30
0.0
  0
VERTEX
  5
46C3
  8
ALPHA
 10
856.878975
 20
10.785126
 30
0.0
  0
VERTEX
  5
46C4
  8
ALPHA
 10
856.862287
 20
10.785126
 30
0.0
  0
VERTEX
  5
46C5
  8
ALPHA
 10
856.72119
 20
10.706618
 30
0.0
  0
VERTEX
  5
46C6
  8
ALPHA
 10
856.293279
 20
10.48348
 30
0.0
  0
VERTEX
  5
46C7
  8
ALPHA
 10
854.471323
 20
9.790799
 30
0.0
  0
VERTEX
  5
46C8
  8
ALPHA
 10
852.502006
 20
9.455957
 30
0.0
  0
VERTEX
  5
46C9
  8
ALPHA
 10
851.493413
 20
9.43898
 30
0.0
  0
VERTEX
  5
46CA
  8
ALPHA
 10
850.531046
 20
9.530407
 30
0.0
  0
VERTEX
  5
46CB
  8
ALPHA
 10
848.691844
 20
9.9964
 30
0.0
  0
VERTEX
  5
46CC
  8
ALPHA
 10
846.993716
 20
10.754726
 30
0.0
  0
SEQEND
  5
46CD
  8
ALPHA
  0
POLYLINE
  5
3EF4
  8
ALPHA
 66
     1
 10
0.0
 20
0.0
 30
0.0
 70
   128
  0
VERTEX
  5
46CE
  8
ALPHA
 10
846.993716
 20
10.754726
 30
0.0
  0
VERTEX
  5
46CF
  8
ALPHA
 10
846.807535
 20
10.754726
 30
0.0
  0
VERTEX
  5
46D0
  8
ALPHA
 10
846.397939
 20
10.754726
 30
0.0
  0
VERTEX
  5
46D1
  8
ALPHA
 10
845.988343
 20
10.754726
 30
0.0
  0
VERTEX
  5
46D2
  8
ALPHA
 10
845.802162
 20
10.754726
 30
0.0
  0
SEQEND
  5
46D3
  8
ALPHA
  0
POLYLINE
  5
3EF6
  8
ALPHA
 66
     1
 10
0.0
 20
0.0
 30
0.0
 70
   128
  0
VERTEX
  5
46D4
  8
ALPHA
 10
865.335529
 20
19.481247
 30
0.0
  0
VERTEX
  5
46D5
  8
ALPHA
 10
865.139474
 20
21.747157
 30
0.0
  0
VERTEX
  5
46D6
  8
ALPHA
 10
864.572045
 20
23.924616
 30
0.0
  0
VERTEX
  5
46D7
  8
ALPHA
 10
863.664342
 20
26.005657
 30
0.0
  0
VERTEX
  5
46D8
  8
ALPHA
 10
862.447466
 20
27.982315
 30
0.0
  0
VERTEX
  5
46D9
  8
ALPHA
 10
860.95252
 20
29.846621
 30
0.0
  0
VERTEX
  5
46DA
  8
ALPHA
 10
859.210604
 20
31.590611
 30
0.0
  0
VERTEX
  5
46DB
  8
ALPHA
 10
857.252819
 20
33.206316
 30
0.0
  0
VERTEX
  5
46DC
  8
ALPHA
 10
855.110266
 20
34.68577
 30
0.0
  0
VERTEX
  5
46DD
  8
ALPHA
 10
852.814048
 20
36.021007
 30
0.0
  0
VERTEX
  5
46DE
  8
ALPHA
 10
850.395265
 20
37.20406
 30
0.0
  0
VERTEX
  5
46DF
  8
ALPHA
 10
847.885018
 20
38.226962
 30
0.0
  0
VERTEX
  5
46E0
  8
ALPHA
 10
845.314409
 20
39.081746
 30
0.0
  0
VERTEX
  5
46E1
  8
ALPHA
 10
842.714539
 20
39.760446
 30
0.0
  0
VERTEX
  5
46E2
  8
ALPHA
 10
840.116509
 20
40.255096
 30
0.0
  0
VERTEX
  5
46E3
  8
ALPHA
 10
837.551421
 20
40.557728
 30
0.0
  0
VERTEX
  5
46E4
  8
ALPHA
 10
835.050375
 20
40.660375
 30
0.0
  0
SEQEND
  5
46E5
  8
ALPHA
  0
LINE
  5
3EFA
  8
ALPHA
 10
821.622005
 20
23.906505
 30
0.0
 11
823.03053
 21
23.906505
 31
0.0
  0
LINE
  5
3EFB
  8
ALPHA
 10
823.03053
 20
15.384426
 30
0.0
 11
821.622005
 21
15.384426
 31
0.0
  0
LINE
  5
3EFD
  8
ALPHA
 10
821.622005
 20
15.384426
 30
0.0
 11
821.622005
 21
23.906505
 31
0.0
  0
POLYLINE
  5
3EFF
  8
ALPHA
 66
     1
 10
0.0
 20
0.0
 30
0.0
 70
   128
  0
VERTEX
  5
46E6
  8
ALPHA
 10
835.050375
 20
40.660375
 30
0.0
  0
VERTEX
  5
46E7
  8
ALPHA
 10
834.915387
 20
40.660375
 30
0.0
  0
VERTEX
  5
46E8
  8
ALPHA
 10
834.533897
 20
40.660375
 30
0.0
  0
VERTEX
  5
46E9
  8
ALPHA
 10
833.941122
 20
40.660375
 30
0.0
  0
VERTEX
  5
46EA
  8
ALPHA
 10
833.172274
 20
40.660375
 30
0.0
  0
VERTEX
  5
46EB
  8
ALPHA
 10
831.247221
 20
40.660375
 30
0.0
  0
VERTEX
  5
46EC
  8
ALPHA
 10
829.040452
 20
40.660375
 30
0.0
  0
VERTEX
  5
46ED
  8
ALPHA
 10
826.833684
 20
40.660375
 30
0.0
  0
VERTEX
  5
46EE
  8
ALPHA
 10
824.90863
 20
40.660375
 30
0.0
  0
VERTEX
  5
46EF
  8
ALPHA
 10
824.139783
 20
40.660375
 30
0.0
  0
VERTEX
  5
46F0
  8
ALPHA
 10
823.547007
 20
40.660375
 30
0.0
  0
VERTEX
  5
46F1
  8
ALPHA
 10
823.165518
 20
40.660375
 30
0.0
  0
VERTEX
  5
46F2
  8
ALPHA
 10
823.03053
 20
40.660375
 30
0.0
  0
SEQEND
  5
46F3
  8
ALPHA
  0
POLYLINE
  5
3F11
  8
ALPHA
 66
     1
 10
0.0
 20
0.0
 30
0.0
 70
   128
  0
VERTEX
  5
46F4
  8
ALPHA
 10
868.121582
 20
13.348235
 30
0.0
  0
VERTEX
  5
46F5
  8
ALPHA
 10
868.965799
 20
14.954531
 30
0.0
  0
VERTEX
  5
46F6
  8
ALPHA
 10
869.576591
 20
16.495034
 30
0.0
  0
VERTEX
  5
46F7
  8
ALPHA
 10
869.959369
 20
17.982966
 30
0.0
  0
VERTEX
  5
46F8
  8
ALPHA
 10
870.119549
 20
19.431549
 30
0.0
  0
VERTEX
  5
46F9
  8
ALPHA
 10
870.062544
 20
20.854008
 30
0.0
  0
VERTEX
  5
46FA
  8
ALPHA
 10
869.793767
 20
22.263565
 30
0.0
  0
VERTEX
  5
46FB
  8
ALPHA
 10
869.318631
 20
23.673443
 30
0.0
  0
VERTEX
  5
46FC
  8
ALPHA
 10
868.642551
 20
25.096866
 30
0.0
  0
SEQEND
  5
46FD
  8
ALPHA
  0
POLYLINE
  5
3F13
  8
ALPHA
 66
     1
 10
0.0
 20
0.0
 30
0.0
 70
   128
  0
VERTEX
  5
46FE
  8
ALPHA
 10
845.644799
 20
28.455759
 30
0.0
  0
VERTEX
  5
46FF
  8
ALPHA
 10
845.754981
 20
28.455925
 30
0.0
  0
VERTEX
  5
4700
  8
ALPHA
 10
846.022568
 20
28.456328
 30
0.0
  0
VERTEX
  5
4701
  8
ALPHA
 10
846.652183
 20
28.457277
 30
0.0
  0
VERTEX
  5
4702
  8
ALPHA
 10
846.825328
 20
28.457538
 30
0.0
  0
VERTEX
  5
4703
  8
ALPHA
 10
846.837871
 20
28.457557
 30
0.0
  0
VERTEX
  5
4704
  8
ALPHA
 10
846.976093
 20
28.532071
 30
0.0
  0
VERTEX
  5
4705
  8
ALPHA
 10
847.397844
 20
28.746666
 30
0.0
  0
VERTEX
  5
4706
  8
ALPHA
 10
849.20776
 20
29.442125
 30
0.0
  0
VERTEX
  5
4707
  8
ALPHA
 10
851.154225
 20
29.799106
 30
0.0
  0
VERTEX
  5
4708
  8
ALPHA
 10
853.217387
 20
29.739147
 30
0.0
  0
VERTEX
  5
4709
  8
ALPHA
 10
855.201875
 20
29.291019
 30
0.0
  0
VERTEX
  5
470A
  8
ALPHA
 10
857.01373
 20
28.464115
 30
0.0
  0
SEQEND
  5
470B
  8
ALPHA
  0
LINE
  5
3F14
  8
ALPHA
 10
853.613721
 20
21.155072
 30
0.0
 11
853.613721
 21
29.640183
 31
0.0
  0
LINE
  5
3F15
  8
ALPHA
 10
854.488162
 20
19.431224
 30
0.0
 11
849.574719
 21
19.431224
 31
0.0
  0
LINE
  5
3F17
  8
ALPHA
 10
854.488162
 20
21.155072
 30
0.0
 11
849.574719
 21
21.155072
 31
0.0
  0
LINE
  5
3F18
  8
ALPHA
 10
854.488162
 20
18.147279
 30
0.0
 11
849.574719
 21
18.147279
 31
0.0
  0
DIMENSION
  5
3F41
  8
COTATION1
  2
*D4
 10
801.622005
 20
-1.339641
 30
0.0
 11
800.022005
 21
19.660367
 31
0.0
 13
823.03053
 23
40.660375
 33
0.0
 14
823.03053
 24
-1.339641
 34
0.0
 50
90.0
  0
LINE
  5
4131
  8
AXE
 10
852.030546
 20
45.660375
 30
0.0
 11
852.030546
 21
-17.168091
 31
0.0
  0
LINE
  5
4132
  8
AXE
 10
816.622005
 20
19.660379
 30
0.0
 11
882.29929
 21
19.660379
 31
0.0
  0
LINE
  5
4133
  8
ALPHA
 10
854.488162
 20
19.870519
 30
0.0
 11
849.574719
 21
19.870519
 31
0.0
  0
DIMENSION
  5
4134
  8
COTATION1
  2
*D5
 10
852.030546
 20
55.660375
 30
0.0
 11
837.530538
 21
55.660375
 31
0.0
 70
   128
 13
823.03053
 23
40.660375
 33
0.0
 14
852.030546
 24
45.660375
 34
0.0
  0
CIRCLE
  5
416F
  8
ALPHA
 10
831.030546
 20
32.160375
 30
0.0
 40
1.25
  0
ARC
  5
4170
  8
ALPHA
 10
831.030546
 20
32.160375
 30
0.0
 40
1.5
 50
255.0
 51
180.0
  0
LINE
  5
4173
  8
AXE
 10
830.030546
 20
32.160375
 30
0.0
 11
832.030546
 21
32.160375
 31
0.0
  0
LINE
  5
4174
  8
AXE
 10
831.030546
 20
31.160375
 30
0.0
 11
831.030546
 21
33.160375
 31
0.0
  0
DIMENSION
  5
41D4
  8
COTATION1
  2
*D6
 10
811.622005
 20
19.660379
 30
0.0
 11
811.622005
 21
25.90292
 31
0.0
 70
   128
 13
832.030546
 23
32.160375
 33
0.0
 14
816.622005
 24
19.660379
 34
0.0
 50
90.0
  0
LINE
  5
41FC
  8
AXE
 10
831.030546
 20
6.160375
 30
0.0
 11
831.030546
 21
8.160375
 31
0.0
  0
LINE
  5
41FD
  8
AXE
 10
830.030546
 20
7.160375
 30
0.0
 11
832.030546
 21
7.160375
 31
0.0
  0
CIRCLE
  5
41FE
  8
ALPHA
 10
831.030546
 20
7.160375
 30
0.0
 40
1.25
  0
ARC
  5
41FF
  8
ALPHA
 10
831.030546
 20
7.160375
 30
0.0
 40
1.5
 50
255.0
 51
180.0
  0
DIMENSION
  5
4200
  8
COTATION1
  2
*D7
 10
806.622005
 20
7.160375
 30
0.0
 11
806.622005
 21
19.660379
 31
0.0
 70
   128
 13
831.030546
 23
32.160375
 33
0.0
 14
831.030546
 24
7.160375
 34
0.0
 50
90.0
  0
DIMENSION
  5
420D
  8
COTATION1
  2
*D8
 10
832.087875
 20
31.096394
 30
0.0
 11
816.107407
 21
44.800641
 31
0.0
 70
   131
  1
M3
 15
829.973218
 25
33.224357
 35
0.0
 40
0.0
  0
DIMENSION
  5
4224
  8
COTATION1
  2
*D9
 10
852.030546
 20
50.660375
 30
0.0
 11
841.530546
 21
50.660375
 31
0.0
 70
   128
 13
831.030546
 23
32.160375
 33
0.0
 14
852.030546
 24
45.660375
 34
0.0
  0
ENDSEC
  0
EOF
