  0
SECTION
  2
HEADER
  9
$ACADVER
  1
AC1009
  9
$INSBASE
 10
-146.27124
 20
-153.796096
 30
0.0
  9
$EXTMIN
 10
375.902304
 20
-25.340772
 30
0.0
  9
$EXTMAX
 10
476.90327
 20
67.373038
 30
0.0
  9
$LIMMIN
 10
-407.970438
 20
-367.832444
  9
$LIMMAX
 10
429.804077
 20
234.370848
  9
$ORTHOMODE
 70
     0
  9
$REGENMODE
 70
     1
  9
$FILLMODE
 70
     1
  9
$QTEXTMODE
 70
     0
  9
$MIRRTEXT
 70
     1
  9
$DRAGMODE
 70
     2
  9
$LTSCALE
 40
10.0
  9
$OSMODE
 70
    37
  9
$ATTMODE
 70
     1
  9
$TEXTSIZE
 40
6.0
  9
$TRACEWID
 40
1.0
  9
$TEXTSTYLE
  7
ROMANS
  9
$CLAYER
  8
COTATION1
  9
$CELTYPE
  6
BYLAYER
  9
$CECOLOR
 62
   256
  9
$DIMSCALE
 40
1.0
  9
$DIMASZ
 40
2.0
  9
$DIMEXO
 40
0.5
  9
$DIMDLI
 40
0.38
  9
$DIMRND
 40
0.0
  9
$DIMDLE
 40
0.0
  9
$DIMEXE
 40
0.18
  9
$DIMTP
 40
0.0
  9
$DIMTM
 40
0.0
  9
$DIMTXT
 40
2.0
  9
$DIMCEN
 40
0.09
  9
$DIMTSZ
 40
0.0
  9
$DIMTOL
 70
     0
  9
$DIMLIM
 70
     0
  9
$DIMTIH
 70
     0
  9
$DIMTOH
 70
     1
  9
$DIMSE1
 70
     0
  9
$DIMSE2
 70
     0
  9
$DIMTAD
 70
     1
  9
$DIMZIN
 70
    12
  9
$DIMBLK
  1
OPEN30
  9
$DIMASO
 70
     1
  9
$DIMSHO
 70
     1
  9
$DIMPOST
  1

  9
$DIMAPOST
  1

  9
$DIMALT
 70
     0
  9
$DIMALTD
 70
     2
  9
$DIMALTF
 40
25.4
  9
$DIMLFAC
 40
1.0
  9
$DIMTOFL
 70
     0
  9
$DIMTVP
 40
0.0
  9
$DIMTIX
 70
     0
  9
$DIMSOXD
 70
     0
  9
$DIMSAH
 70
     0
  9
$DIMBLK1
  1

  9
$DIMBLK2
  1

  9
$DIMSTYLE
  2
ROMANS
  9
$DIMCLRD
 70
     0
  9
$DIMCLRE
 70
     0
  9
$DIMCLRT
 70
     0
  9
$DIMTFAC
 40
1.0
  9
$DIMGAP
 40
0.5
  9
$LUNITS
 70
     2
  9
$LUPREC
 70
     1
  9
$SKETCHINC
 40
0.1
  9
$FILLETRAD
 40
0.0
  9
$AUNITS
 70
     0
  9
$AUPREC
 70
     0
  9
$MENU
  1
acad
  9
$ELEVATION
 40
0.0
  9
$PELEVATION
 40
0.0
  9
$THICKNESS
 40
0.0
  9
$LIMCHECK
 70
     0
  9
$BLIPMODE
 70
     0
  9
$CHAMFERA
 40
0.0
  9
$CHAMFERB
 40
0.0
  9
$SKPOLY
 70
     0
  9
$TDCREATE
 40
2450365.355314
  9
$TDUPDATE
 40
2452608.40515
  9
$TDINDWG
 40
0.718044
  9
$TDUSRTIMER
 40
0.718044
  9
$USRTIMER
 70
     1
  9
$ANGBASE
 50
0.0
  9
$ANGDIR
 70
     0
  9
$PDMODE
 70
    32
  9
$PDSIZE
 40
0.0
  9
$PLINEWID
 40
0.0
  9
$COORDS
 70
     2
  9
$SPLFRAME
 70
     0
  9
$SPLINETYPE
 70
     6
  9
$SPLINESEGS
 70
     8
  9
$ATTDIA
 70
     0
  9
$ATTREQ
 70
     1
  9
$HANDLING
 70
     1
  9
$HANDSEED
  5
583A
  9
$SURFTAB1
 70
     6
  9
$SURFTAB2
 70
     6
  9
$SURFTYPE
 70
     6
  9
$SURFU
 70
     6
  9
$SURFV
 70
     6
  9
$UCSNAME
  2

  9
$UCSORG
 10
0.0
 20
0.0
 30
0.0
  9
$UCSXDIR
 10
1.0
 20
0.0
 30
0.0
  9
$UCSYDIR
 10
0.0
 20
1.0
 30
0.0
  9
$PUCSNAME
  2

  9
$PUCSORG
 10
0.0
 20
0.0
 30
0.0
  9
$PUCSXDIR
 10
1.0
 20
0.0
 30
0.0
  9
$PUCSYDIR
 10
0.0
 20
1.0
 30
0.0
  9
$USERI1
 70
     0
  9
$USERI2
 70
     0
  9
$USERI3
 70
     0
  9
$USERI4
 70
     0
  9
$USERI5
 70
     0
  9
$USERR1
 40
0.0
  9
$USERR2
 40
0.0
  9
$USERR3
 40
0.0
  9
$USERR4
 40
0.0
  9
$USERR5
 40
0.0
  9
$WORLDVIEW
 70
     1
  9
$SHADEDGE
 70
     3
  9
$SHADEDIF
 70
    70
  9
$TILEMODE
 70
     1
  9
$MAXACTVP
 70
    16
  9
$PLIMCHECK
 70
     0
  9
$PEXTMIN
 10
1.000000E+020
 20
1.000000E+020
 30
1.000000E+020
  9
$PEXTMAX
 10
-1.000000E+020
 20
-1.000000E+020
 30
-1.000000E+020
  9
$PLIMMIN
 10
0.0
 20
0.0
  9
$PLIMMAX
 10
12.0
 20
9.0
  9
$UNITMODE
 70
     0
  9
$VISRETAIN
 70
     0
  9
$PLINEGEN
 70
     0
  9
$PSLTSCALE
 70
     0
  0
ENDSEC
  0
SECTION
  2
TABLES
  0
TABLE
  2
VPORT
 70
     2
  0
VPORT
  2
*ACTIVE
 70
     0
 10
0.0
 20
0.0
 11
1.0
 21
1.0
 12
426.413704
 22
21.000159
 13
0.0
 23
0.0
 14
1.0
 24
1.0
 15
10.0
 25
10.0
 16
0.0
 26
0.0
 36
1.0
 17
0.0
 27
0.0
 37
0.0
 40
93.601348
 41
1.63142
 42
50.0
 43
0.0
 44
0.0
 50
0.0
 51
0.0
 71
     0
 72
   100
 73
     1
 74
     0
 75
     0
 76
     0
 77
     0
 78
     0
  0
ENDTAB
  0
TABLE
  2
LTYPE
 70
    26
  0
LTYPE
  2
CONTINUOUS
 70
     0
  3
Solid line
 72
    65
 73
     0
 40
0.0
  0
LTYPE
  2
AXES2
 70
     0
  3
___ _ ___ _ ___ _ ___ _ ___ _ ___ _ ___ _ ___ _
 72
    65
 73
     4
 40
1.125
 49
0.75
 49
-0.125
 49
0.125
 49
-0.125
  0
LTYPE
  2
ACAD_ISO04W100
 70
     0
  3
ISO Lang gestrichelt punktiert ____ . ____ . __
 72
    65
 73
     4
 40
30.5
 49
24.0
 49
-3.0
 49
0.5
 49
-3.0
  0
LTYPE
  2
AXES
 70
     0
  3
____ _ ____ _ ____ _ ____ _ ____ _ ____ _ ____ 
 72
    65
 73
     4
 40
2.0
 49
1.25
 49
-0.25
 49
0.25
 49
-0.25
  0
LTYPE
  2
AXESX2
 70
     0
  3
________  __  ________  __  ________  __  _____
 72
    65
 73
     4
 40
4.0
 49
2.5
 49
-0.5
 49
0.5
 49
-0.5
  0
LTYPE
  2
TIRETPT
 70
     0
  3
__ . __ . __ . __ . __ . __ . __ . __ . __ . __
 72
    65
 73
     4
 40
1.0
 49
0.5
 49
-0.25
 49
0.0
 49
-0.25
  0
LTYPE
  2
TIRETPT2
 70
     0
  3
_._._._._._._._._._._._._._._._._._._._._._._._
 72
    65
 73
     4
 40
0.5
 49
0.25
 49
-0.125
 49
0.0
 49
-0.125
  0
LTYPE
  2
TIRETPTX2
 70
     0
  3
____  .  ____  .  ____  .  ____  .  ____  .  __
 72
    65
 73
     4
 40
2.0
 49
1.0
 49
-0.5
 49
0.0
 49
-0.5
  0
LTYPE
  2
DISCONTINU
 70
     0
  3
__ __ __ __ __ __ __ __ __ __ __ __ __ __ __ __
 72
    65
 73
     2
 40
0.75
 49
0.5
 49
-0.25
  0
LTYPE
  2
DISCONTINU2
 70
     0
  3
_ _ _ _ _ _ _ _ _ _ _ _ _ _ _ _ _ _ _ _ _ _ _ _
 72
    65
 73
     2
 40
0.375
 49
0.25
 49
-0.125
  0
LTYPE
  2
DISCONTINUX2
 70
     0
  3
____  ____  ____  ____  ____  ____  ____  ____ 
 72
    65
 73
     2
 40
1.5
 49
1.0
 49
-0.5
  0
LTYPE
  2
DIVISE
 70
     0
  3
____ . . ____ . . ____ . . ____ . . ____ . . __
 72
    65
 73
     6
 40
1.25
 49
0.5
 49
-0.25
 49
0.0
 49
-0.25
 49
0.0
 49
-0.25
  0
LTYPE
  2
DIVISE2
 70
     0
  3
__..__..__..__..__..__..__..__..__..__..__..__.
 72
    65
 73
     6
 40
0.625
 49
0.25
 49
-0.125
 49
0.0
 49
-0.125
 49
0.0
 49
-0.125
  0
LTYPE
  2
DIVISEX2
 70
     0
  3
________  .  .  ________  .  .  ________  .  . 
 72
    65
 73
     6
 40
2.5
 49
1.0
 49
-0.5
 49
0.0
 49
-0.5
 49
0.0
 49
-0.5
  0
LTYPE
  2
POINTILLE
 70
     0
  3
. . . . . . . . . . . . . . . . . . . . . . . .
 72
    65
 73
     2
 40
0.25
 49
0.0
 49
-0.25
  0
LTYPE
  2
POINTILLE2
 70
     0
  3
...............................................
 72
    65
 73
     2
 40
0.125
 49
0.0
 49
-0.125
  0
LTYPE
  2
POINTILLEX2
 70
     0
  3
.  .  .  .  .  .  .  .  .  .  .  .  .  .  .  . 
 72
    65
 73
     2
 40
0.5
 49
0.0
 49
-0.5
  0
LTYPE
  2
CACHE
 70
     0
  3
__ __ __ __ __ __ __ __ __ __ __ __ __ __ __ __
 72
    65
 73
     2
 40
0.375
 49
0.25
 49
-0.125
  0
LTYPE
  2
CACHE2
 70
     0
  3
_ _ _ _ _ _ _ _ _ _ _ _ _ _ _ _ _ _ _ _ _ _ _ _
 72
    65
 73
     2
 40
0.1875
 49
0.125
 49
-0.0625
  0
LTYPE
  2
CACHEX2
 70
     0
  3
____ ____ ____ ____ ____ ____ ____ ____ ____ __
 72
    65
 73
     2
 40
0.75
 49
0.5
 49
-0.25
  0
LTYPE
  2
FANTOME
 70
     0
  3
______  __  __  ______  __  __  ______  __  __ 
 72
    65
 73
     6
 40
2.5
 49
1.25
 49
-0.25
 49
0.25
 49
-0.25
 49
0.25
 49
-0.25
  0
LTYPE
  2
FANTOME2
 70
     0
  3
___ _ _ ___ _ _ ___ _ _ ___ _ _ ___ _ _ ___ _ _
 72
    65
 73
     6
 40
1.25
 49
0.625
 49
-0.125
 49
0.125
 49
-0.125
 49
0.125
 49
-0.125
  0
LTYPE
  2
FANTOMEX2
 70
     0
  3
____________    ____    ____    ____________   
 72
    65
 73
     6
 40
5.0
 49
2.5
 49
-0.5
 49
0.5
 49
-0.5
 49
0.5
 49
-0.5
  0
LTYPE
  2
0
 70
     0
  3
MEDUSA PEN 0
 72
    65
 73
     0
 40
0.0
  0
LTYPE
  2
AI9-LTYPE1
 70
     0
  3
Illustrator Dash Style No.1
 72
    65
 73
     4
 40
5.64621
 49
4.106333
 49
-0.307975
 49
0.923926
 49
-0.307975
  0
LTYPE
  2
AI9-LTYPE2
 70
     0
  3
Illustrator Dash Style No.2
 72
    65
 73
     2
 40
1.33456
 49
1.026585
 49
-0.307975
  0
ENDTAB
  0
TABLE
  2
LAYER
 70
    17
  0
LAYER
  2
0
 70
     0
 62
     7
  6
CONTINUOUS
  0
LAYER
  2
TEXTE_MOYEN
 70
     0
 62
   131
  6
CONTINUOUS
  0
LAYER
  2
ALPHA
 70
     0
 62
   254
  6
CONTINUOUS
  0
LAYER
  2
COTATION1
 70
     0
 62
    50
  6
CONTINUOUS
  0
LAYER
  2
AXE
 70
     0
 62
    80
  6
AXES2
  0
LAYER
  2
DEFPOINTS
 70
     0
 62
     7
  6
CONTINUOUS
  0
LAYER
  2
HACHURES1
 70
     0
 62
   130
  6
CONTINUOUS
  0
LAYER
  2
FMULT
 70
     0
 62
   210
  6
CONTINUOUS
  0
LAYER
  2
FDP_CARTOUCHE
 70
     0
 62
   136
  6
CONTINUOUS
  0
LAYER
  2
FDP_TEXTES
 70
     0
 62
   171
  6
CONTINUOUS
  0
LAYER
  2
FDP_LOGO_MG
 70
     0
 62
    30
  6
CONTINUOUS
  0
LAYER
  2
FDP_LOGO_SCH
 70
     0
 62
    90
  6
CONTINUOUS
  0
LAYER
  2
FDP_FDP
 70
     0
 62
   170
  6
CONTINUOUS
  0
LAYER
  2
POINTILLE_COURT2
 70
     0
 62
    41
  6
CACHE2
  0
LAYER
  2
POINTILLE_MOYEN2
 70
     0
 62
   141
  6
CACHE
  0
LAYER
  2
POINTILLE_LONG2
 70
     0
 62
   241
  6
CACHEX2
  0
LAYER
  2
ALPHA_FIN
 70
     0
 62
   255
  6
CONTINUOUS
  0
ENDTAB
  0
TABLE
  2
STYLE
 70
     5
  0
STYLE
  2
ROMANS
 70
     0
 40
0.0
 41
1.0
 50
0.0
 71
     0
 42
6.0
  3
romans
  4

  0
STYLE
  2
STANDARD
 70
     0
 40
0.2
 41
1.0
 50
0.0
 71
     0
 42
0.2
  3
txt
  4

  0
STYLE
  2
STD
 70
     0
 40
0.0
 41
1.0
 50
0.0
 71
     0
 42
0.0
  3
txt
  4

  0
STYLE
  2
INFOCAR
 70
     0
 40
0.0
 41
1.34
 50
0.0
 71
     0
 42
2.0
  3
ROMANS.SHX
  4

  0
STYLE
  2
CARTOUCHE
 70
     0
 40
0.0
 41
1.0
 50
0.0
 71
     0
 42
0.2
  3
ROMANS.SHX
  4

  0
ENDTAB
  0
TABLE
  2
VIEW
 70
     0
  0
ENDTAB
  0
TABLE
  2
UCS
 70
     0
  0
ENDTAB
  0
TABLE
  2
APPID
 70
     3
  0
APPID
  2
ACAD
 70
     0
  0
APPID
  2
AVE_RENDER
 70
     0
  0
APPID
  2
AVE_MATERIAL
 70
     0
  0
ENDTAB
  0
TABLE
  2
DIMSTYLE
 70
     1
  0
DIMSTYLE
  2
ROMANS
 70
     0
  3

  4

  5
OPEN30
  6

  7

 40
1.0
 41
2.0
 42
0.5
 43
0.38
 44
0.18
 45
0.0
 46
0.0
 47
0.0
 48
0.0
140
2.0
141
0.09
142
0.0
143
25.4
144
1.0
145
0.0
146
1.0
147
0.5
 71
     0
 72
     0
 73
     0
 74
     1
 75
     0
 76
     0
 77
     1
 78
    12
170
     0
171
     2
172
     0
173
     0
174
     0
175
     0
176
     0
177
     0
178
     0
  0
ENDTAB
  0
ENDSEC
  0
SECTION
  2
BLOCKS
  0
BLOCK
  8
0
  2
$MODEL_SPACE
 70
     0
 10
0.0
 20
0.0
 30
0.0
  3
$MODEL_SPACE
  1

  0
ENDBLK
  5
567D
  8
0
  0
BLOCK
 67
     1
  8
0
  2
$PAPER_SPACE
 70
     0
 10
0.0
 20
0.0
 30
0.0
  3
$PAPER_SPACE
  1

  0
ENDBLK
  5
567B
 67
     1
  8
0
  0
BLOCK
  8
0
  2
COTE
 70
     0
 10
0.0
 20
0.0
 30
0.0
  3
COTE
  1

  0
ENDBLK
  5
35
  8
0
  0
BLOCK
  8
0
  2
FOND
 70
     0
 10
0.0
 20
0.0
 30
0.0
  3
FOND
  1

  0
ENDBLK
  5
39
  8
0
  0
BLOCK
  8
0
  2
SCH_ISO
 70
     0
 10
0.0
 20
0.0
 30
0.0
  3
SCH_ISO
  1

  0
ENDBLK
  5
24AD
  8
0
  0
BLOCK
  8
0
  2
_OPEN30
 70
     0
 10
0.0
 20
0.0
 30
0.0
  3
_OPEN30
  1

  0
LINE
  5
27E1
  8
COTATION1
 62
     0
 10
-1.0
 20
0.267949
 30
0.0
 11
0.0
 21
0.0
 31
0.0
1001
ACAD
1000
RTLwPs
1070
   158
  0
LINE
  5
27E2
  8
COTATION1
 62
     0
 10
0.0
 20
0.0
 30
0.0
 11
-1.0
 21
-0.267949
 31
0.0
1001
ACAD
1000
RTLwPs
1070
   158
  0
LINE
  5
27E3
  8
COTATION1
 62
     0
 10
0.0
 20
0.0
 30
0.0
 11
-1.0
 21
0.0
 31
0.0
1001
ACAD
1000
RTLwPs
1070
   158
  0
ENDBLK
  5
27E5
  8
0
  0
BLOCK
  8
0
  2
*D4
 70
     1
 10
0.0
 20
0.0
 30
0.0
  3
*D4
  1

  0
LINE
  5
53B3
  8
COTATION1
 62
     0
 10
400.491965
 20
49.873038
 30
0.0
 11
378.222304
 21
49.873038
 31
0.0
1001
ACAD
1000
RTLwPs
1070
   158
  0
LINE
  5
53B4
  8
COTATION1
 62
     0
 10
400.491965
 20
-10.126946
 30
0.0
 11
378.222304
 21
-10.126946
 31
0.0
1001
ACAD
1000
RTLwPs
1070
   158
  0
LINE
  5
53B5
  8
COTATION1
 62
     0
 10
378.402304
 20
47.873038
 30
0.0
 11
378.402304
 21
-8.126946
 31
0.0
1001
ACAD
1000
RTLwPs
1070
   158
  0
INSERT
  5
53B6
  8
COTATION1
 62
     0
  2
_OPEN30
 10
378.402304
 20
49.873038
 30
0.0
 41
2.0
 42
2.0
 43
2.0
 50
90.0
1001
ACAD
1000
RTLwPs
1070
   158
  0
INSERT
  5
53B7
  8
COTATION1
 62
     0
  2
_OPEN30
 10
378.402304
 20
-10.126946
 30
0.0
 41
2.0
 42
2.0
 43
2.0
 50
270.0
1001
ACAD
1000
RTLwPs
1070
   158
  0
TEXT
  5
53B8
  8
COTATION1
 62
     0
 10
377.902304
 20
17.920665
 30
0.0
 40
2.0
  1
60
 50
90.0
1001
ACAD
1000
MTEXTBEGIN
1070
    73
1070
     1
1070
    44
1040
1.0
1070
    74
1070
     0
1000
MTEXTEND
  0
POINT
  5
53B9
  8
DEFPOINTS
 62
     0
 10
400.991965
 20
49.873038
 30
0.0
  0
POINT
  5
53BA
  8
DEFPOINTS
 62
     0
 10
400.991965
 20
-10.126946
 30
0.0
  0
POINT
  5
53BB
  8
DEFPOINTS
 62
     0
 10
378.402304
 20
-10.126946
 30
0.0
  0
ENDBLK
  5
5060
  8
0
  0
BLOCK
  8
0
  2
*D5
 70
     1
 10
0.0
 20
0.0
 30
0.0
  3
*D5
  1

  0
LINE
  5
53BC
  8
COTATION1
 62
     0
 10
393.403277
 20
26.889304
 30
0.0
 11
393.403277
 21
65.053038
 31
0.0
1001
ACAD
1000
RTLwPs
1070
   158
  0
LINE
  5
53BD
  8
COTATION1
 62
     0
 10
421.403271
 20
26.905917
 30
0.0
 11
421.403271
 21
65.053038
 31
0.0
1001
ACAD
1000
RTLwPs
1070
   158
  0
LINE
  5
53BE
  8
COTATION1
 62
     0
 10
395.403277
 20
64.873038
 30
0.0
 11
419.403271
 21
64.873038
 31
0.0
1001
ACAD
1000
RTLwPs
1070
   158
  0
INSERT
  5
53BF
  8
COTATION1
 62
     0
  2
_OPEN30
 10
393.403277
 20
64.873038
 30
0.0
 41
2.0
 42
2.0
 43
2.0
 50
180.0
1001
ACAD
1000
RTLwPs
1070
   158
  0
INSERT
  5
53C0
  8
COTATION1
 62
     0
  2
_OPEN30
 10
421.403271
 20
64.873038
 30
0.0
 41
2.0
 42
2.0
 43
2.0
1001
ACAD
1000
RTLwPs
1070
   158
  0
TEXT
  5
53C1
  8
COTATION1
 62
     0
 10
405.498512
 20
65.373038
 30
0.0
 40
2.0
  1
28
1001
ACAD
1000
MTEXTBEGIN
1070
    73
1070
     1
1070
    44
1040
1.0
1070
    74
1070
     0
1000
MTEXTEND
  0
POINT
  5
53C2
  8
DEFPOINTS
 62
     0
 10
393.403277
 20
26.389304
 30
0.0
  0
POINT
  5
53C3
  8
DEFPOINTS
 62
     0
 10
421.403271
 20
26.405917
 30
0.0
  0
POINT
  5
53C4
  8
DEFPOINTS
 62
     0
 10
421.403271
 20
64.873038
 30
0.0
  0
ENDBLK
  5
50F5
  8
0
  0
BLOCK
  8
0
  2
*D6
 70
     1
 10
0.0
 20
0.0
 30
0.0
  3
*D6
  1

  0
LINE
  5
53AA
  8
COTATION1
 62
     0
 10
421.403271
 20
26.905917
 30
0.0
 11
421.403271
 21
65.053038
 31
0.0
1001
ACAD
1000
RTLwPs
1070
   158
  0
LINE
  5
53AB
  8
COTATION1
 62
     0
 10
461.90327
 20
26.905917
 30
0.0
 11
461.90327
 21
65.053038
 31
0.0
1001
ACAD
1000
RTLwPs
1070
   158
  0
LINE
  5
53AC
  8
COTATION1
 62
     0
 10
423.403271
 20
64.873038
 30
0.0
 11
459.90327
 21
64.873038
 31
0.0
1001
ACAD
1000
RTLwPs
1070
   158
  0
INSERT
  5
53AD
  8
COTATION1
 62
     0
  2
_OPEN30
 10
421.403271
 20
64.873038
 30
0.0
 41
2.0
 42
2.0
 43
2.0
 50
180.0
1001
ACAD
1000
RTLwPs
1070
   158
  0
INSERT
  5
53AE
  8
COTATION1
 62
     0
  2
_OPEN30
 10
461.90327
 20
64.873038
 30
0.0
 41
2.0
 42
2.0
 43
2.0
1001
ACAD
1000
RTLwPs
1070
   158
  0
TEXT
  5
53AF
  8
COTATION1
 62
     0
 10
438.319937
 20
65.373038
 30
0.0
 40
2.0
  1
40.5
1001
ACAD
1000
MTEXTBEGIN
1070
    73
1070
     1
1070
    44
1040
1.0
1070
    74
1070
     0
1000
MTEXTEND
  0
POINT
  5
53B0
  8
DEFPOINTS
 62
     0
 10
421.403271
 20
26.405917
 30
0.0
  0
POINT
  5
53B1
  8
DEFPOINTS
 62
     0
 10
461.90327
 20
26.405917
 30
0.0
  0
POINT
  5
53B2
  8
DEFPOINTS
 62
     0
 10
461.90327
 20
64.873038
 30
0.0
  0
ENDBLK
  5
519C
  8
0
  0
ENDSEC
  0
SECTION
  2
ENTITIES
  0
INSERT
  5
32
  8
0
  2
COTE
 10
0.0
 20
0.0
 30
0.0
  0
INSERT
  5
36
  8
0
  2
FOND
 10
0.0
 20
0.0
 30
0.0
  0
INSERT
  5
24AE
  8
ALPHA
  2
SCH_ISO
 10
-66.27012
 20
-238.940658
 30
0.0
  0
LINE
  5
4AEE
  8
ALPHA
 10
416.707964
 20
-10.340772
 30
0.0
 11
419.787764
 21
-10.340772
 31
0.0
  0
POLYLINE
  5
4AEF
  8
ALPHA
 66
     1
 10
0.0
 20
0.0
 30
0.0
 70
   128
  0
VERTEX
  5
5683
  8
ALPHA
 10
395.068046
 20
13.766017
 30
0.0
  0
VERTEX
  5
5684
  8
ALPHA
 10
395.34566
 20
13.765791
 30
0.0
  0
VERTEX
  5
5685
  8
ALPHA
 10
396.130221
 20
13.765154
 30
0.0
  0
VERTEX
  5
5686
  8
ALPHA
 10
397.349309
 20
13.764163
 30
0.0
  0
VERTEX
  5
5687
  8
ALPHA
 10
398.930502
 20
13.762879
 30
0.0
  0
VERTEX
  5
5688
  8
ALPHA
 10
400.801379
 20
13.761359
 30
0.0
  0
VERTEX
  5
5689
  8
ALPHA
 10
402.889519
 20
13.759662
 30
0.0
  0
VERTEX
  5
568A
  8
ALPHA
 10
407.427905
 20
13.755975
 30
0.0
  0
VERTEX
  5
568B
  8
ALPHA
 10
411.966291
 20
13.752288
 30
0.0
  0
VERTEX
  5
568C
  8
ALPHA
 10
414.054431
 20
13.750592
 30
0.0
  0
VERTEX
  5
568D
  8
ALPHA
 10
415.925308
 20
13.749072
 30
0.0
  0
VERTEX
  5
568E
  8
ALPHA
 10
417.506501
 20
13.747787
 30
0.0
  0
VERTEX
  5
568F
  8
ALPHA
 10
418.725589
 20
13.746797
 30
0.0
  0
VERTEX
  5
5690
  8
ALPHA
 10
419.51015
 20
13.746159
 30
0.0
  0
VERTEX
  5
5691
  8
ALPHA
 10
419.787764
 20
13.745934
 30
0.0
  0
SEQEND
  5
5692
  8
ALPHA
  0
POLYLINE
  5
4AF0
  8
ALPHA
 66
     1
 10
0.0
 20
0.0
 30
0.0
 70
   128
  0
VERTEX
  5
5693
  8
ALPHA
 10
419.787764
 20
49.873038
 30
0.0
  0
VERTEX
  5
5694
  8
ALPHA
 10
419.510515
 20
49.873038
 30
0.0
  0
VERTEX
  5
5695
  8
ALPHA
 10
418.726985
 20
49.873038
 30
0.0
  0
VERTEX
  5
5696
  8
ALPHA
 10
417.509499
 20
49.873038
 30
0.0
  0
VERTEX
  5
5697
  8
ALPHA
 10
415.930384
 20
49.873038
 30
0.0
  0
VERTEX
  5
5698
  8
ALPHA
 10
414.061966
 20
49.873038
 30
0.0
  0
VERTEX
  5
5699
  8
ALPHA
 10
411.97657
 20
49.873038
 30
0.0
  0
VERTEX
  5
569A
  8
ALPHA
 10
407.444149
 20
49.873038
 30
0.0
  0
VERTEX
  5
569B
  8
ALPHA
 10
402.911727
 20
49.873038
 30
0.0
  0
VERTEX
  5
569C
  8
ALPHA
 10
400.826331
 20
49.873038
 30
0.0
  0
VERTEX
  5
569D
  8
ALPHA
 10
398.957913
 20
49.873038
 30
0.0
  0
VERTEX
  5
569E
  8
ALPHA
 10
397.378798
 20
49.873038
 30
0.0
  0
VERTEX
  5
569F
  8
ALPHA
 10
396.161313
 20
49.873038
 30
0.0
  0
VERTEX
  5
56A0
  8
ALPHA
 10
395.377782
 20
49.873038
 30
0.0
  0
VERTEX
  5
56A1
  8
ALPHA
 10
395.100533
 20
49.873038
 30
0.0
  0
VERTEX
  5
56A2
  8
ALPHA
 10
395.092582
 20
49.20764
 30
0.0
  0
VERTEX
  5
56A3
  8
ALPHA
 10
395.08574
 20
48.191659
 30
0.0
  0
VERTEX
  5
56A4
  8
ALPHA
 10
395.079937
 20
46.854757
 30
0.0
  0
VERTEX
  5
56A5
  8
ALPHA
 10
395.075106
 20
45.226592
 30
0.0
  0
VERTEX
  5
56A6
  8
ALPHA
 10
395.071179
 20
43.336823
 30
0.0
  0
VERTEX
  5
56A7
  8
ALPHA
 10
395.068086
 20
41.215109
 30
0.0
  0
VERTEX
  5
56A8
  8
ALPHA
 10
395.06576
 20
38.89111
 30
0.0
  0
VERTEX
  5
56A9
  8
ALPHA
 10
395.064132
 20
36.394484
 30
0.0
  0
VERTEX
  5
56AA
  8
ALPHA
 10
395.062698
 20
31.001989
 30
0.0
  0
VERTEX
  5
56AB
  8
ALPHA
 10
395.063237
 20
25.274897
 30
0.0
  0
VERTEX
  5
56AC
  8
ALPHA
 10
395.065202
 20
19.450482
 30
0.0
  0
VERTEX
  5
56AD
  8
ALPHA
 10
395.068046
 20
13.766017
 30
0.0
  0
SEQEND
  5
56AE
  8
ALPHA
  0
POLYLINE
  5
4AF8
  8
ALPHA
 66
     1
 10
0.0
 20
0.0
 30
0.0
 70
   128
  0
VERTEX
  5
56AF
  8
ALPHA
 10
416.274997
 20
-10.126946
 30
0.0
  0
VERTEX
  5
56B0
  8
ALPHA
 10
416.177402
 20
-10.126946
 30
0.0
  0
VERTEX
  5
56B1
  8
ALPHA
 10
415.897212
 20
-10.126946
 30
0.0
  0
VERTEX
  5
56B2
  8
ALPHA
 10
415.453314
 20
-10.126946
 30
0.0
  0
VERTEX
  5
56B3
  8
ALPHA
 10
414.8646
 20
-10.126946
 30
0.0
  0
VERTEX
  5
56B4
  8
ALPHA
 10
413.328274
 20
-10.126946
 30
0.0
  0
VERTEX
  5
56B5
  8
ALPHA
 10
411.43935
 20
-10.126946
 30
0.0
  0
VERTEX
  5
56B6
  8
ALPHA
 10
407.208159
 20
-10.126946
 30
0.0
  0
VERTEX
  5
56B7
  8
ALPHA
 10
405.16812
 20
-10.126946
 30
0.0
  0
VERTEX
  5
56B8
  8
ALPHA
 10
403.379938
 20
-10.126946
 30
0.0
  0
VERTEX
  5
56B9
  8
ALPHA
 10
401.994727
 20
-10.126946
 30
0.0
  0
VERTEX
  5
56BA
  8
ALPHA
 10
401.500459
 20
-10.126946
 30
0.0
  0
VERTEX
  5
56BB
  8
ALPHA
 10
401.1636
 20
-10.126946
 30
0.0
  0
VERTEX
  5
56BC
  8
ALPHA
 10
401.003042
 20
-10.126946
 30
0.0
  0
VERTEX
  5
56BD
  8
ALPHA
 10
400.90295
 20
-10.12995
 30
0.0
  0
VERTEX
  5
56BE
  8
ALPHA
 10
400.6404
 20
-10.133825
 30
0.0
  0
VERTEX
  5
56BF
  8
ALPHA
 10
399.656837
 20
-10.073284
 30
0.0
  0
VERTEX
  5
56C0
  8
ALPHA
 10
398.777716
 20
-9.893809
 30
0.0
  0
VERTEX
  5
56C1
  8
ALPHA
 10
398.000141
 20
-9.599037
 30
0.0
  0
VERTEX
  5
56C2
  8
ALPHA
 10
397.321216
 20
-9.192607
 30
0.0
  0
VERTEX
  5
56C3
  8
ALPHA
 10
396.738043
 20
-8.678158
 30
0.0
  0
VERTEX
  5
56C4
  8
ALPHA
 10
395.847366
 20
-7.339757
 30
0.0
  0
VERTEX
  5
56C5
  8
ALPHA
 10
395.304936
 20
-5.612943
 30
0.0
  0
VERTEX
  5
56C6
  8
ALPHA
 10
395.157071
 20
-4.612977
 30
0.0
  0
VERTEX
  5
56C7
  8
ALPHA
 10
395.132463
 20
-4.349377
 30
0.0
  0
VERTEX
  5
56C8
  8
ALPHA
 10
395.121172
 20
-4.200875
 30
0.0
  0
VERTEX
  5
56C9
  8
ALPHA
 10
395.109125
 20
-3.966607
 30
0.0
  0
VERTEX
  5
56CA
  8
ALPHA
 10
395.087068
 20
-3.256552
 30
0.0
  0
VERTEX
  5
56CB
  8
ALPHA
 10
395.06764
 20
-2.244779
 30
0.0
  0
VERTEX
  5
56CC
  8
ALPHA
 10
395.050734
 20
-0.955654
 30
0.0
  0
VERTEX
  5
56CD
  8
ALPHA
 10
395.036247
 20
0.586455
 30
0.0
  0
VERTEX
  5
56CE
  8
ALPHA
 10
395.024072
 20
2.357183
 30
0.0
  0
VERTEX
  5
56CF
  8
ALPHA
 10
395.014105
 20
4.332164
 30
0.0
  0
VERTEX
  5
56D0
  8
ALPHA
 10
395.00624
 20
6.48703
 30
0.0
  0
VERTEX
  5
56D1
  8
ALPHA
 10
395.000373
 20
8.797416
 30
0.0
  0
VERTEX
  5
56D2
  8
ALPHA
 10
394.994211
 20
13.787281
 30
0.0
  0
SEQEND
  5
56D3
  8
ALPHA
  0
POLYLINE
  5
4AF9
  8
ALPHA
 66
     1
 10
0.0
 20
0.0
 30
0.0
 70
   128
  0
VERTEX
  5
56D4
  8
ALPHA
 10
393.398787
 20
9.927785
 30
0.0
  0
VERTEX
  5
56D5
  8
ALPHA
 10
393.398807
 20
10.002338
 30
0.0
  0
VERTEX
  5
56D6
  8
ALPHA
 10
393.398867
 20
10.21965
 30
0.0
  0
VERTEX
  5
56D7
  8
ALPHA
 10
393.399092
 20
11.044487
 30
0.0
  0
VERTEX
  5
56D8
  8
ALPHA
 10
393.399441
 20
12.326156
 30
0.0
  0
VERTEX
  5
56D9
  8
ALPHA
 10
393.399895
 20
13.988518
 30
0.0
  0
VERTEX
  5
56DA
  8
ALPHA
 10
393.400431
 20
15.955436
 30
0.0
  0
VERTEX
  5
56DB
  8
ALPHA
 10
393.40103
 20
18.15077
 30
0.0
  0
VERTEX
  5
56DC
  8
ALPHA
 10
393.402331
 20
22.922131
 30
0.0
  0
VERTEX
  5
56DD
  8
ALPHA
 10
393.403632
 20
27.693492
 30
0.0
  0
VERTEX
  5
56DE
  8
ALPHA
 10
393.404231
 20
29.888826
 30
0.0
  0
VERTEX
  5
56DF
  8
ALPHA
 10
393.404768
 20
31.855744
 30
0.0
  0
VERTEX
  5
56E0
  8
ALPHA
 10
393.405221
 20
33.518106
 30
0.0
  0
VERTEX
  5
56E1
  8
ALPHA
 10
393.405571
 20
34.799775
 30
0.0
  0
VERTEX
  5
56E2
  8
ALPHA
 10
393.405796
 20
35.624612
 30
0.0
  0
VERTEX
  5
56E3
  8
ALPHA
 10
393.405855
 20
35.841924
 30
0.0
  0
VERTEX
  5
56E4
  8
ALPHA
 10
393.405875
 20
35.916477
 30
0.0
  0
VERTEX
  5
56E5
  8
ALPHA
 10
393.475698
 20
37.030416
 30
0.0
  0
VERTEX
  5
56E6
  8
ALPHA
 10
393.659775
 20
37.84329
 30
0.0
  0
VERTEX
  5
56E7
  8
ALPHA
 10
394.218354
 20
39.00558
 30
0.0
  0
VERTEX
  5
56E8
  8
ALPHA
 10
394.516686
 20
39.574867
 30
0.0
  0
VERTEX
  5
56E9
  8
ALPHA
 10
394.776933
 20
40.282831
 30
0.0
  0
VERTEX
  5
56EA
  8
ALPHA
 10
394.961011
 20
41.239405
 30
0.0
  0
VERTEX
  5
56EB
  8
ALPHA
 10
395.030833
 20
42.554527
 30
0.0
  0
SEQEND
  5
56EC
  8
ALPHA
  0
POLYLINE
  5
4B00
  8
ALPHA
 66
     1
 10
0.0
 20
0.0
 30
0.0
 70
   128
  0
VERTEX
  5
56ED
  8
ALPHA
 10
395.016066
 20
3.289735
 30
0.0
  0
VERTEX
  5
56EE
  8
ALPHA
 10
394.946574
 20
4.604469
 30
0.0
  0
VERTEX
  5
56EF
  8
ALPHA
 10
394.763366
 20
5.560767
 30
0.0
  0
VERTEX
  5
56F0
  8
ALPHA
 10
394.504349
 20
6.268564
 30
0.0
  0
VERTEX
  5
56F1
  8
ALPHA
 10
394.207427
 20
6.837796
 30
0.0
  0
VERTEX
  5
56F2
  8
ALPHA
 10
393.651487
 20
8.000307
 30
0.0
  0
VERTEX
  5
56F3
  8
ALPHA
 10
393.46828
 20
8.813458
 30
0.0
  0
VERTEX
  5
56F4
  8
ALPHA
 10
393.398787
 20
9.927785
 30
0.0
  0
SEQEND
  5
56F5
  8
ALPHA
  0
POLYLINE
  5
4B02
  8
ALPHA
 66
     1
 10
0.0
 20
0.0
 30
0.0
 70
   128
  0
VERTEX
  5
56F6
  8
ALPHA
 10
398.058653
 20
13.745934
 30
0.0
  0
VERTEX
  5
56F7
  8
ALPHA
 10
398.058653
 20
13.630014
 30
0.0
  0
VERTEX
  5
56F8
  8
ALPHA
 10
398.058653
 20
13.297212
 30
0.0
  0
VERTEX
  5
56F9
  8
ALPHA
 10
398.058653
 20
12.769963
 30
0.0
  0
VERTEX
  5
56FA
  8
ALPHA
 10
398.058653
 20
12.070705
 30
0.0
  0
VERTEX
  5
56FB
  8
ALPHA
 10
398.058653
 20
10.245902
 30
0.0
  0
VERTEX
  5
56FC
  8
ALPHA
 10
398.058653
 20
8.002292
 30
0.0
  0
VERTEX
  5
56FD
  8
ALPHA
 10
398.058653
 20
2.976605
 30
0.0
  0
VERTEX
  5
56FE
  8
ALPHA
 10
398.058653
 20
0.553506
 30
0.0
  0
VERTEX
  5
56FF
  8
ALPHA
 10
398.058653
 20
-1.570445
 30
0.0
  0
VERTEX
  5
5700
  8
ALPHA
 10
398.058653
 20
-2.46415
 30
0.0
  0
VERTEX
  5
5701
  8
ALPHA
 10
398.058653
 20
-3.215759
 30
0.0
  0
VERTEX
  5
5702
  8
ALPHA
 10
398.058653
 20
-3.802837
 30
0.0
  0
VERTEX
  5
5703
  8
ALPHA
 10
398.058653
 20
-4.202947
 30
0.0
  0
VERTEX
  5
5704
  8
ALPHA
 10
398.058653
 20
-4.393654
 30
0.0
  0
VERTEX
  5
5705
  8
ALPHA
 10
398.064154
 20
-4.647532
 30
0.0
  0
VERTEX
  5
5706
  8
ALPHA
 10
398.142587
 20
-5.290968
 30
0.0
  0
VERTEX
  5
5707
  8
ALPHA
 10
398.532213
 20
-6.257391
 30
0.0
  0
VERTEX
  5
5708
  8
ALPHA
 10
399.140334
 20
-6.864183
 30
0.0
  0
VERTEX
  5
5709
  8
ALPHA
 10
399.856729
 20
-7.192502
 30
0.0
  0
VERTEX
  5
570A
  8
ALPHA
 10
400.571178
 20
-7.323508
 30
0.0
  0
VERTEX
  5
570B
  8
ALPHA
 10
400.893228
 20
-7.34038
 30
0.0
  0
VERTEX
  5
570C
  8
ALPHA
 10
401.332876
 20
-7.341304
 30
0.0
  0
VERTEX
  5
570D
  8
ALPHA
 10
402.337511
 20
-7.341304
 30
0.0
  0
VERTEX
  5
570E
  8
ALPHA
 10
403.813285
 20
-7.341304
 30
0.0
  0
VERTEX
  5
570F
  8
ALPHA
 10
405.624319
 20
-7.341304
 30
0.0
  0
VERTEX
  5
5710
  8
ALPHA
 10
407.634734
 20
-7.341304
 30
0.0
  0
VERTEX
  5
5711
  8
ALPHA
 10
411.710191
 20
-7.341304
 30
0.0
  0
VERTEX
  5
5712
  8
ALPHA
 10
413.503475
 20
-7.341304
 30
0.0
  0
VERTEX
  5
5713
  8
ALPHA
 10
414.952623
 20
-7.341304
 30
0.0
  0
VERTEX
  5
5714
  8
ALPHA
 10
415.921757
 20
-7.341304
 30
0.0
  0
VERTEX
  5
5715
  8
ALPHA
 10
416.183856
 20
-7.341304
 30
0.0
  0
VERTEX
  5
5716
  8
ALPHA
 10
416.274997
 20
-7.341304
 30
0.0
  0
SEQEND
  5
5717
  8
ALPHA
  0
LINE
  5
4B03
  8
ALPHA
 10
416.707964
 20
13.745934
 30
0.0
 11
416.707964
 21
-10.340772
 31
0.0
  0
POLYLINE
  5
4B04
  8
ALPHA
 66
     1
 10
0.0
 20
0.0
 30
0.0
 70
   128
  0
VERTEX
  5
5718
  8
ALPHA
 10
416.274997
 20
-7.341304
 30
0.0
  0
VERTEX
  5
5719
  8
ALPHA
 10
416.274997
 20
-7.461
 30
0.0
  0
VERTEX
  5
571A
  8
ALPHA
 10
416.274997
 20
-7.776561
 30
0.0
  0
VERTEX
  5
571B
  8
ALPHA
 10
416.274997
 20
-8.734125
 30
0.0
  0
VERTEX
  5
571C
  8
ALPHA
 10
416.274997
 20
-9.691689
 30
0.0
  0
VERTEX
  5
571D
  8
ALPHA
 10
416.274997
 20
-10.00725
 30
0.0
  0
VERTEX
  5
571E
  8
ALPHA
 10
416.274997
 20
-10.126946
 30
0.0
  0
SEQEND
  5
571F
  8
ALPHA
  0
POLYLINE
  5
4B14
  8
ALPHA
 66
     1
 10
0.0
 20
0.0
 30
0.0
 70
   128
  0
VERTEX
  5
5720
  8
ALPHA
 10
419.787764
 20
13.745934
 30
0.0
  0
VERTEX
  5
5721
  8
ALPHA
 10
419.787764
 20
13.84957
 30
0.0
  0
VERTEX
  5
5722
  8
ALPHA
 10
419.787764
 20
14.151658
 30
0.0
  0
VERTEX
  5
5723
  8
ALPHA
 10
419.787764
 20
14.638968
 30
0.0
  0
VERTEX
  5
5724
  8
ALPHA
 10
419.787764
 20
15.29827
 30
0.0
  0
VERTEX
  5
5725
  8
ALPHA
 10
419.787764
 20
16.116334
 30
0.0
  0
VERTEX
  5
5726
  8
ALPHA
 10
419.787764
 20
17.079929
 30
0.0
  0
VERTEX
  5
5727
  8
ALPHA
 10
419.787764
 20
19.390794
 30
0.0
  0
VERTEX
  5
5728
  8
ALPHA
 10
419.787764
 20
22.125023
 30
0.0
  0
VERTEX
  5
5729
  8
ALPHA
 10
419.787764
 20
25.176775
 30
0.0
  0
VERTEX
  5
572A
  8
ALPHA
 10
419.787764
 20
31.809486
 30
0.0
  0
VERTEX
  5
572B
  8
ALPHA
 10
419.787764
 20
38.442197
 30
0.0
  0
VERTEX
  5
572C
  8
ALPHA
 10
419.787764
 20
41.493949
 30
0.0
  0
VERTEX
  5
572D
  8
ALPHA
 10
419.787764
 20
44.228178
 30
0.0
  0
VERTEX
  5
572E
  8
ALPHA
 10
419.787764
 20
46.539043
 30
0.0
  0
VERTEX
  5
572F
  8
ALPHA
 10
419.787764
 20
47.502638
 30
0.0
  0
VERTEX
  5
5730
  8
ALPHA
 10
419.787764
 20
48.320702
 30
0.0
  0
VERTEX
  5
5731
  8
ALPHA
 10
419.787764
 20
48.980004
 30
0.0
  0
VERTEX
  5
5732
  8
ALPHA
 10
419.787764
 20
49.467314
 30
0.0
  0
VERTEX
  5
5733
  8
ALPHA
 10
419.787764
 20
49.769402
 30
0.0
  0
VERTEX
  5
5734
  8
ALPHA
 10
419.787764
 20
49.873038
 30
0.0
  0
SEQEND
  5
5735
  8
ALPHA
  0
LINE
  5
4B24
  8
POINTILLE_COURT2
  6
AI9-LTYPE2
 10
444.166856
 20
16.663888
 30
0.0
 11
424.732338
 21
16.665069
 31
0.0
  0
LINE
  5
4B25
  8
POINTILLE_COURT2
  6
AI9-LTYPE2
 10
424.732338
 20
29.005533
 30
0.0
 11
444.166856
 21
29.005533
 31
0.0
  0
POLYLINE
  5
4B26
  8
ALPHA
 66
     1
 10
0.0
 20
0.0
 30
0.0
 70
   128
  0
VERTEX
  5
5736
  8
ALPHA
 10
452.481941
 20
10.501925
 30
0.0
  0
VERTEX
  5
5737
  8
ALPHA
 10
452.205342
 20
10.464869
 30
0.0
  0
VERTEX
  5
5738
  8
ALPHA
 10
451.476125
 20
10.367176
 30
0.0
  0
VERTEX
  5
5739
  8
ALPHA
 10
450.445164
 20
10.229059
 30
0.0
  0
VERTEX
  5
573A
  8
ALPHA
 10
449.263331
 20
10.070729
 30
0.0
  0
VERTEX
  5
573B
  8
ALPHA
 10
448.081498
 20
9.9124
 30
0.0
  0
VERTEX
  5
573C
  8
ALPHA
 10
447.050537
 20
9.774282
 30
0.0
  0
VERTEX
  5
573D
  8
ALPHA
 10
446.321321
 20
9.67659
 30
0.0
  0
VERTEX
  5
573E
  8
ALPHA
 10
446.044722
 20
9.639534
 30
0.0
  0
VERTEX
  5
573F
  8
ALPHA
 10
445.767103
 20
9.745856
 30
0.0
  0
VERTEX
  5
5740
  8
ALPHA
 10
444.521295
 20
9.665967
 30
0.0
  0
VERTEX
  5
5741
  8
ALPHA
 10
442.990605
 20
9.517854
 30
0.0
  0
VERTEX
  5
5742
  8
ALPHA
 10
441.692623
 20
9.375057
 30
0.0
  0
VERTEX
  5
5743
  8
ALPHA
 10
441.292646
 20
9.328634
 30
0.0
  0
VERTEX
  5
5744
  8
ALPHA
 10
441.144942
 20
9.311116
 30
0.0
  0
VERTEX
  5
5745
  8
ALPHA
 10
438.855032
 20
9.802268
 30
0.0
  0
VERTEX
  5
5746
  8
ALPHA
 10
436.973162
 20
10.099839
 30
0.0
  0
VERTEX
  5
5747
  8
ALPHA
 10
435.383068
 20
10.223556
 30
0.0
  0
VERTEX
  5
5748
  8
ALPHA
 10
433.968489
 20
10.193148
 30
0.0
  0
VERTEX
  5
5749
  8
ALPHA
 10
431.200826
 20
9.748865
 30
0.0
  0
VERTEX
  5
574A
  8
ALPHA
 10
429.615217
 20
9.374446
 30
0.0
  0
VERTEX
  5
574B
  8
ALPHA
 10
427.740075
 20
8.924812
 30
0.0
  0
SEQEND
  5
574C
  8
ALPHA
  0
POLYLINE
  5
4B27
  8
ALPHA
 66
     1
 10
0.0
 20
0.0
 30
0.0
 70
   128
  0
VERTEX
  5
574D
  8
ALPHA
 10
421.403271
 20
36.481166
 30
0.0
  0
VERTEX
  5
574E
  8
ALPHA
 10
421.675556
 20
36.492638
 30
0.0
  0
VERTEX
  5
574F
  8
ALPHA
 10
422.393397
 20
36.522882
 30
0.0
  0
VERTEX
  5
5750
  8
ALPHA
 10
423.408275
 20
36.565642
 30
0.0
  0
VERTEX
  5
5751
  8
ALPHA
 10
424.571673
 20
36.614659
 30
0.0
  0
VERTEX
  5
5752
  8
ALPHA
 10
425.73507
 20
36.663676
 30
0.0
  0
VERTEX
  5
5753
  8
ALPHA
 10
426.749949
 20
36.706436
 30
0.0
  0
VERTEX
  5
5754
  8
ALPHA
 10
427.46779
 20
36.736681
 30
0.0
  0
VERTEX
  5
5755
  8
ALPHA
 10
427.740075
 20
36.748153
 30
0.0
  0
VERTEX
  5
5756
  8
ALPHA
 10
429.872253
 20
36.11396
 30
0.0
  0
VERTEX
  5
5757
  8
ALPHA
 10
431.682875
 20
35.705992
 30
0.0
  0
VERTEX
  5
5758
  8
ALPHA
 10
433.267812
 20
35.494859
 30
0.0
  0
VERTEX
  5
5759
  8
ALPHA
 10
434.722933
 20
35.451169
 30
0.0
  0
VERTEX
  5
575A
  8
ALPHA
 10
437.627209
 20
35.748558
 30
0.0
  0
VERTEX
  5
575B
  8
ALPHA
 10
439.268104
 20
36.030854
 30
0.0
  0
VERTEX
  5
575C
  8
ALPHA
 10
441.162663
 20
36.36303
 30
0.0
  0
VERTEX
  5
575D
  8
ALPHA
 10
443.805941
 20
36.293468
 30
0.0
  0
VERTEX
  5
575E
  8
ALPHA
 10
446.296891
 20
36.104682
 30
0.0
  0
VERTEX
  5
575F
  8
ALPHA
 10
448.614272
 20
35.826518
 30
0.0
  0
VERTEX
  5
5760
  8
ALPHA
 10
450.736842
 20
35.488825
 30
0.0
  0
VERTEX
  5
5761
  8
ALPHA
 10
452.643356
 20
35.121451
 30
0.0
  0
VERTEX
  5
5762
  8
ALPHA
 10
454.312573
 20
34.754242
 30
0.0
  0
VERTEX
  5
5763
  8
ALPHA
 10
455.723251
 20
34.417047
 30
0.0
  0
VERTEX
  5
5764
  8
ALPHA
 10
456.854146
 20
34.139714
 30
0.0
  0
VERTEX
  5
5765
  8
ALPHA
 10
458.529201
 20
33.543221
 30
0.0
  0
VERTEX
  5
5766
  8
ALPHA
 10
459.374772
 20
33.069079
 30
0.0
  0
VERTEX
  5
5767
  8
ALPHA
 10
460.166378
 20
32.446681
 30
0.0
  0
VERTEX
  5
5768
  8
ALPHA
 10
460.859526
 20
31.652783
 30
0.0
  0
VERTEX
  5
5769
  8
ALPHA
 10
461.409721
 20
30.664141
 30
0.0
  0
VERTEX
  5
576A
  8
ALPHA
 10
461.772467
 20
29.457511
 30
0.0
  0
VERTEX
  5
576B
  8
ALPHA
 10
461.90327
 20
28.009649
 30
0.0
  0
SEQEND
  5
576C
  8
ALPHA
  0
POLYLINE
  5
4B28
  8
ALPHA
 66
     1
 10
0.0
 20
0.0
 30
0.0
 70
   128
  0
VERTEX
  5
576D
  8
ALPHA
 10
421.403271
 20
9.833276
 30
0.0
  0
VERTEX
  5
576E
  8
ALPHA
 10
421.403271
 20
9.908473
 30
0.0
  0
VERTEX
  5
576F
  8
ALPHA
 10
421.403271
 20
10.127662
 30
0.0
  0
VERTEX
  5
5770
  8
ALPHA
 10
421.403271
 20
10.959623
 30
0.0
  0
VERTEX
  5
5771
  8
ALPHA
 10
421.403271
 20
12.252361
 30
0.0
  0
VERTEX
  5
5772
  8
ALPHA
 10
421.403271
 20
13.929081
 30
0.0
  0
VERTEX
  5
5773
  8
ALPHA
 10
421.403271
 20
15.912986
 30
0.0
  0
VERTEX
  5
5774
  8
ALPHA
 10
421.403271
 20
18.127281
 30
0.0
  0
VERTEX
  5
5775
  8
ALPHA
 10
421.403271
 20
22.939851
 30
0.0
  0
VERTEX
  5
5776
  8
ALPHA
 10
421.403271
 20
27.752422
 30
0.0
  0
VERTEX
  5
5777
  8
ALPHA
 10
421.403271
 20
29.966716
 30
0.0
  0
VERTEX
  5
5778
  8
ALPHA
 10
421.403271
 20
31.950621
 30
0.0
  0
VERTEX
  5
5779
  8
ALPHA
 10
421.403271
 20
33.627341
 30
0.0
  0
VERTEX
  5
577A
  8
ALPHA
 10
421.403271
 20
34.92008
 30
0.0
  0
VERTEX
  5
577B
  8
ALPHA
 10
421.403271
 20
35.75204
 30
0.0
  0
VERTEX
  5
577C
  8
ALPHA
 10
421.403271
 20
35.97123
 30
0.0
  0
VERTEX
  5
577D
  8
ALPHA
 10
421.403271
 20
36.046426
 30
0.0
  0
VERTEX
  5
577E
  8
ALPHA
 10
421.333855
 20
37.160756
 30
0.0
  0
VERTEX
  5
577F
  8
ALPHA
 10
421.150848
 20
37.973922
 30
0.0
  0
VERTEX
  5
5780
  8
ALPHA
 10
420.595518
 20
39.136563
 30
0.0
  0
VERTEX
  5
5781
  8
ALPHA
 10
420.298921
 20
39.705936
 30
0.0
  0
VERTEX
  5
5782
  8
ALPHA
 10
420.040187
 20
40.413943
 30
0.0
  0
VERTEX
  5
5783
  8
ALPHA
 10
419.857181
 20
41.370534
 30
0.0
  0
VERTEX
  5
5784
  8
ALPHA
 10
419.787764
 20
42.685657
 30
0.0
  0
SEQEND
  5
5785
  8
ALPHA
  0
LINE
  5
4B29
  8
POINTILLE_COURT2
  6
AI9-LTYPE2
 10
441.28198
 20
9.311116
 30
0.0
 11
441.28198
 21
16.663888
 31
0.0
  0
LINE
  5
4B2A
  8
POINTILLE_COURT2
  6
AI9-LTYPE2
 10
427.621939
 20
8.924812
 30
0.0
 11
427.621939
 21
16.663888
 31
0.0
  0
LINE
  5
4B2B
  8
ALPHA
 10
419.787764
 20
-10.340772
 30
0.0
 11
419.787764
 21
13.745934
 31
0.0
  0
POLYLINE
  5
4B2C
  8
ALPHA
 66
     1
 10
0.0
 20
0.0
 30
0.0
 70
   128
  0
VERTEX
  5
5786
  8
ALPHA
 10
427.740075
 20
8.924812
 30
0.0
  0
VERTEX
  5
5787
  8
ALPHA
 10
427.46779
 20
8.93598
 30
0.0
  0
VERTEX
  5
5788
  8
ALPHA
 10
426.749949
 20
8.965421
 30
0.0
  0
VERTEX
  5
5789
  8
ALPHA
 10
425.73507
 20
9.007046
 30
0.0
  0
VERTEX
  5
578A
  8
ALPHA
 10
424.571673
 20
9.054762
 30
0.0
  0
VERTEX
  5
578B
  8
ALPHA
 10
423.408275
 20
9.102477
 30
0.0
  0
VERTEX
  5
578C
  8
ALPHA
 10
422.393397
 20
9.144102
 30
0.0
  0
VERTEX
  5
578D
  8
ALPHA
 10
421.675556
 20
9.173543
 30
0.0
  0
VERTEX
  5
578E
  8
ALPHA
 10
421.403271
 20
9.184711
 30
0.0
  0
SEQEND
  5
578F
  8
ALPHA
  0
POLYLINE
  5
4B2D
  8
ALPHA
 66
     1
 10
0.0
 20
0.0
 30
0.0
 70
   128
210
0.0
220
0.0
230
-1.0
  0
VERTEX
  5
5790
  8
ALPHA
 10
-419.787764
 20
3.194045
 30
0.0
  0
VERTEX
  5
5791
  8
ALPHA
 10
-419.857181
 20
4.50883
 30
0.0
  0
VERTEX
  5
5792
  8
ALPHA
 10
-420.040187
 20
5.465261
 30
0.0
  0
VERTEX
  5
5793
  8
ALPHA
 10
-420.298921
 20
6.173248
 30
0.0
  0
VERTEX
  5
5794
  8
ALPHA
 10
-420.595518
 20
6.742697
 30
0.0
  0
VERTEX
  5
5795
  8
ALPHA
 10
-421.150848
 20
7.905614
 30
0.0
  0
VERTEX
  5
5796
  8
ALPHA
 10
-421.333855
 20
8.718898
 30
0.0
  0
VERTEX
  5
5797
  8
ALPHA
 10
-421.403271
 20
9.833276
 30
0.0
  0
SEQEND
  5
5798
  8
ALPHA
  0
POLYLINE
  5
4B2E
  8
ALPHA
 66
     1
 10
0.0
 20
0.0
 30
0.0
 70
   128
210
0.0
220
0.0
230
-1.0
  0
VERTEX
  5
5799
  8
ALPHA
 10
-432.517486
 20
18.985256
 30
0.0
  0
VERTEX
  5
579A
  8
ALPHA
 10
-431.54737
 20
19.646613
 30
0.0
  0
VERTEX
  5
579B
  8
ALPHA
 10
-430.792999
 20
20.541547
 30
0.0
  0
VERTEX
  5
579C
  8
ALPHA
 10
-430.30399
 20
21.620551
 30
0.0
  0
VERTEX
  5
579D
  8
ALPHA
 10
-430.129962
 20
22.83412
 30
0.0
  0
VERTEX
  5
579E
  8
ALPHA
 10
-430.302311
 20
24.04204
 30
0.0
  0
VERTEX
  5
579F
  8
ALPHA
 10
-430.786649
 20
25.116946
 30
0.0
  0
VERTEX
  5
57A0
  8
ALPHA
 10
-431.533913
 20
26.009997
 30
0.0
  0
VERTEX
  5
57A1
  8
ALPHA
 10
-432.49504
 20
26.672351
 30
0.0
  0
SEQEND
  5
57A2
  8
ALPHA
  0
LINE
  5
4B2F
  8
POINTILLE_COURT2
  6
AI9-LTYPE2
 10
427.621939
 20
29.005533
 30
0.0
 11
427.621939
 21
36.748153
 31
0.0
  0
LINE
  5
4B30
  8
POINTILLE_COURT2
  6
AI9-LTYPE2
 10
424.732338
 20
16.665069
 30
0.0
 11
424.732338
 21
29.005533
 31
0.0
  0
LINE
  5
4B31
  8
POINTILLE_COURT2
  6
AI9-LTYPE2
 10
441.28198
 20
29.005533
 30
0.0
 11
441.28198
 21
36.36303
 31
0.0
  0
POLYLINE
  5
4B32
  8
ALPHA
 66
     1
 10
0.0
 20
0.0
 30
0.0
 70
   128
210
0.0
220
0.0
230
-1.0
  0
VERTEX
  5
57A3
  8
ALPHA
 10
-434.986524
 20
27.091733
 30
0.0
  0
VERTEX
  5
57A4
  8
ALPHA
 10
-435.751686
 20
26.919594
 30
0.0
  0
VERTEX
  5
57A5
  8
ALPHA
 10
-436.45844
 20
26.617695
 30
0.0
  0
VERTEX
  5
57A6
  8
ALPHA
 10
-437.642955
 20
25.678386
 30
0.0
  0
VERTEX
  5
57A7
  8
ALPHA
 10
-438.432526
 20
24.381348
 30
0.0
  0
VERTEX
  5
57A8
  8
ALPHA
 10
-438.645602
 20
23.632286
 30
0.0
  0
VERTEX
  5
57A9
  8
ALPHA
 10
-438.719615
 20
22.83412
 30
0.0
  0
VERTEX
  5
57AA
  8
ALPHA
 10
-438.645074
 20
22.033817
 30
0.0
  0
VERTEX
  5
57AB
  8
ALPHA
 10
-438.430514
 20
21.282868
 30
0.0
  0
VERTEX
  5
57AC
  8
ALPHA
 10
-437.635719
 20
19.983356
 30
0.0
  0
VERTEX
  5
57AD
  8
ALPHA
 10
-436.443987
 20
19.044231
 30
0.0
  0
VERTEX
  5
57AE
  8
ALPHA
 10
-435.733257
 20
18.743767
 30
0.0
  0
VERTEX
  5
57AF
  8
ALPHA
 10
-434.964078
 20
18.574143
 30
0.0
  0
SEQEND
  5
57B0
  8
ALPHA
  0
CIRCLE
  5
4B33
  8
ALPHA
 10
434.425379
 20
22.83412
 30
0.0
 40
2.593081
  0
CIRCLE
  5
4B34
  8
ALPHA
 10
434.424197
 20
22.83412
 30
0.0
 40
2.028391
  0
LINE
  5
4B35
  8
ALPHA
 10
432.517486
 20
18.985256
 30
0.0
 11
434.964078
 21
18.574143
 31
0.0
  0
LINE
  5
4B36
  8
ALPHA
 10
434.986524
 20
27.091733
 30
0.0
 11
432.49504
 21
26.672351
 31
0.0
  0
POLYLINE
  5
4B37
  8
ALPHA
 66
     1
 10
0.0
 20
0.0
 30
0.0
 70
   128
  0
VERTEX
  5
57B1
  8
ALPHA
 10
461.90327
 20
28.009649
 30
0.0
  0
VERTEX
  5
57B2
  8
ALPHA
 10
461.90327
 20
27.753895
 30
0.0
  0
VERTEX
  5
57B3
  8
ALPHA
 10
461.90327
 20
27.054836
 30
0.0
  0
VERTEX
  5
57B4
  8
ALPHA
 10
461.90327
 20
26.014772
 30
0.0
  0
VERTEX
  5
57B5
  8
ALPHA
 10
461.90327
 20
24.736004
 30
0.0
  0
VERTEX
  5
57B6
  8
ALPHA
 10
461.90327
 20
21.871566
 30
0.0
  0
VERTEX
  5
57B7
  8
ALPHA
 10
461.90327
 20
20.490497
 30
0.0
  0
VERTEX
  5
57B8
  8
ALPHA
 10
461.90327
 20
19.279931
 30
0.0
  0
VERTEX
  5
57B9
  8
ALPHA
 10
461.90327
 20
18.342168
 30
0.0
  0
VERTEX
  5
57BA
  8
ALPHA
 10
461.90327
 20
17.779511
 30
0.0
  0
VERTEX
  5
57BB
  8
ALPHA
 10
461.90327
 20
17.670815
 30
0.0
  0
VERTEX
  5
57BC
  8
ALPHA
 10
461.897846
 20
17.552398
 30
0.0
  0
VERTEX
  5
57BD
  8
ALPHA
 10
461.874422
 20
17.22756
 30
0.0
  0
VERTEX
  5
57BE
  8
ALPHA
 10
461.681082
 20
16.043146
 30
0.0
  0
VERTEX
  5
57BF
  8
ALPHA
 10
461.34888
 20
15.032381
 30
0.0
  0
VERTEX
  5
57C0
  8
ALPHA
 10
460.905242
 20
14.181591
 30
0.0
  0
VERTEX
  5
57C1
  8
ALPHA
 10
460.377594
 20
13.477105
 30
0.0
  0
VERTEX
  5
57C2
  8
ALPHA
 10
459.793365
 20
12.90525
 30
0.0
  0
VERTEX
  5
57C3
  8
ALPHA
 10
458.564865
 20
12.104742
 30
0.0
  0
VERTEX
  5
57C4
  8
ALPHA
 10
457.439158
 20
11.670687
 30
0.0
  0
VERTEX
  5
57C5
  8
ALPHA
 10
456.983419
 20
11.556899
 30
0.0
  0
VERTEX
  5
57C6
  8
ALPHA
 10
456.675218
 20
11.494153
 30
0.0
  0
VERTEX
  5
57C7
  8
ALPHA
 10
455.908672
 20
11.322932
 30
0.0
  0
VERTEX
  5
57C8
  8
ALPHA
 10
453.92026
 20
10.851999
 30
0.0
  0
VERTEX
  5
57C9
  8
ALPHA
 10
453.04555
 20
10.639941
 30
0.0
  0
VERTEX
  5
57CA
  8
ALPHA
 10
452.481941
 20
10.501925
 30
0.0
  0
SEQEND
  5
57CB
  8
ALPHA
  0
POLYLINE
  5
4B38
  8
ALPHA
 66
     1
 10
0.0
 20
0.0
 30
0.0
 70
   128
210
0.0
220
0.0
230
-1.0
  0
VERTEX
  5
57CC
  8
ALPHA
 10
-460.666388
 20
23.125915
 30
0.0
  0
VERTEX
  5
57CD
  8
ALPHA
 10
-460.566695
 20
21.600701
 30
0.0
  0
VERTEX
  5
57CE
  8
ALPHA
 10
-460.352387
 20
20.192844
 30
0.0
  0
VERTEX
  5
57CF
  8
ALPHA
 10
-459.944622
 20
18.845595
 30
0.0
  0
VERTEX
  5
57D0
  8
ALPHA
 10
-459.264559
 20
17.502209
 30
0.0
  0
VERTEX
  5
57D1
  8
ALPHA
 10
-458.233356
 20
16.105938
 30
0.0
  0
VERTEX
  5
57D2
  8
ALPHA
 10
-456.772171
 20
14.600037
 30
0.0
  0
VERTEX
  5
57D3
  8
ALPHA
 10
-455.855697
 20
13.788241
 30
0.0
  0
VERTEX
  5
57D4
  8
ALPHA
 10
-454.802162
 20
12.927758
 30
0.0
  0
VERTEX
  5
57D5
  8
ALPHA
 10
-453.601711
 20
12.011494
 30
0.0
  0
VERTEX
  5
57D6
  8
ALPHA
 10
-452.244488
 20
11.032355
 30
0.0
  0
SEQEND
  5
57D7
  8
ALPHA
  0
POLYLINE
  5
4B39
  8
ALPHA
 66
     1
 10
0.0
 20
0.0
 30
0.0
 70
   128
  0
VERTEX
  5
57D8
  8
ALPHA
 10
452.709943
 20
21.317256
 30
0.0
  0
VERTEX
  5
57D9
  8
ALPHA
 10
452.496283
 20
20.531044
 30
0.0
  0
VERTEX
  5
57DA
  8
ALPHA
 10
452.433357
 20
19.452335
 30
0.0
  0
VERTEX
  5
57DB
  8
ALPHA
 10
452.386327
 20
18.747884
 30
0.0
  0
VERTEX
  5
57DC
  8
ALPHA
 10
452.290469
 20
17.903815
 30
0.0
  0
VERTEX
  5
57DD
  8
ALPHA
 10
452.116945
 20
16.897965
 30
0.0
  0
VERTEX
  5
57DE
  8
ALPHA
 10
451.836919
 20
15.708169
 30
0.0
  0
SEQEND
  5
57DF
  8
ALPHA
  0
POLYLINE
  5
4B3A
  8
ALPHA
 66
     1
 10
0.0
 20
0.0
 30
0.0
 70
   128
210
0.0
220
0.0
230
-1.0
  0
VERTEX
  5
57E0
  8
ALPHA
 10
-452.132259
 20
22.528148
 30
0.0
  0
VERTEX
  5
57E1
  8
ALPHA
 10
-452.008853
 20
21.358597
 30
0.0
  0
VERTEX
  5
57E2
  8
ALPHA
 10
-451.753708
 20
20.130084
 30
0.0
  0
VERTEX
  5
57E3
  8
ALPHA
 10
-451.329443
 20
18.828613
 30
0.0
  0
VERTEX
  5
57E4
  8
ALPHA
 10
-450.698681
 20
17.440187
 30
0.0
  0
VERTEX
  5
57E5
  8
ALPHA
 10
-449.824043
 20
15.950811
 30
0.0
  0
VERTEX
  5
57E6
  8
ALPHA
 10
-448.668148
 20
14.346488
 30
0.0
  0
VERTEX
  5
57E7
  8
ALPHA
 10
-447.19362
 20
12.613221
 30
0.0
  0
VERTEX
  5
57E8
  8
ALPHA
 10
-445.363078
 20
10.737015
 30
0.0
  0
SEQEND
  5
57E9
  8
ALPHA
  0
POLYLINE
  5
4B3B
  8
ALPHA
 66
     1
 10
0.0
 20
0.0
 30
0.0
 70
   128
210
0.0
220
0.0
230
-1.0
  0
VERTEX
  5
57EA
  8
ALPHA
 10
-461.187367
 20
22.530511
 30
0.0
  0
VERTEX
  5
57EB
  8
ALPHA
 10
-461.161435
 20
21.811313
 30
0.0
  0
VERTEX
  5
57EC
  8
ALPHA
 10
-461.06829
 20
20.946088
 30
0.0
  0
VERTEX
  5
57ED
  8
ALPHA
 10
-460.588271
 20
18.929732
 30
0.0
  0
VERTEX
  5
57EE
  8
ALPHA
 10
-460.155352
 20
17.854687
 30
0.0
  0
VERTEX
  5
57EF
  8
ALPHA
 10
-459.563129
 20
16.785789
 30
0.0
  0
VERTEX
  5
57F0
  8
ALPHA
 10
-458.788581
 20
15.761081
 30
0.0
  0
VERTEX
  5
57F1
  8
ALPHA
 10
-457.808683
 20
14.818607
 30
0.0
  0
SEQEND
  5
57F2
  8
ALPHA
  0
POLYLINE
  5
4B3C
  8
ALPHA
 66
     1
 10
0.0
 20
0.0
 30
0.0
 70
   128
210
0.0
220
0.0
230
-1.0
  0
VERTEX
  5
57F3
  8
ALPHA
 10
-457.195559
 20
34.045206
 30
0.0
  0
VERTEX
  5
57F4
  8
ALPHA
 10
-457.877765
 20
31.228574
 30
0.0
  0
VERTEX
  5
57F5
  8
ALPHA
 10
-458.32346
 20
28.376183
 30
0.0
  0
VERTEX
  5
57F6
  8
ALPHA
 10
-458.552745
 20
25.507429
 30
0.0
  0
VERTEX
  5
57F7
  8
ALPHA
 10
-458.585722
 20
22.641706
 30
0.0
  0
VERTEX
  5
57F8
  8
ALPHA
 10
-458.442491
 20
19.798411
 30
0.0
  0
VERTEX
  5
57F9
  8
ALPHA
 10
-458.143155
 20
16.996938
 30
0.0
  0
VERTEX
  5
57FA
  8
ALPHA
 10
-457.156574
 20
11.597044
 30
0.0
  0
SEQEND
  5
57FB
  8
ALPHA
  0
POLYLINE
  5
4B3D
  8
ALPHA
 66
     1
 10
0.0
 20
0.0
 30
0.0
 70
   128
210
0.0
220
0.0
230
-1.0
  0
VERTEX
  5
57FC
  8
ALPHA
 10
-451.836919
 20
15.708169
 30
0.0
  0
VERTEX
  5
57FD
  8
ALPHA
 10
-451.548788
 20
15.115012
 30
0.0
  0
VERTEX
  5
57FE
  8
ALPHA
 10
-450.900324
 20
14.284153
 30
0.0
  0
VERTEX
  5
57FF
  8
ALPHA
 10
-448.993982
 20
12.290205
 30
0.0
  0
VERTEX
  5
5800
  8
ALPHA
 10
-447.971895
 20
11.317556
 30
0.0
  0
VERTEX
  5
5801
  8
ALPHA
 10
-447.061059
 20
10.488081
 30
0.0
  0
VERTEX
  5
5802
  8
ALPHA
 10
-446.379369
 20
9.897001
 30
0.0
  0
VERTEX
  5
5803
  8
ALPHA
 10
-446.044722
 20
9.639534
 30
0.0
  0
SEQEND
  5
5804
  8
ALPHA
  0
LINE
  5
4B3E
  8
ALPHA
 10
445.496572
 20
10.41096
 30
0.0
 11
445.998649
 21
10.361343
 31
0.0
  0
POLYLINE
  5
4B3F
  8
ALPHA
 66
     1
 10
0.0
 20
0.0
 30
0.0
 70
   128
210
0.0
220
0.0
230
-1.0
  0
VERTEX
  5
5805
  8
ALPHA
 10
-445.950213
 20
10.316452
 30
0.0
  0
VERTEX
  5
5806
  8
ALPHA
 10
-445.521971
 20
9.949493
 30
0.0
  0
VERTEX
  5
5807
  8
ALPHA
 10
-445.16461
 20
9.719866
 30
0.0
  0
SEQEND
  5
5808
  8
ALPHA
  0
LINE
  5
4B40
  8
ALPHA
 10
446.108515
 20
10.604703
 30
0.0
 11
445.950213
 21
10.316452
 31
0.0
  0
POLYLINE
  5
4B41
  8
ALPHA
 66
     1
 10
0.0
 20
0.0
 30
0.0
 70
   128
  0
VERTEX
  5
5809
  8
ALPHA
 10
445.363078
 20
10.737015
 30
0.0
  0
VERTEX
  5
580A
  8
ALPHA
 10
445.292935
 20
10.57576
 30
0.0
  0
VERTEX
  5
580B
  8
ALPHA
 10
445.496572
 20
10.41096
 30
0.0
  0
SEQEND
  5
580C
  8
ALPHA
  0
LINE
  5
4B42
  8
ALPHA
 10
446.108515
 20
11.354865
 30
0.0
 11
446.108515
 21
10.604703
 31
0.0
  0
LINE
  5
4B43
  8
ALPHA
 10
445.702128
 20
10.102626
 30
0.0
 11
445.751745
 21
9.776571
 31
0.0
  0
POLYLINE
  5
4B44
  8
ALPHA
 66
     1
 10
0.0
 20
0.0
 30
0.0
 70
   128
  0
VERTEX
  5
580D
  8
ALPHA
 10
452.244488
 20
11.032355
 30
0.0
  0
VERTEX
  5
580E
  8
ALPHA
 10
451.835443
 20
10.61312
 30
0.0
  0
VERTEX
  5
580F
  8
ALPHA
 10
451.921534
 20
10.497919
 30
0.0
  0
VERTEX
  5
5810
  8
ALPHA
 10
452.346085
 20
10.467666
 30
0.0
  0
SEQEND
  5
5811
  8
ALPHA
  0
POLYLINE
  5
4B45
  8
ALPHA
 66
     1
 10
0.0
 20
0.0
 30
0.0
 70
   128
210
0.0
220
0.0
230
-1.0
  0
VERTEX
  5
5812
  8
ALPHA
 10
-457.808683
 20
14.818607
 30
0.0
  0
VERTEX
  5
5813
  8
ALPHA
 10
-456.370214
 20
13.590751
 30
0.0
  0
VERTEX
  5
5814
  8
ALPHA
 10
-454.829742
 20
12.43566
 30
0.0
  0
VERTEX
  5
5815
  8
ALPHA
 10
-454.160768
 20
11.909386
 30
0.0
  0
VERTEX
  5
5816
  8
ALPHA
 10
-453.633709
 20
11.430085
 30
0.0
  0
VERTEX
  5
5817
  8
ALPHA
 10
-453.304371
 20
11.00735
 30
0.0
  0
VERTEX
  5
5818
  8
ALPHA
 10
-453.228559
 20
10.650776
 30
0.0
  0
SEQEND
  5
5819
  8
ALPHA
  0
POLYLINE
  5
4B46
  8
ALPHA
 66
     1
 10
0.0
 20
0.0
 30
0.0
 70
   128
  0
VERTEX
  5
581A
  8
ALPHA
 10
452.841074
 20
23.145998
 30
0.0
  0
VERTEX
  5
581B
  8
ALPHA
 10
452.930826
 20
23.145998
 30
0.0
  0
VERTEX
  5
581C
  8
ALPHA
 10
453.184475
 20
23.145998
 30
0.0
  0
VERTEX
  5
581D
  8
ALPHA
 10
454.089806
 20
23.145998
 30
0.0
  0
VERTEX
  5
581E
  8
ALPHA
 10
455.369756
 20
23.145998
 30
0.0
  0
VERTEX
  5
581F
  8
ALPHA
 10
456.837017
 20
23.145998
 30
0.0
  0
VERTEX
  5
5820
  8
ALPHA
 10
458.304277
 20
23.145998
 30
0.0
  0
VERTEX
  5
5821
  8
ALPHA
 10
459.584227
 20
23.145998
 30
0.0
  0
VERTEX
  5
5822
  8
ALPHA
 10
460.489558
 20
23.145998
 30
0.0
  0
VERTEX
  5
5823
  8
ALPHA
 10
460.743207
 20
23.145998
 30
0.0
  0
VERTEX
  5
5824
  8
ALPHA
 10
460.83296
 20
23.145998
 30
0.0
  0
SEQEND
  5
5825
  8
ALPHA
  0
POLYLINE
  5
4B47
  8
ALPHA
 66
     1
 10
0.0
 20
0.0
 30
0.0
 70
   128
210
0.0
220
0.0
230
-1.0
  0
VERTEX
  5
5826
  8
ALPHA
 10
-453.833414
 20
22.519879
 30
0.0
  0
VERTEX
  5
5827
  8
ALPHA
 10
-453.572814
 20
22.071646
 30
0.0
  0
VERTEX
  5
5828
  8
ALPHA
 10
-453.202569
 20
21.747123
 30
0.0
  0
VERTEX
  5
5829
  8
ALPHA
 10
-452.866879
 20
21.508322
 30
0.0
  0
VERTEX
  5
582A
  8
ALPHA
 10
-452.709943
 20
21.317256
 30
0.0
  0
SEQEND
  5
582B
  8
ALPHA
  0
LINE
  5
4B48
  8
POINTILLE_COURT2
  6
AI9-LTYPE2
 10
444.166856
 20
29.005533
 30
0.0
 11
444.166856
 21
16.663888
 31
0.0
  0
POLYLINE
  5
4B49
  8
ALPHA
 66
     1
 10
0.0
 20
0.0
 30
0.0
 70
   128
210
0.0
220
0.0
230
-1.0
  0
VERTEX
  5
582C
  8
ALPHA
 10
-452.132259
 20
22.528148
 30
0.0
  0
VERTEX
  5
582D
  8
ALPHA
 10
-452.365282
 20
22.987253
 30
0.0
  0
VERTEX
  5
582E
  8
ALPHA
 10
-452.841074
 20
23.145998
 30
0.0
  0
SEQEND
  5
582F
  8
ALPHA
  0
POLYLINE
  5
4B4A
  8
ALPHA
 66
     1
 10
0.0
 20
0.0
 30
0.0
 70
   128
  0
VERTEX
  5
5830
  8
ALPHA
 10
456.440671
 20
23.125915
 30
0.0
  0
VERTEX
  5
5831
  8
ALPHA
 10
454.847315
 20
22.963774
 30
0.0
  0
VERTEX
  5
5832
  8
ALPHA
 10
454.18963
 20
22.8116
 30
0.0
  0
VERTEX
  5
5833
  8
ALPHA
 10
453.833414
 20
22.519879
 30
0.0
  0
SEQEND
  5
5834
  8
ALPHA
  0
POLYLINE
  5
4B4B
  8
ALPHA
 66
     1
 10
0.0
 20
0.0
 30
0.0
 70
   128
  0
VERTEX
  5
5835
  8
ALPHA
 10
461.187367
 20
22.530511
 30
0.0
  0
VERTEX
  5
5836
  8
ALPHA
 10
461.069083
 20
22.979279
 30
0.0
  0
VERTEX
  5
5837
  8
ALPHA
 10
460.83296
 20
23.143635
 30
0.0
  0
SEQEND
  5
5838
  8
ALPHA
  0
DIMENSION
  5
5054
  8
COTATION1
  2
*D4
 10
378.402304
 20
-10.126946
 30
0.0
 11
376.902304
 21
19.873046
 31
0.0
 13
400.991965
 23
49.873038
 33
0.0
 14
400.991965
 24
-10.126946
 34
0.0
 50
90.0
  0
DIMENSION
  5
50E9
  8
COTATION1
  2
*D5
 10
421.403271
 20
64.873038
 30
0.0
 11
407.403274
 21
66.373038
 31
0.0
 13
393.403277
 23
26.389304
 33
0.0
 14
421.403271
 24
26.405917
 34
0.0
  0
DIMENSION
  5
5190
  8
COTATION1
  2
*D6
 10
461.90327
 20
64.873038
 30
0.0
 11
441.65327
 21
66.373038
 31
0.0
 13
421.403271
 23
26.405917
 33
0.0
 14
461.90327
 24
26.405917
 34
0.0
  0
TEXT
  5
51F1
  8
AXE
 10
470.255026
 20
24.936863
 30
0.0
 40
8.0
  1
Z
 72
     2
 11
476.731217
 21
24.936863
 31
0.0
  0
LINE
  5
51F2
  8
AXE
 10
388.402304
 20
22.820053
 30
0.0
 11
476.90327
 21
22.847103
 31
0.0
  0
LINE
  5
51F3
  8
AXE
 10
434.425379
 20
-25.340772
 30
0.0
 11
434.425379
 21
54.873038
 31
0.0
  0
TEXT
  5
51F4
  8
AXE
 10
426.719695
 20
-25.173215
 30
0.0
 40
8.0
  1
Y
 72
     2
 11
433.195885
 21
-25.173215
 31
0.0
  0
ENDSEC
  0
EOF
