  0
SECTION
  2
HEADER
  9
$ACADVER
  1
AC1009
  9
$INSBASE
 10
-146.27124
 20
-153.796096
 30
0.0
  9
$EXTMIN
 10
525.125075
 20
48.437516
 30
0.0
  9
$EXTMAX
 10
637.333182
 20
142.165856
 30
0.0
  9
$LIMMIN
 10
-407.970438
 20
-367.832444
  9
$LIMMAX
 10
429.804077
 20
234.370848
  9
$ORTHOMODE
 70
     1
  9
$REGENMODE
 70
     1
  9
$FILLMODE
 70
     1
  9
$QTEXTMODE
 70
     0
  9
$MIRRTEXT
 70
     1
  9
$DRAGMODE
 70
     2
  9
$LTSCALE
 40
10.0
  9
$OSMODE
 70
    37
  9
$ATTMODE
 70
     1
  9
$TEXTSIZE
 40
6.0
  9
$TRACEWID
 40
1.0
  9
$TEXTSTYLE
  7
ROMANS
  9
$CLAYER
  8
COTATION1
  9
$CELTYPE
  6
BYLAYER
  9
$CECOLOR
 62
   256
  9
$DIMSCALE
 40
1.0
  9
$DIMASZ
 40
2.0
  9
$DIMEXO
 40
0.5
  9
$DIMDLI
 40
0.38
  9
$DIMRND
 40
0.0
  9
$DIMDLE
 40
0.0
  9
$DIMEXE
 40
0.18
  9
$DIMTP
 40
0.0
  9
$DIMTM
 40
0.0
  9
$DIMTXT
 40
2.0
  9
$DIMCEN
 40
0.09
  9
$DIMTSZ
 40
0.0
  9
$DIMTOL
 70
     0
  9
$DIMLIM
 70
     0
  9
$DIMTIH
 70
     0
  9
$DIMTOH
 70
     1
  9
$DIMSE1
 70
     0
  9
$DIMSE2
 70
     0
  9
$DIMTAD
 70
     1
  9
$DIMZIN
 70
    12
  9
$DIMBLK
  1
OPEN30
  9
$DIMASO
 70
     1
  9
$DIMSHO
 70
     1
  9
$DIMPOST
  1

  9
$DIMAPOST
  1

  9
$DIMALT
 70
     0
  9
$DIMALTD
 70
     2
  9
$DIMALTF
 40
25.4
  9
$DIMLFAC
 40
1.0
  9
$DIMTOFL
 70
     0
  9
$DIMTVP
 40
0.0
  9
$DIMTIX
 70
     0
  9
$DIMSOXD
 70
     0
  9
$DIMSAH
 70
     0
  9
$DIMBLK1
  1

  9
$DIMBLK2
  1

  9
$DIMSTYLE
  2
ROMANS
  9
$DIMCLRD
 70
     0
  9
$DIMCLRE
 70
     0
  9
$DIMCLRT
 70
     0
  9
$DIMTFAC
 40
1.0
  9
$DIMGAP
 40
0.5
  9
$LUNITS
 70
     2
  9
$LUPREC
 70
     1
  9
$SKETCHINC
 40
0.1
  9
$FILLETRAD
 40
0.0
  9
$AUNITS
 70
     0
  9
$AUPREC
 70
     0
  9
$MENU
  1
acad
  9
$ELEVATION
 40
0.0
  9
$PELEVATION
 40
0.0
  9
$THICKNESS
 40
0.0
  9
$LIMCHECK
 70
     0
  9
$BLIPMODE
 70
     0
  9
$CHAMFERA
 40
0.0
  9
$CHAMFERB
 40
0.0
  9
$SKPOLY
 70
     0
  9
$TDCREATE
 40
2450365.355314
  9
$TDUPDATE
 40
2452608.365363
  9
$TDINDWG
 40
0.729374
  9
$TDUSRTIMER
 40
0.729374
  9
$USRTIMER
 70
     1
  9
$ANGBASE
 50
0.0
  9
$ANGDIR
 70
     0
  9
$PDMODE
 70
    32
  9
$PDSIZE
 40
0.0
  9
$PLINEWID
 40
0.0
  9
$COORDS
 70
     2
  9
$SPLFRAME
 70
     0
  9
$SPLINETYPE
 70
     6
  9
$SPLINESEGS
 70
     8
  9
$ATTDIA
 70
     0
  9
$ATTREQ
 70
     1
  9
$HANDLING
 70
     1
  9
$HANDSEED
  5
58BC
  9
$SURFTAB1
 70
     6
  9
$SURFTAB2
 70
     6
  9
$SURFTYPE
 70
     6
  9
$SURFU
 70
     6
  9
$SURFV
 70
     6
  9
$UCSNAME
  2

  9
$UCSORG
 10
0.0
 20
0.0
 30
0.0
  9
$UCSXDIR
 10
1.0
 20
0.0
 30
0.0
  9
$UCSYDIR
 10
0.0
 20
1.0
 30
0.0
  9
$PUCSNAME
  2

  9
$PUCSORG
 10
0.0
 20
0.0
 30
0.0
  9
$PUCSXDIR
 10
1.0
 20
0.0
 30
0.0
  9
$PUCSYDIR
 10
0.0
 20
1.0
 30
0.0
  9
$USERI1
 70
     0
  9
$USERI2
 70
     0
  9
$USERI3
 70
     0
  9
$USERI4
 70
     0
  9
$USERI5
 70
     0
  9
$USERR1
 40
0.0
  9
$USERR2
 40
0.0
  9
$USERR3
 40
0.0
  9
$USERR4
 40
0.0
  9
$USERR5
 40
0.0
  9
$WORLDVIEW
 70
     1
  9
$SHADEDGE
 70
     3
  9
$SHADEDIF
 70
    70
  9
$TILEMODE
 70
     1
  9
$MAXACTVP
 70
    16
  9
$PLIMCHECK
 70
     0
  9
$PEXTMIN
 10
1.000000E+020
 20
1.000000E+020
 30
1.000000E+020
  9
$PEXTMAX
 10
-1.000000E+020
 20
-1.000000E+020
 30
-1.000000E+020
  9
$PLIMMIN
 10
0.0
 20
0.0
  9
$PLIMMAX
 10
12.0
 20
9.0
  9
$UNITMODE
 70
     0
  9
$VISRETAIN
 70
     0
  9
$PLINEGEN
 70
     0
  9
$PSLTSCALE
 70
     0
  0
ENDSEC
  0
SECTION
  2
TABLES
  0
TABLE
  2
VPORT
 70
     2
  0
VPORT
  2
*ACTIVE
 70
     0
 10
0.0
 20
0.0
 11
1.0
 21
1.0
 12
581.230833
 22
95.29236
 13
0.0
 23
0.0
 14
1.0
 24
1.0
 15
10.0
 25
10.0
 16
0.0
 26
0.0
 36
1.0
 17
0.0
 27
0.0
 37
0.0
 40
94.621274
 41
1.63142
 42
50.0
 43
0.0
 44
0.0
 50
0.0
 51
0.0
 71
     0
 72
   100
 73
     1
 74
     0
 75
     0
 76
     0
 77
     0
 78
     0
  0
ENDTAB
  0
TABLE
  2
LTYPE
 70
    31
  0
LTYPE
  2
CONTINUOUS
 70
     0
  3
Solid line
 72
    65
 73
     0
 40
0.0
  0
LTYPE
  2
AXES2
 70
     0
  3
___ _ ___ _ ___ _ ___ _ ___ _ ___ _ ___ _ ___ _
 72
    65
 73
     4
 40
1.125
 49
0.75
 49
-0.125
 49
0.125
 49
-0.125
  0
LTYPE
  2
ACAD_ISO04W100
 70
     0
  3
ISO Lang gestrichelt punktiert ____ . ____ . __
 72
    65
 73
     4
 40
30.5
 49
24.0
 49
-3.0
 49
0.5
 49
-3.0
  0
LTYPE
  2
AXES
 70
     0
  3
____ _ ____ _ ____ _ ____ _ ____ _ ____ _ ____ 
 72
    65
 73
     4
 40
2.0
 49
1.25
 49
-0.25
 49
0.25
 49
-0.25
  0
LTYPE
  2
AXESX2
 70
     0
  3
________  __  ________  __  ________  __  _____
 72
    65
 73
     4
 40
4.0
 49
2.5
 49
-0.5
 49
0.5
 49
-0.5
  0
LTYPE
  2
TIRETPT
 70
     0
  3
__ . __ . __ . __ . __ . __ . __ . __ . __ . __
 72
    65
 73
     4
 40
1.0
 49
0.5
 49
-0.25
 49
0.0
 49
-0.25
  0
LTYPE
  2
TIRETPT2
 70
     0
  3
_._._._._._._._._._._._._._._._._._._._._._._._
 72
    65
 73
     4
 40
0.5
 49
0.25
 49
-0.125
 49
0.0
 49
-0.125
  0
LTYPE
  2
TIRETPTX2
 70
     0
  3
____  .  ____  .  ____  .  ____  .  ____  .  __
 72
    65
 73
     4
 40
2.0
 49
1.0
 49
-0.5
 49
0.0
 49
-0.5
  0
LTYPE
  2
DISCONTINU
 70
     0
  3
__ __ __ __ __ __ __ __ __ __ __ __ __ __ __ __
 72
    65
 73
     2
 40
0.75
 49
0.5
 49
-0.25
  0
LTYPE
  2
DISCONTINU2
 70
     0
  3
_ _ _ _ _ _ _ _ _ _ _ _ _ _ _ _ _ _ _ _ _ _ _ _
 72
    65
 73
     2
 40
0.375
 49
0.25
 49
-0.125
  0
LTYPE
  2
DISCONTINUX2
 70
     0
  3
____  ____  ____  ____  ____  ____  ____  ____ 
 72
    65
 73
     2
 40
1.5
 49
1.0
 49
-0.5
  0
LTYPE
  2
DIVISE
 70
     0
  3
____ . . ____ . . ____ . . ____ . . ____ . . __
 72
    65
 73
     6
 40
1.25
 49
0.5
 49
-0.25
 49
0.0
 49
-0.25
 49
0.0
 49
-0.25
  0
LTYPE
  2
DIVISE2
 70
     0
  3
__..__..__..__..__..__..__..__..__..__..__..__.
 72
    65
 73
     6
 40
0.625
 49
0.25
 49
-0.125
 49
0.0
 49
-0.125
 49
0.0
 49
-0.125
  0
LTYPE
  2
DIVISEX2
 70
     0
  3
________  .  .  ________  .  .  ________  .  . 
 72
    65
 73
     6
 40
2.5
 49
1.0
 49
-0.5
 49
0.0
 49
-0.5
 49
0.0
 49
-0.5
  0
LTYPE
  2
POINTILLE
 70
     0
  3
. . . . . . . . . . . . . . . . . . . . . . . .
 72
    65
 73
     2
 40
0.25
 49
0.0
 49
-0.25
  0
LTYPE
  2
POINTILLE2
 70
     0
  3
...............................................
 72
    65
 73
     2
 40
0.125
 49
0.0
 49
-0.125
  0
LTYPE
  2
POINTILLEX2
 70
     0
  3
.  .  .  .  .  .  .  .  .  .  .  .  .  .  .  . 
 72
    65
 73
     2
 40
0.5
 49
0.0
 49
-0.5
  0
LTYPE
  2
CACHE
 70
     0
  3
__ __ __ __ __ __ __ __ __ __ __ __ __ __ __ __
 72
    65
 73
     2
 40
0.375
 49
0.25
 49
-0.125
  0
LTYPE
  2
CACHE2
 70
     0
  3
_ _ _ _ _ _ _ _ _ _ _ _ _ _ _ _ _ _ _ _ _ _ _ _
 72
    65
 73
     2
 40
0.1875
 49
0.125
 49
-0.0625
  0
LTYPE
  2
CACHEX2
 70
     0
  3
____ ____ ____ ____ ____ ____ ____ ____ ____ __
 72
    65
 73
     2
 40
0.75
 49
0.5
 49
-0.25
  0
LTYPE
  2
FANTOME
 70
     0
  3
______  __  __  ______  __  __  ______  __  __ 
 72
    65
 73
     6
 40
2.5
 49
1.25
 49
-0.25
 49
0.25
 49
-0.25
 49
0.25
 49
-0.25
  0
LTYPE
  2
FANTOME2
 70
     0
  3
___ _ _ ___ _ _ ___ _ _ ___ _ _ ___ _ _ ___ _ _
 72
    65
 73
     6
 40
1.25
 49
0.625
 49
-0.125
 49
0.125
 49
-0.125
 49
0.125
 49
-0.125
  0
LTYPE
  2
FANTOMEX2
 70
     0
  3
____________    ____    ____    ____________   
 72
    65
 73
     6
 40
5.0
 49
2.5
 49
-0.5
 49
0.5
 49
-0.5
 49
0.5
 49
-0.5
  0
LTYPE
  2
0
 70
     0
  3
MEDUSA PEN 0
 72
    65
 73
     0
 40
0.0
  0
LTYPE
  2
AI9-LTYPE1
 70
     0
  3
Illustrator Dash Style No.1
 72
    65
 73
     4
 40
5.64621
 49
4.106333
 49
-0.307975
 49
0.923926
 49
-0.307975
  0
LTYPE
  2
AI9-LTYPE2
 70
     0
  3
Illustrator Dash Style No.2
 72
    65
 73
     2
 40
1.33456
 49
1.026585
 49
-0.307975
  0
LTYPE
  2
AI9-LTYPE3
 70
     0
  3
Illustrator Dash Style No.3
 72
    65
 73
     1
 40
4.106333
 49
4.106333
  0
LTYPE
  2
AI9-LTYPE4
 70
     0
  3
Illustrator Dash Style No.4
 72
    65
 73
     1
 40
4.106333
 49
4.106333
  0
LTYPE
  2
AI9-LTYPE5
 70
     0
  3
Illustrator Dash Style No.5
 72
    65
 73
     1
 40
4.106333
 49
4.106333
  0
LTYPE
  2
AI9-LTYPE6
 70
     0
  3
Illustrator Dash Style No.6
 72
    65
 73
     1
 40
4.106333
 49
4.106333
  0
LTYPE
  2
AI9-LTYPE7
 70
     0
  3
Illustrator Dash Style No.7
 72
    65
 73
     1
 40
4.106333
 49
4.106333
  0
ENDTAB
  0
TABLE
  2
LAYER
 70
    17
  0
LAYER
  2
0
 70
     0
 62
     7
  6
CONTINUOUS
  0
LAYER
  2
TEXTE_MOYEN
 70
     0
 62
   131
  6
CONTINUOUS
  0
LAYER
  2
ALPHA
 70
     0
 62
   254
  6
CONTINUOUS
  0
LAYER
  2
COTATION1
 70
     0
 62
    50
  6
CONTINUOUS
  0
LAYER
  2
AXE
 70
     0
 62
    80
  6
AXES2
  0
LAYER
  2
DEFPOINTS
 70
     0
 62
     7
  6
CONTINUOUS
  0
LAYER
  2
HACHURES1
 70
     0
 62
   130
  6
CONTINUOUS
  0
LAYER
  2
FMULT
 70
     0
 62
   210
  6
CONTINUOUS
  0
LAYER
  2
FDP_CARTOUCHE
 70
     0
 62
   136
  6
CONTINUOUS
  0
LAYER
  2
FDP_TEXTES
 70
     0
 62
   171
  6
CONTINUOUS
  0
LAYER
  2
FDP_LOGO_MG
 70
     0
 62
    30
  6
CONTINUOUS
  0
LAYER
  2
FDP_LOGO_SCH
 70
     0
 62
    90
  6
CONTINUOUS
  0
LAYER
  2
FDP_FDP
 70
     0
 62
   170
  6
CONTINUOUS
  0
LAYER
  2
POINTILLE_COURT2
 70
     0
 62
    41
  6
CACHE2
  0
LAYER
  2
POINTILLE_MOYEN2
 70
     0
 62
   141
  6
CACHE
  0
LAYER
  2
POINTILLE_LONG2
 70
     0
 62
   241
  6
CACHEX2
  0
LAYER
  2
ALPHA_FIN
 70
     0
 62
   255
  6
CONTINUOUS
  0
ENDTAB
  0
TABLE
  2
STYLE
 70
     5
  0
STYLE
  2
ROMANS
 70
     0
 40
0.0
 41
1.0
 50
0.0
 71
     0
 42
6.0
  3
romans
  4

  0
STYLE
  2
STANDARD
 70
     0
 40
0.2
 41
1.0
 50
0.0
 71
     0
 42
0.2
  3
txt
  4

  0
STYLE
  2
STD
 70
     0
 40
0.0
 41
1.0
 50
0.0
 71
     0
 42
0.0
  3
txt
  4

  0
STYLE
  2
INFOCAR
 70
     0
 40
0.0
 41
1.34
 50
0.0
 71
     0
 42
2.0
  3
ROMANS.SHX
  4

  0
STYLE
  2
CARTOUCHE
 70
     0
 40
0.0
 41
1.0
 50
0.0
 71
     0
 42
0.2
  3
ROMANS.SHX
  4

  0
ENDTAB
  0
TABLE
  2
VIEW
 70
     0
  0
ENDTAB
  0
TABLE
  2
UCS
 70
     0
  0
ENDTAB
  0
TABLE
  2
APPID
 70
     3
  0
APPID
  2
ACAD
 70
     0
  0
APPID
  2
AVE_RENDER
 70
     0
  0
APPID
  2
AVE_MATERIAL
 70
     0
  0
ENDTAB
  0
TABLE
  2
DIMSTYLE
 70
     1
  0
DIMSTYLE
  2
ROMANS
 70
     0
  3

  4

  5
OPEN30
  6

  7

 40
1.0
 41
2.0
 42
0.5
 43
0.38
 44
0.18
 45
0.0
 46
0.0
 47
0.0
 48
0.0
140
2.0
141
0.09
142
0.0
143
25.4
144
1.0
145
0.0
146
1.0
147
0.5
 71
     0
 72
     0
 73
     0
 74
     1
 75
     0
 76
     0
 77
     1
 78
    12
170
     0
171
     2
172
     0
173
     0
174
     0
175
     0
176
     0
177
     0
178
     0
  0
ENDTAB
  0
ENDSEC
  0
SECTION
  2
BLOCKS
  0
BLOCK
  8
0
  2
$MODEL_SPACE
 70
     0
 10
0.0
 20
0.0
 30
0.0
  3
$MODEL_SPACE
  1

  0
ENDBLK
  5
56A4
  8
0
  0
BLOCK
 67
     1
  8
0
  2
$PAPER_SPACE
 70
     0
 10
0.0
 20
0.0
 30
0.0
  3
$PAPER_SPACE
  1

  0
ENDBLK
  5
56A2
 67
     1
  8
0
  0
BLOCK
  8
0
  2
COTE
 70
     0
 10
0.0
 20
0.0
 30
0.0
  3
COTE
  1

  0
ENDBLK
  5
35
  8
0
  0
BLOCK
  8
0
  2
FOND
 70
     0
 10
0.0
 20
0.0
 30
0.0
  3
FOND
  1

  0
ENDBLK
  5
39
  8
0
  0
BLOCK
  8
0
  2
SCH_ISO
 70
     0
 10
0.0
 20
0.0
 30
0.0
  3
SCH_ISO
  1

  0
ENDBLK
  5
24AD
  8
0
  0
BLOCK
  8
0
  2
_OPEN30
 70
     0
 10
0.0
 20
0.0
 30
0.0
  3
_OPEN30
  1

  0
LINE
  5
27E1
  8
COTATION1
 62
     0
 10
-1.0
 20
0.267949
 30
0.0
 11
0.0
 21
0.0
 31
0.0
1001
ACAD
1000
RTLwPs
1070
   158
  0
LINE
  5
27E2
  8
COTATION1
 62
     0
 10
0.0
 20
0.0
 30
0.0
 11
-1.0
 21
-0.267949
 31
0.0
1001
ACAD
1000
RTLwPs
1070
   158
  0
LINE
  5
27E3
  8
COTATION1
 62
     0
 10
0.0
 20
0.0
 30
0.0
 11
-1.0
 21
0.0
 31
0.0
1001
ACAD
1000
RTLwPs
1070
   158
  0
ENDBLK
  5
27E5
  8
0
  0
BLOCK
  8
0
  2
*D4
 70
     1
 10
0.0
 20
0.0
 30
0.0
  3
*D4
  1

  0
LINE
  5
5381
  8
COTATION1
 62
     0
 10
581.504013
 20
136.973407
 30
0.0
 11
636.977284
 21
136.973407
 31
0.0
1001
ACAD
1000
RTLwPs
1070
   158
  0
LINE
  5
5382
  8
COTATION1
 62
     0
 10
564.892138
 20
73.973415
 30
0.0
 11
636.977284
 21
73.973415
 31
0.0
1001
ACAD
1000
RTLwPs
1070
   158
  0
LINE
  5
5383
  8
COTATION1
 62
     0
 10
636.797284
 20
134.973407
 30
0.0
 11
636.797284
 21
75.973415
 31
0.0
1001
ACAD
1000
RTLwPs
1070
   158
  0
INSERT
  5
5384
  8
COTATION1
 62
     0
  2
_OPEN30
 10
636.797284
 20
136.973407
 30
0.0
 41
2.0
 42
2.0
 43
2.0
 50
90.0
1001
ACAD
1000
RTLwPs
1070
   158
  0
INSERT
  5
5385
  8
COTATION1
 62
     0
  2
_OPEN30
 10
636.797284
 20
73.973415
 30
0.0
 41
2.0
 42
2.0
 43
2.0
 50
270.0
1001
ACAD
1000
RTLwPs
1070
   158
  0
TEXT
  5
5386
  8
COTATION1
 62
     0
 10
636.297284
 20
103.52103
 30
0.0
 40
2.0
  1
63
 50
90.0
1001
ACAD
1000
MTEXTBEGIN
1070
    73
1070
     1
1070
    44
1040
1.0
1070
    74
1070
     0
1000
MTEXTEND
  0
POINT
  5
5387
  8
DEFPOINTS
 62
     0
 10
581.004013
 20
136.973407
 30
0.0
  0
POINT
  5
5388
  8
DEFPOINTS
 62
     0
 10
564.392138
 20
73.973415
 30
0.0
  0
POINT
  5
5389
  8
DEFPOINTS
 62
     0
 10
636.797284
 20
73.973415
 30
0.0
  0
ENDBLK
  5
4C7A
  8
0
  0
BLOCK
  8
0
  2
*D5
 70
     1
 10
0.0
 20
0.0
 30
0.0
  3
*D5
  1

  0
LINE
  5
5378
  8
COTATION1
 62
     0
 10
602.297284
 20
91.9734
 30
0.0
 11
626.977284
 21
91.9734
 31
0.0
1001
ACAD
1000
RTLwPs
1070
   158
  0
LINE
  5
5379
  8
COTATION1
 62
     0
 10
581.504087
 20
136.973407
 30
0.0
 11
626.977284
 21
136.973407
 31
0.0
1001
ACAD
1000
RTLwPs
1070
   158
  0
LINE
  5
537A
  8
COTATION1
 62
     0
 10
626.797284
 20
93.9734
 30
0.0
 11
626.797284
 21
134.973407
 31
0.0
1001
ACAD
1000
RTLwPs
1070
   158
  0
INSERT
  5
537B
  8
COTATION1
 62
     0
  2
_OPEN30
 10
626.797284
 20
91.9734
 30
0.0
 41
2.0
 42
2.0
 43
2.0
 50
270.0
1001
ACAD
1000
RTLwPs
1070
   158
  0
INSERT
  5
537C
  8
COTATION1
 62
     0
  2
_OPEN30
 10
626.797284
 20
136.973407
 30
0.0
 41
2.0
 42
2.0
 43
2.0
 50
90.0
1001
ACAD
1000
RTLwPs
1070
   158
  0
TEXT
  5
537D
  8
COTATION1
 62
     0
 10
626.297284
 20
109.436455
 30
0.0
 40
2.0
  1
45
 50
90.0
1001
ACAD
1000
MTEXTBEGIN
1070
    73
1070
     1
1070
    44
1040
1.0
1070
    74
1070
     0
1000
MTEXTEND
  0
POINT
  5
537E
  8
DEFPOINTS
 62
     0
 10
601.797284
 20
91.9734
 30
0.0
  0
POINT
  5
537F
  8
DEFPOINTS
 62
     0
 10
581.004087
 20
136.973407
 30
0.0
  0
POINT
  5
5380
  8
DEFPOINTS
 62
     0
 10
626.797284
 20
136.973407
 30
0.0
  0
ENDBLK
  5
4D04
  8
0
  0
BLOCK
  8
0
  2
*D6
 70
     1
 10
0.0
 20
0.0
 30
0.0
  3
*D6
  1

  0
LINE
  5
5393
  8
COTATION1
 62
     0
 10
542.125075
 20
109.473399
 30
0.0
 11
527.445075
 21
109.473399
 31
0.0
1001
ACAD
1000
RTLwPs
1070
   158
  0
LINE
  5
5394
  8
COTATION1
 62
     0
 10
547.4893
 20
81.473391
 30
0.0
 11
527.445075
 21
81.473391
 31
0.0
1001
ACAD
1000
RTLwPs
1070
   158
  0
LINE
  5
5395
  8
COTATION1
 62
     0
 10
527.625075
 20
107.473399
 30
0.0
 11
527.625075
 21
83.473391
 31
0.0
1001
ACAD
1000
RTLwPs
1070
   158
  0
INSERT
  5
5396
  8
COTATION1
 62
     0
  2
_OPEN30
 10
527.625075
 20
109.473399
 30
0.0
 41
2.0
 42
2.0
 43
2.0
 50
90.0
1001
ACAD
1000
RTLwPs
1070
   158
  0
INSERT
  5
5397
  8
COTATION1
 62
     0
  2
_OPEN30
 10
527.625075
 20
81.473391
 30
0.0
 41
2.0
 42
2.0
 43
2.0
 50
270.0
1001
ACAD
1000
RTLwPs
1070
   158
  0
TEXT
  5
5398
  8
COTATION1
 62
     0
 10
527.125075
 20
93.568633
 30
0.0
 40
2.0
  1
28
 50
90.0
1001
ACAD
1000
MTEXTBEGIN
1070
    73
1070
     1
1070
    44
1040
1.0
1070
    74
1070
     0
1000
MTEXTEND
  0
POINT
  5
5399
  8
DEFPOINTS
 62
     0
 10
542.625075
 20
109.473399
 30
0.0
  0
POINT
  5
539A
  8
DEFPOINTS
 62
     0
 10
547.9893
 20
81.473391
 30
0.0
  0
POINT
  5
539B
  8
DEFPOINTS
 62
     0
 10
527.625075
 20
81.473391
 30
0.0
  0
ENDBLK
  5
4D2C
  8
0
  0
BLOCK
  8
0
  2
*D7
 70
     1
 10
0.0
 20
0.0
 30
0.0
  3
*D7
  1

  0
LINE
  5
539C
  8
COTATION1
 62
     0
 10
542.125075
 20
109.473399
 30
0.0
 11
537.445075
 21
109.473399
 31
0.0
1001
ACAD
1000
RTLwPs
1070
   158
  0
LINE
  5
539D
  8
COTATION1
 62
     0
 10
549.33404
 20
91.9734
 30
0.0
 11
537.445075
 21
91.9734
 31
0.0
1001
ACAD
1000
RTLwPs
1070
   158
  0
LINE
  5
539E
  8
COTATION1
 62
     0
 10
537.625075
 20
107.473399
 30
0.0
 11
537.625075
 21
93.9734
 31
0.0
1001
ACAD
1000
RTLwPs
1070
   158
  0
INSERT
  5
539F
  8
COTATION1
 62
     0
  2
_OPEN30
 10
537.625075
 20
109.473399
 30
0.0
 41
2.0
 42
2.0
 43
2.0
 50
90.0
1001
ACAD
1000
RTLwPs
1070
   158
  0
INSERT
  5
53A0
  8
COTATION1
 62
     0
  2
_OPEN30
 10
537.625075
 20
91.9734
 30
0.0
 41
2.0
 42
2.0
 43
2.0
 50
270.0
1001
ACAD
1000
RTLwPs
1070
   158
  0
TEXT
  5
53A1
  8
COTATION1
 62
     0
 10
537.125075
 20
97.247209
 30
0.0
 40
2.0
  1
17.5
 50
90.0
1001
ACAD
1000
MTEXTBEGIN
1070
    73
1070
     1
1070
    44
1040
1.0
1070
    74
1070
     0
1000
MTEXTEND
  0
POINT
  5
53A2
  8
DEFPOINTS
 62
     0
 10
542.625075
 20
109.473399
 30
0.0
  0
POINT
  5
53A3
  8
DEFPOINTS
 62
     0
 10
549.83404
 20
91.9734
 30
0.0
  0
POINT
  5
53A4
  8
DEFPOINTS
 62
     0
 10
537.625075
 20
91.9734
 30
0.0
  0
ENDBLK
  5
4D6A
  8
0
  0
BLOCK
  8
0
  2
*D8
 70
     1
 10
0.0
 20
0.0
 30
0.0
  3
*D8
  1

  0
LINE
  5
538A
  8
COTATION1
 62
     0
 10
547.9893
 20
80.973391
 30
0.0
 11
547.9893
 21
48.793415
 31
0.0
1001
ACAD
1000
RTLwPs
1070
   158
  0
LINE
  5
538B
  8
COTATION1
 62
     0
 10
580.989324
 20
80.973391
 30
0.0
 11
580.989324
 21
48.793415
 31
0.0
1001
ACAD
1000
RTLwPs
1070
   158
  0
LINE
  5
538C
  8
COTATION1
 62
     0
 10
549.9893
 20
48.973415
 30
0.0
 11
578.989324
 21
48.973415
 31
0.0
1001
ACAD
1000
RTLwPs
1070
   158
  0
INSERT
  5
538D
  8
COTATION1
 62
     0
  2
_OPEN30
 10
547.9893
 20
48.973415
 30
0.0
 41
2.0
 42
2.0
 43
2.0
 50
180.0
1001
ACAD
1000
RTLwPs
1070
   158
  0
INSERT
  5
538E
  8
COTATION1
 62
     0
  2
_OPEN30
 10
580.989324
 20
48.973415
 30
0.0
 41
2.0
 42
2.0
 43
2.0
1001
ACAD
1000
RTLwPs
1070
   158
  0
TEXT
  5
538F
  8
COTATION1
 62
     0
 10
562.58455
 20
49.473415
 30
0.0
 40
2.0
  1
33
1001
ACAD
1000
MTEXTBEGIN
1070
    73
1070
     1
1070
    44
1040
1.0
1070
    74
1070
     0
1000
MTEXTEND
  0
POINT
  5
5390
  8
DEFPOINTS
 62
     0
 10
547.9893
 20
81.473391
 30
0.0
  0
POINT
  5
5391
  8
DEFPOINTS
 62
     0
 10
580.989324
 20
81.473391
 30
0.0
  0
POINT
  5
5392
  8
DEFPOINTS
 62
     0
 10
580.989324
 20
48.973415
 30
0.0
  0
ENDBLK
  5
4DA4
  8
0
  0
BLOCK
  8
0
  2
*D9
 70
     1
 10
0.0
 20
0.0
 30
0.0
  3
*D9
  1

  0
LINE
  5
53A5
  8
COTATION1
 62
     0
 10
596.224851
 20
59.383639
 30
0.0
 11
592.581994
 21
59.383639
 31
0.0
1001
ACAD
1000
RTLwPs
1070
   158
  0
LINE
  5
53A6
  8
COTATION1
 62
     0
 10
592.581994
 20
59.383639
 30
0.0
 11
583.080447
 21
77.48877
 31
0.0
1001
ACAD
1000
RTLwPs
1070
   158
  0
TEXT
  5
53A7
  8
COTATION1
 62
     0
 10
592.891518
 20
59.883639
 30
0.0
 40
2.0
  1
%%c5
1001
ACAD
1000
MTEXTBEGIN
1070
    73
1070
     1
1070
    44
1040
1.0
1070
    74
1070
     0
1000
MTEXTEND
  0
INSERT
  5
53A8
  8
COTATION1
 62
     0
  2
_OPEN30
 10
582.151059
 20
79.259713
 30
0.0
 41
2.0
 42
2.0
 43
2.0
 50
117.690424
1001
ACAD
1000
RTLwPs
1070
   158
  0
LINE
  5
53A9
  8
COTATION1
 62
     0
 10
580.899324
 20
81.473391
 30
0.0
 11
581.079324
 21
81.473391
 31
0.0
1001
ACAD
1000
RTLwPs
1070
   158
  0
LINE
  5
53AA
  8
COTATION1
 62
     0
 10
580.989324
 20
81.383391
 30
0.0
 11
580.989324
 21
81.563391
 31
0.0
1001
ACAD
1000
RTLwPs
1070
   158
  0
POINT
  5
53AB
  8
DEFPOINTS
 62
     0
 10
582.151059
 20
79.259713
 30
0.0
  0
POINT
  5
53AC
  8
DEFPOINTS
 62
     0
 10
579.827589
 20
83.687069
 30
0.0
  0
ENDBLK
  5
4DAF
  8
0
  0
ENDSEC
  0
SECTION
  2
ENTITIES
  0
INSERT
  5
32
  8
0
  2
COTE
 10
0.0
 20
0.0
 30
0.0
  0
INSERT
  5
36
  8
0
  2
FOND
 10
0.0
 20
0.0
 30
0.0
  0
INSERT
  5
24AE
  8
ALPHA
  2
SCH_ISO
 10
-66.27012
 20
-238.940658
 30
0.0
  0
POLYLINE
  5
4B47
  8
ALPHA
 66
     1
 10
0.0
 20
0.0
 30
0.0
 70
   128
1001
ACAD
1000
RTLwPs
1070
   128
  0
VERTEX
  5
56AA
  8
ALPHA
 10
572.567697
 20
88.960347
 30
0.0
  0
VERTEX
  5
56AB
  8
ALPHA
 10
572.567697
 20
89.087444
 30
0.0
  0
VERTEX
  5
56AC
  8
ALPHA
 10
572.567697
 20
89.422519
 30
0.0
  0
VERTEX
  5
56AD
  8
ALPHA
 10
572.567697
 20
90.439295
 30
0.0
  0
VERTEX
  5
56AE
  8
ALPHA
 10
572.567697
 20
91.456072
 30
0.0
  0
VERTEX
  5
56AF
  8
ALPHA
 10
572.567697
 20
91.791146
 30
0.0
  0
VERTEX
  5
56B0
  8
ALPHA
 10
572.567697
 20
91.918243
 30
0.0
  0
SEQEND
  5
56B1
  8
ALPHA
  0
POLYLINE
  5
4B48
  8
ALPHA
 66
     1
 10
0.0
 20
0.0
 30
0.0
 70
   128
1001
ACAD
1000
RTLwPs
1070
   128
  0
VERTEX
  5
56B2
  8
ALPHA
 10
549.83404
 20
94.464923
 30
0.0
  0
VERTEX
  5
56B3
  8
ALPHA
 10
549.83404
 20
94.36531
 30
0.0
  0
VERTEX
  5
56B4
  8
ALPHA
 10
549.83404
 20
94.086068
 30
0.0
  0
VERTEX
  5
56B5
  8
ALPHA
 10
549.83404
 20
93.106273
 30
0.0
  0
VERTEX
  5
56B6
  8
ALPHA
 10
549.83404
 20
90.284461
 30
0.0
  0
VERTEX
  5
56B7
  8
ALPHA
 10
549.83404
 20
88.912748
 30
0.0
  0
VERTEX
  5
56B8
  8
ALPHA
 10
549.83404
 20
87.880696
 30
0.0
  0
VERTEX
  5
56B9
  8
ALPHA
 10
549.83404
 20
87.565529
 30
0.0
  0
VERTEX
  5
56BA
  8
ALPHA
 10
549.83404
 20
87.423458
 30
0.0
  0
VERTEX
  5
56BB
  8
ALPHA
 10
549.487828
 20
87.296313
 30
0.0
  0
VERTEX
  5
56BC
  8
ALPHA
 10
548.775996
 20
87.025254
 30
0.0
  0
VERTEX
  5
56BD
  8
ALPHA
 10
547.82311
 20
86.628164
 30
0.0
  0
VERTEX
  5
56BE
  8
ALPHA
 10
545.610602
 20
85.520714
 30
0.0
  0
VERTEX
  5
56BF
  8
ALPHA
 10
544.559192
 20
84.842766
 30
0.0
  0
VERTEX
  5
56C0
  8
ALPHA
 10
543.683153
 20
84.10361
 30
0.0
  0
VERTEX
  5
56C1
  8
ALPHA
 10
543.515078
 20
83.924943
 30
0.0
  0
VERTEX
  5
56C2
  8
ALPHA
 10
543.447585
 20
83.85415
 30
0.0
  0
VERTEX
  5
56C3
  8
ALPHA
 10
543.321647
 20
83.706088
 30
0.0
  0
VERTEX
  5
56C4
  8
ALPHA
 10
543.104695
 20
83.385992
 30
0.0
  0
VERTEX
  5
56C5
  8
ALPHA
 10
542.800375
 20
82.665392
 30
0.0
  0
VERTEX
  5
56C6
  8
ALPHA
 10
542.649556
 20
81.867059
 30
0.0
  0
VERTEX
  5
56C7
  8
ALPHA
 10
542.653822
 20
80.937146
 30
0.0
  0
VERTEX
  5
56C8
  8
ALPHA
 10
543.060559
 20
79.913254
 30
0.0
  0
VERTEX
  5
56C9
  8
ALPHA
 10
543.786981
 20
79.024662
 30
0.0
  0
VERTEX
  5
56CA
  8
ALPHA
 10
544.63878
 20
78.267849
 30
0.0
  0
VERTEX
  5
56CB
  8
ALPHA
 10
544.871406
 20
78.0808
 30
0.0
  0
VERTEX
  5
56CC
  8
ALPHA
 10
545.351167
 20
77.730957
 30
0.0
  0
VERTEX
  5
56CD
  8
ALPHA
 10
546.683449
 20
76.943704
 30
0.0
  0
VERTEX
  5
56CE
  8
ALPHA
 10
548.535625
 20
76.108372
 30
0.0
  0
VERTEX
  5
56CF
  8
ALPHA
 10
550.935156
 20
75.30737
 30
0.0
  0
VERTEX
  5
56D0
  8
ALPHA
 10
552.34876
 20
74.945496
 30
0.0
  0
VERTEX
  5
56D1
  8
ALPHA
 10
553.909499
 20
74.62311
 30
0.0
  0
VERTEX
  5
56D2
  8
ALPHA
 10
555.620807
 20
74.350511
 30
0.0
  0
VERTEX
  5
56D3
  8
ALPHA
 10
557.486116
 20
74.138003
 30
0.0
  0
VERTEX
  5
56D4
  8
ALPHA
 10
559.508858
 20
73.995885
 30
0.0
  0
VERTEX
  5
56D5
  8
ALPHA
 10
561.692466
 20
73.934459
 30
0.0
  0
VERTEX
  5
56D6
  8
ALPHA
 10
564.040371
 20
73.964027
 30
0.0
  0
VERTEX
  5
56D7
  8
ALPHA
 10
566.552766
 20
73.999337
 30
0.0
  0
VERTEX
  5
56D8
  8
ALPHA
 10
568.863731
 20
74.087294
 30
0.0
  0
VERTEX
  5
56D9
  8
ALPHA
 10
570.964729
 20
74.232099
 30
0.0
  0
VERTEX
  5
56DA
  8
ALPHA
 10
572.869077
 20
74.428185
 30
0.0
  0
VERTEX
  5
56DB
  8
ALPHA
 10
574.590091
 20
74.669986
 30
0.0
  0
VERTEX
  5
56DC
  8
ALPHA
 10
576.14109
 20
74.951934
 30
0.0
  0
VERTEX
  5
56DD
  8
ALPHA
 10
577.53539
 20
75.268465
 30
0.0
  0
VERTEX
  5
56DE
  8
ALPHA
 10
579.907162
 20
75.983007
 30
0.0
  0
VERTEX
  5
56DF
  8
ALPHA
 10
581.811944
 20
76.76908
 30
0.0
  0
VERTEX
  5
56E0
  8
ALPHA
 10
583.356275
 20
77.582152
 30
0.0
  0
VERTEX
  5
56E1
  8
ALPHA
 10
584.026564
 20
77.984898
 30
0.0
  0
VERTEX
  5
56E2
  8
ALPHA
 10
584.276617
 20
78.139416
 30
0.0
  0
VERTEX
  5
56E3
  8
ALPHA
 10
584.391871
 20
78.208918
 30
0.0
  0
VERTEX
  5
56E4
  8
ALPHA
 10
584.847205
 20
78.528057
 30
0.0
  0
VERTEX
  5
56E5
  8
ALPHA
 10
585.669639
 20
79.338869
 30
0.0
  0
VERTEX
  5
56E6
  8
ALPHA
 10
586.249384
 20
80.328641
 30
0.0
  0
VERTEX
  5
56E7
  8
ALPHA
 10
586.438957
 20
81.402972
 30
0.0
  0
VERTEX
  5
56E8
  8
ALPHA
 10
586.36358
 20
82.229206
 30
0.0
  0
VERTEX
  5
56E9
  8
ALPHA
 10
586.147745
 20
82.997358
 30
0.0
  0
VERTEX
  5
56EA
  8
ALPHA
 10
585.768243
 20
83.672055
 30
0.0
  0
VERTEX
  5
56EB
  8
ALPHA
 10
585.454207
 20
84.018454
 30
0.0
  0
VERTEX
  5
56EC
  8
ALPHA
 10
584.659445
 20
84.772729
 30
0.0
  0
VERTEX
  5
56ED
  8
ALPHA
 10
583.743589
 20
85.499737
 30
0.0
  0
VERTEX
  5
56EE
  8
ALPHA
 10
582.570063
 20
86.206179
 30
0.0
  0
VERTEX
  5
56EF
  8
ALPHA
 10
581.002288
 20
86.898759
 30
0.0
  0
VERTEX
  5
56F0
  8
ALPHA
 10
580.027877
 20
87.241945
 30
0.0
  0
VERTEX
  5
56F1
  8
ALPHA
 10
578.903687
 20
87.584179
 30
0.0
  0
VERTEX
  5
56F2
  8
ALPHA
 10
577.612646
 20
87.926299
 30
0.0
  0
VERTEX
  5
56F3
  8
ALPHA
 10
576.137682
 20
88.269141
 30
0.0
  0
VERTEX
  5
56F4
  8
ALPHA
 10
574.461723
 20
88.613545
 30
0.0
  0
VERTEX
  5
56F5
  8
ALPHA
 10
572.567697
 20
88.960347
 30
0.0
  0
SEQEND
  5
56F6
  8
ALPHA
  0
LINE
  5
4B9A
  8
ALPHA
 10
549.889197
 20
88.73972
 30
0.0
 11
573.61388
 21
88.73972
 31
0.0
1001
ACAD
1000
RTLwPs
1070
   128
  0
CIRCLE
  5
4BA2
  8
ALPHA
 10
547.9893
 20
81.473391
 30
0.0
 40
2.427505
1001
ACAD
1000
RTLwPs
1070
   128
  0
CIRCLE
  5
4BD7
  8
ALPHA
 10
580.989324
 20
81.473391
 30
0.0
 40
2.5
1001
ACAD
1000
RTLwPs
1070
   128
  0
LINE
  5
4BDB
  8
ALPHA
 10
582.706983
 20
79.75753
 30
0.0
 11
582.706983
 21
79.75753
 31
0.0
1001
ACAD
1000
RTLwPs
1070
   128
  0
POLYLINE
  5
4C2A
  8
ALPHA
 66
     1
 10
0.0
 20
0.0
 30
0.0
 70
   128
1001
ACAD
1000
RTLwPs
1070
   128
  0
VERTEX
  5
56F7
  8
ALPHA
 10
573.118667
 20
137.165856
 30
0.0
  0
VERTEX
  5
56F8
  8
ALPHA
 10
573.041266
 20
137.165856
 30
0.0
  0
VERTEX
  5
56F9
  8
ALPHA
 10
572.819388
 20
137.165856
 30
0.0
  0
VERTEX
  5
56FA
  8
ALPHA
 10
572.004137
 20
137.165856
 30
0.0
  0
VERTEX
  5
56FB
  8
ALPHA
 10
570.796792
 20
137.165856
 30
0.0
  0
VERTEX
  5
56FC
  8
ALPHA
 10
569.321231
 20
137.165856
 30
0.0
  0
VERTEX
  5
56FD
  8
ALPHA
 10
567.764031
 20
136.954184
 30
0.0
  0
VERTEX
  5
56FE
  8
ALPHA
 10
566.27928
 20
136.339851
 30
0.0
  0
VERTEX
  5
56FF
  8
ALPHA
 10
564.939429
 20
135.353883
 30
0.0
  0
VERTEX
  5
5700
  8
ALPHA
 10
563.816927
 20
134.027306
 30
0.0
  0
VERTEX
  5
5701
  8
ALPHA
 10
562.590446
 20
131.628399
 30
0.0
  0
VERTEX
  5
5702
  8
ALPHA
 10
561.510508
 20
129.116317
 30
0.0
  0
VERTEX
  5
5703
  8
ALPHA
 10
560.573868
 20
126.521028
 30
0.0
  0
VERTEX
  5
5704
  8
ALPHA
 10
559.77728
 20
123.872501
 30
0.0
  0
VERTEX
  5
5705
  8
ALPHA
 10
558.591274
 20
118.535608
 30
0.0
  0
VERTEX
  5
5706
  8
ALPHA
 10
558.195365
 20
115.907179
 30
0.0
  0
VERTEX
  5
5707
  8
ALPHA
 10
557.926524
 20
113.345387
 30
0.0
  0
VERTEX
  5
5708
  8
ALPHA
 10
558.485513
 20
111.513891
 30
0.0
  0
VERTEX
  5
5709
  8
ALPHA
 10
558.765719
 20
109.388775
 30
0.0
  0
VERTEX
  5
570A
  8
ALPHA
 10
558.77771
 20
107.068061
 30
0.0
  0
VERTEX
  5
570B
  8
ALPHA
 10
558.532051
 20
104.649774
 30
0.0
  0
SEQEND
  5
570C
  8
ALPHA
  0
POLYLINE
  5
4C2B
  8
ALPHA
 66
     1
 10
0.0
 20
0.0
 30
0.0
 70
   128
1001
ACAD
1000
RTLwPs
1070
   128
  0
VERTEX
  5
570D
  8
ALPHA
 10
578.677528
 20
136.779158
 30
0.0
  0
VERTEX
  5
570E
  8
ALPHA
 10
578.677528
 20
136.695428
 30
0.0
  0
VERTEX
  5
570F
  8
ALPHA
 10
578.677528
 20
136.431621
 30
0.0
  0
VERTEX
  5
5710
  8
ALPHA
 10
578.677528
 20
135.968814
 30
0.0
  0
VERTEX
  5
5711
  8
ALPHA
 10
578.677528
 20
135.288086
 30
0.0
  0
VERTEX
  5
5712
  8
ALPHA
 10
578.677528
 20
134.370512
 30
0.0
  0
VERTEX
  5
5713
  8
ALPHA
 10
578.677528
 20
133.19717
 30
0.0
  0
VERTEX
  5
5714
  8
ALPHA
 10
578.643443
 20
131.851174
 30
0.0
  0
VERTEX
  5
5715
  8
ALPHA
 10
578.44372
 20
130.723622
 30
0.0
  0
VERTEX
  5
5716
  8
ALPHA
 10
578.082778
 20
129.81782
 30
0.0
  0
VERTEX
  5
5717
  8
ALPHA
 10
577.58072
 20
129.090901
 30
0.0
  0
VERTEX
  5
5718
  8
ALPHA
 10
576.233666
 20
128.002238
 30
0.0
  0
VERTEX
  5
5719
  8
ALPHA
 10
575.840116
 20
127.774892
 30
0.0
  0
VERTEX
  5
571A
  8
ALPHA
 10
575.63655
 20
127.664259
 30
0.0
  0
VERTEX
  5
571B
  8
ALPHA
 10
575.063482
 20
127.45356
 30
0.0
  0
VERTEX
  5
571C
  8
ALPHA
 10
573.779131
 20
127.202582
 30
0.0
  0
VERTEX
  5
571D
  8
ALPHA
 10
572.565003
 20
127.23898
 30
0.0
  0
VERTEX
  5
571E
  8
ALPHA
 10
571.428022
 20
127.5276
 30
0.0
  0
VERTEX
  5
571F
  8
ALPHA
 10
570.375109
 20
128.03329
 30
0.0
  0
VERTEX
  5
5720
  8
ALPHA
 10
569.413189
 20
128.720898
 30
0.0
  0
VERTEX
  5
5721
  8
ALPHA
 10
568.549183
 20
129.555272
 30
0.0
  0
VERTEX
  5
5722
  8
ALPHA
 10
567.142608
 20
131.523706
 30
0.0
  0
VERTEX
  5
5723
  8
ALPHA
 10
566.210765
 20
133.657376
 30
0.0
  0
VERTEX
  5
5724
  8
ALPHA
 10
565.940176
 20
134.698294
 30
0.0
  0
VERTEX
  5
5725
  8
ALPHA
 10
565.809039
 20
135.675063
 30
0.0
  0
VERTEX
  5
5726
  8
ALPHA
 10
565.798855
 20
135.905113
 30
0.0
  0
VERTEX
  5
5727
  8
ALPHA
 10
565.797228
 20
136.017639
 30
0.0
  0
VERTEX
  5
5728
  8
ALPHA
 10
565.809724
 20
135.908901
 30
0.0
  0
VERTEX
  5
5729
  8
ALPHA
 10
565.899278
 20
135.270449
 30
0.0
  0
VERTEX
  5
572A
  8
ALPHA
 10
566.201358
 20
134.076569
 30
0.0
  0
VERTEX
  5
572B
  8
ALPHA
 10
566.644039
 20
132.992224
 30
0.0
  0
VERTEX
  5
572C
  8
ALPHA
 10
567.199284
 20
132.01601
 30
0.0
  0
VERTEX
  5
572D
  8
ALPHA
 10
568.535322
 20
130.382372
 30
0.0
  0
VERTEX
  5
572E
  8
ALPHA
 10
569.985182
 20
129.164446
 30
0.0
  0
VERTEX
  5
572F
  8
ALPHA
 10
571.324577
 20
128.351021
 30
0.0
  0
VERTEX
  5
5730
  8
ALPHA
 10
571.882758
 20
128.092492
 30
0.0
  0
VERTEX
  5
5731
  8
ALPHA
 10
572.329215
 20
127.930884
 30
0.0
  0
VERTEX
  5
5732
  8
ALPHA
 10
572.824061
 20
127.864237
 30
0.0
  0
VERTEX
  5
5733
  8
ALPHA
 10
573.32011
 20
127.91521
 30
0.0
  0
VERTEX
  5
5734
  8
ALPHA
 10
573.521779
 20
128.054796
 30
0.0
  0
VERTEX
  5
5735
  8
ALPHA
 10
573.559923
 20
128.302974
 30
0.0
  0
SEQEND
  5
5736
  8
ALPHA
  0
POLYLINE
  5
4C2C
  8
ALPHA
 66
     1
 10
0.0
 20
0.0
 30
0.0
 70
   128
210
0.0
220
0.0
230
-1.0
1001
ACAD
1000
RTLwPs
1070
   128
  0
VERTEX
  5
5737
  8
ALPHA
 10
-561.283904
 20
127.642289
 30
0.0
  0
VERTEX
  5
5738
  8
ALPHA
 10
-561.55585
 20
127.533366
 30
0.0
  0
VERTEX
  5
5739
  8
ALPHA
 10
-562.193962
 20
127.267405
 30
0.0
  0
VERTEX
  5
573A
  8
ALPHA
 10
-562.931652
 20
126.935621
 30
0.0
  0
VERTEX
  5
573B
  8
ALPHA
 10
-563.502332
 20
126.629228
 30
0.0
  0
VERTEX
  5
573C
  8
ALPHA
 10
-563.641734
 20
126.514057
 30
0.0
  0
VERTEX
  5
573D
  8
ALPHA
 10
-563.721446
 20
126.401887
 30
0.0
  0
VERTEX
  5
573E
  8
ALPHA
 10
-563.893269
 20
126.170746
 30
0.0
  0
VERTEX
  5
573F
  8
ALPHA
 10
-564.267248
 20
125.706969
 30
0.0
  0
VERTEX
  5
5740
  8
ALPHA
 10
-565.140334
 20
124.785149
 30
0.0
  0
VERTEX
  5
5741
  8
ALPHA
 10
-566.187468
 20
123.893289
 30
0.0
  0
VERTEX
  5
5742
  8
ALPHA
 10
-567.417305
 20
123.058168
 30
0.0
  0
VERTEX
  5
5743
  8
ALPHA
 10
-568.838503
 20
122.306564
 30
0.0
  0
VERTEX
  5
5744
  8
ALPHA
 10
-570.459715
 20
121.665256
 30
0.0
  0
VERTEX
  5
5745
  8
ALPHA
 10
-572.289598
 20
121.161023
 30
0.0
  0
VERTEX
  5
5746
  8
ALPHA
 10
-574.336808
 20
120.820644
 30
0.0
  0
VERTEX
  5
5747
  8
ALPHA
 10
-576.61
 20
120.670896
 30
0.0
  0
VERTEX
  5
5748
  8
ALPHA
 10
-577.214622
 20
120.666384
 30
0.0
  0
VERTEX
  5
5749
  8
ALPHA
 10
-577.367114
 20
120.665971
 30
0.0
  0
VERTEX
  5
574A
  8
ALPHA
 10
-577.512
 20
120.656979
 30
0.0
  0
VERTEX
  5
574B
  8
ALPHA
 10
-577.774489
 20
120.611363
 30
0.0
  0
VERTEX
  5
574C
  8
ALPHA
 10
-578.192996
 20
120.420181
 30
0.0
  0
VERTEX
  5
574D
  8
ALPHA
 10
-578.474627
 20
120.115877
 30
0.0
  0
VERTEX
  5
574E
  8
ALPHA
 10
-578.62548
 20
119.722624
 30
0.0
  0
VERTEX
  5
574F
  8
ALPHA
 10
-578.656545
 20
119.246262
 30
0.0
  0
VERTEX
  5
5750
  8
ALPHA
 10
-578.656545
 20
118.460279
 30
0.0
  0
VERTEX
  5
5751
  8
ALPHA
 10
-578.656545
 20
117.501838
 30
0.0
  0
VERTEX
  5
5752
  8
ALPHA
 10
-578.656545
 20
116.645987
 30
0.0
  0
VERTEX
  5
5753
  8
ALPHA
 10
-578.656545
 20
116.167775
 30
0.0
  0
VERTEX
  5
5754
  8
ALPHA
 10
-578.773218
 20
116.079765
 30
0.0
  0
VERTEX
  5
5755
  8
ALPHA
 10
-579.103491
 20
115.901264
 30
0.0
  0
VERTEX
  5
5756
  8
ALPHA
 10
-579.945833
 20
115.369085
 30
0.0
  0
VERTEX
  5
5757
  8
ALPHA
 10
-580.910108
 20
114.591791
 30
0.0
  0
VERTEX
  5
5758
  8
ALPHA
 10
-581.851763
 20
113.555526
 30
0.0
  0
VERTEX
  5
5759
  8
ALPHA
 10
-582.729121
 20
112.234388
 30
0.0
  0
VERTEX
  5
575A
  8
ALPHA
 10
-583.292442
 20
111.483433
 30
0.0
  0
VERTEX
  5
575B
  8
ALPHA
 10
-583.667621
 20
110.744182
 30
0.0
  0
VERTEX
  5
575C
  8
ALPHA
 10
-583.871056
 20
110.019649
 30
0.0
  0
VERTEX
  5
575D
  8
ALPHA
 10
-583.919145
 20
109.312845
 30
0.0
  0
VERTEX
  5
575E
  8
ALPHA
 10
-583.614879
 20
107.964475
 30
0.0
  0
VERTEX
  5
575F
  8
ALPHA
 10
-582.886008
 20
106.723171
 30
0.0
  0
VERTEX
  5
5760
  8
ALPHA
 10
-582.444736
 20
106.158067
 30
0.0
  0
VERTEX
  5
5761
  8
ALPHA
 10
-582.201859
 20
105.674211
 30
0.0
  0
VERTEX
  5
5762
  8
ALPHA
 10
-581.590401
 20
104.792215
 30
0.0
  0
VERTEX
  5
5763
  8
ALPHA
 10
-580.799538
 20
103.992628
 30
0.0
  0
VERTEX
  5
5764
  8
ALPHA
 10
-579.815114
 20
103.237192
 30
0.0
  0
VERTEX
  5
5765
  8
ALPHA
 10
-578.622971
 20
102.487651
 30
0.0
  0
SEQEND
  5
5766
  8
ALPHA
  0
POLYLINE
  5
4C2D
  8
ALPHA
 66
     1
 10
0.0
 20
0.0
 30
0.0
 70
   128
1001
ACAD
1000
RTLwPs
1070
   128
  0
VERTEX
  5
5767
  8
ALPHA
 10
570.642
 20
120.501402
 30
0.0
  0
VERTEX
  5
5768
  8
ALPHA
 10
570.345695
 20
120.362165
 30
0.0
  0
VERTEX
  5
5769
  8
ALPHA
 10
569.851854
 20
120.130104
 30
0.0
  0
VERTEX
  5
576A
  8
ALPHA
 10
569.307217
 20
119.993298
 30
0.0
  0
VERTEX
  5
576B
  8
ALPHA
 10
568.989424
 20
120.08587
 30
0.0
  0
VERTEX
  5
576C
  8
ALPHA
 10
568.869929
 20
120.147031
 30
0.0
  0
VERTEX
  5
576D
  8
ALPHA
 10
568.836362
 20
120.165294
 30
0.0
  0
VERTEX
  5
576E
  8
ALPHA
 10
568.69266
 20
120.244701
 30
0.0
  0
VERTEX
  5
576F
  8
ALPHA
 10
568.290129
 20
120.472781
 30
0.0
  0
VERTEX
  5
5770
  8
ALPHA
 10
566.62299
 20
121.508527
 30
0.0
  0
VERTEX
  5
5771
  8
ALPHA
 10
564.955945
 20
122.712424
 30
0.0
  0
VERTEX
  5
5772
  8
ALPHA
 10
563.410757
 20
124.045361
 30
0.0
  0
VERTEX
  5
5773
  8
ALPHA
 10
562.109185
 20
125.468224
 30
0.0
  0
VERTEX
  5
5774
  8
ALPHA
 10
561.17299
 20
126.941904
 30
0.0
  0
SEQEND
  5
5775
  8
ALPHA
  0
POLYLINE
  5
4C2E
  8
ALPHA
 66
     1
 10
0.0
 20
0.0
 30
0.0
 70
   128
1001
ACAD
1000
RTLwPs
1070
   128
  0
VERTEX
  5
5776
  8
ALPHA
 10
573.484981
 20
96.006919
 30
0.0
  0
VERTEX
  5
5777
  8
ALPHA
 10
573.484981
 20
96.286625
 30
0.0
  0
VERTEX
  5
5778
  8
ALPHA
 10
573.484981
 20
97.02403
 30
0.0
  0
VERTEX
  5
5779
  8
ALPHA
 10
573.484981
 20
98.066569
 30
0.0
  0
VERTEX
  5
577A
  8
ALPHA
 10
573.484981
 20
99.261674
 30
0.0
  0
VERTEX
  5
577B
  8
ALPHA
 10
573.484981
 20
100.456779
 30
0.0
  0
VERTEX
  5
577C
  8
ALPHA
 10
573.484981
 20
101.499318
 30
0.0
  0
VERTEX
  5
577D
  8
ALPHA
 10
573.484981
 20
102.236723
 30
0.0
  0
VERTEX
  5
577E
  8
ALPHA
 10
573.484981
 20
102.516429
 30
0.0
  0
VERTEX
  5
577F
  8
ALPHA
 10
572.117298
 20
103.367127
 30
0.0
  0
VERTEX
  5
5780
  8
ALPHA
 10
570.990178
 20
104.228393
 30
0.0
  0
VERTEX
  5
5781
  8
ALPHA
 10
570.11059
 20
105.162051
 30
0.0
  0
VERTEX
  5
5782
  8
ALPHA
 10
569.485503
 20
106.22993
 30
0.0
  0
VERTEX
  5
5783
  8
ALPHA
 10
568.516771
 20
107.597838
 30
0.0
  0
VERTEX
  5
5784
  8
ALPHA
 10
568.209947
 20
108.339852
 30
0.0
  0
VERTEX
  5
5785
  8
ALPHA
 10
568.05412
 20
109.114579
 30
0.0
  0
VERTEX
  5
5786
  8
ALPHA
 10
568.073768
 20
109.917521
 30
0.0
  0
VERTEX
  5
5787
  8
ALPHA
 10
568.29337
 20
110.744182
 30
0.0
  0
VERTEX
  5
5788
  8
ALPHA
 10
568.737404
 20
111.590066
 30
0.0
  0
VERTEX
  5
5789
  8
ALPHA
 10
569.430346
 20
112.450675
 30
0.0
  0
VERTEX
  5
578A
  8
ALPHA
 10
570.357316
 20
113.878836
 30
0.0
  0
VERTEX
  5
578B
  8
ALPHA
 10
571.433232
 20
114.95582
 30
0.0
  0
VERTEX
  5
578C
  8
ALPHA
 10
572.457214
 20
115.702312
 30
0.0
  0
VERTEX
  5
578D
  8
ALPHA
 10
573.228381
 20
116.138997
 30
0.0
  0
SEQEND
  5
578E
  8
ALPHA
  0
POLYLINE
  5
4C2F
  8
ALPHA
 66
     1
 10
0.0
 20
0.0
 30
0.0
 70
   128
1001
ACAD
1000
RTLwPs
1070
   128
  0
VERTEX
  5
578F
  8
ALPHA
 10
593.7048
 20
96.062076
 30
0.0
  0
VERTEX
  5
5790
  8
ALPHA
 10
593.487768
 20
96.062076
 30
0.0
  0
VERTEX
  5
5791
  8
ALPHA
 10
592.86407
 20
96.062076
 30
0.0
  0
VERTEX
  5
5792
  8
ALPHA
 10
591.874797
 20
96.062076
 30
0.0
  0
VERTEX
  5
5793
  8
ALPHA
 10
590.561044
 20
96.062076
 30
0.0
  0
VERTEX
  5
5794
  8
ALPHA
 10
588.963905
 20
96.062076
 30
0.0
  0
VERTEX
  5
5795
  8
ALPHA
 10
587.124473
 20
96.062076
 30
0.0
  0
VERTEX
  5
5796
  8
ALPHA
 10
585.083841
 20
96.062076
 30
0.0
  0
VERTEX
  5
5797
  8
ALPHA
 10
582.883103
 20
96.062076
 30
0.0
  0
VERTEX
  5
5798
  8
ALPHA
 10
578.165684
 20
96.062076
 30
0.0
  0
VERTEX
  5
5799
  8
ALPHA
 10
573.300965
 20
96.062076
 30
0.0
  0
VERTEX
  5
579A
  8
ALPHA
 10
568.617693
 20
96.062076
 30
0.0
  0
VERTEX
  5
579B
  8
ALPHA
 10
566.446834
 20
96.062076
 30
0.0
  0
VERTEX
  5
579C
  8
ALPHA
 10
564.444618
 20
96.062076
 30
0.0
  0
VERTEX
  5
579D
  8
ALPHA
 10
562.652138
 20
96.062076
 30
0.0
  0
VERTEX
  5
579E
  8
ALPHA
 10
561.110488
 20
96.062076
 30
0.0
  0
VERTEX
  5
579F
  8
ALPHA
 10
559.860761
 20
96.062076
 30
0.0
  0
VERTEX
  5
57A0
  8
ALPHA
 10
558.944052
 20
96.062076
 30
0.0
  0
VERTEX
  5
57A1
  8
ALPHA
 10
558.401452
 20
96.062076
 30
0.0
  0
VERTEX
  5
57A2
  8
ALPHA
 10
558.178931
 20
96.060144
 30
0.0
  0
VERTEX
  5
57A3
  8
ALPHA
 10
557.809391
 20
96.032814
 30
0.0
  0
VERTEX
  5
57A4
  8
ALPHA
 10
557.183036
 20
95.899935
 30
0.0
  0
VERTEX
  5
57A5
  8
ALPHA
 10
556.697184
 20
95.700109
 30
0.0
  0
VERTEX
  5
57A6
  8
ALPHA
 10
556.099937
 20
95.278879
 30
0.0
  0
VERTEX
  5
57A7
  8
ALPHA
 10
555.65619
 20
94.870619
 30
0.0
  0
VERTEX
  5
57A8
  8
ALPHA
 10
555.114988
 20
94.567485
 30
0.0
  0
VERTEX
  5
57A9
  8
ALPHA
 10
554.426456
 20
94.464923
 30
0.0
  0
SEQEND
  5
57AA
  8
ALPHA
  0
POLYLINE
  5
4C30
  8
ALPHA
 66
     1
 10
0.0
 20
0.0
 30
0.0
 70
   128
1001
ACAD
1000
RTLwPs
1070
   128
  0
VERTEX
  5
57AB
  8
ALPHA
 10
549.83404
 20
91.9734
 30
0.0
  0
VERTEX
  5
57AC
  8
ALPHA
 10
549.983105
 20
91.9734
 30
0.0
  0
VERTEX
  5
57AD
  8
ALPHA
 10
550.417612
 20
91.9734
 30
0.0
  0
VERTEX
  5
57AE
  8
ALPHA
 10
551.118532
 20
91.9734
 30
0.0
  0
VERTEX
  5
57AF
  8
ALPHA
 10
552.066836
 20
91.9734
 30
0.0
  0
VERTEX
  5
57B0
  8
ALPHA
 10
553.243494
 20
91.9734
 30
0.0
  0
VERTEX
  5
57B1
  8
ALPHA
 10
554.629476
 20
91.9734
 30
0.0
  0
VERTEX
  5
57B2
  8
ALPHA
 10
556.205754
 20
91.9734
 30
0.0
  0
VERTEX
  5
57B3
  8
ALPHA
 10
557.953297
 20
91.9734
 30
0.0
  0
VERTEX
  5
57B4
  8
ALPHA
 10
561.886062
 20
91.9734
 30
0.0
  0
VERTEX
  5
57B5
  8
ALPHA
 10
566.275535
 20
91.9734
 30
0.0
  0
VERTEX
  5
57B6
  8
ALPHA
 10
570.969481
 20
91.9734
 30
0.0
  0
VERTEX
  5
57B7
  8
ALPHA
 10
575.815662
 20
91.9734
 30
0.0
  0
VERTEX
  5
57B8
  8
ALPHA
 10
580.661843
 20
91.9734
 30
0.0
  0
VERTEX
  5
57B9
  8
ALPHA
 10
585.355789
 20
91.9734
 30
0.0
  0
VERTEX
  5
57BA
  8
ALPHA
 10
589.745262
 20
91.9734
 30
0.0
  0
VERTEX
  5
57BB
  8
ALPHA
 10
593.678027
 20
91.9734
 30
0.0
  0
VERTEX
  5
57BC
  8
ALPHA
 10
595.42557
 20
91.9734
 30
0.0
  0
VERTEX
  5
57BD
  8
ALPHA
 10
597.001848
 20
91.9734
 30
0.0
  0
VERTEX
  5
57BE
  8
ALPHA
 10
598.38783
 20
91.9734
 30
0.0
  0
VERTEX
  5
57BF
  8
ALPHA
 10
599.564488
 20
91.9734
 30
0.0
  0
VERTEX
  5
57C0
  8
ALPHA
 10
600.512792
 20
91.9734
 30
0.0
  0
VERTEX
  5
57C1
  8
ALPHA
 10
601.213712
 20
91.9734
 30
0.0
  0
VERTEX
  5
57C2
  8
ALPHA
 10
601.648219
 20
91.9734
 30
0.0
  0
VERTEX
  5
57C3
  8
ALPHA
 10
601.797284
 20
91.9734
 30
0.0
  0
SEQEND
  5
57C4
  8
ALPHA
  0
POLYLINE
  5
4C32
  8
ALPHA
 66
     1
 10
0.0
 20
0.0
 30
0.0
 70
   128
210
0.0
220
0.0
230
-1.0
1001
ACAD
1000
RTLwPs
1070
   128
  0
VERTEX
  5
57C5
  8
ALPHA
 10
-573.559923
 20
132.475717
 30
0.0
  0
VERTEX
  5
57C6
  8
ALPHA
 10
-570.086711
 20
132.7056
 30
0.0
  0
VERTEX
  5
57C7
  8
ALPHA
 10
-568.438023
 20
132.94123
 30
0.0
  0
VERTEX
  5
57C8
  8
ALPHA
 10
-566.937866
 20
133.211343
 30
0.0
  0
VERTEX
  5
57C9
  8
ALPHA
 10
-565.653681
 20
133.481455
 30
0.0
  0
VERTEX
  5
57CA
  8
ALPHA
 10
-564.652909
 20
133.717086
 30
0.0
  0
VERTEX
  5
57CB
  8
ALPHA
 10
-564.002989
 20
133.883751
 30
0.0
  0
VERTEX
  5
57CC
  8
ALPHA
 10
-563.771362
 20
133.946969
 30
0.0
  0
SEQEND
  5
57CD
  8
ALPHA
  0
POLYLINE
  5
4C33
  8
ALPHA
 66
     1
 10
0.0
 20
0.0
 30
0.0
 70
   128
210
0.0
220
0.0
230
-1.0
1001
ACAD
1000
RTLwPs
1070
   128
  0
VERTEX
  5
57CE
  8
ALPHA
 10
-565.797181
 20
124.141761
 30
0.0
  0
VERTEX
  5
57CF
  8
ALPHA
 10
-566.195026
 20
123.714144
 30
0.0
  0
VERTEX
  5
57D0
  8
ALPHA
 10
-566.377819
 20
123.152982
 30
0.0
  0
VERTEX
  5
57D1
  8
ALPHA
 10
-566.495998
 20
122.741818
 30
0.0
  0
VERTEX
  5
57D2
  8
ALPHA
 10
-566.664479
 20
122.159558
 30
0.0
  0
VERTEX
  5
57D3
  8
ALPHA
 10
-567.157973
 20
121.507995
 30
0.0
  0
VERTEX
  5
57D4
  8
ALPHA
 10
-568.215319
 20
120.96291
 30
0.0
  0
VERTEX
  5
57D5
  8
ALPHA
 10
-569.409643
 20
120.432458
 30
0.0
  0
VERTEX
  5
57D6
  8
ALPHA
 10
-569.819765
 20
120.255749
 30
0.0
  0
VERTEX
  5
57D7
  8
ALPHA
 10
-569.977718
 20
120.188446
 30
0.0
  0
SEQEND
  5
57D8
  8
ALPHA
  0
POLYLINE
  5
4C34
  8
ALPHA
 66
     1
 10
0.0
 20
0.0
 30
0.0
 70
   128
210
0.0
220
0.0
230
-1.0
1001
ACAD
1000
RTLwPs
1070
   128
  0
VERTEX
  5
57D9
  8
ALPHA
 10
-579.00847
 20
91.9734
 30
0.0
  0
VERTEX
  5
57DA
  8
ALPHA
 10
-577.97513
 20
92.031267
 30
0.0
  0
VERTEX
  5
57DB
  8
ALPHA
 10
-577.320676
 20
92.177791
 30
0.0
  0
VERTEX
  5
57DC
  8
ALPHA
 10
-576.316346
 20
92.661475
 30
0.0
  0
VERTEX
  5
57DD
  8
ALPHA
 10
-575.516928
 20
93.073012
 30
0.0
  0
VERTEX
  5
57DE
  8
ALPHA
 10
-574.302551
 20
93.371522
 30
0.0
  0
VERTEX
  5
57DF
  8
ALPHA
 10
-573.465362
 20
93.405082
 30
0.0
  0
VERTEX
  5
57E0
  8
ALPHA
 10
-572.687206
 20
93.405082
 30
0.0
  0
VERTEX
  5
57E1
  8
ALPHA
 10
-571.582394
 20
93.405082
 30
0.0
  0
VERTEX
  5
57E2
  8
ALPHA
 10
-570.222907
 20
93.405082
 30
0.0
  0
VERTEX
  5
57E3
  8
ALPHA
 10
-568.680728
 20
93.405082
 30
0.0
  0
VERTEX
  5
57E4
  8
ALPHA
 10
-565.336216
 20
93.405082
 30
0.0
  0
VERTEX
  5
57E5
  8
ALPHA
 10
-562.124711
 20
93.405082
 30
0.0
  0
VERTEX
  5
57E6
  8
ALPHA
 10
-560.748789
 20
93.405082
 30
0.0
  0
VERTEX
  5
57E7
  8
ALPHA
 10
-559.622064
 20
93.405082
 30
0.0
  0
VERTEX
  5
57E8
  8
ALPHA
 10
-558.816517
 20
93.405082
 30
0.0
  0
VERTEX
  5
57E9
  8
ALPHA
 10
-558.404128
 20
93.405082
 30
0.0
  0
VERTEX
  5
57EA
  8
ALPHA
 10
-558.09899
 20
93.395066
 30
0.0
  0
VERTEX
  5
57EB
  8
ALPHA
 10
-557.593248
 20
93.292351
 30
0.0
  0
VERTEX
  5
57EC
  8
ALPHA
 10
-557.236144
 20
93.103087
 30
0.0
  0
VERTEX
  5
57ED
  8
ALPHA
 10
-556.923518
 20
92.853284
 30
0.0
  0
VERTEX
  5
57EE
  8
ALPHA
 10
-556.438367
 20
92.474918
 30
0.0
  0
VERTEX
  5
57EF
  8
ALPHA
 10
-555.654753
 20
92.092687
 30
0.0
  0
VERTEX
  5
57F0
  8
ALPHA
 10
-554.512189
 20
91.918243
 30
0.0
  0
SEQEND
  5
57F1
  8
ALPHA
  0
LINE
  5
4C40
  8
ALPHA
 10
551.084064
 20
111.950665
 30
0.0
 11
558.385521
 21
111.950665
 31
0.0
1001
ACAD
1000
RTLwPs
1070
   128
  0
LINE
  5
4C41
  8
ALPHA
 10
558.788651
 20
107.105247
 30
0.0
 11
551.084064
 21
107.105247
 31
0.0
1001
ACAD
1000
RTLwPs
1070
   128
  0
LINE
  5
4C42
  8
ALPHA
 10
558.458309
 20
111.430272
 30
0.0
 11
551.194378
 21
111.430272
 31
0.0
1001
ACAD
1000
RTLwPs
1070
   128
  0
LINE
  5
4C43
  8
ALPHA
 10
558.799179
 20
107.656817
 30
0.0
 11
551.194378
 21
107.656817
 31
0.0
1001
ACAD
1000
RTLwPs
1070
   128
  0
LINE
  5
4C44
  8
ALPHA
 10
546.129531
 20
113.712091
 30
0.0
 11
546.129531
 21
105.234707
 31
0.0
1001
ACAD
1000
RTLwPs
1070
   128
  0
LINE
  5
4C45
  8
ALPHA
 10
551.084064
 20
105.234707
 30
0.0
 11
551.084064
 21
113.712091
 31
0.0
1001
ACAD
1000
RTLwPs
1070
   128
  0
POLYLINE
  5
4C46
  8
ALPHA
 66
     1
 10
0.0
 20
0.0
 30
0.0
 70
   128
1001
ACAD
1000
RTLwPs
1070
   128
  0
VERTEX
  5
57F2
  8
ALPHA
 10
554.426456
 20
94.464923
 30
0.0
  0
VERTEX
  5
57F3
  8
ALPHA
 10
554.229125
 20
94.464923
 30
0.0
  0
VERTEX
  5
57F4
  8
ALPHA
 10
553.708891
 20
94.464923
 30
0.0
  0
VERTEX
  5
57F5
  8
ALPHA
 10
552.130248
 20
94.464923
 30
0.0
  0
VERTEX
  5
57F6
  8
ALPHA
 10
550.551605
 20
94.464923
 30
0.0
  0
VERTEX
  5
57F7
  8
ALPHA
 10
550.03137
 20
94.464923
 30
0.0
  0
VERTEX
  5
57F8
  8
ALPHA
 10
549.83404
 20
94.464923
 30
0.0
  0
SEQEND
  5
57F9
  8
ALPHA
  0
LINE
  5
4C47
  8
ALPHA
 10
546.129531
 20
105.234707
 30
0.0
 11
551.084064
 21
105.234707
 31
0.0
1001
ACAD
1000
RTLwPs
1070
   128
  0
LINE
  5
4C48
  8
ALPHA
 10
551.084064
 20
107.105247
 30
0.0
 11
551.084064
 21
111.950665
 31
0.0
1001
ACAD
1000
RTLwPs
1070
   128
  0
LINE
  5
4C49
  8
ALPHA
 10
551.084064
 20
113.712091
 30
0.0
 11
546.129531
 21
113.712091
 31
0.0
1001
ACAD
1000
RTLwPs
1070
   128
  0
POLYLINE
  5
4C4A
  8
ALPHA
 66
     1
 10
0.0
 20
0.0
 30
0.0
 70
   128
1001
ACAD
1000
RTLwPs
1070
   128
  0
VERTEX
  5
57FA
  8
ALPHA
 10
558.532051
 20
104.649774
 30
0.0
  0
VERTEX
  5
57FB
  8
ALPHA
 10
558.563185
 20
104.436418
 30
0.0
  0
VERTEX
  5
57FC
  8
ALPHA
 10
558.657466
 20
103.841099
 30
0.0
  0
VERTEX
  5
57FD
  8
ALPHA
 10
558.816216
 20
102.930941
 30
0.0
  0
VERTEX
  5
57FE
  8
ALPHA
 10
559.040754
 20
101.773069
 30
0.0
  0
VERTEX
  5
57FF
  8
ALPHA
 10
559.692483
 20
98.982678
 30
0.0
  0
VERTEX
  5
5800
  8
ALPHA
 10
560.623219
 20
96.006919
 30
0.0
  0
SEQEND
  5
5801
  8
ALPHA
  0
LINE
  5
4C4B
  8
ALPHA
 10
561.17299
 20
126.941904
 30
0.0
 11
561.283904
 21
127.642289
 31
0.0
1001
ACAD
1000
RTLwPs
1070
   128
  0
POLYLINE
  5
4C4C
  8
ALPHA
 66
     1
 10
0.0
 20
0.0
 30
0.0
 70
   128
1001
ACAD
1000
RTLwPs
1070
   128
  0
VERTEX
  5
5802
  8
ALPHA
 10
591.337248
 20
96.062076
 30
0.0
  0
VERTEX
  5
5803
  8
ALPHA
 10
591.413607
 20
96.304908
 30
0.0
  0
VERTEX
  5
5804
  8
ALPHA
 10
591.617744
 20
96.972784
 30
0.0
  0
VERTEX
  5
5805
  8
ALPHA
 10
591.912247
 20
97.974778
 30
0.0
  0
VERTEX
  5
5806
  8
ALPHA
 10
592.259703
 20
99.219962
 30
0.0
  0
VERTEX
  5
5807
  8
ALPHA
 10
592.963825
 20
102.076189
 30
0.0
  0
VERTEX
  5
5808
  8
ALPHA
 10
593.245667
 20
103.505377
 30
0.0
  0
VERTEX
  5
5809
  8
ALPHA
 10
593.430814
 20
104.814045
 30
0.0
  0
VERTEX
  5
580A
  8
ALPHA
 10
593.316256
 20
105.320182
 30
0.0
  0
VERTEX
  5
580B
  8
ALPHA
 10
593.228959
 20
106.16052
 30
0.0
  0
VERTEX
  5
580C
  8
ALPHA
 10
593.1805
 20
107.246029
 30
0.0
  0
VERTEX
  5
580D
  8
ALPHA
 10
593.182458
 20
108.487678
 30
0.0
  0
VERTEX
  5
580E
  8
ALPHA
 10
593.383938
 20
111.083277
 30
0.0
  0
VERTEX
  5
580F
  8
ALPHA
 10
593.606617
 20
112.259166
 30
0.0
  0
VERTEX
  5
5810
  8
ALPHA
 10
593.926027
 20
113.235073
 30
0.0
  0
VERTEX
  5
5811
  8
ALPHA
 10
593.707943
 20
116.197341
 30
0.0
  0
VERTEX
  5
5812
  8
ALPHA
 10
593.31694
 20
119.019337
 30
0.0
  0
VERTEX
  5
5813
  8
ALPHA
 10
592.776261
 20
121.706544
 30
0.0
  0
VERTEX
  5
5814
  8
ALPHA
 10
592.109145
 20
124.264445
 30
0.0
  0
VERTEX
  5
5815
  8
ALPHA
 10
591.338836
 20
126.698525
 30
0.0
  0
VERTEX
  5
5816
  8
ALPHA
 10
590.488573
 20
129.014265
 30
0.0
  0
VERTEX
  5
5817
  8
ALPHA
 10
588.641152
 20
133.312664
 30
0.0
  0
VERTEX
  5
5818
  8
ALPHA
 10
588.872383
 20
133.086621
 30
0.0
  0
VERTEX
  5
5819
  8
ALPHA
 10
588.966943
 20
133.004518
 30
0.0
  0
VERTEX
  5
581A
  8
ALPHA
 10
588.937682
 20
133.048507
 30
0.0
  0
VERTEX
  5
581B
  8
ALPHA
 10
588.797452
 20
133.200739
 30
0.0
  0
VERTEX
  5
581C
  8
ALPHA
 10
588.235488
 20
133.758533
 30
0.0
  0
VERTEX
  5
581D
  8
ALPHA
 10
587.383858
 20
134.53511
 30
0.0
  0
VERTEX
  5
581E
  8
ALPHA
 10
585.222836
 20
136.173443
 30
0.0
  0
VERTEX
  5
581F
  8
ALPHA
 10
584.119058
 20
136.749617
 30
0.0
  0
VERTEX
  5
5820
  8
ALPHA
 10
583.136848
 20
136.973407
 30
0.0
  0
SEQEND
  5
5821
  8
ALPHA
  0
LINE
  5
4C4D
  8
ALPHA
 10
579.037248
 20
94.542862
 30
0.0
 11
597.137721
 21
94.542862
 31
0.0
1001
ACAD
1000
RTLwPs
1070
   128
  0
POLYLINE
  5
4C4E
  8
ALPHA
 66
     1
 10
0.0
 20
0.0
 30
0.0
 70
   128
1001
ACAD
1000
RTLwPs
1070
   128
  0
VERTEX
  5
5822
  8
ALPHA
 10
573.228381
 20
116.138997
 30
0.0
  0
VERTEX
  5
5823
  8
ALPHA
 10
573.228381
 20
116.295736
 30
0.0
  0
VERTEX
  5
5824
  8
ALPHA
 10
573.228381
 20
116.70896
 30
0.0
  0
VERTEX
  5
5825
  8
ALPHA
 10
573.228381
 20
117.962878
 30
0.0
  0
VERTEX
  5
5826
  8
ALPHA
 10
573.228381
 20
119.216797
 30
0.0
  0
VERTEX
  5
5827
  8
ALPHA
 10
573.228381
 20
119.63002
 30
0.0
  0
VERTEX
  5
5828
  8
ALPHA
 10
573.228381
 20
119.78676
 30
0.0
  0
VERTEX
  5
5829
  8
ALPHA
 10
571.460361
 20
120.24705
 30
0.0
  0
VERTEX
  5
582A
  8
ALPHA
 10
570.868061
 20
120.428353
 30
0.0
  0
VERTEX
  5
582B
  8
ALPHA
 10
570.642
 20
120.501402
 30
0.0
  0
SEQEND
  5
582C
  8
ALPHA
  0
POLYLINE
  5
4C4F
  8
ALPHA
 66
     1
 10
0.0
 20
0.0
 30
0.0
 70
   128
1001
ACAD
1000
RTLwPs
1070
   128
  0
VERTEX
  5
582D
  8
ALPHA
 10
578.622971
 20
96.062076
 30
0.0
  0
VERTEX
  5
582E
  8
ALPHA
 10
578.765758
 20
96.062076
 30
0.0
  0
VERTEX
  5
582F
  8
ALPHA
 10
579.169288
 20
96.062076
 30
0.0
  0
VERTEX
  5
5830
  8
ALPHA
 10
579.79631
 20
96.062076
 30
0.0
  0
VERTEX
  5
5831
  8
ALPHA
 10
580.609577
 20
96.062076
 30
0.0
  0
VERTEX
  5
5832
  8
ALPHA
 10
582.645848
 20
96.062076
 30
0.0
  0
VERTEX
  5
5833
  8
ALPHA
 10
584.980109
 20
96.062076
 30
0.0
  0
VERTEX
  5
5834
  8
ALPHA
 10
587.314371
 20
96.062076
 30
0.0
  0
VERTEX
  5
5835
  8
ALPHA
 10
589.350642
 20
96.062076
 30
0.0
  0
VERTEX
  5
5836
  8
ALPHA
 10
590.163909
 20
96.062076
 30
0.0
  0
VERTEX
  5
5837
  8
ALPHA
 10
590.790931
 20
96.062076
 30
0.0
  0
VERTEX
  5
5838
  8
ALPHA
 10
591.19446
 20
96.062076
 30
0.0
  0
VERTEX
  5
5839
  8
ALPHA
 10
591.337248
 20
96.062076
 30
0.0
  0
SEQEND
  5
583A
  8
ALPHA
  0
CIRCLE
  5
4C50
  8
ALPHA
 10
575.94696
 20
109.473399
 30
0.0
 40
6.050178
1001
ACAD
1000
RTLwPs
1070
   128
  0
POLYLINE
  5
4C51
  8
ALPHA
 66
     1
 10
0.0
 20
0.0
 30
0.0
 70
   128
210
0.0
220
0.0
230
-1.0
1001
ACAD
1000
RTLwPs
1070
   128
  0
VERTEX
  5
583B
  8
ALPHA
 10
-569.70673
 20
107.819889
 30
0.0
  0
VERTEX
  5
583C
  8
ALPHA
 10
-569.494496
 20
109.473399
 30
0.0
  0
VERTEX
  5
583D
  8
ALPHA
 10
-569.625524
 20
110.77384
 30
0.0
  0
VERTEX
  5
583E
  8
ALPHA
 10
-570.001344
 20
111.985139
 30
0.0
  0
VERTEX
  5
583F
  8
ALPHA
 10
-570.596058
 20
113.081327
 30
0.0
  0
VERTEX
  5
5840
  8
ALPHA
 10
-571.383771
 20
114.036438
 30
0.0
  0
VERTEX
  5
5841
  8
ALPHA
 10
-572.338584
 20
114.824504
 30
0.0
  0
VERTEX
  5
5842
  8
ALPHA
 10
-573.434602
 20
115.419558
 30
0.0
  0
VERTEX
  5
5843
  8
ALPHA
 10
-574.645926
 20
115.795633
 30
0.0
  0
VERTEX
  5
5844
  8
ALPHA
 10
-575.94666
 20
115.926762
 30
0.0
  0
VERTEX
  5
5845
  8
ALPHA
 10
-577.247273
 20
115.795633
 30
0.0
  0
VERTEX
  5
5846
  8
ALPHA
 10
-578.458652
 20
115.419558
 30
0.0
  0
VERTEX
  5
5847
  8
ALPHA
 10
-579.554851
 20
114.824504
 30
0.0
  0
VERTEX
  5
5848
  8
ALPHA
 10
-580.509923
 20
114.036438
 30
0.0
  0
VERTEX
  5
5849
  8
ALPHA
 10
-581.297923
 20
113.081327
 30
0.0
  0
VERTEX
  5
584A
  8
ALPHA
 10
-581.892903
 20
111.985139
 30
0.0
  0
VERTEX
  5
584B
  8
ALPHA
 10
-582.268919
 20
110.77384
 30
0.0
  0
VERTEX
  5
584C
  8
ALPHA
 10
-582.400023
 20
109.473399
 30
0.0
  0
VERTEX
  5
584D
  8
ALPHA
 10
-582.276713
 20
108.211581
 30
0.0
  0
VERTEX
  5
584E
  8
ALPHA
 10
-581.922543
 20
107.032779
 30
0.0
  0
VERTEX
  5
584F
  8
ALPHA
 10
-581.361155
 20
105.960656
 30
0.0
  0
VERTEX
  5
5850
  8
ALPHA
 10
-580.61619
 20
105.018876
 30
0.0
  0
VERTEX
  5
5851
  8
ALPHA
 10
-579.711291
 20
104.2311
 30
0.0
  0
VERTEX
  5
5852
  8
ALPHA
 10
-578.6701
 20
103.620992
 30
0.0
  0
VERTEX
  5
5853
  8
ALPHA
 10
-577.516257
 20
103.212214
 30
0.0
  0
VERTEX
  5
5854
  8
ALPHA
 10
-576.273405
 20
103.028429
 30
0.0
  0
SEQEND
  5
5855
  8
ALPHA
  0
POLYLINE
  5
4C52
  8
ALPHA
 66
     1
 10
0.0
 20
0.0
 30
0.0
 70
   128
1001
ACAD
1000
RTLwPs
1070
   128
  0
VERTEX
  5
5856
  8
ALPHA
 10
576.955672
 20
95.16038
 30
0.0
  0
VERTEX
  5
5857
  8
ALPHA
 10
576.534726
 20
95.415593
 30
0.0
  0
VERTEX
  5
5858
  8
ALPHA
 10
575.858828
 20
95.712849
 30
0.0
  0
VERTEX
  5
5859
  8
ALPHA
 10
574.916739
 20
95.959294
 30
0.0
  0
VERTEX
  5
585A
  8
ALPHA
 10
573.697215
 20
96.062076
 30
0.0
  0
SEQEND
  5
585B
  8
ALPHA
  0
POLYLINE
  5
4C53
  8
ALPHA
  6
AI9-LTYPE3
 66
     1
 10
0.0
 20
0.0
 30
0.0
 70
   128
1001
ACAD
1000
RTLwPs
1070
   128
  0
VERTEX
  5
585C
  8
ALPHA
  6
AI9-LTYPE3
 10
573.61388
 20
97.216775
 30
0.0
  0
VERTEX
  5
585D
  8
ALPHA
  6
AI9-LTYPE3
 10
575.070612
 20
97.064906
 30
0.0
  0
VERTEX
  5
585E
  8
ALPHA
  6
AI9-LTYPE3
 10
576.517115
 20
97.072887
 30
0.0
  0
VERTEX
  5
585F
  8
ALPHA
  6
AI9-LTYPE3
 10
577.777912
 20
97.19418
 30
0.0
  0
VERTEX
  5
5860
  8
ALPHA
  6
AI9-LTYPE3
 10
578.677528
 20
97.382246
 30
0.0
  0
SEQEND
  5
5861
  8
ALPHA
  6
AI9-LTYPE3
  0
LINE
  5
4C54
  8
ALPHA
  6
AI9-LTYPE5
 10
573.484981
 20
100.070548
 30
0.0
 11
578.567814
 21
100.070548
 31
0.0
1001
ACAD
1000
RTLwPs
1070
   128
  0
POLYLINE
  5
4C55
  8
ALPHA
  6
AI9-LTYPE6
 66
     1
 10
0.0
 20
0.0
 30
0.0
 70
   128
1001
ACAD
1000
RTLwPs
1070
   128
  0
VERTEX
  5
5862
  8
ALPHA
  6
AI9-LTYPE6
 10
573.62707
 20
100.45185
 30
0.0
  0
VERTEX
  5
5863
  8
ALPHA
  6
AI9-LTYPE6
 10
574.80635
 20
100.20814
 30
0.0
  0
VERTEX
  5
5864
  8
ALPHA
  6
AI9-LTYPE6
 10
576.03599
 20
100.124506
 30
0.0
  0
VERTEX
  5
5865
  8
ALPHA
  6
AI9-LTYPE6
 10
577.325883
 20
100.217283
 30
0.0
  0
VERTEX
  5
5866
  8
ALPHA
  6
AI9-LTYPE6
 10
578.558221
 20
100.485424
 30
0.0
  0
SEQEND
  5
5867
  8
ALPHA
  6
AI9-LTYPE6
  0
POLYLINE
  5
4C56
  8
ALPHA
 66
     1
 10
0.0
 20
0.0
 30
0.0
 70
   128
1001
ACAD
1000
RTLwPs
1070
   128
  0
VERTEX
  5
5868
  8
ALPHA
 10
578.622971
 20
102.487651
 30
0.0
  0
VERTEX
  5
5869
  8
ALPHA
 10
578.622971
 20
102.211552
 30
0.0
  0
VERTEX
  5
586A
  8
ALPHA
 10
578.622971
 20
101.483655
 30
0.0
  0
VERTEX
  5
586B
  8
ALPHA
 10
578.622971
 20
100.454559
 30
0.0
  0
VERTEX
  5
586C
  8
ALPHA
 10
578.622971
 20
99.274864
 30
0.0
  0
VERTEX
  5
586D
  8
ALPHA
 10
578.622971
 20
98.095168
 30
0.0
  0
VERTEX
  5
586E
  8
ALPHA
 10
578.622971
 20
97.066072
 30
0.0
  0
VERTEX
  5
586F
  8
ALPHA
 10
578.622971
 20
96.338175
 30
0.0
  0
VERTEX
  5
5870
  8
ALPHA
 10
578.622971
 20
96.062076
 30
0.0
  0
SEQEND
  5
5871
  8
ALPHA
  0
POLYLINE
  5
4C57
  8
ALPHA
 66
     1
 10
0.0
 20
0.0
 30
0.0
 70
   128
210
0.0
220
0.0
230
-1.0
1001
ACAD
1000
RTLwPs
1070
   128
  0
VERTEX
  5
5872
  8
ALPHA
 10
-579.037248
 20
94.542862
 30
0.0
  0
VERTEX
  5
5873
  8
ALPHA
 10
-578.183973
 20
94.605794
 30
0.0
  0
VERTEX
  5
5874
  8
ALPHA
 10
-577.620778
 20
94.762141
 30
0.0
  0
VERTEX
  5
5875
  8
ALPHA
 10
-576.955672
 20
95.16038
 30
0.0
  0
SEQEND
  5
5876
  8
ALPHA
  0
POLYLINE
  5
4C58
  8
ALPHA
 66
     1
 10
0.0
 20
0.0
 30
0.0
 70
   128
1001
ACAD
1000
RTLwPs
1070
   128
  0
VERTEX
  5
5877
  8
ALPHA
 10
573.228381
 20
119.566132
 30
0.0
  0
VERTEX
  5
5878
  8
ALPHA
 10
574.700008
 20
119.396164
 30
0.0
  0
VERTEX
  5
5879
  8
ALPHA
 10
576.331709
 20
119.360193
 30
0.0
  0
VERTEX
  5
587A
  8
ALPHA
 10
577.787823
 20
119.42719
 30
0.0
  0
VERTEX
  5
587B
  8
ALPHA
 10
578.345139
 20
119.489607
 30
0.0
  0
VERTEX
  5
587C
  8
ALPHA
 10
578.732685
 20
119.566132
 30
0.0
  0
SEQEND
  5
587D
  8
ALPHA
  0
LINE
  5
4C59
  8
ALPHA
  6
AI9-LTYPE4
 10
573.338695
 20
118.114065
 30
0.0
 11
578.656545
 21
118.114065
 31
0.0
1001
ACAD
1000
RTLwPs
1070
   128
  0
POLYLINE
  5
4C5A
  8
ALPHA
  6
AI9-LTYPE7
 66
     1
 10
0.0
 20
0.0
 30
0.0
 70
   128
1001
ACAD
1000
RTLwPs
1070
   128
  0
VERTEX
  5
587E
  8
ALPHA
  6
AI9-LTYPE7
 10
578.656545
 20
117.623648
 30
0.0
  0
VERTEX
  5
587F
  8
ALPHA
  6
AI9-LTYPE7
 10
577.376394
 20
117.906327
 30
0.0
  0
VERTEX
  5
5880
  8
ALPHA
  6
AI9-LTYPE7
 10
576.03599
 20
118.003751
 30
0.0
  0
VERTEX
  5
5881
  8
ALPHA
  6
AI9-LTYPE7
 10
574.600036
 20
117.900182
 30
0.0
  0
VERTEX
  5
5882
  8
ALPHA
  6
AI9-LTYPE7
 10
573.228381
 20
117.599667
 30
0.0
  0
SEQEND
  5
5883
  8
ALPHA
  6
AI9-LTYPE7
  0
POLYLINE
  5
4C5B
  8
ALPHA
 66
     1
 10
0.0
 20
0.0
 30
0.0
 70
   128
1001
ACAD
1000
RTLwPs
1070
   128
  0
VERTEX
  5
5884
  8
ALPHA
 10
583.136848
 20
136.973407
 30
0.0
  0
VERTEX
  5
5885
  8
ALPHA
 10
582.953557
 20
136.973407
 30
0.0
  0
VERTEX
  5
5886
  8
ALPHA
 10
582.470337
 20
136.973407
 30
0.0
  0
VERTEX
  5
5887
  8
ALPHA
 10
581.004013
 20
136.973407
 30
0.0
  0
VERTEX
  5
5888
  8
ALPHA
 10
579.537688
 20
136.973407
 30
0.0
  0
VERTEX
  5
5889
  8
ALPHA
 10
579.054468
 20
136.973407
 30
0.0
  0
VERTEX
  5
588A
  8
ALPHA
 10
578.871177
 20
136.973407
 30
0.0
  0
SEQEND
  5
588B
  8
ALPHA
  0
POLYLINE
  5
4C5C
  8
ALPHA
 66
     1
 10
0.0
 20
0.0
 30
0.0
 70
   128
1001
ACAD
1000
RTLwPs
1070
   128
  0
VERTEX
  5
588C
  8
ALPHA
 10
578.673332
 20
132.40737
 30
0.0
  0
VERTEX
  5
588D
  8
ALPHA
 10
579.82746
 20
132.452356
 30
0.0
  0
VERTEX
  5
588E
  8
ALPHA
 10
581.158814
 20
132.575932
 30
0.0
  0
VERTEX
  5
588F
  8
ALPHA
 10
584.023181
 20
132.990565
 30
0.0
  0
VERTEX
  5
5890
  8
ALPHA
 10
585.391188
 20
133.247476
 30
0.0
  0
VERTEX
  5
5891
  8
ALPHA
 10
586.606406
 20
133.514687
 30
0.0
  0
VERTEX
  5
5892
  8
ALPHA
 10
587.58633
 20
133.775125
 30
0.0
  0
VERTEX
  5
5893
  8
ALPHA
 10
588.248458
 20
134.011718
 30
0.0
  0
SEQEND
  5
5894
  8
ALPHA
  0
POLYLINE
  5
4C5D
  8
ALPHA
 66
     1
 10
0.0
 20
0.0
 30
0.0
 70
   128
1001
ACAD
1000
RTLwPs
1070
   128
  0
VERTEX
  5
5895
  8
ALPHA
 10
573.559923
 20
128.302974
 30
0.0
  0
VERTEX
  5
5896
  8
ALPHA
 10
573.559923
 20
128.397559
 30
0.0
  0
VERTEX
  5
5897
  8
ALPHA
 10
573.559923
 20
128.664866
 30
0.0
  0
VERTEX
  5
5898
  8
ALPHA
 10
573.559923
 20
129.618947
 30
0.0
  0
VERTEX
  5
5899
  8
ALPHA
 10
573.559923
 20
130.967819
 30
0.0
  0
VERTEX
  5
589A
  8
ALPHA
 10
573.559923
 20
132.514087
 30
0.0
  0
VERTEX
  5
589B
  8
ALPHA
 10
573.559923
 20
134.060355
 30
0.0
  0
VERTEX
  5
589C
  8
ALPHA
 10
573.559923
 20
135.409227
 30
0.0
  0
VERTEX
  5
589D
  8
ALPHA
 10
573.559923
 20
136.363308
 30
0.0
  0
VERTEX
  5
589E
  8
ALPHA
 10
573.559923
 20
136.630615
 30
0.0
  0
VERTEX
  5
589F
  8
ALPHA
 10
573.559923
 20
136.7252
 30
0.0
  0
SEQEND
  5
58A0
  8
ALPHA
  0
POLYLINE
  5
4C5E
  8
ALPHA
 66
     1
 10
0.0
 20
0.0
 30
0.0
 70
   128
1001
ACAD
1000
RTLwPs
1070
   128
  0
VERTEX
  5
58A1
  8
ALPHA
 10
573.559923
 20
132.475717
 30
0.0
  0
VERTEX
  5
58A2
  8
ALPHA
 10
573.650254
 20
131.470658
 30
0.0
  0
VERTEX
  5
58A3
  8
ALPHA
 10
573.837759
 20
130.650516
 30
0.0
  0
VERTEX
  5
58A4
  8
ALPHA
 10
574.432317
 20
129.439986
 30
0.0
  0
VERTEX
  5
58A5
  8
ALPHA
 10
575.995821
 20
127.862917
 30
0.0
  0
SEQEND
  5
58A6
  8
ALPHA
  0
LINE
  5
4C5F
  8
ALPHA
 10
573.559923
 20
136.7252
 30
0.0
 11
573.118667
 21
137.165856
 31
0.0
1001
ACAD
1000
RTLwPs
1070
   128
  0
LINE
  5
4C60
  8
ALPHA
 10
578.871177
 20
136.973407
 30
0.0
 11
578.677528
 21
136.779158
 31
0.0
1001
ACAD
1000
RTLwPs
1070
   128
  0
POLYLINE
  5
4C62
  8
ALPHA
 66
     1
 10
0.0
 20
0.0
 30
0.0
 70
   128
1001
ACAD
1000
RTLwPs
1070
   128
  0
VERTEX
  5
58A7
  8
ALPHA
 10
601.797284
 20
94.52008
 30
0.0
  0
VERTEX
  5
58A8
  8
ALPHA
 10
601.701505
 20
94.52008
 30
0.0
  0
VERTEX
  5
58A9
  8
ALPHA
 10
601.437384
 20
94.52008
 30
0.0
  0
VERTEX
  5
58AA
  8
ALPHA
 10
600.543395
 20
94.52008
 30
0.0
  0
VERTEX
  5
58AB
  8
ALPHA
 10
598.267426
 20
94.52008
 30
0.0
  0
VERTEX
  5
58AC
  8
ALPHA
 10
597.442582
 20
94.52008
 30
0.0
  0
VERTEX
  5
58AD
  8
ALPHA
 10
597.047464
 20
94.54648
 30
0.0
  0
VERTEX
  5
58AE
  8
ALPHA
 10
596.464371
 20
94.849972
 30
0.0
  0
VERTEX
  5
58AF
  8
ALPHA
 10
595.509523
 20
95.551162
 30
0.0
  0
VERTEX
  5
58B0
  8
ALPHA
 10
594.766948
 20
95.893753
 30
0.0
  0
VERTEX
  5
58B1
  8
ALPHA
 10
593.7048
 20
96.062076
 30
0.0
  0
SEQEND
  5
58B2
  8
ALPHA
  0
POLYLINE
  5
4C63
  8
ALPHA
 66
     1
 10
0.0
 20
0.0
 30
0.0
 70
   128
1001
ACAD
1000
RTLwPs
1070
   128
  0
VERTEX
  5
58B3
  8
ALPHA
 10
601.797284
 20
91.9734
 30
0.0
  0
VERTEX
  5
58B4
  8
ALPHA
 10
601.797284
 20
92.082827
 30
0.0
  0
VERTEX
  5
58B5
  8
ALPHA
 10
601.797284
 20
92.371318
 30
0.0
  0
VERTEX
  5
58B6
  8
ALPHA
 10
601.797284
 20
93.24674
 30
0.0
  0
VERTEX
  5
58B7
  8
ALPHA
 10
601.797284
 20
94.122161
 30
0.0
  0
VERTEX
  5
58B8
  8
ALPHA
 10
601.797284
 20
94.410652
 30
0.0
  0
VERTEX
  5
58B9
  8
ALPHA
 10
601.797284
 20
94.52008
 30
0.0
  0
SEQEND
  5
58BA
  8
ALPHA
  0
DIMENSION
  5
4C6E
  8
COTATION1
  2
*D4
 10
636.797284
 20
73.973415
 30
0.0
 11
636.797284
 21
105.473411
 31
0.0
 70
   128
 13
581.004013
 23
136.973407
 33
0.0
 14
564.392138
 24
73.973415
 34
0.0
 50
90.0
  0
DIMENSION
  5
4CF8
  8
COTATION1
  2
*D5
 10
626.797284
 20
136.973407
 30
0.0
 11
626.797284
 21
111.341217
 31
0.0
 70
   128
 13
601.797284
 23
91.9734
 33
0.0
 14
581.004087
 24
136.973407
 34
0.0
 50
90.0
  0
DIMENSION
  5
4D20
  8
COTATION1
  2
*D6
 10
527.625075
 20
81.473391
 30
0.0
 11
527.625075
 21
95.473395
 31
0.0
 70
   128
 13
542.625075
 23
109.473399
 33
0.0
 14
547.9893
 24
81.473391
 34
0.0
 50
90.0
  0
DIMENSION
  5
4D5E
  8
COTATION1
  2
*D7
 10
537.625075
 20
91.9734
 30
0.0
 11
536.125075
 21
100.723399
 31
0.0
 13
542.625075
 23
109.473399
 33
0.0
 14
549.83404
 24
91.9734
 34
0.0
 50
90.0
  0
DIMENSION
  5
4D98
  8
COTATION1
  2
*D8
 10
580.989324
 20
48.973415
 30
0.0
 11
564.489312
 21
48.973415
 31
0.0
 70
   128
 13
547.9893
 23
81.473391
 33
0.0
 14
580.989324
 24
81.473391
 34
0.0
  0
DIMENSION
  5
4DA5
  8
COTATION1
  2
*D9
 10
579.827589
 20
83.687069
 30
0.0
 11
594.653423
 21
59.383639
 31
0.0
 70
   131
 15
582.151059
 25
79.259713
 35
0.0
 40
0.0
  0
LINE
  5
4E4A
  8
AXE
 10
542.625075
 20
109.473399
 30
0.0
 11
616.797284
 21
109.473399
 31
0.0
  0
LINE
  5
4E4B
  8
AXE
 10
575.94696
 20
142.165856
 30
0.0
 11
575.94696
 21
58.973415
 31
0.0
  0
TEXT
  5
4E4C
  8
AXE
 10
610.321093
 20
110.859899
 30
0.0
 40
8.0
  1
X
 72
     2
 11
616.797284
 21
110.859899
 31
0.0
  0
TEXT
  5
4E4D
  8
AXE
 10
568.083497
 20
58.973415
 30
0.0
 40
8.0
  1
Z
 72
     2
 11
574.559687
 21
58.973415
 31
0.0
  0
ENDSEC
  0
EOF
