  0
SECTION
  2
HEADER
  9
$ACADVER
  1
AC1009
  9
$INSBASE
 10
-146.27124
 20
-153.796096
 30
0.0
  9
$EXTMIN
 10
189.553515
 20
-165.788629
 30
0.0
  9
$EXTMAX
 10
245.116344
 20
-91.618798
 30
0.0
  9
$LIMMIN
 10
-407.970438
 20
-367.832444
  9
$LIMMAX
 10
429.804077
 20
234.370848
  9
$ORTHOMODE
 70
     1
  9
$REGENMODE
 70
     1
  9
$FILLMODE
 70
     1
  9
$QTEXTMODE
 70
     0
  9
$MIRRTEXT
 70
     1
  9
$DRAGMODE
 70
     2
  9
$LTSCALE
 40
10.0
  9
$OSMODE
 70
   165
  9
$ATTMODE
 70
     1
  9
$TEXTSIZE
 40
6.0
  9
$TRACEWID
 40
1.0
  9
$TEXTSTYLE
  7
ROMANS
  9
$CLAYER
  8
COTATION1
  9
$CELTYPE
  6
BYLAYER
  9
$CECOLOR
 62
   256
  9
$DIMSCALE
 40
1.0
  9
$DIMASZ
 40
2.0
  9
$DIMEXO
 40
0.5
  9
$DIMDLI
 40
0.38
  9
$DIMRND
 40
0.0
  9
$DIMDLE
 40
0.0
  9
$DIMEXE
 40
0.18
  9
$DIMTP
 40
0.0
  9
$DIMTM
 40
0.0
  9
$DIMTXT
 40
2.0
  9
$DIMCEN
 40
0.09
  9
$DIMTSZ
 40
0.0
  9
$DIMTOL
 70
     0
  9
$DIMLIM
 70
     0
  9
$DIMTIH
 70
     0
  9
$DIMTOH
 70
     0
  9
$DIMSE1
 70
     0
  9
$DIMSE2
 70
     0
  9
$DIMTAD
 70
     1
  9
$DIMZIN
 70
    12
  9
$DIMBLK
  1
OPEN30
  9
$DIMASO
 70
     1
  9
$DIMSHO
 70
     1
  9
$DIMPOST
  1

  9
$DIMAPOST
  1

  9
$DIMALT
 70
     0
  9
$DIMALTD
 70
     2
  9
$DIMALTF
 40
25.4
  9
$DIMLFAC
 40
1.0
  9
$DIMTOFL
 70
     0
  9
$DIMTVP
 40
0.0
  9
$DIMTIX
 70
     0
  9
$DIMSOXD
 70
     0
  9
$DIMSAH
 70
     0
  9
$DIMBLK1
  1

  9
$DIMBLK2
  1

  9
$DIMSTYLE
  2
ROMANS
  9
$DIMCLRD
 70
     0
  9
$DIMCLRE
 70
     0
  9
$DIMCLRT
 70
     0
  9
$DIMTFAC
 40
1.0
  9
$DIMGAP
 40
0.5
  9
$LUNITS
 70
     2
  9
$LUPREC
 70
     1
  9
$SKETCHINC
 40
0.1
  9
$FILLETRAD
 40
3.0
  9
$AUNITS
 70
     0
  9
$AUPREC
 70
     0
  9
$MENU
  1
acad
  9
$ELEVATION
 40
0.0
  9
$PELEVATION
 40
0.0
  9
$THICKNESS
 40
0.0
  9
$LIMCHECK
 70
     0
  9
$BLIPMODE
 70
     0
  9
$CHAMFERA
 40
0.0
  9
$CHAMFERB
 40
0.0
  9
$SKPOLY
 70
     0
  9
$TDCREATE
 40
2450365.355314
  9
$TDUPDATE
 40
2452592.673936
  9
$TDINDWG
 40
0.671362
  9
$TDUSRTIMER
 40
0.671362
  9
$USRTIMER
 70
     1
  9
$ANGBASE
 50
0.0
  9
$ANGDIR
 70
     0
  9
$PDMODE
 70
    32
  9
$PDSIZE
 40
0.0
  9
$PLINEWID
 40
0.0
  9
$COORDS
 70
     2
  9
$SPLFRAME
 70
     0
  9
$SPLINETYPE
 70
     6
  9
$SPLINESEGS
 70
     8
  9
$ATTDIA
 70
     0
  9
$ATTREQ
 70
     1
  9
$HANDLING
 70
     1
  9
$HANDSEED
  5
664A
  9
$SURFTAB1
 70
     6
  9
$SURFTAB2
 70
     6
  9
$SURFTYPE
 70
     6
  9
$SURFU
 70
     6
  9
$SURFV
 70
     6
  9
$UCSNAME
  2

  9
$UCSORG
 10
0.0
 20
0.0
 30
0.0
  9
$UCSXDIR
 10
1.0
 20
0.0
 30
0.0
  9
$UCSYDIR
 10
0.0
 20
1.0
 30
0.0
  9
$PUCSNAME
  2

  9
$PUCSORG
 10
0.0
 20
0.0
 30
0.0
  9
$PUCSXDIR
 10
1.0
 20
0.0
 30
0.0
  9
$PUCSYDIR
 10
0.0
 20
1.0
 30
0.0
  9
$USERI1
 70
     0
  9
$USERI2
 70
     0
  9
$USERI3
 70
     0
  9
$USERI4
 70
     0
  9
$USERI5
 70
     0
  9
$USERR1
 40
0.0
  9
$USERR2
 40
0.0
  9
$USERR3
 40
0.0
  9
$USERR4
 40
0.0
  9
$USERR5
 40
0.0
  9
$WORLDVIEW
 70
     1
  9
$SHADEDGE
 70
     3
  9
$SHADEDIF
 70
    70
  9
$TILEMODE
 70
     1
  9
$MAXACTVP
 70
    16
  9
$PLIMCHECK
 70
     0
  9
$PEXTMIN
 10
1.000000E+020
 20
1.000000E+020
 30
1.000000E+020
  9
$PEXTMAX
 10
-1.000000E+020
 20
-1.000000E+020
 30
-1.000000E+020
  9
$PLIMMIN
 10
0.0
 20
0.0
  9
$PLIMMAX
 10
12.0
 20
9.0
  9
$UNITMODE
 70
     0
  9
$VISRETAIN
 70
     0
  9
$PLINEGEN
 70
     0
  9
$PSLTSCALE
 70
     0
  0
ENDSEC
  0
SECTION
  2
TABLES
  0
TABLE
  2
VPORT
 70
     2
  0
VPORT
  2
*ACTIVE
 70
     0
 10
0.0
 20
0.0
 11
1.0
 21
1.0
 12
217.337171
 22
-128.70988
 13
0.0
 23
0.0
 14
1.0
 24
1.0
 15
10.0
 25
10.0
 16
0.0
 26
0.0
 36
1.0
 17
0.0
 27
0.0
 37
0.0
 40
74.918167
 41
1.63142
 42
50.0
 43
0.0
 44
0.0
 50
0.0
 51
0.0
 71
     0
 72
   100
 73
     1
 74
     0
 75
     0
 76
     0
 77
     0
 78
     0
  0
ENDTAB
  0
TABLE
  2
LTYPE
 70
    26
  0
LTYPE
  2
CONTINUOUS
 70
     0
  3
Solid line
 72
    65
 73
     0
 40
0.0
  0
LTYPE
  2
AXES2
 70
     0
  3
___ _ ___ _ ___ _ ___ _ ___ _ ___ _ ___ _ ___ _
 72
    65
 73
     4
 40
1.125
 49
0.75
 49
-0.125
 49
0.125
 49
-0.125
  0
LTYPE
  2
ACAD_ISO04W100
 70
     0
  3
ISO Lang gestrichelt punktiert ____ . ____ . __
 72
    65
 73
     4
 40
30.5
 49
24.0
 49
-3.0
 49
0.5
 49
-3.0
  0
LTYPE
  2
AXES
 70
     0
  3
____ _ ____ _ ____ _ ____ _ ____ _ ____ _ ____ 
 72
    65
 73
     4
 40
2.0
 49
1.25
 49
-0.25
 49
0.25
 49
-0.25
  0
LTYPE
  2
AXESX2
 70
     0
  3
________  __  ________  __  ________  __  _____
 72
    65
 73
     4
 40
4.0
 49
2.5
 49
-0.5
 49
0.5
 49
-0.5
  0
LTYPE
  2
TIRETPT
 70
     0
  3
__ . __ . __ . __ . __ . __ . __ . __ . __ . __
 72
    65
 73
     4
 40
1.0
 49
0.5
 49
-0.25
 49
0.0
 49
-0.25
  0
LTYPE
  2
TIRETPT2
 70
     0
  3
_._._._._._._._._._._._._._._._._._._._._._._._
 72
    65
 73
     4
 40
0.5
 49
0.25
 49
-0.125
 49
0.0
 49
-0.125
  0
LTYPE
  2
TIRETPTX2
 70
     0
  3
____  .  ____  .  ____  .  ____  .  ____  .  __
 72
    65
 73
     4
 40
2.0
 49
1.0
 49
-0.5
 49
0.0
 49
-0.5
  0
LTYPE
  2
DISCONTINU
 70
     0
  3
__ __ __ __ __ __ __ __ __ __ __ __ __ __ __ __
 72
    65
 73
     2
 40
0.75
 49
0.5
 49
-0.25
  0
LTYPE
  2
DISCONTINU2
 70
     0
  3
_ _ _ _ _ _ _ _ _ _ _ _ _ _ _ _ _ _ _ _ _ _ _ _
 72
    65
 73
     2
 40
0.375
 49
0.25
 49
-0.125
  0
LTYPE
  2
DISCONTINUX2
 70
     0
  3
____  ____  ____  ____  ____  ____  ____  ____ 
 72
    65
 73
     2
 40
1.5
 49
1.0
 49
-0.5
  0
LTYPE
  2
DIVISE
 70
     0
  3
____ . . ____ . . ____ . . ____ . . ____ . . __
 72
    65
 73
     6
 40
1.25
 49
0.5
 49
-0.25
 49
0.0
 49
-0.25
 49
0.0
 49
-0.25
  0
LTYPE
  2
DIVISE2
 70
     0
  3
__..__..__..__..__..__..__..__..__..__..__..__.
 72
    65
 73
     6
 40
0.625
 49
0.25
 49
-0.125
 49
0.0
 49
-0.125
 49
0.0
 49
-0.125
  0
LTYPE
  2
DIVISEX2
 70
     0
  3
________  .  .  ________  .  .  ________  .  . 
 72
    65
 73
     6
 40
2.5
 49
1.0
 49
-0.5
 49
0.0
 49
-0.5
 49
0.0
 49
-0.5
  0
LTYPE
  2
POINTILLE
 70
     0
  3
. . . . . . . . . . . . . . . . . . . . . . . .
 72
    65
 73
     2
 40
0.25
 49
0.0
 49
-0.25
  0
LTYPE
  2
POINTILLE2
 70
     0
  3
...............................................
 72
    65
 73
     2
 40
0.125
 49
0.0
 49
-0.125
  0
LTYPE
  2
POINTILLEX2
 70
     0
  3
.  .  .  .  .  .  .  .  .  .  .  .  .  .  .  . 
 72
    65
 73
     2
 40
0.5
 49
0.0
 49
-0.5
  0
LTYPE
  2
CACHE
 70
     0
  3
__ __ __ __ __ __ __ __ __ __ __ __ __ __ __ __
 72
    65
 73
     2
 40
0.375
 49
0.25
 49
-0.125
  0
LTYPE
  2
CACHE2
 70
     0
  3
_ _ _ _ _ _ _ _ _ _ _ _ _ _ _ _ _ _ _ _ _ _ _ _
 72
    65
 73
     2
 40
0.1875
 49
0.125
 49
-0.0625
  0
LTYPE
  2
CACHEX2
 70
     0
  3
____ ____ ____ ____ ____ ____ ____ ____ ____ __
 72
    65
 73
     2
 40
0.75
 49
0.5
 49
-0.25
  0
LTYPE
  2
FANTOME
 70
     0
  3
______  __  __  ______  __  __  ______  __  __ 
 72
    65
 73
     6
 40
2.5
 49
1.25
 49
-0.25
 49
0.25
 49
-0.25
 49
0.25
 49
-0.25
  0
LTYPE
  2
FANTOME2
 70
     0
  3
___ _ _ ___ _ _ ___ _ _ ___ _ _ ___ _ _ ___ _ _
 72
    65
 73
     6
 40
1.25
 49
0.625
 49
-0.125
 49
0.125
 49
-0.125
 49
0.125
 49
-0.125
  0
LTYPE
  2
FANTOMEX2
 70
     0
  3
____________    ____    ____    ____________   
 72
    65
 73
     6
 40
5.0
 49
2.5
 49
-0.5
 49
0.5
 49
-0.5
 49
0.5
 49
-0.5
  0
LTYPE
  2
0
 70
     0
  3
MEDUSA PEN 0
 72
    65
 73
     0
 40
0.0
  0
LTYPE
  2
AI9-LTYPE1
 70
     0
  3
Illustrator Dash Style No.1
 72
    65
 73
     4
 40
5.64621
 49
4.106333
 49
-0.307975
 49
0.923926
 49
-0.307975
  0
LTYPE
  2
AI9-LTYPE2
 70
     0
  3
Illustrator Dash Style No.2
 72
    65
 73
     2
 40
1.33456
 49
1.026585
 49
-0.307975
  0
ENDTAB
  0
TABLE
  2
LAYER
 70
    17
  0
LAYER
  2
0
 70
     0
 62
     7
  6
CONTINUOUS
  0
LAYER
  2
TEXTE_MOYEN
 70
     0
 62
   131
  6
CONTINUOUS
  0
LAYER
  2
ALPHA
 70
     0
 62
   254
  6
CONTINUOUS
  0
LAYER
  2
COTATION1
 70
     0
 62
    50
  6
CONTINUOUS
  0
LAYER
  2
AXE
 70
     0
 62
    80
  6
AXES2
  0
LAYER
  2
DEFPOINTS
 70
     0
 62
     7
  6
CONTINUOUS
  0
LAYER
  2
HACHURES1
 70
     0
 62
   130
  6
CONTINUOUS
  0
LAYER
  2
FMULT
 70
     0
 62
   210
  6
CONTINUOUS
  0
LAYER
  2
FDP_CARTOUCHE
 70
     0
 62
   136
  6
CONTINUOUS
  0
LAYER
  2
FDP_TEXTES
 70
     0
 62
   171
  6
CONTINUOUS
  0
LAYER
  2
FDP_LOGO_MG
 70
     0
 62
    30
  6
CONTINUOUS
  0
LAYER
  2
FDP_LOGO_SCH
 70
     0
 62
    90
  6
CONTINUOUS
  0
LAYER
  2
FDP_FDP
 70
     0
 62
   170
  6
CONTINUOUS
  0
LAYER
  2
POINTILLE_COURT2
 70
     0
 62
    41
  6
CACHE2
  0
LAYER
  2
POINTILLE_MOYEN2
 70
     0
 62
   141
  6
CACHE
  0
LAYER
  2
POINTILLE_LONG2
 70
     0
 62
   241
  6
CACHEX2
  0
LAYER
  2
ALPHA_FIN
 70
     0
 62
   255
  6
CONTINUOUS
  0
ENDTAB
  0
TABLE
  2
STYLE
 70
     5
  0
STYLE
  2
ROMANS
 70
     0
 40
0.0
 41
1.0
 50
0.0
 71
     0
 42
6.0
  3
romans
  4

  0
STYLE
  2
STANDARD
 70
     0
 40
0.2
 41
1.0
 50
0.0
 71
     0
 42
0.2
  3
txt
  4

  0
STYLE
  2
STD
 70
     0
 40
0.0
 41
1.0
 50
0.0
 71
     0
 42
0.0
  3
txt
  4

  0
STYLE
  2
INFOCAR
 70
     0
 40
0.0
 41
1.34
 50
0.0
 71
     0
 42
2.0
  3
ROMANS.SHX
  4

  0
STYLE
  2
CARTOUCHE
 70
     0
 40
0.0
 41
1.0
 50
0.0
 71
     0
 42
0.2
  3
ROMANS.SHX
  4

  0
ENDTAB
  0
TABLE
  2
VIEW
 70
     0
  0
ENDTAB
  0
TABLE
  2
UCS
 70
     0
  0
ENDTAB
  0
TABLE
  2
APPID
 70
     4
  0
APPID
  2
ACAD
 70
     0
  0
APPID
  2
AVE_RENDER
 70
     0
  0
APPID
  2
AVE_MATERIAL
 70
     0
  0
APPID
  2
CONTENTBLOCKICON
 70
     0
  0
ENDTAB
  0
TABLE
  2
DIMSTYLE
 70
     3
  0
DIMSTYLE
  2
SC_DEFAUT
 70
     0
  3

  4

  5
OPEN30
  6

  7

 40
1.0
 41
2.0
 42
0.3
 43
0.1
 44
0.5
 45
0.0
 46
0.0
 47
0.0
 48
0.0
140
2.0
141
2.0
142
0.0
143
25.4
144
1.0
145
0.0
146
1.0
147
0.6
 71
     0
 72
     0
 73
     0
 74
     0
 75
     0
 76
     0
 77
     1
 78
    12
170
     0
171
     2
172
     0
173
     0
174
     0
175
     0
176
     0
177
     0
178
     0
  0
DIMSTYLE
  2
ROMANS
 70
     0
  3

  4

  5
OPEN30
  6

  7

 40
1.0
 41
2.0
 42
0.5
 43
0.38
 44
0.18
 45
0.0
 46
0.0
 47
0.0
 48
0.0
140
2.0
141
0.09
142
0.0
143
25.4
144
1.0
145
0.0
146
1.0
147
0.5
 71
     0
 72
     0
 73
     0
 74
     0
 75
     0
 76
     0
 77
     1
 78
    12
170
     0
171
     2
172
     0
173
     0
174
     0
175
     0
176
     0
177
     0
178
     0
  0
DIMSTYLE
  2
SC_DEFAUT-2
 70
     0
  3

  4

  5
OPEN30
  6

  7

 40
1.0
 41
2.0
 42
0.3
 43
0.1
 44
0.5
 45
0.0
 46
0.0
 47
0.0
 48
0.0
140
2.0
141
0.0
142
0.0
143
25.4
144
1.0
145
0.0
146
1.0
147
0.6
 71
     0
 72
     0
 73
     0
 74
     1
 75
     0
 76
     0
 77
     1
 78
    12
170
     0
171
     2
172
     0
173
     0
174
     0
175
     0
176
     0
177
     0
178
     0
  0
ENDTAB
  0
ENDSEC
  0
SECTION
  2
BLOCKS
  0
BLOCK
  8
0
  2
$MODEL_SPACE
 70
     0
 10
0.0
 20
0.0
 30
0.0
  3
$MODEL_SPACE
  1

  0
ENDBLK
  5
65CB
  8
0
  0
BLOCK
 67
     1
  8
0
  2
$PAPER_SPACE
 70
     0
 10
0.0
 20
0.0
 30
0.0
  3
$PAPER_SPACE
  1

  0
ENDBLK
  5
65C9
 67
     1
  8
0
  0
BLOCK
  8
0
  2
COTE
 70
     0
 10
0.0
 20
0.0
 30
0.0
  3
COTE
  1

  0
ENDBLK
  5
35
  8
0
  0
BLOCK
  8
0
  2
FOND
 70
     0
 10
0.0
 20
0.0
 30
0.0
  3
FOND
  1

  0
ENDBLK
  5
39
  8
0
  0
BLOCK
  8
0
  2
SCH_ISO
 70
     0
 10
0.0
 20
0.0
 30
0.0
  3
SCH_ISO
  1

  0
ENDBLK
  5
24AD
  8
0
  0
BLOCK
  8
0
  2
_OPEN30
 70
     0
 10
0.0
 20
0.0
 30
0.0
  3
_OPEN30
  1

  0
LINE
  5
27E1
  8
COTATION1
 62
     0
 10
-1.0
 20
0.267949
 30
0.0
 11
0.0
 21
0.0
 31
0.0
1001
ACAD
1000
RTLwPs
1070
   158
  0
LINE
  5
27E2
  8
COTATION1
 62
     0
 10
0.0
 20
0.0
 30
0.0
 11
-1.0
 21
-0.267949
 31
0.0
1001
ACAD
1000
RTLwPs
1070
   158
  0
LINE
  5
27E3
  8
COTATION1
 62
     0
 10
0.0
 20
0.0
 30
0.0
 11
-1.0
 21
0.0
 31
0.0
1001
ACAD
1000
RTLwPs
1070
   158
  0
ENDBLK
  5
27E5
  8
0
  0
BLOCK
  8
0
  2
*D4
 70
     1
 10
0.0
 20
0.0
 30
0.0
  3
*D4
  1

  0
LINE
  5
6404
  8
COTATION1
 62
     0
 10
215.288838
 20
-106.43927
 30
0.0
 11
245.080446
 21
-106.43927
 31
0.0
1001
ACAD
1000
RTLwPs
1070
   158
  0
LINE
  5
6405
  8
COTATION1
 62
     0
 10
215.288838
 20
-139.43927
 30
0.0
 11
245.080446
 21
-139.43927
 31
0.0
1001
ACAD
1000
RTLwPs
1070
   158
  0
LINE
  5
6406
  8
COTATION1
 62
     0
 10
244.580446
 20
-108.43927
 30
0.0
 11
244.580446
 21
-137.43927
 31
0.0
1001
ACAD
1000
RTLwPs
1070
   158
  0
INSERT
  5
6407
  8
COTATION1
 62
     0
  2
_OPEN30
 10
244.580446
 20
-106.43927
 30
0.0
 41
2.0
 42
2.0
 43
2.0
 50
90.0
1001
ACAD
1000
RTLwPs
1070
   158
  0
INSERT
  5
6408
  8
COTATION1
 62
     0
  2
_OPEN30
 10
244.580446
 20
-139.43927
 30
0.0
 41
2.0
 42
2.0
 43
2.0
 50
270.0
1001
ACAD
1000
RTLwPs
1070
   158
  0
TEXT
  5
6409
  8
COTATION1
 62
     0
 10
243.980446
 20
-124.844032
 30
0.0
 40
2.0
  1
33
 50
90.0
1001
ACAD
1000
MTEXTBEGIN
1070
    73
1070
     1
1070
    44
1040
1.0
1070
    74
1070
     0
1000
MTEXTEND
  0
POINT
  5
640A
  8
DEFPOINTS
 62
     0
 10
214.988838
 20
-106.43927
 30
0.0
  0
POINT
  5
640B
  8
DEFPOINTS
 62
     0
 10
214.988838
 20
-139.43927
 30
0.0
  0
POINT
  5
640C
  8
DEFPOINTS
 62
     0
 10
244.580446
 20
-139.43927
 30
0.0
  0
ENDBLK
  5
5F2F
  8
0
  0
BLOCK
  8
0
  2
*D5
 70
     1
 10
0.0
 20
0.0
 30
0.0
  3
*D5
  1

  0
LINE
  5
640D
  8
COTATION1
 62
     0
 10
221.288685
 20
-112.358485
 30
0.0
 11
239.276552
 21
-112.358485
 31
0.0
1001
ACAD
1000
RTLwPs
1070
   158
  0
LINE
  5
640E
  8
COTATION1
 62
     0
 10
221.288685
 20
-133.358534
 30
0.0
 11
239.276552
 21
-133.358534
 31
0.0
1001
ACAD
1000
RTLwPs
1070
   158
  0
LINE
  5
640F
  8
COTATION1
 62
     0
 10
238.776552
 20
-114.358485
 30
0.0
 11
238.776552
 21
-131.358534
 31
0.0
1001
ACAD
1000
RTLwPs
1070
   158
  0
INSERT
  5
6410
  8
COTATION1
 62
     0
  2
_OPEN30
 10
238.776552
 20
-112.358485
 30
0.0
 41
2.0
 42
2.0
 43
2.0
 50
90.0
1001
ACAD
1000
RTLwPs
1070
   158
  0
INSERT
  5
6411
  8
COTATION1
 62
     0
  2
_OPEN30
 10
238.776552
 20
-133.358534
 30
0.0
 41
2.0
 42
2.0
 43
2.0
 50
270.0
1001
ACAD
1000
RTLwPs
1070
   158
  0
TEXT
  5
6412
  8
COTATION1
 62
     0
 10
238.176552
 20
-124.477557
 30
0.0
 40
2.0
  1
21
 50
90.0
1001
ACAD
1000
MTEXTBEGIN
1070
    73
1070
     1
1070
    44
1040
1.0
1070
    74
1070
     0
1000
MTEXTEND
  0
POINT
  5
6413
  8
DEFPOINTS
 62
     0
 10
220.988685
 20
-112.358485
 30
0.0
  0
POINT
  5
6414
  8
DEFPOINTS
 62
     0
 10
220.988685
 20
-133.358534
 30
0.0
  0
POINT
  5
6415
  8
DEFPOINTS
 62
     0
 10
238.776552
 20
-133.358534
 30
0.0
  0
ENDBLK
  5
6011
  8
0
  0
BLOCK
  8
0
  2
*D6
 70
     1
 10
0.0
 20
0.0
 30
0.0
  3
*D6
  1

  0
LINE
  5
641F
  8
COTATION1
 62
     0
 10
196.988666
 20
-133.658534
 30
0.0
 11
196.988666
 21
-159.159408
 31
0.0
1001
ACAD
1000
RTLwPs
1070
   158
  0
LINE
  5
6420
  8
COTATION1
 62
     0
 10
220.988685
 20
-133.658534
 30
0.0
 11
220.988685
 21
-159.159408
 31
0.0
1001
ACAD
1000
RTLwPs
1070
   158
  0
LINE
  5
6421
  8
COTATION1
 62
     0
 10
198.988666
 20
-158.659408
 30
0.0
 11
218.988685
 21
-158.659408
 31
0.0
1001
ACAD
1000
RTLwPs
1070
   158
  0
INSERT
  5
6422
  8
COTATION1
 62
     0
  2
_OPEN30
 10
196.988666
 20
-158.659408
 30
0.0
 41
2.0
 42
2.0
 43
2.0
 50
180.0
1001
ACAD
1000
RTLwPs
1070
   158
  0
INSERT
  5
6423
  8
COTATION1
 62
     0
  2
_OPEN30
 10
220.988685
 20
-158.659408
 30
0.0
 41
2.0
 42
2.0
 43
2.0
1001
ACAD
1000
RTLwPs
1070
   158
  0
TEXT
  5
6424
  8
COTATION1
 62
     0
 10
205.85774
 20
-158.059408
 30
0.0
 40
2.0
  1
=24=
1001
ACAD
1000
MTEXTBEGIN
1070
    73
1070
     1
1070
    44
1040
1.0
1070
    74
1070
     0
1000
MTEXTEND
  0
POINT
  5
6425
  8
DEFPOINTS
 62
     0
 10
196.988666
 20
-133.358534
 30
0.0
  0
POINT
  5
6426
  8
DEFPOINTS
 62
     0
 10
220.988685
 20
-133.358534
 30
0.0
  0
POINT
  5
6427
  8
DEFPOINTS
 62
     0
 10
220.988685
 20
-158.659408
 30
0.0
  0
ENDBLK
  5
6130
  8
0
  0
BLOCK
  8
0
  2
*D7
 70
     1
 10
0.0
 20
0.0
 30
0.0
  3
*D7
  1

  0
LINE
  5
621F
  8
COTATION1
 62
     0
 10
221.683968
 20
-94.218798
 30
0.0
 11
217.941111
 21
-94.218798
 31
0.0
1001
ACAD
1000
RTLwPs
1070
   158
  0
LINE
  5
6220
  8
COTATION1
 62
     0
 10
217.941111
 20
-94.218798
 30
0.0
 11
212.901899
 21
-101.504596
 31
0.0
1001
ACAD
1000
RTLwPs
1070
   158
  0
TEXT
  5
6221
  8
COTATION1
 62
     0
 10
218.350635
 20
-93.618798
 30
0.0
 40
2.0
  1
%%c8
1001
ACAD
1000
MTEXTBEGIN
1070
    73
1070
     1
1070
    44
1040
1.0
1070
    74
1070
     0
1000
MTEXTEND
1000
MTEXTBEGIN
1070
    73
1070
     1
1070
    44
1040
1.0
1070
    74
1070
     0
1000
MTEXTEND
  0
INSERT
  5
6222
  8
COTATION1
 62
     0
  2
_OPEN30
 10
211.764212
 20
-103.149487
 30
0.0
 41
2.0
 42
2.0
 43
2.0
 50
235.33038
1001
ACAD
1000
RTLwPs
1070
   158
  0
POINT
  5
6223
  8
DEFPOINTS
 62
     0
 10
211.764212
 20
-103.149487
 30
0.0
  0
POINT
  5
6224
  8
DEFPOINTS
 62
     0
 10
207.213464
 20
-109.729053
 30
0.0
  0
ENDBLK
  5
6226
  8
0
  0
BLOCK
  8
0
  2
*D8
 70
     1
 10
0.0
 20
0.0
 30
0.0
  3
*D8
  1

  0
LINE
  5
622D
  8
COTATION1
 62
     0
 10
232.777003
 20
-148.305022
 30
0.0
 11
226.177003
 21
-148.305022
 31
0.0
1001
ACAD
1000
RTLwPs
1070
   158
  0
LINE
  5
622E
  8
COTATION1
 62
     0
 10
226.177003
 20
-148.305022
 30
0.0
 11
213.242095
 21
-141.433477
 31
0.0
1001
ACAD
1000
RTLwPs
1070
   158
  0
TEXT
  5
622F
  8
COTATION1
 62
     0
 10
226.586527
 20
-147.705022
 30
0.0
 40
2.0
  1
%%c4.5
1001
ACAD
1000
MTEXTBEGIN
1070
    73
1070
     1
1070
    44
1040
1.0
1070
    74
1070
     0
1000
MTEXTEND
1000
MTEXTBEGIN
1070
    73
1070
     1
1070
    44
1040
1.0
1070
    74
1070
     0
1000
MTEXTEND
  0
INSERT
  5
6230
  8
COTATION1
 62
     0
  2
_OPEN30
 10
211.475857
 20
-140.49518
 30
0.0
 41
2.0
 42
2.0
 43
2.0
 50
152.020957
1001
ACAD
1000
RTLwPs
1070
   158
  0
POINT
  5
6231
  8
DEFPOINTS
 62
     0
 10
211.475857
 20
-140.49518
 30
0.0
  0
POINT
  5
6232
  8
DEFPOINTS
 62
     0
 10
207.50182
 20
-138.384012
 30
0.0
  0
ENDBLK
  5
6234
  8
0
  0
BLOCK
  8
0
  2
*D9
 70
     1
 10
0.0
 20
0.0
 30
0.0
  3
*D9
  1

  0
LINE
  5
6428
  8
COTATION1
 62
     0
 10
195.023712
 20
-135.200154
 30
0.0
 11
195.023712
 21
-165.752731
 31
0.0
1001
ACAD
1000
RTLwPs
1070
   158
  0
LINE
  5
6429
  8
COTATION1
 62
     0
 10
224.023667
 20
-135.008634
 30
0.0
 11
224.023667
 21
-165.752731
 31
0.0
1001
ACAD
1000
RTLwPs
1070
   158
  0
LINE
  5
642A
  8
COTATION1
 62
     0
 10
197.023712
 20
-165.252731
 30
0.0
 11
222.023667
 21
-165.252731
 31
0.0
1001
ACAD
1000
RTLwPs
1070
   158
  0
INSERT
  5
642B
  8
COTATION1
 62
     0
  2
_OPEN30
 10
195.023712
 20
-165.252731
 30
0.0
 41
2.0
 42
2.0
 43
2.0
 50
180.0
1001
ACAD
1000
RTLwPs
1070
   158
  0
INSERT
  5
642C
  8
COTATION1
 62
     0
  2
_OPEN30
 10
224.023667
 20
-165.252731
 30
0.0
 41
2.0
 42
2.0
 43
2.0
1001
ACAD
1000
RTLwPs
1070
   158
  0
TEXT
  5
642D
  8
COTATION1
 62
     0
 10
205.142737
 20
-164.652731
 30
0.0
 40
2.0
  1
=29=
1001
ACAD
1000
MTEXTBEGIN
1070
    73
1070
     1
1070
    44
1040
1.0
1070
    74
1070
     0
1000
MTEXTEND
  0
POINT
  5
642E
  8
DEFPOINTS
 62
     0
 10
195.023712
 20
-134.900154
 30
0.0
  0
POINT
  5
642F
  8
DEFPOINTS
 62
     0
 10
224.023667
 20
-134.708634
 30
0.0
  0
POINT
  5
6430
  8
DEFPOINTS
 62
     0
 10
224.023667
 20
-165.252731
 30
0.0
  0
ENDBLK
  5
6287
  8
0
  0
ENDSEC
  0
SECTION
  2
ENTITIES
  0
INSERT
  5
32
  8
0
  2
COTE
 10
0.0
 20
0.0
 30
0.0
  0
INSERT
  5
36
  8
0
  2
FOND
 10
0.0
 20
0.0
 30
0.0
  0
INSERT
  5
24AE
  8
ALPHA
  2
SCH_ISO
 10
-66.27012
 20
-238.940658
 30
0.0
  0
LINE
  5
53BE
  8
AXE
 10
189.553515
 20
-122.85851
 30
0.0
 11
230.476218
 21
-122.85851
 31
0.0
  0
TEXT
  5
53C0
  8
AXE
 10
205.705501
 20
-154.363897
 30
0.0
 40
4.000012
  1
Y
 72
     2
 11
208.943606
 21
-154.363897
 31
0.0
  0
LINE
  5
53C1
  8
AXE
 10
209.494726
 20
-154.363897
 30
0.0
 11
209.486388
 21
-96.69418
 31
0.0
  0
TEXT
  5
564D
  8
AXE
 10
227.238123
 20
-121.85851
 30
0.0
 40
4.0
  1
X
 72
     2
 11
230.476218
 21
-121.85851
 31
0.0
  0
POLYLINE
  5
5C8B
  8
ALPHA
 66
     1
 10
0.0
 20
0.0
 30
0.0
 70
   128
1001
ACAD
1000
RTLwPs
1070
   128
  0
VERTEX
  5
65D1
  8
ALPHA
 10
214.720456
 20
-143.777162
 30
0.0
  0
VERTEX
  5
65D2
  8
ALPHA
 10
214.824935
 20
-143.675318
 30
0.0
  0
VERTEX
  5
65D3
  8
ALPHA
 10
215.120203
 20
-143.387498
 30
0.0
  0
VERTEX
  5
65D4
  8
ALPHA
 10
215.579004
 20
-142.940271
 30
0.0
  0
VERTEX
  5
65D5
  8
ALPHA
 10
216.174082
 20
-142.360204
 30
0.0
  0
VERTEX
  5
65D6
  8
ALPHA
 10
216.878183
 20
-141.673865
 30
0.0
  0
VERTEX
  5
65D7
  8
ALPHA
 10
217.66405
 20
-140.907823
 30
0.0
  0
VERTEX
  5
65D8
  8
ALPHA
 10
219.372061
 20
-139.242898
 30
0.0
  0
VERTEX
  5
65D9
  8
ALPHA
 10
221.080073
 20
-137.577973
 30
0.0
  0
VERTEX
  5
65DA
  8
ALPHA
 10
221.86594
 20
-136.81193
 30
0.0
  0
VERTEX
  5
65DB
  8
ALPHA
 10
222.57004
 20
-136.125592
 30
0.0
  0
VERTEX
  5
65DC
  8
ALPHA
 10
223.165119
 20
-135.545525
 30
0.0
  0
VERTEX
  5
65DD
  8
ALPHA
 10
223.62392
 20
-135.098297
 30
0.0
  0
VERTEX
  5
65DE
  8
ALPHA
 10
223.919188
 20
-134.810478
 30
0.0
  0
VERTEX
  5
65DF
  8
ALPHA
 10
224.023667
 20
-134.708634
 30
0.0
  0
SEQEND
  5
65E0
  8
ALPHA
  0
POLYLINE
  5
5C8C
  8
ALPHA
 66
     1
 10
0.0
 20
0.0
 30
0.0
 70
   128
1001
ACAD
1000
RTLwPs
1070
   128
  0
VERTEX
  5
65E1
  8
ALPHA
 10
224.023667
 20
-110.94074
 30
0.0
  0
VERTEX
  5
65E2
  8
ALPHA
 10
223.918215
 20
-110.838536
 30
0.0
  0
VERTEX
  5
65E3
  8
ALPHA
 10
223.620197
 20
-110.549701
 30
0.0
  0
VERTEX
  5
65E4
  8
ALPHA
 10
223.157123
 20
-110.100894
 30
0.0
  0
VERTEX
  5
65E5
  8
ALPHA
 10
222.556503
 20
-109.518779
 30
0.0
  0
VERTEX
  5
65E6
  8
ALPHA
 10
221.845845
 20
-108.830017
 30
0.0
  0
VERTEX
  5
65E7
  8
ALPHA
 10
221.05266
 20
-108.061269
 30
0.0
  0
VERTEX
  5
65E8
  8
ALPHA
 10
219.328741
 20
-106.390465
 30
0.0
  0
VERTEX
  5
65E9
  8
ALPHA
 10
217.604823
 20
-104.71966
 30
0.0
  0
VERTEX
  5
65EA
  8
ALPHA
 10
216.811638
 20
-103.950913
 30
0.0
  0
VERTEX
  5
65EB
  8
ALPHA
 10
216.10098
 20
-103.26215
 30
0.0
  0
VERTEX
  5
65EC
  8
ALPHA
 10
215.50036
 20
-102.680035
 30
0.0
  0
VERTEX
  5
65ED
  8
ALPHA
 10
215.037286
 20
-102.231229
 30
0.0
  0
VERTEX
  5
65EE
  8
ALPHA
 10
214.739268
 20
-101.942393
 30
0.0
  0
VERTEX
  5
65EF
  8
ALPHA
 10
214.633816
 20
-101.840189
 30
0.0
  0
VERTEX
  5
65F0
  8
ALPHA
 10
213.505867
 20
-100.930722
 30
0.0
  0
VERTEX
  5
65F1
  8
ALPHA
 10
212.237874
 20
-100.286106
 30
0.0
  0
VERTEX
  5
65F2
  8
ALPHA
 10
210.876518
 20
-99.904922
 30
0.0
  0
VERTEX
  5
65F3
  8
ALPHA
 10
209.468481
 20
-99.785749
 30
0.0
  0
VERTEX
  5
65F4
  8
ALPHA
 10
208.060444
 20
-99.927167
 30
0.0
  0
VERTEX
  5
65F5
  8
ALPHA
 10
206.699088
 20
-100.327757
 30
0.0
  0
VERTEX
  5
65F6
  8
ALPHA
 10
205.431095
 20
-100.986099
 30
0.0
  0
VERTEX
  5
65F7
  8
ALPHA
 10
204.303147
 20
-101.900772
 30
0.0
  0
SEQEND
  5
65F8
  8
ALPHA
  0
LINE
  5
5C8D
  8
ALPHA
 10
220.988685
 20
-133.358534
 30
0.0
 11
196.988666
 21
-133.358534
 31
0.0
1001
ACAD
1000
RTLwPs
1070
   128
  0
LINE
  5
5C8E
  8
ALPHA
 10
196.988666
 20
-112.358485
 30
0.0
 11
220.988685
 21
-112.358485
 31
0.0
1001
ACAD
1000
RTLwPs
1070
   128
  0
POLYLINE
  5
5CC1
  8
ALPHA
 66
     1
 10
0.0
 20
0.0
 30
0.0
 70
   128
1001
ACAD
1000
RTLwPs
1070
   128
  0
VERTEX
  5
65F9
  8
ALPHA
 10
195.023712
 20
-110.968648
 30
0.0
  0
VERTEX
  5
65FA
  8
ALPHA
 10
195.023712
 20
-111.037299
 30
0.0
  0
VERTEX
  5
65FB
  8
ALPHA
 10
195.023712
 20
-111.23741
 30
0.0
  0
VERTEX
  5
65FC
  8
ALPHA
 10
195.023712
 20
-111.560217
 30
0.0
  0
VERTEX
  5
65FD
  8
ALPHA
 10
195.023712
 20
-111.996955
 30
0.0
  0
VERTEX
  5
65FE
  8
ALPHA
 10
195.023712
 20
-113.177171
 30
0.0
  0
VERTEX
  5
65FF
  8
ALPHA
 10
195.023712
 20
-114.707946
 30
0.0
  0
VERTEX
  5
6600
  8
ALPHA
 10
195.023712
 20
-116.519168
 30
0.0
  0
VERTEX
  5
6601
  8
ALPHA
 10
195.023712
 20
-118.540726
 30
0.0
  0
VERTEX
  5
6602
  8
ALPHA
 10
195.023712
 20
-122.934401
 30
0.0
  0
VERTEX
  5
6603
  8
ALPHA
 10
195.023712
 20
-127.328076
 30
0.0
  0
VERTEX
  5
6604
  8
ALPHA
 10
195.023712
 20
-129.349634
 30
0.0
  0
VERTEX
  5
6605
  8
ALPHA
 10
195.023712
 20
-131.160856
 30
0.0
  0
VERTEX
  5
6606
  8
ALPHA
 10
195.023712
 20
-132.691631
 30
0.0
  0
VERTEX
  5
6607
  8
ALPHA
 10
195.023712
 20
-133.871847
 30
0.0
  0
VERTEX
  5
6608
  8
ALPHA
 10
195.023712
 20
-134.308585
 30
0.0
  0
VERTEX
  5
6609
  8
ALPHA
 10
195.023712
 20
-134.631392
 30
0.0
  0
VERTEX
  5
660A
  8
ALPHA
 10
195.023712
 20
-134.831503
 30
0.0
  0
VERTEX
  5
660B
  8
ALPHA
 10
195.023712
 20
-134.900154
 30
0.0
  0
SEQEND
  5
660C
  8
ALPHA
  0
LINE
  5
5CC2
  8
ALPHA
 10
196.988666
 20
-133.358534
 30
0.0
 11
196.988666
 21
-112.358485
 31
0.0
1001
ACAD
1000
RTLwPs
1070
   128
  0
POLYLINE
  5
5CCA
  8
ALPHA
 66
     1
 10
0.0
 20
0.0
 30
0.0
 70
   128
1001
ACAD
1000
RTLwPs
1070
   128
  0
VERTEX
  5
660D
  8
ALPHA
 10
195.023712
 20
-134.900154
 30
0.0
  0
VERTEX
  5
660E
  8
ALPHA
 10
195.128905
 20
-135.000527
 30
0.0
  0
VERTEX
  5
660F
  8
ALPHA
 10
195.426189
 20
-135.284191
 30
0.0
  0
VERTEX
  5
6610
  8
ALPHA
 10
195.888122
 20
-135.724961
 30
0.0
  0
VERTEX
  5
6611
  8
ALPHA
 10
196.487263
 20
-136.296653
 30
0.0
  0
VERTEX
  5
6612
  8
ALPHA
 10
197.19617
 20
-136.973081
 30
0.0
  0
VERTEX
  5
6613
  8
ALPHA
 10
197.987403
 20
-137.728063
 30
0.0
  0
VERTEX
  5
6614
  8
ALPHA
 10
199.707075
 20
-139.368949
 30
0.0
  0
VERTEX
  5
6615
  8
ALPHA
 10
201.426747
 20
-141.009835
 30
0.0
  0
VERTEX
  5
6616
  8
ALPHA
 10
202.21798
 20
-141.764817
 30
0.0
  0
VERTEX
  5
6617
  8
ALPHA
 10
202.926887
 20
-142.441246
 30
0.0
  0
VERTEX
  5
6618
  8
ALPHA
 10
203.526028
 20
-143.012938
 30
0.0
  0
VERTEX
  5
6619
  8
ALPHA
 10
203.987961
 20
-143.453707
 30
0.0
  0
VERTEX
  5
661A
  8
ALPHA
 10
204.285245
 20
-143.737371
 30
0.0
  0
VERTEX
  5
661B
  8
ALPHA
 10
204.390438
 20
-143.837744
 30
0.0
  0
VERTEX
  5
661C
  8
ALPHA
 10
205.518172
 20
-144.747212
 30
0.0
  0
VERTEX
  5
661D
  8
ALPHA
 10
206.786003
 20
-145.391827
 30
0.0
  0
VERTEX
  5
661E
  8
ALPHA
 10
208.147243
 20
-145.773012
 30
0.0
  0
VERTEX
  5
661F
  8
ALPHA
 10
209.555202
 20
-145.892185
 30
0.0
  0
VERTEX
  5
6620
  8
ALPHA
 10
210.963193
 20
-145.750767
 30
0.0
  0
VERTEX
  5
6621
  8
ALPHA
 10
212.324524
 20
-145.350177
 30
0.0
  0
VERTEX
  5
6622
  8
ALPHA
 10
213.592508
 20
-144.691835
 30
0.0
  0
VERTEX
  5
6623
  8
ALPHA
 10
214.720456
 20
-143.777162
 30
0.0
  0
SEQEND
  5
6624
  8
ALPHA
  0
POLYLINE
  5
5CF2
  8
ALPHA
 66
     1
 10
0.0
 20
0.0
 30
0.0
 70
   128
1001
ACAD
1000
RTLwPs
1070
   128
  0
VERTEX
  5
6625
  8
ALPHA
 10
204.303147
 20
-101.900772
 30
0.0
  0
VERTEX
  5
6626
  8
ALPHA
 10
204.198934
 20
-102.002609
 30
0.0
  0
VERTEX
  5
6627
  8
ALPHA
 10
203.904421
 20
-102.290407
 30
0.0
  0
VERTEX
  5
6628
  8
ALPHA
 10
203.446793
 20
-102.737603
 30
0.0
  0
VERTEX
  5
6629
  8
ALPHA
 10
202.853235
 20
-103.317628
 30
0.0
  0
VERTEX
  5
662A
  8
ALPHA
 10
202.150934
 20
-104.003917
 30
0.0
  0
VERTEX
  5
662B
  8
ALPHA
 10
201.367076
 20
-104.769905
 30
0.0
  0
VERTEX
  5
662C
  8
ALPHA
 10
199.663429
 20
-106.43471
 30
0.0
  0
VERTEX
  5
662D
  8
ALPHA
 10
197.959783
 20
-108.099516
 30
0.0
  0
VERTEX
  5
662E
  8
ALPHA
 10
197.175925
 20
-108.865503
 30
0.0
  0
VERTEX
  5
662F
  8
ALPHA
 10
196.473624
 20
-109.551793
 30
0.0
  0
VERTEX
  5
6630
  8
ALPHA
 10
195.880066
 20
-110.131818
 30
0.0
  0
VERTEX
  5
6631
  8
ALPHA
 10
195.422438
 20
-110.579013
 30
0.0
  0
VERTEX
  5
6632
  8
ALPHA
 10
195.127924
 20
-110.866812
 30
0.0
  0
VERTEX
  5
6633
  8
ALPHA
 10
195.023712
 20
-110.968648
 30
0.0
  0
SEQEND
  5
6634
  8
ALPHA
  0
CIRCLE
  5
5CF8
  8
ALPHA
 10
209.488838
 20
-106.43927
 30
0.0
 40
4.0
1001
ACAD
1000
RTLwPs
1070
   128
  0
CIRCLE
  5
5CF9
  8
ALPHA
 10
209.488838
 20
-106.439596
 30
0.0
 40
2.25
1001
ACAD
1000
RTLwPs
1070
   128
  0
LINE
  5
5CFD
  8
ALPHA
 10
214.773873
 20
-102.074052
 30
0.0
 11
213.707811
 21
-101.018739
 31
0.0
1001
ACAD
1000
RTLwPs
1070
   128
  0
POLYLINE
  5
5CFE
  8
ALPHA
 66
     1
 10
0.0
 20
0.0
 30
0.0
 70
   128
1001
ACAD
1000
RTLwPs
1070
   128
  0
VERTEX
  5
6635
  8
ALPHA
 10
224.023667
 20
-134.708634
 30
0.0
  0
VERTEX
  5
6636
  8
ALPHA
 10
224.023667
 20
-134.640452
 30
0.0
  0
VERTEX
  5
6637
  8
ALPHA
 10
224.023667
 20
-134.44171
 30
0.0
  0
VERTEX
  5
6638
  8
ALPHA
 10
224.023667
 20
-134.12111
 30
0.0
  0
VERTEX
  5
6639
  8
ALPHA
 10
224.023667
 20
-133.687357
 30
0.0
  0
VERTEX
  5
663A
  8
ALPHA
 10
224.023667
 20
-132.51521
 30
0.0
  0
VERTEX
  5
663B
  8
ALPHA
 10
224.023667
 20
-130.994901
 30
0.0
  0
VERTEX
  5
663C
  8
ALPHA
 10
224.023667
 20
-129.196061
 30
0.0
  0
VERTEX
  5
663D
  8
ALPHA
 10
224.023667
 20
-127.188324
 30
0.0
  0
VERTEX
  5
663E
  8
ALPHA
 10
224.023667
 20
-122.824687
 30
0.0
  0
VERTEX
  5
663F
  8
ALPHA
 10
224.023667
 20
-118.46105
 30
0.0
  0
VERTEX
  5
6640
  8
ALPHA
 10
224.023667
 20
-116.453313
 30
0.0
  0
VERTEX
  5
6641
  8
ALPHA
 10
224.023667
 20
-114.654473
 30
0.0
  0
VERTEX
  5
6642
  8
ALPHA
 10
224.023667
 20
-113.134164
 30
0.0
  0
VERTEX
  5
6643
  8
ALPHA
 10
224.023667
 20
-111.962017
 30
0.0
  0
VERTEX
  5
6644
  8
ALPHA
 10
224.023667
 20
-111.528264
 30
0.0
  0
VERTEX
  5
6645
  8
ALPHA
 10
224.023667
 20
-111.207665
 30
0.0
  0
VERTEX
  5
6646
  8
ALPHA
 10
224.023667
 20
-111.008922
 30
0.0
  0
VERTEX
  5
6647
  8
ALPHA
 10
224.023667
 20
-110.94074
 30
0.0
  0
SEQEND
  5
6648
  8
ALPHA
  0
LINE
  5
5CFF
  8
ALPHA
 10
220.988685
 20
-112.358485
 30
0.0
 11
220.988685
 21
-133.358534
 31
0.0
1001
ACAD
1000
RTLwPs
1070
   128
  0
LINE
  5
5D1B
  8
ALPHA
 10
224.023667
 20
-134.708634
 30
0.0
 11
224.023667
 21
-134.708634
 31
0.0
1001
ACAD
1000
RTLwPs
1070
   128
  0
DIMENSION
  5
5F23
  8
COTATION1
  2
*D4
 10
244.580446
 20
-139.43927
 30
0.0
 11
242.980446
 21
-122.93927
 31
0.0
 13
214.988838
 23
-106.43927
 33
0.0
 14
214.988838
 24
-139.43927
 34
0.0
 50
90.0
  0
DIMENSION
  5
6005
  8
COTATION1
  2
*D5
 10
238.776552
 20
-133.358534
 30
0.0
 11
238.776552
 21
-122.85851
 31
0.0
 70
   128
 13
220.988685
 23
-112.358485
 33
0.0
 14
220.988685
 24
-133.358534
 34
0.0
 50
90.0
  0
DIMENSION
  5
6124
  8
COTATION1
  2
*D6
 10
220.988685
 20
-158.659408
 30
0.0
 11
210.238693
 21
-158.659408
 31
0.0
 70
   128
  1
=<>=
 13
196.988666
 23
-133.358534
 33
0.0
 14
220.988685
 24
-133.358534
 34
0.0
  0
DIMENSION
  5
621D
  8
COTATION1
  2
*D7
 10
207.213464
 20
-109.729053
 30
0.0
 11
220.11254
 21
-94.218798
 31
0.0
 70
   131
 15
211.764212
 25
-103.149487
 35
0.0
 40
0.0
1001
ACAD
1000
DSTYLE
1002
{
1070
   288
1070
     1
1002
}
  0
CIRCLE
  5
6227
  8
ALPHA
 10
209.488838
 20
-139.439596
 30
0.0
 40
2.25
1001
ACAD
1000
RTLwPs
1070
   128
  0
CIRCLE
  5
6228
  8
ALPHA
 10
209.488838
 20
-139.43927
 30
0.0
 40
4.0
1001
ACAD
1000
RTLwPs
1070
   128
  0
DIMENSION
  5
622B
  8
COTATION1
  2
*D8
 10
207.50182
 20
-138.384012
 30
0.0
 11
229.777003
 21
-148.305022
 31
0.0
 70
   131
 15
211.475857
 25
-140.49518
 35
0.0
 40
0.0
1001
ACAD
1000
DSTYLE
1002
{
1070
   288
1070
     1
1002
}
  0
DIMENSION
  5
627B
  8
COTATION1
  2
*D9
 10
224.023667
 20
-165.252731
 30
0.0
 11
209.52369
 21
-163.652731
 31
0.0
  1
=<>=
 13
195.023712
 23
-134.900154
 33
0.0
 14
224.023667
 24
-134.708634
 34
0.0
  0
LINE
  5
63D4
  8
AXE
 10
203.988838
 20
-106.43927
 30
0.0
 11
214.988838
 21
-106.43927
 31
0.0
  0
LINE
  5
63F1
  8
AXE
 10
203.988838
 20
-139.43927
 30
0.0
 11
214.988838
 21
-139.43927
 31
0.0
  0
ENDSEC
  0
EOF
