  0
SECTION
  2
HEADER
  9
$ACADVER
  1
AC1009
  9
$INSBASE
 10
-146.27124
 20
-153.796096
 30
0.0
  9
$EXTMIN
 10
85.283843
 20
-145.608509
 30
0.0
  9
$EXTMAX
 10
113.383846
 20
-97.50851
 30
0.0
  9
$LIMMIN
 10
-407.970438
 20
-367.832444
  9
$LIMMAX
 10
429.804077
 20
234.370848
  9
$ORTHOMODE
 70
     1
  9
$REGENMODE
 70
     1
  9
$FILLMODE
 70
     1
  9
$QTEXTMODE
 70
     0
  9
$MIRRTEXT
 70
     1
  9
$DRAGMODE
 70
     2
  9
$LTSCALE
 40
10.0
  9
$OSMODE
 70
   165
  9
$ATTMODE
 70
     1
  9
$TEXTSIZE
 40
6.0
  9
$TRACEWID
 40
1.0
  9
$TEXTSTYLE
  7
ROMANS
  9
$CLAYER
  8
COTATION1
  9
$CELTYPE
  6
BYLAYER
  9
$CECOLOR
 62
   256
  9
$DIMSCALE
 40
1.0
  9
$DIMASZ
 40
2.0
  9
$DIMEXO
 40
0.3
  9
$DIMDLI
 40
0.1
  9
$DIMRND
 40
0.0
  9
$DIMDLE
 40
0.0
  9
$DIMEXE
 40
0.5
  9
$DIMTP
 40
0.0
  9
$DIMTM
 40
0.0
  9
$DIMTXT
 40
2.0
  9
$DIMCEN
 40
0.0
  9
$DIMTSZ
 40
0.0
  9
$DIMTOL
 70
     0
  9
$DIMLIM
 70
     0
  9
$DIMTIH
 70
     0
  9
$DIMTOH
 70
     1
  9
$DIMSE1
 70
     0
  9
$DIMSE2
 70
     0
  9
$DIMTAD
 70
     1
  9
$DIMZIN
 70
    12
  9
$DIMBLK
  1
OPEN30
  9
$DIMASO
 70
     1
  9
$DIMSHO
 70
     1
  9
$DIMPOST
  1

  9
$DIMAPOST
  1

  9
$DIMALT
 70
     0
  9
$DIMALTD
 70
     2
  9
$DIMALTF
 40
25.4
  9
$DIMLFAC
 40
1.0
  9
$DIMTOFL
 70
     0
  9
$DIMTVP
 40
0.0
  9
$DIMTIX
 70
     0
  9
$DIMSOXD
 70
     0
  9
$DIMSAH
 70
     0
  9
$DIMBLK1
  1

  9
$DIMBLK2
  1

  9
$DIMSTYLE
  2
SC_DEFAUT-2
  9
$DIMCLRD
 70
     0
  9
$DIMCLRE
 70
     0
  9
$DIMCLRT
 70
     0
  9
$DIMTFAC
 40
1.0
  9
$DIMGAP
 40
0.6
  9
$LUNITS
 70
     2
  9
$LUPREC
 70
     1
  9
$SKETCHINC
 40
0.1
  9
$FILLETRAD
 40
0.0
  9
$AUNITS
 70
     0
  9
$AUPREC
 70
     0
  9
$MENU
  1
acad
  9
$ELEVATION
 40
0.0
  9
$PELEVATION
 40
0.0
  9
$THICKNESS
 40
0.0
  9
$LIMCHECK
 70
     0
  9
$BLIPMODE
 70
     0
  9
$CHAMFERA
 40
0.0
  9
$CHAMFERB
 40
0.0
  9
$SKPOLY
 70
     0
  9
$TDCREATE
 40
2450365.355314
  9
$TDUPDATE
 40
2452592.645729
  9
$TDINDWG
 40
0.670198
  9
$TDUSRTIMER
 40
0.670198
  9
$USRTIMER
 70
     1
  9
$ANGBASE
 50
0.0
  9
$ANGDIR
 70
     0
  9
$PDMODE
 70
    32
  9
$PDSIZE
 40
0.0
  9
$PLINEWID
 40
0.0
  9
$COORDS
 70
     2
  9
$SPLFRAME
 70
     0
  9
$SPLINETYPE
 70
     6
  9
$SPLINESEGS
 70
     8
  9
$ATTDIA
 70
     0
  9
$ATTREQ
 70
     1
  9
$HANDLING
 70
     1
  9
$HANDSEED
  5
633F
  9
$SURFTAB1
 70
     6
  9
$SURFTAB2
 70
     6
  9
$SURFTYPE
 70
     6
  9
$SURFU
 70
     6
  9
$SURFV
 70
     6
  9
$UCSNAME
  2

  9
$UCSORG
 10
0.0
 20
0.0
 30
0.0
  9
$UCSXDIR
 10
1.0
 20
0.0
 30
0.0
  9
$UCSYDIR
 10
0.0
 20
1.0
 30
0.0
  9
$PUCSNAME
  2

  9
$PUCSORG
 10
0.0
 20
0.0
 30
0.0
  9
$PUCSXDIR
 10
1.0
 20
0.0
 30
0.0
  9
$PUCSYDIR
 10
0.0
 20
1.0
 30
0.0
  9
$USERI1
 70
     0
  9
$USERI2
 70
     0
  9
$USERI3
 70
     0
  9
$USERI4
 70
     0
  9
$USERI5
 70
     0
  9
$USERR1
 40
0.0
  9
$USERR2
 40
0.0
  9
$USERR3
 40
0.0
  9
$USERR4
 40
0.0
  9
$USERR5
 40
0.0
  9
$WORLDVIEW
 70
     1
  9
$SHADEDGE
 70
     3
  9
$SHADEDIF
 70
    70
  9
$TILEMODE
 70
     1
  9
$MAXACTVP
 70
    16
  9
$PLIMCHECK
 70
     0
  9
$PEXTMIN
 10
1.000000E+020
 20
1.000000E+020
 30
1.000000E+020
  9
$PEXTMAX
 10
-1.000000E+020
 20
-1.000000E+020
 30
-1.000000E+020
  9
$PLIMMIN
 10
0.0
 20
0.0
  9
$PLIMMAX
 10
12.0
 20
9.0
  9
$UNITMODE
 70
     0
  9
$VISRETAIN
 70
     0
  9
$PLINEGEN
 70
     0
  9
$PSLTSCALE
 70
     0
  0
ENDSEC
  0
SECTION
  2
TABLES
  0
TABLE
  2
VPORT
 70
     2
  0
VPORT
  2
*ACTIVE
 70
     0
 10
0.0
 20
0.0
 11
1.0
 21
1.0
 12
100.102109
 22
-121.542543
 13
0.0
 23
0.0
 14
1.0
 24
1.0
 15
10.0
 25
10.0
 16
0.0
 26
0.0
 36
1.0
 17
0.0
 27
0.0
 37
0.0
 40
48.578432
 41
1.63142
 42
50.0
 43
0.0
 44
0.0
 50
0.0
 51
0.0
 71
     0
 72
   100
 73
     1
 74
     0
 75
     0
 76
     0
 77
     0
 78
     0
  0
ENDTAB
  0
TABLE
  2
LTYPE
 70
    26
  0
LTYPE
  2
CONTINUOUS
 70
     0
  3
Solid line
 72
    65
 73
     0
 40
0.0
  0
LTYPE
  2
AXES2
 70
     0
  3
___ _ ___ _ ___ _ ___ _ ___ _ ___ _ ___ _ ___ _
 72
    65
 73
     4
 40
1.125
 49
0.75
 49
-0.125
 49
0.125
 49
-0.125
  0
LTYPE
  2
ACAD_ISO04W100
 70
     0
  3
ISO Lang gestrichelt punktiert ____ . ____ . __
 72
    65
 73
     4
 40
30.5
 49
24.0
 49
-3.0
 49
0.5
 49
-3.0
  0
LTYPE
  2
AXES
 70
     0
  3
____ _ ____ _ ____ _ ____ _ ____ _ ____ _ ____ 
 72
    65
 73
     4
 40
2.0
 49
1.25
 49
-0.25
 49
0.25
 49
-0.25
  0
LTYPE
  2
AXESX2
 70
     0
  3
________  __  ________  __  ________  __  _____
 72
    65
 73
     4
 40
4.0
 49
2.5
 49
-0.5
 49
0.5
 49
-0.5
  0
LTYPE
  2
TIRETPT
 70
     0
  3
__ . __ . __ . __ . __ . __ . __ . __ . __ . __
 72
    65
 73
     4
 40
1.0
 49
0.5
 49
-0.25
 49
0.0
 49
-0.25
  0
LTYPE
  2
TIRETPT2
 70
     0
  3
_._._._._._._._._._._._._._._._._._._._._._._._
 72
    65
 73
     4
 40
0.5
 49
0.25
 49
-0.125
 49
0.0
 49
-0.125
  0
LTYPE
  2
TIRETPTX2
 70
     0
  3
____  .  ____  .  ____  .  ____  .  ____  .  __
 72
    65
 73
     4
 40
2.0
 49
1.0
 49
-0.5
 49
0.0
 49
-0.5
  0
LTYPE
  2
DISCONTINU
 70
     0
  3
__ __ __ __ __ __ __ __ __ __ __ __ __ __ __ __
 72
    65
 73
     2
 40
0.75
 49
0.5
 49
-0.25
  0
LTYPE
  2
DISCONTINU2
 70
     0
  3
_ _ _ _ _ _ _ _ _ _ _ _ _ _ _ _ _ _ _ _ _ _ _ _
 72
    65
 73
     2
 40
0.375
 49
0.25
 49
-0.125
  0
LTYPE
  2
DISCONTINUX2
 70
     0
  3
____  ____  ____  ____  ____  ____  ____  ____ 
 72
    65
 73
     2
 40
1.5
 49
1.0
 49
-0.5
  0
LTYPE
  2
DIVISE
 70
     0
  3
____ . . ____ . . ____ . . ____ . . ____ . . __
 72
    65
 73
     6
 40
1.25
 49
0.5
 49
-0.25
 49
0.0
 49
-0.25
 49
0.0
 49
-0.25
  0
LTYPE
  2
DIVISE2
 70
     0
  3
__..__..__..__..__..__..__..__..__..__..__..__.
 72
    65
 73
     6
 40
0.625
 49
0.25
 49
-0.125
 49
0.0
 49
-0.125
 49
0.0
 49
-0.125
  0
LTYPE
  2
DIVISEX2
 70
     0
  3
________  .  .  ________  .  .  ________  .  . 
 72
    65
 73
     6
 40
2.5
 49
1.0
 49
-0.5
 49
0.0
 49
-0.5
 49
0.0
 49
-0.5
  0
LTYPE
  2
POINTILLE
 70
     0
  3
. . . . . . . . . . . . . . . . . . . . . . . .
 72
    65
 73
     2
 40
0.25
 49
0.0
 49
-0.25
  0
LTYPE
  2
POINTILLE2
 70
     0
  3
...............................................
 72
    65
 73
     2
 40
0.125
 49
0.0
 49
-0.125
  0
LTYPE
  2
POINTILLEX2
 70
     0
  3
.  .  .  .  .  .  .  .  .  .  .  .  .  .  .  . 
 72
    65
 73
     2
 40
0.5
 49
0.0
 49
-0.5
  0
LTYPE
  2
CACHE
 70
     0
  3
__ __ __ __ __ __ __ __ __ __ __ __ __ __ __ __
 72
    65
 73
     2
 40
0.375
 49
0.25
 49
-0.125
  0
LTYPE
  2
CACHE2
 70
     0
  3
_ _ _ _ _ _ _ _ _ _ _ _ _ _ _ _ _ _ _ _ _ _ _ _
 72
    65
 73
     2
 40
0.1875
 49
0.125
 49
-0.0625
  0
LTYPE
  2
CACHEX2
 70
     0
  3
____ ____ ____ ____ ____ ____ ____ ____ ____ __
 72
    65
 73
     2
 40
0.75
 49
0.5
 49
-0.25
  0
LTYPE
  2
FANTOME
 70
     0
  3
______  __  __  ______  __  __  ______  __  __ 
 72
    65
 73
     6
 40
2.5
 49
1.25
 49
-0.25
 49
0.25
 49
-0.25
 49
0.25
 49
-0.25
  0
LTYPE
  2
FANTOME2
 70
     0
  3
___ _ _ ___ _ _ ___ _ _ ___ _ _ ___ _ _ ___ _ _
 72
    65
 73
     6
 40
1.25
 49
0.625
 49
-0.125
 49
0.125
 49
-0.125
 49
0.125
 49
-0.125
  0
LTYPE
  2
FANTOMEX2
 70
     0
  3
____________    ____    ____    ____________   
 72
    65
 73
     6
 40
5.0
 49
2.5
 49
-0.5
 49
0.5
 49
-0.5
 49
0.5
 49
-0.5
  0
LTYPE
  2
0
 70
     0
  3
MEDUSA PEN 0
 72
    65
 73
     0
 40
0.0
  0
LTYPE
  2
AI9-LTYPE1
 70
     0
  3
Illustrator Dash Style No.1
 72
    65
 73
     4
 40
5.64621
 49
4.106333
 49
-0.307975
 49
0.923926
 49
-0.307975
  0
LTYPE
  2
AI9-LTYPE2
 70
     0
  3
Illustrator Dash Style No.2
 72
    65
 73
     2
 40
1.33456
 49
1.026585
 49
-0.307975
  0
ENDTAB
  0
TABLE
  2
LAYER
 70
    17
  0
LAYER
  2
0
 70
     0
 62
     7
  6
CONTINUOUS
  0
LAYER
  2
TEXTE_MOYEN
 70
     0
 62
   131
  6
CONTINUOUS
  0
LAYER
  2
ALPHA
 70
     0
 62
   254
  6
CONTINUOUS
  0
LAYER
  2
COTATION1
 70
     0
 62
    50
  6
CONTINUOUS
  0
LAYER
  2
AXE
 70
     0
 62
    80
  6
AXES2
  0
LAYER
  2
DEFPOINTS
 70
     0
 62
     7
  6
CONTINUOUS
  0
LAYER
  2
HACHURES1
 70
     0
 62
   130
  6
CONTINUOUS
  0
LAYER
  2
FMULT
 70
     0
 62
   210
  6
CONTINUOUS
  0
LAYER
  2
FDP_CARTOUCHE
 70
     0
 62
   136
  6
CONTINUOUS
  0
LAYER
  2
FDP_TEXTES
 70
     0
 62
   171
  6
CONTINUOUS
  0
LAYER
  2
FDP_LOGO_MG
 70
     0
 62
    30
  6
CONTINUOUS
  0
LAYER
  2
FDP_LOGO_SCH
 70
     0
 62
    90
  6
CONTINUOUS
  0
LAYER
  2
FDP_FDP
 70
     0
 62
   170
  6
CONTINUOUS
  0
LAYER
  2
POINTILLE_COURT2
 70
     0
 62
    41
  6
CACHE2
  0
LAYER
  2
POINTILLE_MOYEN2
 70
     0
 62
   141
  6
CACHE
  0
LAYER
  2
POINTILLE_LONG2
 70
     0
 62
   241
  6
CACHEX2
  0
LAYER
  2
ALPHA_FIN
 70
     0
 62
   255
  6
CONTINUOUS
  0
ENDTAB
  0
TABLE
  2
STYLE
 70
     5
  0
STYLE
  2
ROMANS
 70
     0
 40
0.0
 41
1.0
 50
0.0
 71
     0
 42
6.0
  3
romans
  4

  0
STYLE
  2
STANDARD
 70
     0
 40
0.2
 41
1.0
 50
0.0
 71
     0
 42
0.2
  3
txt
  4

  0
STYLE
  2
STD
 70
     0
 40
0.0
 41
1.0
 50
0.0
 71
     0
 42
0.0
  3
txt
  4

  0
STYLE
  2
INFOCAR
 70
     0
 40
0.0
 41
1.34
 50
0.0
 71
     0
 42
2.0
  3
ROMANS.SHX
  4

  0
STYLE
  2
CARTOUCHE
 70
     0
 40
0.0
 41
1.0
 50
0.0
 71
     0
 42
0.2
  3
ROMANS.SHX
  4

  0
ENDTAB
  0
TABLE
  2
VIEW
 70
     0
  0
ENDTAB
  0
TABLE
  2
UCS
 70
     0
  0
ENDTAB
  0
TABLE
  2
APPID
 70
     4
  0
APPID
  2
ACAD
 70
     0
  0
APPID
  2
AVE_RENDER
 70
     0
  0
APPID
  2
AVE_MATERIAL
 70
     0
  0
APPID
  2
CONTENTBLOCKICON
 70
     0
  0
ENDTAB
  0
TABLE
  2
DIMSTYLE
 70
     3
  0
DIMSTYLE
  2
SC_DEFAUT
 70
     0
  3

  4

  5
OPEN30
  6

  7

 40
1.0
 41
2.0
 42
0.3
 43
0.1
 44
0.5
 45
0.0
 46
0.0
 47
0.0
 48
0.0
140
2.0
141
2.0
142
0.0
143
25.4
144
1.0
145
0.0
146
1.0
147
0.6
 71
     0
 72
     0
 73
     0
 74
     0
 75
     0
 76
     0
 77
     1
 78
    12
170
     0
171
     2
172
     0
173
     0
174
     0
175
     0
176
     0
177
     0
178
     0
  0
DIMSTYLE
  2
ROMANS
 70
     0
  3

  4

  5
OPEN30
  6

  7

 40
1.0
 41
2.0
 42
0.5
 43
0.38
 44
0.18
 45
0.0
 46
0.0
 47
0.0
 48
0.0
140
2.0
141
0.09
142
0.0
143
25.4
144
1.0
145
0.0
146
1.0
147
0.5
 71
     0
 72
     0
 73
     0
 74
     0
 75
     0
 76
     0
 77
     1
 78
    12
170
     0
171
     2
172
     0
173
     0
174
     0
175
     0
176
     0
177
     0
178
     0
  0
DIMSTYLE
  2
SC_DEFAUT-2
 70
     0
  3

  4

  5
OPEN30
  6

  7

 40
1.0
 41
2.0
 42
0.3
 43
0.1
 44
0.5
 45
0.0
 46
0.0
 47
0.0
 48
0.0
140
2.0
141
0.0
142
0.0
143
25.4
144
1.0
145
0.0
146
1.0
147
0.6
 71
     0
 72
     0
 73
     0
 74
     1
 75
     0
 76
     0
 77
     1
 78
    12
170
     0
171
     2
172
     0
173
     0
174
     0
175
     0
176
     0
177
     0
178
     0
  0
ENDTAB
  0
ENDSEC
  0
SECTION
  2
BLOCKS
  0
BLOCK
  8
0
  2
$MODEL_SPACE
 70
     0
 10
0.0
 20
0.0
 30
0.0
  3
$MODEL_SPACE
  1

  0
ENDBLK
  5
6320
  8
0
  0
BLOCK
 67
     1
  8
0
  2
$PAPER_SPACE
 70
     0
 10
0.0
 20
0.0
 30
0.0
  3
$PAPER_SPACE
  1

  0
ENDBLK
  5
631E
 67
     1
  8
0
  0
BLOCK
  8
0
  2
COTE
 70
     0
 10
0.0
 20
0.0
 30
0.0
  3
COTE
  1

  0
ENDBLK
  5
35
  8
0
  0
BLOCK
  8
0
  2
FOND
 70
     0
 10
0.0
 20
0.0
 30
0.0
  3
FOND
  1

  0
ENDBLK
  5
39
  8
0
  0
BLOCK
  8
0
  2
SCH_ISO
 70
     0
 10
0.0
 20
0.0
 30
0.0
  3
SCH_ISO
  1

  0
ENDBLK
  5
24AD
  8
0
  0
BLOCK
  8
0
  2
_OPEN30
 70
     0
 10
0.0
 20
0.0
 30
0.0
  3
_OPEN30
  1

  0
LINE
  5
27E1
  8
COTATION1
 62
     0
 10
-1.0
 20
0.267949
 30
0.0
 11
0.0
 21
0.0
 31
0.0
1001
ACAD
1000
RTLwPs
1070
   158
  0
LINE
  5
27E2
  8
COTATION1
 62
     0
 10
0.0
 20
0.0
 30
0.0
 11
-1.0
 21
-0.267949
 31
0.0
1001
ACAD
1000
RTLwPs
1070
   158
  0
LINE
  5
27E3
  8
COTATION1
 62
     0
 10
0.0
 20
0.0
 30
0.0
 11
-1.0
 21
0.0
 31
0.0
1001
ACAD
1000
RTLwPs
1070
   158
  0
ENDBLK
  5
27E5
  8
0
  0
BLOCK
  8
0
  2
*D4
 70
     1
 10
0.0
 20
0.0
 30
0.0
  3
*D4
  1

  0
LINE
  5
6220
  8
COTATION1
 62
     0
 10
100.700441
 20
-110.10851
 30
0.0
 11
87.383843
 21
-110.10851
 31
0.0
1001
ACAD
1000
RTLwPs
1070
   158
  0
LINE
  5
6221
  8
COTATION1
 62
     0
 10
100.700441
 20
-135.60851
 30
0.0
 11
87.383843
 21
-135.60851
 31
0.0
1001
ACAD
1000
RTLwPs
1070
   158
  0
LINE
  5
6222
  8
COTATION1
 62
     0
 10
87.883843
 20
-112.10851
 30
0.0
 11
87.883843
 21
-133.60851
 31
0.0
1001
ACAD
1000
RTLwPs
1070
   158
  0
INSERT
  5
6223
  8
COTATION1
 62
     0
  2
_OPEN30
 10
87.883843
 20
-110.10851
 30
0.0
 41
2.0
 42
2.0
 43
2.0
 50
90.0
1001
ACAD
1000
RTLwPs
1070
   158
  0
INSERT
  5
6224
  8
COTATION1
 62
     0
  2
_OPEN30
 10
87.883843
 20
-135.60851
 30
0.0
 41
2.0
 42
2.0
 43
2.0
 50
270.0
1001
ACAD
1000
RTLwPs
1070
   158
  0
TEXT
  5
6225
  8
COTATION1
 62
     0
 10
87.283843
 20
-127.239462
 30
0.0
 40
2.0
  1
Ø25.5
 50
90.0
1001
ACAD
1000
MTEXTBEGIN
1070
    73
1070
     1
1070
    44
1040
1.0
1070
    74
1070
     0
1000
MTEXTEND
1000
MTEXTBEGIN
1070
    73
1070
     1
1070
    44
1040
1.0
1070
    74
1070
     0
1000
MTEXTEND
  0
POINT
  5
6226
  8
DEFPOINTS
 62
     0
 10
101.000441
 20
-110.10851
 30
0.0
  0
POINT
  5
6227
  8
DEFPOINTS
 62
     0
 10
101.000441
 20
-135.60851
 30
0.0
  0
POINT
  5
6228
  8
DEFPOINTS
 62
     0
 10
87.883843
 20
-135.60851
 30
0.0
  0
ENDBLK
  5
5D62
  8
0
  0
BLOCK
  8
0
  2
*D5
 70
     1
 10
0.0
 20
0.0
 30
0.0
  3
*D5
  1

  0
LINE
  5
6205
  8
COTATION1
 62
     0
 10
103.383846
 20
-109.80851
 30
0.0
 11
103.383846
 21
-99.60851
 31
0.0
1001
ACAD
1000
RTLwPs
1070
   158
  0
LINE
  5
6206
  8
COTATION1
 62
     0
 10
97.883843
 20
-122.55851
 30
0.0
 11
97.883843
 21
-99.60851
 31
0.0
1001
ACAD
1000
RTLwPs
1070
   158
  0
LINE
  5
6207
  8
COTATION1
 62
     0
 10
101.383846
 20
-100.10851
 30
0.0
 11
99.883843
 21
-100.10851
 31
0.0
1001
ACAD
1000
RTLwPs
1070
   158
  0
INSERT
  5
6208
  8
COTATION1
 62
     0
  2
_OPEN30
 10
103.383846
 20
-100.10851
 30
0.0
 41
2.0
 42
2.0
 43
2.0
1001
ACAD
1000
RTLwPs
1070
   158
  0
INSERT
  5
6209
  8
COTATION1
 62
     0
  2
_OPEN30
 10
97.883843
 20
-100.10851
 30
0.0
 41
2.0
 42
2.0
 43
2.0
 50
180.0
1001
ACAD
1000
RTLwPs
1070
   158
  0
TEXT
  5
620A
  8
COTATION1
 62
     0
 10
98.252892
 20
-99.50851
 30
0.0
 40
2.0
  1
5.5
1001
ACAD
1000
MTEXTBEGIN
1070
    73
1070
     1
1070
    44
1040
1.0
1070
    74
1070
     0
1000
MTEXTEND
1000
MTEXTBEGIN
1070
    73
1070
     1
1070
    44
1040
1.0
1070
    74
1070
     0
1000
MTEXTEND
  0
POINT
  5
620B
  8
DEFPOINTS
 62
     0
 10
103.383846
 20
-110.10851
 30
0.0
  0
POINT
  5
620C
  8
DEFPOINTS
 62
     0
 10
97.883843
 20
-122.85851
 30
0.0
  0
POINT
  5
620D
  8
DEFPOINTS
 62
     0
 10
97.883843
 20
-100.10851
 30
0.0
  0
ENDBLK
  5
617E
  8
0
  0
ENDSEC
  0
SECTION
  2
ENTITIES
  0
INSERT
  5
32
  8
0
  2
COTE
 10
0.0
 20
0.0
 30
0.0
  0
INSERT
  5
36
  8
0
  2
FOND
 10
0.0
 20
0.0
 30
0.0
  0
INSERT
  5
24AE
  8
ALPHA
  2
SCH_ISO
 10
-66.27012
 20
-238.940658
 30
0.0
  0
LINE
  5
5D2C
  8
ALPHA
 10
98.933124
 20
-134.598347
 30
0.0
 11
98.933124
 21
-111.10851
 31
0.0
1001
ACAD
1000
RTLwPs
1070
   128
  0
LINE
  5
5D2D
  8
ALPHA
 10
101.000441
 20
-111.10851
 30
0.0
 11
101.000441
 21
-134.598347
 31
0.0
1001
ACAD
1000
RTLwPs
1070
   128
  0
LINE
  5
5D2E
  8
ALPHA
 10
101.000441
 20
-135.60851
 30
0.0
 11
101.000441
 21
-110.10851
 31
0.0
1001
ACAD
1000
RTLwPs
1070
   128
  0
LINE
  5
5D2F
  8
ALPHA
 10
103.383846
 20
-110.10851
 30
0.0
 11
103.383846
 21
-135.60851
 31
0.0
1001
ACAD
1000
RTLwPs
1070
   128
  0
POLYLINE
  5
5D30
  8
ALPHA
 66
     1
 10
0.0
 20
0.0
 30
0.0
 70
   128
1001
ACAD
1000
RTLwPs
1070
   128
  0
VERTEX
  5
6326
  8
ALPHA
 10
98.933124
 20
-111.138482
 30
0.0
  0
VERTEX
  5
6327
  8
ALPHA
 10
98.933124
 20
-111.205809
 30
0.0
  0
VERTEX
  5
6328
  8
ALPHA
 10
98.933124
 20
-111.402061
 30
0.0
  0
VERTEX
  5
6329
  8
ALPHA
 10
98.933124
 20
-111.718643
 30
0.0
  0
VERTEX
  5
632A
  8
ALPHA
 10
98.933124
 20
-112.14696
 30
0.0
  0
VERTEX
  5
632B
  8
ALPHA
 10
98.933124
 20
-112.678416
 30
0.0
  0
VERTEX
  5
632C
  8
ALPHA
 10
98.933124
 20
-113.304417
 30
0.0
  0
VERTEX
  5
632D
  8
ALPHA
 10
98.933124
 20
-114.016368
 30
0.0
  0
VERTEX
  5
632E
  8
ALPHA
 10
98.933124
 20
-114.805674
 30
0.0
  0
VERTEX
  5
632F
  8
ALPHA
 10
98.933124
 20
-116.58197
 30
0.0
  0
VERTEX
  5
6330
  8
ALPHA
 10
98.933124
 20
-118.564546
 30
0.0
  0
VERTEX
  5
6331
  8
ALPHA
 10
98.933124
 20
-122.873496
 30
0.0
  0
VERTEX
  5
6332
  8
ALPHA
 10
98.933124
 20
-127.182446
 30
0.0
  0
VERTEX
  5
6333
  8
ALPHA
 10
98.933124
 20
-129.165022
 30
0.0
  0
VERTEX
  5
6334
  8
ALPHA
 10
98.933124
 20
-130.941318
 30
0.0
  0
VERTEX
  5
6335
  8
ALPHA
 10
98.933124
 20
-131.730624
 30
0.0
  0
VERTEX
  5
6336
  8
ALPHA
 10
98.933124
 20
-132.442575
 30
0.0
  0
VERTEX
  5
6337
  8
ALPHA
 10
98.933124
 20
-133.068576
 30
0.0
  0
VERTEX
  5
6338
  8
ALPHA
 10
98.933124
 20
-133.600032
 30
0.0
  0
VERTEX
  5
6339
  8
ALPHA
 10
98.933124
 20
-134.028349
 30
0.0
  0
VERTEX
  5
633A
  8
ALPHA
 10
98.933124
 20
-134.34493
 30
0.0
  0
VERTEX
  5
633B
  8
ALPHA
 10
98.933124
 20
-134.541182
 30
0.0
  0
VERTEX
  5
633C
  8
ALPHA
 10
98.933124
 20
-134.60851
 30
0.0
  0
SEQEND
  5
633D
  8
ALPHA
  0
LINE
  5
5D33
  8
ALPHA
 10
101.000441
 20
-134.60851
 30
0.0
 11
98.933124
 21
-134.60851
 31
0.0
1001
ACAD
1000
RTLwPs
1070
   128
  0
LINE
  5
5D3D
  8
ALPHA
 10
103.383846
 20
-135.60851
 30
0.0
 11
101.000441
 21
-135.60851
 31
0.0
1001
ACAD
1000
RTLwPs
1070
   128
  0
LINE
  5
5D3E
  8
ALPHA
 10
98.933124
 20
-111.10851
 30
0.0
 11
101.000441
 21
-111.10851
 31
0.0
1001
ACAD
1000
RTLwPs
1070
   128
  0
LINE
  5
5D3F
  8
ALPHA
 10
101.000441
 20
-110.10851
 30
0.0
 11
103.383846
 21
-110.10851
 31
0.0
1001
ACAD
1000
RTLwPs
1070
   128
  0
DIMENSION
  5
5D56
  8
COTATION1
  2
*D4
 10
87.883843
 20
-135.60851
 30
0.0
 11
87.883843
 21
-122.85851
 31
0.0
 70
   128
  1
Ø<>
 13
101.000441
 23
-110.10851
 33
0.0
 14
101.000441
 24
-135.60851
 34
0.0
 50
90.0
  0
LINE
  5
6131
  8
AXE
 10
102.197275
 20
-145.608509
 30
0.0
 11
102.188264
 21
-105.10851
 31
0.0
  0
TEXT
  5
6132
  8
AXE
 10
97.95918
 20
-145.608509
 30
0.0
 40
4.0
  1
Y
 72
     2
 11
101.197275
 21
-145.608509
 31
0.0
  0
LINE
  5
6133
  8
AXE
 10
92.883843
 20
-122.85851
 30
0.0
 11
113.383846
 21
-122.85851
 31
0.0
  0
TEXT
  5
6134
  8
AXE
 10
110.145751
 20
-121.85851
 30
0.0
 40
4.0
  1
X
 72
     2
 11
113.383846
 21
-121.85851
 31
0.0
  0
DIMENSION
  5
6172
  8
COTATION1
  2
*D5
 10
97.883843
 20
-100.10851
 30
0.0
 11
100.633844
 21
-98.50851
 31
0.0
 13
103.383846
 23
-110.10851
 33
0.0
 14
97.883843
 24
-122.85851
 34
0.0
  0
ARC
  5
626B
  8
ALPHA
 10
164.197758
 20
-122.85851
 30
0.0
 40
66.313912
 50
169.794014
 51
190.205986
1001
ACAD
1000
RTLwPs
1070
   128
  0
ENDSEC
  0
EOF
