  0
SECTION
  2
HEADER
  9
$ACADVER
  1
AC1009
  9
$INSBASE
 10
-146.27124
 20
-153.796096
 30
0.0
  9
$EXTMIN
 10
818.71194
 20
-89.217394
 30
0.0
  9
$EXTMAX
 10
895.430715
 20
16.782606
 30
0.0
  9
$LIMMIN
 10
-407.970438
 20
-367.832444
  9
$LIMMAX
 10
429.804077
 20
234.370848
  9
$ORTHOMODE
 70
     1
  9
$REGENMODE
 70
     1
  9
$FILLMODE
 70
     1
  9
$QTEXTMODE
 70
     0
  9
$MIRRTEXT
 70
     1
  9
$DRAGMODE
 70
     2
  9
$LTSCALE
 40
10.0
  9
$OSMODE
 70
    37
  9
$ATTMODE
 70
     1
  9
$TEXTSIZE
 40
6.0
  9
$TRACEWID
 40
1.0
  9
$TEXTSTYLE
  7
ROMANS
  9
$CLAYER
  8
COTATION1
  9
$CELTYPE
  6
BYLAYER
  9
$CECOLOR
 62
   256
  9
$DIMSCALE
 40
1.0
  9
$DIMASZ
 40
3.0
  9
$DIMEXO
 40
0.5
  9
$DIMDLI
 40
0.38
  9
$DIMRND
 40
0.0
  9
$DIMDLE
 40
0.0
  9
$DIMEXE
 40
0.18
  9
$DIMTP
 40
0.0
  9
$DIMTM
 40
0.0
  9
$DIMTXT
 40
3.0
  9
$DIMCEN
 40
0.09
  9
$DIMTSZ
 40
0.0
  9
$DIMTOL
 70
     0
  9
$DIMLIM
 70
     0
  9
$DIMTIH
 70
     0
  9
$DIMTOH
 70
     0
  9
$DIMSE1
 70
     0
  9
$DIMSE2
 70
     0
  9
$DIMTAD
 70
     1
  9
$DIMZIN
 70
    12
  9
$DIMBLK
  1
OPEN30
  9
$DIMASO
 70
     1
  9
$DIMSHO
 70
     1
  9
$DIMPOST
  1

  9
$DIMAPOST
  1

  9
$DIMALT
 70
     0
  9
$DIMALTD
 70
     2
  9
$DIMALTF
 40
25.4
  9
$DIMLFAC
 40
1.0
  9
$DIMTOFL
 70
     0
  9
$DIMTVP
 40
0.0
  9
$DIMTIX
 70
     0
  9
$DIMSOXD
 70
     0
  9
$DIMSAH
 70
     0
  9
$DIMBLK1
  1

  9
$DIMBLK2
  1

  9
$DIMSTYLE
  2
ROMANS
  9
$DIMCLRD
 70
     0
  9
$DIMCLRE
 70
     0
  9
$DIMCLRT
 70
     0
  9
$DIMTFAC
 40
1.0
  9
$DIMGAP
 40
1.0
  9
$LUNITS
 70
     2
  9
$LUPREC
 70
     1
  9
$SKETCHINC
 40
0.1
  9
$FILLETRAD
 40
0.0
  9
$AUNITS
 70
     0
  9
$AUPREC
 70
     0
  9
$MENU
  1
acad
  9
$ELEVATION
 40
0.0
  9
$PELEVATION
 40
0.0
  9
$THICKNESS
 40
0.0
  9
$LIMCHECK
 70
     0
  9
$BLIPMODE
 70
     0
  9
$CHAMFERA
 40
0.0
  9
$CHAMFERB
 40
0.0
  9
$SKPOLY
 70
     0
  9
$TDCREATE
 40
2450365.355314
  9
$TDUPDATE
 40
2452597.705183
  9
$TDINDWG
 40
0.514423
  9
$TDUSRTIMER
 40
0.514423
  9
$USRTIMER
 70
     1
  9
$ANGBASE
 50
0.0
  9
$ANGDIR
 70
     0
  9
$PDMODE
 70
    32
  9
$PDSIZE
 40
0.0
  9
$PLINEWID
 40
0.0
  9
$COORDS
 70
     2
  9
$SPLFRAME
 70
     0
  9
$SPLINETYPE
 70
     6
  9
$SPLINESEGS
 70
     8
  9
$ATTDIA
 70
     0
  9
$ATTREQ
 70
     1
  9
$HANDLING
 70
     1
  9
$HANDSEED
  5
36AF
  9
$SURFTAB1
 70
     6
  9
$SURFTAB2
 70
     6
  9
$SURFTYPE
 70
     6
  9
$SURFU
 70
     6
  9
$SURFV
 70
     6
  9
$UCSNAME
  2

  9
$UCSORG
 10
0.0
 20
0.0
 30
0.0
  9
$UCSXDIR
 10
1.0
 20
0.0
 30
0.0
  9
$UCSYDIR
 10
0.0
 20
1.0
 30
0.0
  9
$PUCSNAME
  2

  9
$PUCSORG
 10
0.0
 20
0.0
 30
0.0
  9
$PUCSXDIR
 10
1.0
 20
0.0
 30
0.0
  9
$PUCSYDIR
 10
0.0
 20
1.0
 30
0.0
  9
$USERI1
 70
     0
  9
$USERI2
 70
     0
  9
$USERI3
 70
     0
  9
$USERI4
 70
     0
  9
$USERI5
 70
     0
  9
$USERR1
 40
0.0
  9
$USERR2
 40
0.0
  9
$USERR3
 40
0.0
  9
$USERR4
 40
0.0
  9
$USERR5
 40
0.0
  9
$WORLDVIEW
 70
     1
  9
$SHADEDGE
 70
     3
  9
$SHADEDIF
 70
    70
  9
$TILEMODE
 70
     1
  9
$MAXACTVP
 70
    16
  9
$PLIMCHECK
 70
     0
  9
$PEXTMIN
 10
1.000000E+020
 20
1.000000E+020
 30
1.000000E+020
  9
$PEXTMAX
 10
-1.000000E+020
 20
-1.000000E+020
 30
-1.000000E+020
  9
$PLIMMIN
 10
0.0
 20
0.0
  9
$PLIMMAX
 10
12.0
 20
9.0
  9
$UNITMODE
 70
     0
  9
$VISRETAIN
 70
     0
  9
$PLINEGEN
 70
     0
  9
$PSLTSCALE
 70
     0
  0
ENDSEC
  0
SECTION
  2
TABLES
  0
TABLE
  2
VPORT
 70
     2
  0
VPORT
  2
*ACTIVE
 70
     0
 10
0.0
 20
0.0
 11
1.0
 21
1.0
 12
857.062412
 22
-36.223672
 13
0.0
 23
0.0
 14
1.0
 24
1.0
 15
10.0
 25
10.0
 16
0.0
 26
0.0
 36
1.0
 17
0.0
 27
0.0
 37
0.0
 40
106.999461
 41
1.63142
 42
50.0
 43
0.0
 44
0.0
 50
0.0
 51
0.0
 71
     0
 72
   100
 73
     1
 74
     0
 75
     0
 76
     0
 77
     0
 78
     0
  0
ENDTAB
  0
TABLE
  2
LTYPE
 70
    26
  0
LTYPE
  2
CONTINUOUS
 70
     0
  3
Solid line
 72
    65
 73
     0
 40
0.0
  0
LTYPE
  2
AXES2
 70
     0
  3
___ _ ___ _ ___ _ ___ _ ___ _ ___ _ ___ _ ___ _
 72
    65
 73
     4
 40
1.125
 49
0.75
 49
-0.125
 49
0.125
 49
-0.125
  0
LTYPE
  2
ACAD_ISO04W100
 70
     0
  3
ISO Lang gestrichelt punktiert ____ . ____ . __
 72
    65
 73
     4
 40
30.5
 49
24.0
 49
-3.0
 49
0.5
 49
-3.0
  0
LTYPE
  2
AXES
 70
     0
  3
____ _ ____ _ ____ _ ____ _ ____ _ ____ _ ____ 
 72
    65
 73
     4
 40
2.0
 49
1.25
 49
-0.25
 49
0.25
 49
-0.25
  0
LTYPE
  2
AXESX2
 70
     0
  3
________  __  ________  __  ________  __  _____
 72
    65
 73
     4
 40
4.0
 49
2.5
 49
-0.5
 49
0.5
 49
-0.5
  0
LTYPE
  2
TIRETPT
 70
     0
  3
__ . __ . __ . __ . __ . __ . __ . __ . __ . __
 72
    65
 73
     4
 40
1.0
 49
0.5
 49
-0.25
 49
0.0
 49
-0.25
  0
LTYPE
  2
TIRETPT2
 70
     0
  3
_._._._._._._._._._._._._._._._._._._._._._._._
 72
    65
 73
     4
 40
0.5
 49
0.25
 49
-0.125
 49
0.0
 49
-0.125
  0
LTYPE
  2
TIRETPTX2
 70
     0
  3
____  .  ____  .  ____  .  ____  .  ____  .  __
 72
    65
 73
     4
 40
2.0
 49
1.0
 49
-0.5
 49
0.0
 49
-0.5
  0
LTYPE
  2
DISCONTINU
 70
     0
  3
__ __ __ __ __ __ __ __ __ __ __ __ __ __ __ __
 72
    65
 73
     2
 40
0.75
 49
0.5
 49
-0.25
  0
LTYPE
  2
DISCONTINU2
 70
     0
  3
_ _ _ _ _ _ _ _ _ _ _ _ _ _ _ _ _ _ _ _ _ _ _ _
 72
    65
 73
     2
 40
0.375
 49
0.25
 49
-0.125
  0
LTYPE
  2
DISCONTINUX2
 70
     0
  3
____  ____  ____  ____  ____  ____  ____  ____ 
 72
    65
 73
     2
 40
1.5
 49
1.0
 49
-0.5
  0
LTYPE
  2
DIVISE
 70
     0
  3
____ . . ____ . . ____ . . ____ . . ____ . . __
 72
    65
 73
     6
 40
1.25
 49
0.5
 49
-0.25
 49
0.0
 49
-0.25
 49
0.0
 49
-0.25
  0
LTYPE
  2
DIVISE2
 70
     0
  3
__..__..__..__..__..__..__..__..__..__..__..__.
 72
    65
 73
     6
 40
0.625
 49
0.25
 49
-0.125
 49
0.0
 49
-0.125
 49
0.0
 49
-0.125
  0
LTYPE
  2
DIVISEX2
 70
     0
  3
________  .  .  ________  .  .  ________  .  . 
 72
    65
 73
     6
 40
2.5
 49
1.0
 49
-0.5
 49
0.0
 49
-0.5
 49
0.0
 49
-0.5
  0
LTYPE
  2
POINTILLE
 70
     0
  3
. . . . . . . . . . . . . . . . . . . . . . . .
 72
    65
 73
     2
 40
0.25
 49
0.0
 49
-0.25
  0
LTYPE
  2
POINTILLE2
 70
     0
  3
...............................................
 72
    65
 73
     2
 40
0.125
 49
0.0
 49
-0.125
  0
LTYPE
  2
POINTILLEX2
 70
     0
  3
.  .  .  .  .  .  .  .  .  .  .  .  .  .  .  . 
 72
    65
 73
     2
 40
0.5
 49
0.0
 49
-0.5
  0
LTYPE
  2
CACHE
 70
     0
  3
__ __ __ __ __ __ __ __ __ __ __ __ __ __ __ __
 72
    65
 73
     2
 40
0.375
 49
0.25
 49
-0.125
  0
LTYPE
  2
CACHE2
 70
     0
  3
_ _ _ _ _ _ _ _ _ _ _ _ _ _ _ _ _ _ _ _ _ _ _ _
 72
    65
 73
     2
 40
0.1875
 49
0.125
 49
-0.0625
  0
LTYPE
  2
CACHEX2
 70
     0
  3
____ ____ ____ ____ ____ ____ ____ ____ ____ __
 72
    65
 73
     2
 40
0.75
 49
0.5
 49
-0.25
  0
LTYPE
  2
FANTOME
 70
     0
  3
______  __  __  ______  __  __  ______  __  __ 
 72
    65
 73
     6
 40
2.5
 49
1.25
 49
-0.25
 49
0.25
 49
-0.25
 49
0.25
 49
-0.25
  0
LTYPE
  2
FANTOME2
 70
     0
  3
___ _ _ ___ _ _ ___ _ _ ___ _ _ ___ _ _ ___ _ _
 72
    65
 73
     6
 40
1.25
 49
0.625
 49
-0.125
 49
0.125
 49
-0.125
 49
0.125
 49
-0.125
  0
LTYPE
  2
FANTOMEX2
 70
     0
  3
____________    ____    ____    ____________   
 72
    65
 73
     6
 40
5.0
 49
2.5
 49
-0.5
 49
0.5
 49
-0.5
 49
0.5
 49
-0.5
  0
LTYPE
  2
0
 70
     0
  3
MEDUSA PEN 0
 72
    65
 73
     0
 40
0.0
  0
LTYPE
  2
AI9-LTYPE1
 70
     0
  3
Illustrator Dash Style No.1
 72
    65
 73
     4
 40
5.64621
 49
4.106333
 49
-0.307975
 49
0.923926
 49
-0.307975
  0
LTYPE
  2
AI9-LTYPE2
 70
     0
  3
Illustrator Dash Style No.2
 72
    65
 73
     2
 40
1.33456
 49
1.026585
 49
-0.307975
  0
ENDTAB
  0
TABLE
  2
LAYER
 70
    17
  0
LAYER
  2
0
 70
     0
 62
     7
  6
CONTINUOUS
  0
LAYER
  2
TEXTE_MOYEN
 70
     0
 62
   131
  6
CONTINUOUS
  0
LAYER
  2
ALPHA
 70
     0
 62
   254
  6
CONTINUOUS
  0
LAYER
  2
COTATION1
 70
     0
 62
    50
  6
CONTINUOUS
  0
LAYER
  2
AXE
 70
     0
 62
    80
  6
AXES2
  0
LAYER
  2
DEFPOINTS
 70
     0
 62
     7
  6
CONTINUOUS
  0
LAYER
  2
HACHURES1
 70
     0
 62
   130
  6
CONTINUOUS
  0
LAYER
  2
FMULT
 70
     0
 62
   210
  6
CONTINUOUS
  0
LAYER
  2
FDP_CARTOUCHE
 70
     0
 62
   136
  6
CONTINUOUS
  0
LAYER
  2
FDP_TEXTES
 70
     0
 62
   171
  6
CONTINUOUS
  0
LAYER
  2
FDP_LOGO_MG
 70
     0
 62
    30
  6
CONTINUOUS
  0
LAYER
  2
FDP_LOGO_SCH
 70
     0
 62
    90
  6
CONTINUOUS
  0
LAYER
  2
FDP_FDP
 70
     0
 62
   170
  6
CONTINUOUS
  0
LAYER
  2
POINTILLE_COURT2
 70
     0
 62
    41
  6
CACHE2
  0
LAYER
  2
POINTILLE_MOYEN2
 70
     0
 62
   141
  6
CACHE
  0
LAYER
  2
POINTILLE_LONG2
 70
     0
 62
   241
  6
CACHEX2
  0
LAYER
  2
ALPHA_FIN
 70
     0
 62
   255
  6
CONTINUOUS
  0
ENDTAB
  0
TABLE
  2
STYLE
 70
     5
  0
STYLE
  2
ROMANS
 70
     0
 40
0.0
 41
1.0
 50
0.0
 71
     0
 42
6.0
  3
romans
  4

  0
STYLE
  2
STANDARD
 70
     0
 40
0.2
 41
1.0
 50
0.0
 71
     0
 42
0.2
  3
txt
  4

  0
STYLE
  2
STD
 70
     0
 40
0.0
 41
1.0
 50
0.0
 71
     0
 42
0.0
  3
txt
  4

  0
STYLE
  2
INFOCAR
 70
     0
 40
0.0
 41
1.34
 50
0.0
 71
     0
 42
2.0
  3
ROMANS.SHX
  4

  0
STYLE
  2
CARTOUCHE
 70
     0
 40
0.0
 41
1.0
 50
0.0
 71
     0
 42
0.2
  3
ROMANS.SHX
  4

  0
ENDTAB
  0
TABLE
  2
VIEW
 70
     0
  0
ENDTAB
  0
TABLE
  2
UCS
 70
     0
  0
ENDTAB
  0
TABLE
  2
APPID
 70
     3
  0
APPID
  2
ACAD
 70
     0
  0
APPID
  2
AVE_RENDER
 70
     0
  0
APPID
  2
AVE_MATERIAL
 70
     0
  0
ENDTAB
  0
TABLE
  2
DIMSTYLE
 70
     1
  0
DIMSTYLE
  2
ROMANS
 70
     0
  3

  4

  5
OPEN30
  6

  7

 40
1.0
 41
3.0
 42
0.5
 43
0.38
 44
0.18
 45
0.0
 46
0.0
 47
0.0
 48
0.0
140
3.0
141
0.09
142
0.0
143
25.4
144
1.0
145
0.0
146
1.0
147
1.0
 71
     0
 72
     0
 73
     0
 74
     0
 75
     0
 76
     0
 77
     1
 78
    12
170
     0
171
     2
172
     0
173
     0
174
     0
175
     0
176
     0
177
     0
178
     0
  0
ENDTAB
  0
ENDSEC
  0
SECTION
  2
BLOCKS
  0
BLOCK
  8
0
  2
$MODEL_SPACE
 70
     0
 10
0.0
 20
0.0
 30
0.0
  3
$MODEL_SPACE
  1

  0
ENDBLK
  5
3594
  8
0
  0
BLOCK
 67
     1
  8
0
  2
$PAPER_SPACE
 70
     0
 10
0.0
 20
0.0
 30
0.0
  3
$PAPER_SPACE
  1

  0
ENDBLK
  5
3592
 67
     1
  8
0
  0
BLOCK
  8
0
  2
COTE
 70
     0
 10
0.0
 20
0.0
 30
0.0
  3
COTE
  1

  0
ENDBLK
  5
35
  8
0
  0
BLOCK
  8
0
  2
FOND
 70
     0
 10
0.0
 20
0.0
 30
0.0
  3
FOND
  1

  0
ENDBLK
  5
39
  8
0
  0
BLOCK
  8
0
  2
SCH_ISO
 70
     0
 10
0.0
 20
0.0
 30
0.0
  3
SCH_ISO
  1

  0
ENDBLK
  5
24AD
  8
0
  0
BLOCK
  8
0
  2
_OPEN30
 70
     0
 10
0.0
 20
0.0
 30
0.0
  3
_OPEN30
  1

  0
LINE
  5
27E1
  8
COTATION1
 62
     0
 10
-1.0
 20
0.267949
 30
0.0
 11
0.0
 21
0.0
 31
0.0
1001
ACAD
1000
RTLwPs
1070
   158
  0
LINE
  5
27E2
  8
COTATION1
 62
     0
 10
0.0
 20
0.0
 30
0.0
 11
-1.0
 21
-0.267949
 31
0.0
1001
ACAD
1000
RTLwPs
1070
   158
  0
LINE
  5
27E3
  8
COTATION1
 62
     0
 10
0.0
 20
0.0
 30
0.0
 11
-1.0
 21
0.0
 31
0.0
1001
ACAD
1000
RTLwPs
1070
   158
  0
ENDBLK
  5
27E5
  8
0
  0
BLOCK
  8
0
  2
*D4
 70
     1
 10
0.0
 20
0.0
 30
0.0
  3
*D4
  1

  0
LINE
  5
33AD
  8
COTATION1
 62
     0
 10
839.208099
 20
-7.217394
 30
0.0
 11
822.53194
 21
-7.217394
 31
0.0
1001
ACAD
1000
RTLwPs
1070
   158
  0
LINE
  5
33AE
  8
COTATION1
 62
     0
 10
862.162765
 20
-74.217363
 30
0.0
 11
822.53194
 21
-74.217363
 31
0.0
1001
ACAD
1000
RTLwPs
1070
   158
  0
LINE
  5
33AF
  8
COTATION1
 62
     0
 10
822.71194
 20
-10.217394
 30
0.0
 11
822.71194
 21
-71.217363
 31
0.0
1001
ACAD
1000
RTLwPs
1070
   158
  0
INSERT
  5
33B0
  8
COTATION1
 62
     0
  2
_OPEN30
 10
822.71194
 20
-7.217394
 30
0.0
 41
3.0
 42
3.0
 43
3.0
 50
90.0
1001
ACAD
1000
RTLwPs
1070
   158
  0
INSERT
  5
33B1
  8
COTATION1
 62
     0
  2
_OPEN30
 10
822.71194
 20
-74.217363
 30
0.0
 41
3.0
 42
3.0
 43
3.0
 50
270.0
1001
ACAD
1000
RTLwPs
1070
   158
  0
TEXT
  5
33B2
  8
COTATION1
 62
     0
 10
821.71194
 20
-43.64595
 30
0.0
 40
3.0
  1
67
 50
90.0
1001
ACAD
1000
MTEXTBEGIN
1070
    73
1070
     1
1070
    44
1040
1.0
1070
    74
1070
     0
1000
MTEXTEND
  0
POINT
  5
33B3
  8
DEFPOINTS
 62
     0
 10
839.708099
 20
-7.217394
 30
0.0
  0
POINT
  5
33B4
  8
DEFPOINTS
 62
     0
 10
862.662765
 20
-74.217363
 30
0.0
  0
POINT
  5
33B5
  8
DEFPOINTS
 62
     0
 10
822.71194
 20
-74.217363
 30
0.0
  0
ENDBLK
  5
3190
  8
0
  0
BLOCK
  8
0
  2
*D5
 70
     1
 10
0.0
 20
0.0
 30
0.0
  3
*D5
  1

  0
LINE
  5
3392
  8
COTATION1
 62
     0
 10
839.708099
 20
-6.717394
 30
0.0
 11
839.708099
 21
12.962606
 31
0.0
1001
ACAD
1000
RTLwPs
1070
   158
  0
LINE
  5
3393
  8
COTATION1
 62
     0
 10
862.608065
 20
-1.717394
 30
0.0
 11
862.608065
 21
12.962606
 31
0.0
1001
ACAD
1000
RTLwPs
1070
   158
  0
LINE
  5
3394
  8
COTATION1
 62
     0
 10
842.708099
 20
12.782606
 30
0.0
 11
859.608065
 21
12.782606
 31
0.0
1001
ACAD
1000
RTLwPs
1070
   158
  0
INSERT
  5
3395
  8
COTATION1
 62
     0
  2
_OPEN30
 10
839.708099
 20
12.782606
 30
0.0
 41
3.0
 42
3.0
 43
3.0
 50
180.0
1001
ACAD
1000
RTLwPs
1070
   158
  0
INSERT
  5
3396
  8
COTATION1
 62
     0
  2
_OPEN30
 10
862.608065
 20
12.782606
 30
0.0
 41
3.0
 42
3.0
 43
3.0
1001
ACAD
1000
RTLwPs
1070
   158
  0
TEXT
  5
3397
  8
COTATION1
 62
     0
 10
846.229511
 20
13.782606
 30
0.0
 40
3.0
  1
22.9
1001
ACAD
1000
MTEXTBEGIN
1070
    73
1070
     1
1070
    44
1040
1.0
1070
    74
1070
     0
1000
MTEXTEND
  0
POINT
  5
3398
  8
DEFPOINTS
 62
     0
 10
839.708099
 20
-7.217394
 30
0.0
  0
POINT
  5
3399
  8
DEFPOINTS
 62
     0
 10
862.608065
 20
-2.217394
 30
0.0
  0
POINT
  5
339A
  8
DEFPOINTS
 62
     0
 10
862.608065
 20
12.782606
 30
0.0
  0
ENDBLK
  5
319E
  8
0
  0
BLOCK
  8
0
  2
*D6
 70
     1
 10
0.0
 20
0.0
 30
0.0
  3
*D6
  1

  0
LINE
  5
339B
  8
COTATION1
 62
     0
 10
839.708099
 20
-6.717394
 30
0.0
 11
839.708099
 21
2.962606
 31
0.0
1001
ACAD
1000
RTLwPs
1070
   158
  0
LINE
  5
339C
  8
COTATION1
 62
     0
 10
845.408089
 20
-18.54409
 30
0.0
 11
845.408089
 21
2.962606
 31
0.0
1001
ACAD
1000
RTLwPs
1070
   158
  0
LINE
  5
339D
  8
COTATION1
 62
     0
 10
836.708099
 20
2.782606
 30
0.0
 11
833.708099
 21
2.782606
 31
0.0
1001
ACAD
1000
RTLwPs
1070
   158
  0
LINE
  5
339E
  8
COTATION1
 62
     0
 10
848.408089
 20
2.782606
 30
0.0
 11
859.693804
 21
2.782606
 31
0.0
1001
ACAD
1000
RTLwPs
1070
   158
  0
INSERT
  5
339F
  8
COTATION1
 62
     0
  2
_OPEN30
 10
839.708099
 20
2.782606
 30
0.0
 41
3.0
 42
3.0
 43
3.0
1001
ACAD
1000
RTLwPs
1070
   158
  0
INSERT
  5
33A0
  8
COTATION1
 62
     0
  2
_OPEN30
 10
845.408089
 20
2.782606
 30
0.0
 41
3.0
 42
3.0
 43
3.0
 50
180.0
1001
ACAD
1000
RTLwPs
1070
   158
  0
TEXT
  5
33A1
  8
COTATION1
 62
     0
 10
851.979518
 20
3.782606
 30
0.0
 40
3.0
  1
5.7
1001
ACAD
1000
MTEXTBEGIN
1070
    73
1070
     1
1070
    44
1040
1.0
1070
    74
1070
     0
1000
MTEXTEND
  0
POINT
  5
33A2
  8
DEFPOINTS
 62
     0
 10
839.708099
 20
-7.217394
 30
0.0
  0
POINT
  5
33A3
  8
DEFPOINTS
 62
     0
 10
845.408089
 20
-19.04409
 30
0.0
  0
POINT
  5
33A4
  8
DEFPOINTS
 62
     0
 10
845.408089
 20
2.782606
 30
0.0
  0
ENDBLK
  5
3227
  8
0
  0
ENDSEC
  0
SECTION
  2
ENTITIES
  0
INSERT
  5
32
  8
0
  2
COTE
 10
0.0
 20
0.0
 30
0.0
  0
INSERT
  5
36
  8
0
  2
FOND
 10
0.0
 20
0.0
 30
0.0
  0
INSERT
  5
24AE
  8
ALPHA
  2
SCH_ISO
 10
-66.27012
 20
-238.940658
 30
0.0
  0
POLYLINE
  5
2F25
  8
ALPHA
 66
     1
 10
0.0
 20
0.0
 30
0.0
 70
   128
  0
VERTEX
  5
359A
  8
ALPHA
 10
842.884292
 20
-7.217394
 30
0.0
  0
VERTEX
  5
359B
  8
ALPHA
 10
842.884292
 20
-7.379917
 30
0.0
  0
VERTEX
  5
359C
  8
ALPHA
 10
842.884292
 20
-7.824149
 30
0.0
  0
VERTEX
  5
359D
  8
ALPHA
 10
842.884292
 20
-9.297699
 30
0.0
  0
VERTEX
  5
359E
  8
ALPHA
 10
842.884292
 20
-11.117966
 30
0.0
  0
VERTEX
  5
359F
  8
ALPHA
 10
842.884292
 20
-12.764874
 30
0.0
  0
VERTEX
  5
35A0
  8
ALPHA
 10
842.884292
 20
-13.360794
 30
0.0
  0
VERTEX
  5
35A1
  8
ALPHA
 10
842.884292
 20
-13.718347
 30
0.0
  0
VERTEX
  5
35A2
  8
ALPHA
 10
842.872148
 20
-14.180549
 30
0.0
  0
VERTEX
  5
35A3
  8
ALPHA
 10
842.886582
 20
-14.866081
 30
0.0
  0
VERTEX
  5
35A4
  8
ALPHA
 10
843.090318
 20
-15.736731
 30
0.0
  0
VERTEX
  5
35A5
  8
ALPHA
 10
843.652247
 20
-16.86173
 30
0.0
  0
VERTEX
  5
35A6
  8
ALPHA
 10
844.120311
 20
-17.541244
 30
0.0
  0
VERTEX
  5
35A7
  8
ALPHA
 10
844.741257
 20
-18.310306
 30
0.0
  0
VERTEX
  5
35A8
  8
ALPHA
 10
845.536196
 20
-19.17757
 30
0.0
  0
VERTEX
  5
35A9
  8
ALPHA
 10
845.764591
 20
-19.410744
 30
0.0
  0
VERTEX
  5
35AA
  8
ALPHA
 10
845.948592
 20
-19.577832
 30
0.0
  0
VERTEX
  5
35AB
  8
ALPHA
 10
846.269366
 20
-19.847953
 30
0.0
  0
VERTEX
  5
35AC
  8
ALPHA
 10
847.629861
 20
-21.023215
 30
0.0
  0
VERTEX
  5
35AD
  8
ALPHA
 10
850.668246
 20
-23.787372
 30
0.0
  0
VERTEX
  5
35AE
  8
ALPHA
 10
854.018841
 20
-27.018314
 30
0.0
  0
VERTEX
  5
35AF
  8
ALPHA
 10
857.54846
 20
-30.614368
 30
0.0
  0
VERTEX
  5
35B0
  8
ALPHA
 10
861.12392
 20
-34.473863
 30
0.0
  0
VERTEX
  5
35B1
  8
ALPHA
 10
864.612037
 20
-38.495124
 30
0.0
  0
VERTEX
  5
35B2
  8
ALPHA
 10
867.879627
 20
-42.576481
 30
0.0
  0
VERTEX
  5
35B3
  8
ALPHA
 10
870.793506
 20
-46.61626
 30
0.0
  0
VERTEX
  5
35B4
  8
ALPHA
 10
873.22049
 20
-50.51279
 30
0.0
  0
VERTEX
  5
35B5
  8
ALPHA
 10
874.209777
 20
-52.375563
 30
0.0
  0
VERTEX
  5
35B6
  8
ALPHA
 10
875.027395
 20
-54.164397
 30
0.0
  0
VERTEX
  5
35B7
  8
ALPHA
 10
875.656698
 20
-55.866583
 30
0.0
  0
VERTEX
  5
35B8
  8
ALPHA
 10
876.081038
 20
-57.46941
 30
0.0
  0
SEQEND
  5
35B9
  8
ALPHA
  0
POLYLINE
  5
2F26
  8
ALPHA
 66
     1
 10
0.0
 20
0.0
 30
0.0
 70
   128
210
0.0
220
0.0
230
-1.0
  0
VERTEX
  5
35BA
  8
ALPHA
 10
-876.081038
 20
-57.46941
 30
0.0
  0
VERTEX
  5
35BB
  8
ALPHA
 10
-876.579478
 20
-59.29425
 30
0.0
  0
VERTEX
  5
35BC
  8
ALPHA
 10
-876.806492
 20
-61.216467
 30
0.0
  0
VERTEX
  5
35BD
  8
ALPHA
 10
-876.818393
 20
-61.709654
 30
0.0
  0
VERTEX
  5
35BE
  8
ALPHA
 10
-876.81858
 20
-61.771616
 30
0.0
  0
VERTEX
  5
35BF
  8
ALPHA
 10
-876.816414
 20
-62.030377
 30
0.0
  0
VERTEX
  5
35C0
  8
ALPHA
 10
-876.794604
 20
-62.607696
 30
0.0
  0
VERTEX
  5
35C1
  8
ALPHA
 10
-876.681866
 20
-63.736481
 30
0.0
  0
VERTEX
  5
35C2
  8
ALPHA
 10
-876.189959
 20
-65.878153
 30
0.0
  0
VERTEX
  5
35C3
  8
ALPHA
 10
-875.361926
 20
-67.841493
 30
0.0
  0
VERTEX
  5
35C4
  8
ALPHA
 10
-874.220705
 20
-69.597942
 30
0.0
  0
VERTEX
  5
35C5
  8
ALPHA
 10
-872.789236
 20
-71.118939
 30
0.0
  0
VERTEX
  5
35C6
  8
ALPHA
 10
-871.090457
 20
-72.375926
 30
0.0
  0
VERTEX
  5
35C7
  8
ALPHA
 10
-869.147307
 20
-73.340344
 30
0.0
  0
VERTEX
  5
35C8
  8
ALPHA
 10
-866.982727
 20
-73.983633
 30
0.0
  0
VERTEX
  5
35C9
  8
ALPHA
 10
-864.619654
 20
-74.277233
 30
0.0
  0
VERTEX
  5
35CA
  8
ALPHA
 10
-864.000559
 20
-74.292647
 30
0.0
  0
VERTEX
  5
35CB
  8
ALPHA
 10
-863.841591
 20
-74.292643
 30
0.0
  0
VERTEX
  5
35CC
  8
ALPHA
 10
-863.679407
 20
-74.290142
 30
0.0
  0
VERTEX
  5
35CD
  8
ALPHA
 10
-863.356489
 20
-74.277405
 30
0.0
  0
VERTEX
  5
35CE
  8
ALPHA
 10
-862.085805
 20
-74.13672
 30
0.0
  0
VERTEX
  5
35CF
  8
ALPHA
 10
-861.46431
 20
-74.022777
 30
0.0
  0
VERTEX
  5
35D0
  8
ALPHA
 10
-861.157339
 20
-73.957465
 30
0.0
  0
VERTEX
  5
35D1
  8
ALPHA
 10
-860.963609
 20
-73.925413
 30
0.0
  0
VERTEX
  5
35D2
  8
ALPHA
 10
-860.490937
 20
-73.877368
 30
0.0
  0
VERTEX
  5
35D3
  8
ALPHA
 10
-859.394408
 20
-73.636126
 30
0.0
  0
VERTEX
  5
35D4
  8
ALPHA
 10
-858.130541
 20
-73.224596
 30
0.0
  0
VERTEX
  5
35D5
  8
ALPHA
 10
-855.265148
 20
-72.002266
 30
0.0
  0
VERTEX
  5
35D6
  8
ALPHA
 10
-852.223464
 20
-70.433567
 30
0.0
  0
VERTEX
  5
35D7
  8
ALPHA
 10
-849.334196
 20
-68.741688
 30
0.0
  0
VERTEX
  5
35D8
  8
ALPHA
 10
-848.674214
 20
-68.325627
 30
0.0
  0
VERTEX
  5
35D9
  8
ALPHA
 10
-848.303291
 20
-68.068136
 30
0.0
  0
VERTEX
  5
35DA
  8
ALPHA
 10
-847.719537
 20
-67.661461
 30
0.0
  0
VERTEX
  5
35DB
  8
ALPHA
 10
-846.778558
 20
-67.037152
 30
0.0
  0
VERTEX
  5
35DC
  8
ALPHA
 10
-845.314622
 20
-66.129541
 30
0.0
  0
VERTEX
  5
35DD
  8
ALPHA
 10
-844.508381
 20
-65.609884
 30
0.0
  0
VERTEX
  5
35DE
  8
ALPHA
 10
-843.312846
 20
-64.954609
 30
0.0
  0
VERTEX
  5
35DF
  8
ALPHA
 10
-841.881781
 20
-64.096595
 30
0.0
  0
VERTEX
  5
35E0
  8
ALPHA
 10
-840.586553
 20
-62.931836
 30
0.0
  0
VERTEX
  5
35E1
  8
ALPHA
 10
-840.10593
 20
-62.201925
 30
0.0
  0
VERTEX
  5
35E2
  8
ALPHA
 10
-839.798529
 20
-61.356325
 30
0.0
  0
VERTEX
  5
35E3
  8
ALPHA
 10
-839.724292
 20
-60.886079
 30
0.0
  0
VERTEX
  5
35E4
  8
ALPHA
 10
-839.708099
 20
-60.271983
 30
0.0
  0
VERTEX
  5
35E5
  8
ALPHA
 10
-839.708099
 20
-59.673584
 30
0.0
  0
VERTEX
  5
35E6
  8
ALPHA
 10
-839.708099
 20
-58.89704
 30
0.0
  0
VERTEX
  5
35E7
  8
ALPHA
 10
-839.708099
 20
-56.854738
 30
0.0
  0
VERTEX
  5
35E8
  8
ALPHA
 10
-839.708099
 20
-54.23552
 30
0.0
  0
VERTEX
  5
35E9
  8
ALPHA
 10
-839.708099
 20
-51.129826
 30
0.0
  0
VERTEX
  5
35EA
  8
ALPHA
 10
-839.708099
 20
-47.628098
 30
0.0
  0
VERTEX
  5
35EB
  8
ALPHA
 10
-839.708099
 20
-43.820778
 30
0.0
  0
VERTEX
  5
35EC
  8
ALPHA
 10
-839.708099
 20
-35.651125
 30
0.0
  0
VERTEX
  5
35ED
  8
ALPHA
 10
-839.708099
 20
-27.344399
 30
0.0
  0
VERTEX
  5
35EE
  8
ALPHA
 10
-839.708099
 20
-23.365737
 30
0.0
  0
VERTEX
  5
35EF
  8
ALPHA
 10
-839.708099
 20
-19.624131
 30
0.0
  0
VERTEX
  5
35F0
  8
ALPHA
 10
-839.708099
 20
-16.210023
 30
0.0
  0
VERTEX
  5
35F1
  8
ALPHA
 10
-839.708099
 20
-13.213853
 30
0.0
  0
VERTEX
  5
35F2
  8
ALPHA
 10
-839.708099
 20
-10.726064
 30
0.0
  0
VERTEX
  5
35F3
  8
ALPHA
 10
-839.708099
 20
-8.837097
 30
0.0
  0
VERTEX
  5
35F4
  8
ALPHA
 10
-839.708099
 20
-8.145435
 30
0.0
  0
VERTEX
  5
35F5
  8
ALPHA
 10
-839.708099
 20
-7.637393
 30
0.0
  0
VERTEX
  5
35F6
  8
ALPHA
 10
-839.708099
 20
-7.324278
 30
0.0
  0
VERTEX
  5
35F7
  8
ALPHA
 10
-839.708099
 20
-7.217394
 30
0.0
  0
SEQEND
  5
35F8
  8
ALPHA
  0
POLYLINE
  5
2F27
  8
ALPHA
 66
     1
 10
0.0
 20
0.0
 30
0.0
 70
   128
210
0.0
220
0.0
230
-1.0
  0
VERTEX
  5
35F9
  8
ALPHA
 10
-856.36568
 20
-69.201007
 30
0.0
  0
VERTEX
  5
35FA
  8
ALPHA
 10
-855.201988
 20
-68.477191
 30
0.0
  0
VERTEX
  5
35FB
  8
ALPHA
 10
-854.145324
 20
-67.617776
 30
0.0
  0
VERTEX
  5
35FC
  8
ALPHA
 10
-853.210523
 20
-66.633793
 30
0.0
  0
VERTEX
  5
35FD
  8
ALPHA
 10
-852.41242
 20
-65.536273
 30
0.0
  0
VERTEX
  5
35FE
  8
ALPHA
 10
-851.765849
 20
-64.336248
 30
0.0
  0
VERTEX
  5
35FF
  8
ALPHA
 10
-851.285646
 20
-63.044748
 30
0.0
  0
VERTEX
  5
3600
  8
ALPHA
 10
-850.986645
 20
-61.672804
 30
0.0
  0
VERTEX
  5
3601
  8
ALPHA
 10
-850.883682
 20
-60.231448
 30
0.0
  0
VERTEX
  5
3602
  8
ALPHA
 10
-850.981851
 20
-58.802457
 30
0.0
  0
VERTEX
  5
3603
  8
ALPHA
 10
-851.267801
 20
-57.441666
 30
0.0
  0
VERTEX
  5
3604
  8
ALPHA
 10
-851.728699
 20
-56.159741
 30
0.0
  0
VERTEX
  5
3605
  8
ALPHA
 10
-852.351709
 20
-54.967347
 30
0.0
  0
VERTEX
  5
3606
  8
ALPHA
 10
-853.123998
 20
-53.875148
 30
0.0
  0
VERTEX
  5
3607
  8
ALPHA
 10
-854.032732
 20
-52.893809
 30
0.0
  0
VERTEX
  5
3608
  8
ALPHA
 10
-855.065075
 20
-52.033995
 30
0.0
  0
VERTEX
  5
3609
  8
ALPHA
 10
-856.208193
 20
-51.30637
 30
0.0
  0
SEQEND
  5
360A
  8
ALPHA
  0
POLYLINE
  5
2F29
  8
ALPHA
 66
     1
 10
0.0
 20
0.0
 30
0.0
 70
   128
210
0.0
220
0.0
230
-1.0
  0
VERTEX
  5
360B
  8
ALPHA
 10
-860.016138
 20
-73.789175
 30
0.0
  0
VERTEX
  5
360C
  8
ALPHA
 10
-859.019664
 20
-73.863109
 30
0.0
  0
VERTEX
  5
360D
  8
ALPHA
 10
-857.592837
 20
-73.627546
 30
0.0
  0
VERTEX
  5
360E
  8
ALPHA
 10
-855.860832
 20
-73.108514
 30
0.0
  0
VERTEX
  5
360F
  8
ALPHA
 10
-853.948822
 20
-72.332042
 30
0.0
  0
VERTEX
  5
3610
  8
ALPHA
 10
-851.981981
 20
-71.324158
 30
0.0
  0
VERTEX
  5
3611
  8
ALPHA
 10
-850.085482
 20
-70.110888
 30
0.0
  0
VERTEX
  5
3612
  8
ALPHA
 10
-848.3845
 20
-68.718262
 30
0.0
  0
VERTEX
  5
3613
  8
ALPHA
 10
-847.004206
 20
-67.172307
 30
0.0
  0
SEQEND
  5
3614
  8
ALPHA
  0
POLYLINE
  5
2F2C
  8
ALPHA
 66
     1
 10
0.0
 20
0.0
 30
0.0
 70
   128
  0
VERTEX
  5
3615
  8
ALPHA
 10
845.408089
 20
-66.293504
 30
0.0
  0
VERTEX
  5
3616
  8
ALPHA
 10
845.408089
 20
-65.733712
 30
0.0
  0
VERTEX
  5
3617
  8
ALPHA
 10
845.408089
 20
-64.968231
 30
0.0
  0
VERTEX
  5
3618
  8
ALPHA
 10
845.408089
 20
-64.011714
 30
0.0
  0
VERTEX
  5
3619
  8
ALPHA
 10
845.408089
 20
-62.878816
 30
0.0
  0
VERTEX
  5
361A
  8
ALPHA
 10
845.408089
 20
-60.142495
 30
0.0
  0
VERTEX
  5
361B
  8
ALPHA
 10
845.408089
 20
-56.876504
 30
0.0
  0
VERTEX
  5
361C
  8
ALPHA
 10
845.408089
 20
-53.198078
 30
0.0
  0
VERTEX
  5
361D
  8
ALPHA
 10
845.408089
 20
-49.224454
 30
0.0
  0
VERTEX
  5
361E
  8
ALPHA
 10
845.408089
 20
-40.860549
 30
0.0
  0
VERTEX
  5
361F
  8
ALPHA
 10
845.408089
 20
-36.704741
 30
0.0
  0
VERTEX
  5
3620
  8
ALPHA
 10
845.408089
 20
-32.722676
 30
0.0
  0
VERTEX
  5
3621
  8
ALPHA
 10
845.408089
 20
-29.031589
 30
0.0
  0
VERTEX
  5
3622
  8
ALPHA
 10
845.408089
 20
-25.748718
 30
0.0
  0
VERTEX
  5
3623
  8
ALPHA
 10
845.408089
 20
-22.991297
 30
0.0
  0
VERTEX
  5
3624
  8
ALPHA
 10
845.408089
 20
-21.846266
 30
0.0
  0
VERTEX
  5
3625
  8
ALPHA
 10
845.408089
 20
-20.876561
 30
0.0
  0
VERTEX
  5
3626
  8
ALPHA
 10
845.408089
 20
-20.096837
 30
0.0
  0
VERTEX
  5
3627
  8
ALPHA
 10
845.408089
 20
-19.521747
 30
0.0
  0
VERTEX
  5
3628
  8
ALPHA
 10
845.408089
 20
-19.165947
 30
0.0
  0
VERTEX
  5
3629
  8
ALPHA
 10
845.408089
 20
-19.04409
 30
0.0
  0
SEQEND
  5
362A
  8
ALPHA
  0
POLYLINE
  5
2F2D
  8
ALPHA
 66
     1
 10
0.0
 20
0.0
 30
0.0
 70
   128
  0
VERTEX
  5
362B
  8
ALPHA
 10
842.884292
 20
-61.243694
 30
0.0
  0
VERTEX
  5
362C
  8
ALPHA
 10
842.884292
 20
-60.686445
 30
0.0
  0
VERTEX
  5
362D
  8
ALPHA
 10
842.884292
 20
-59.928158
 30
0.0
  0
VERTEX
  5
362E
  8
ALPHA
 10
842.884292
 20
-58.983179
 30
0.0
  0
VERTEX
  5
362F
  8
ALPHA
 10
842.884292
 20
-57.86585
 30
0.0
  0
VERTEX
  5
3630
  8
ALPHA
 10
842.884292
 20
-55.171522
 30
0.0
  0
VERTEX
  5
3631
  8
ALPHA
 10
842.884292
 20
-51.959926
 30
0.0
  0
VERTEX
  5
3632
  8
ALPHA
 10
842.884292
 20
-48.345814
 30
0.0
  0
VERTEX
  5
3633
  8
ALPHA
 10
842.884292
 20
-44.443939
 30
0.0
  0
VERTEX
  5
3634
  8
ALPHA
 10
842.884292
 20
-36.235908
 30
0.0
  0
VERTEX
  5
3635
  8
ALPHA
 10
842.884292
 20
-32.159257
 30
0.0
  0
VERTEX
  5
3636
  8
ALPHA
 10
842.884292
 20
-28.253852
 30
0.0
  0
VERTEX
  5
3637
  8
ALPHA
 10
842.884292
 20
-24.634445
 30
0.0
  0
VERTEX
  5
3638
  8
ALPHA
 10
842.884292
 20
-21.415789
 30
0.0
  0
VERTEX
  5
3639
  8
ALPHA
 10
842.884292
 20
-18.712635
 30
0.0
  0
VERTEX
  5
363A
  8
ALPHA
 10
842.884292
 20
-17.590232
 30
0.0
  0
VERTEX
  5
363B
  8
ALPHA
 10
842.884292
 20
-16.639737
 30
0.0
  0
VERTEX
  5
363C
  8
ALPHA
 10
842.884292
 20
-15.875494
 30
0.0
  0
VERTEX
  5
363D
  8
ALPHA
 10
842.884292
 20
-15.311847
 30
0.0
  0
VERTEX
  5
363E
  8
ALPHA
 10
842.884292
 20
-14.963139
 30
0.0
  0
VERTEX
  5
363F
  8
ALPHA
 10
842.884292
 20
-14.843716
 30
0.0
  0
SEQEND
  5
3640
  8
ALPHA
  0
LINE
  5
2F30
  8
ALPHA
 10
819.005742
 20
-74.32355
 30
0.0
 11
819.005742
 21
-74.32355
 31
0.0
  0
POLYLINE
  5
2F32
  8
ALPHA
 66
     1
 10
0.0
 20
0.0
 30
0.0
 70
   128
  0
VERTEX
  5
3641
  8
ALPHA
 10
842.884292
 20
-61.243694
 30
0.0
  0
VERTEX
  5
3642
  8
ALPHA
 10
843.136274
 20
-62.620524
 30
0.0
  0
VERTEX
  5
3643
  8
ALPHA
 10
843.901122
 20
-64.139025
 30
0.0
  0
VERTEX
  5
3644
  8
ALPHA
 10
845.192192
 20
-65.697874
 30
0.0
  0
VERTEX
  5
3645
  8
ALPHA
 10
847.02284
 20
-67.19575
 30
0.0
  0
SEQEND
  5
3646
  8
ALPHA
  0
LINE
  5
2F33
  8
ALPHA
 10
837.470218
 20
-62.673101
 30
0.0
 11
837.470218
 21
-57.753729
 31
0.0
  0
LINE
  5
2F34
  8
ALPHA
 10
832.71194
 20
-64.446936
 30
0.0
 11
832.71194
 21
-56.017763
 31
0.0
  0
LINE
  5
2F35
  8
ALPHA
 10
837.470218
 20
-56.017763
 30
0.0
 11
837.470218
 21
-64.446936
 31
0.0
  0
LINE
  5
2F36
  8
ALPHA
 10
840.392748
 20
-62.673101
 30
0.0
 11
837.470218
 21
-62.673101
 31
0.0
  0
LINE
  5
2F37
  8
ALPHA
 10
837.470218
 20
-64.446936
 30
0.0
 11
832.71194
 21
-64.446936
 31
0.0
  0
LINE
  5
2F38
  8
ALPHA
 10
839.708099
 20
-61.243694
 30
0.0
 11
842.884292
 21
-61.243694
 31
0.0
  0
LINE
  5
2F39
  8
ALPHA
 10
837.470218
 20
-57.753729
 30
0.0
 11
839.708099
 21
-57.753729
 31
0.0
  0
LINE
  5
2F3A
  8
ALPHA
 10
832.71194
 20
-56.017763
 30
0.0
 11
837.470218
 21
-56.017763
 31
0.0
  0
POLYLINE
  5
2F43
  8
ALPHA
 66
     1
 10
0.0
 20
0.0
 30
0.0
 70
   128
  0
VERTEX
  5
3647
  8
ALPHA
 10
839.708099
 20
-7.217394
 30
0.0
  0
VERTEX
  5
3648
  8
ALPHA
 10
839.844576
 20
-7.217394
 30
0.0
  0
VERTEX
  5
3649
  8
ALPHA
 10
840.20438
 20
-7.217394
 30
0.0
  0
VERTEX
  5
364A
  8
ALPHA
 10
841.296196
 20
-7.217394
 30
0.0
  0
VERTEX
  5
364B
  8
ALPHA
 10
842.388012
 20
-7.217394
 30
0.0
  0
VERTEX
  5
364C
  8
ALPHA
 10
842.747815
 20
-7.217394
 30
0.0
  0
VERTEX
  5
364D
  8
ALPHA
 10
842.884292
 20
-7.217394
 30
0.0
  0
SEQEND
  5
364E
  8
ALPHA
  0
POLYLINE
  5
2F4D
  8
ALPHA
 66
     1
 10
0.0
 20
0.0
 30
0.0
 70
   128
210
0.0
220
0.0
230
-1.0
  0
VERTEX
  5
364F
  8
ALPHA
 10
-872.000195
 20
-48.514879
 30
0.0
  0
VERTEX
  5
3650
  8
ALPHA
 10
-874.377212
 20
-49.862527
 30
0.0
  0
VERTEX
  5
3651
  8
ALPHA
 10
-876.455083
 20
-51.612112
 30
0.0
  0
VERTEX
  5
3652
  8
ALPHA
 10
-878.13284
 20
-53.547196
 30
0.0
  0
VERTEX
  5
3653
  8
ALPHA
 10
-879.309517
 20
-55.451342
 30
0.0
  0
VERTEX
  5
3654
  8
ALPHA
 10
-879.678397
 20
-56.324177
 30
0.0
  0
VERTEX
  5
3655
  8
ALPHA
 10
-879.884145
 20
-57.108114
 30
0.0
  0
VERTEX
  5
3656
  8
ALPHA
 10
-879.924448
 20
-58.451819
 30
0.0
  0
VERTEX
  5
3657
  8
ALPHA
 10
-879.924448
 20
-61.029779
 30
0.0
  0
VERTEX
  5
3658
  8
ALPHA
 10
-879.924448
 20
-62.023952
 30
0.0
  0
VERTEX
  5
3659
  8
ALPHA
 10
-879.924448
 20
-62.63726
 30
0.0
  0
VERTEX
  5
365A
  8
ALPHA
 10
-879.924448
 20
-62.757888
 30
0.0
  0
VERTEX
  5
365B
  8
ALPHA
 10
-879.924448
 20
-62.765742
 30
0.0
  0
VERTEX
  5
365C
  8
ALPHA
 10
-879.902354
 20
-62.964587
 30
0.0
  0
VERTEX
  5
365D
  8
ALPHA
 10
-879.797317
 20
-63.556835
 30
0.0
  0
VERTEX
  5
365E
  8
ALPHA
 10
-879.426166
 20
-64.724058
 30
0.0
  0
VERTEX
  5
365F
  8
ALPHA
 10
-878.866894
 20
-65.857991
 30
0.0
  0
VERTEX
  5
3660
  8
ALPHA
 10
-877.311885
 20
-67.976754
 30
0.0
  0
VERTEX
  5
3661
  8
ALPHA
 10
-875.388096
 20
-69.814653
 30
0.0
  0
VERTEX
  5
3662
  8
ALPHA
 10
-873.351334
 20
-71.273217
 30
0.0
  0
VERTEX
  5
3663
  8
ALPHA
 10
-871.457405
 20
-72.253975
 30
0.0
  0
SEQEND
  5
3664
  8
ALPHA
  0
POLYLINE
  5
2F4E
  8
ALPHA
 66
     1
 10
0.0
 20
0.0
 30
0.0
 70
   128
  0
VERTEX
  5
3665
  8
ALPHA
 10
878.519685
 20
-66.419133
 30
0.0
  0
VERTEX
  5
3666
  8
ALPHA
 10
879.34877
 20
-64.826784
 30
0.0
  0
VERTEX
  5
3667
  8
ALPHA
 10
879.937813
 20
-63.29255
 30
0.0
  0
VERTEX
  5
3668
  8
ALPHA
 10
880.295231
 20
-61.805679
 30
0.0
  0
VERTEX
  5
3669
  8
ALPHA
 10
880.429444
 20
-60.355424
 30
0.0
  0
VERTEX
  5
366A
  8
ALPHA
 10
880.348867
 20
-58.931035
 30
0.0
  0
VERTEX
  5
366B
  8
ALPHA
 10
880.06192
 20
-57.521762
 30
0.0
  0
VERTEX
  5
366C
  8
ALPHA
 10
879.57702
 20
-56.116857
 30
0.0
  0
VERTEX
  5
366D
  8
ALPHA
 10
878.902584
 20
-54.70557
 30
0.0
  0
SEQEND
  5
366E
  8
ALPHA
  0
POLYLINE
  5
2F4F
  8
ALPHA
 66
     1
 10
0.0
 20
0.0
 30
0.0
 70
   128
  0
VERTEX
  5
366F
  8
ALPHA
 10
869.150397
 20
-69.169149
 30
0.0
  0
VERTEX
  5
3670
  8
ALPHA
 10
869.00212
 20
-69.169149
 30
0.0
  0
VERTEX
  5
3671
  8
ALPHA
 10
868.642018
 20
-69.169149
 30
0.0
  0
VERTEX
  5
3672
  8
ALPHA
 10
867.794719
 20
-69.169149
 30
0.0
  0
VERTEX
  5
3673
  8
ALPHA
 10
867.561711
 20
-69.169149
 30
0.0
  0
VERTEX
  5
3674
  8
ALPHA
 10
867.544832
 20
-69.169149
 30
0.0
  0
VERTEX
  5
3675
  8
ALPHA
 10
867.402204
 20
-69.24843
 30
0.0
  0
VERTEX
  5
3676
  8
ALPHA
 10
866.969674
 20
-69.473784
 30
0.0
  0
VERTEX
  5
3677
  8
ALPHA
 10
865.128312
 20
-70.173506
 30
0.0
  0
VERTEX
  5
3678
  8
ALPHA
 10
863.138347
 20
-70.511865
 30
0.0
  0
VERTEX
  5
3679
  8
ALPHA
 10
861.145955
 20
-70.436908
 30
0.0
  0
VERTEX
  5
367A
  8
ALPHA
 10
859.286715
 20
-69.966894
 30
0.0
  0
VERTEX
  5
367B
  8
ALPHA
 10
857.570878
 20
-69.201007
 30
0.0
  0
SEQEND
  5
367C
  8
ALPHA
  0
POLYLINE
  5
2F50
  8
ALPHA
 66
     1
 10
0.0
 20
0.0
 30
0.0
 70
   128
  0
VERTEX
  5
367D
  8
ALPHA
 10
856.208193
 20
-51.30637
 30
0.0
  0
VERTEX
  5
367E
  8
ALPHA
 10
856.589145
 20
-51.30637
 30
0.0
  0
VERTEX
  5
367F
  8
ALPHA
 10
857.224065
 20
-51.30637
 30
0.0
  0
VERTEX
  5
3680
  8
ALPHA
 10
857.398668
 20
-51.30637
 30
0.0
  0
VERTEX
  5
3681
  8
ALPHA
 10
857.411316
 20
-51.30637
 30
0.0
  0
VERTEX
  5
3682
  8
ALPHA
 10
857.551098
 20
-51.231172
 30
0.0
  0
VERTEX
  5
3683
  8
ALPHA
 10
857.977587
 20
-51.014577
 30
0.0
  0
VERTEX
  5
3684
  8
ALPHA
 10
859.807633
 20
-50.312382
 30
0.0
  0
VERTEX
  5
3685
  8
ALPHA
 10
861.775884
 20
-49.95177
 30
0.0
  0
VERTEX
  5
3686
  8
ALPHA
 10
863.861295
 20
-50.012407
 30
0.0
  0
VERTEX
  5
3687
  8
ALPHA
 10
865.867193
 20
-50.465494
 30
0.0
  0
VERTEX
  5
3688
  8
ALPHA
 10
867.69875
 20
-51.301561
 30
0.0
  0
SEQEND
  5
3689
  8
ALPHA
  0
LINE
  5
2F51
  8
ALPHA
 10
864.166107
 20
-58.743133
 30
0.0
 11
864.166107
 21
-50.113795
 31
0.0
  0
LINE
  5
2F52
  8
ALPHA
 10
860.070237
 20
-50.260463
 30
0.0
 11
860.070237
 21
-70.201832
 31
0.0
  0
LINE
  5
2F53
  8
ALPHA
 10
865.145894
 20
-50.260463
 30
0.0
 11
865.145894
 21
-70.165165
 31
0.0
  0
LINE
  5
2F54
  8
ALPHA
 10
865.145894
 20
-61.71856
 30
0.0
 11
860.070237
 21
-61.71856
 31
0.0
  0
LINE
  5
2F55
  8
ALPHA
 10
865.145894
 20
-60.529592
 30
0.0
 11
860.070237
 21
-60.529592
 31
0.0
  0
LINE
  5
2F56
  8
ALPHA
 10
865.145894
 20
-58.743133
 30
0.0
 11
860.070237
 21
-58.743133
 31
0.0
  0
LINE
  5
2F57
  8
ALPHA
 10
865.145894
 20
-59.975381
 30
0.0
 11
860.070237
 21
-59.975381
 31
0.0
  0
POLYLINE
  5
2F58
  8
ALPHA
 66
     1
 10
0.0
 20
0.0
 30
0.0
 70
   128
  0
VERTEX
  5
368A
  8
ALPHA
 10
857.570878
 20
-69.201007
 30
0.0
  0
VERTEX
  5
368B
  8
ALPHA
 10
857.382566
 20
-69.201007
 30
0.0
  0
VERTEX
  5
368C
  8
ALPHA
 10
856.968279
 20
-69.201007
 30
0.0
  0
VERTEX
  5
368D
  8
ALPHA
 10
856.553992
 20
-69.201007
 30
0.0
  0
VERTEX
  5
368E
  8
ALPHA
 10
856.36568
 20
-69.201007
 30
0.0
  0
SEQEND
  5
368F
  8
ALPHA
  0
LINE
  5
2F59
  8
ALPHA
 10
860.892537
 20
-70.395385
 30
0.0
 11
860.892537
 21
-61.764243
 31
0.0
  0
POLYLINE
  5
2F5A
  8
ALPHA
 66
     1
 10
0.0
 20
0.0
 30
0.0
 70
   128
  0
VERTEX
  5
3690
  8
ALPHA
 10
867.69875
 20
-51.301561
 30
0.0
  0
VERTEX
  5
3691
  8
ALPHA
 10
867.820789
 20
-51.301561
 30
0.0
  0
VERTEX
  5
3692
  8
ALPHA
 10
868.117169
 20
-51.301561
 30
0.0
  0
VERTEX
  5
3693
  8
ALPHA
 10
868.814535
 20
-51.301561
 30
0.0
  0
VERTEX
  5
3694
  8
ALPHA
 10
869.00631
 20
-51.301561
 30
0.0
  0
VERTEX
  5
3695
  8
ALPHA
 10
869.020203
 20
-51.301561
 30
0.0
  0
VERTEX
  5
3696
  8
ALPHA
 10
869.094628
 20
-51.343192
 30
0.0
  0
VERTEX
  5
3697
  8
ALPHA
 10
869.312755
 20
-51.471438
 30
0.0
  0
VERTEX
  5
3698
  8
ALPHA
 10
870.149694
 20
-52.033411
 30
0.0
  0
VERTEX
  5
3699
  8
ALPHA
 10
871.635075
 20
-53.376697
 30
0.0
  0
VERTEX
  5
369A
  8
ALPHA
 10
872.832713
 20
-54.980045
 30
0.0
  0
VERTEX
  5
369B
  8
ALPHA
 10
873.698913
 20
-56.804585
 30
0.0
  0
VERTEX
  5
369C
  8
ALPHA
 10
874.189977
 20
-58.811446
 30
0.0
  0
VERTEX
  5
369D
  8
ALPHA
 10
874.263435
 20
-60.939561
 30
0.0
  0
VERTEX
  5
369E
  8
ALPHA
 10
873.916828
 20
-62.983135
 30
0.0
  0
VERTEX
  5
369F
  8
ALPHA
 10
873.190474
 20
-64.871578
 30
0.0
  0
VERTEX
  5
36A0
  8
ALPHA
 10
872.12612
 20
-66.561192
 30
0.0
  0
VERTEX
  5
36A1
  8
ALPHA
 10
870.765512
 20
-68.008281
 30
0.0
  0
VERTEX
  5
36A2
  8
ALPHA
 10
869.150397
 20
-69.169149
 30
0.0
  0
SEQEND
  5
36A3
  8
ALPHA
  0
POLYLINE
  5
2F5B
  8
ALPHA
 66
     1
 10
0.0
 20
0.0
 30
0.0
 70
   128
  0
VERTEX
  5
36A4
  8
ALPHA
 10
875.553275
 20
-67.359248
 30
0.0
  0
VERTEX
  5
36A5
  8
ALPHA
 10
876.44356
 20
-65.705777
 30
0.0
  0
VERTEX
  5
36A6
  8
ALPHA
 10
877.130327
 20
-63.861356
 30
0.0
  0
VERTEX
  5
36A7
  8
ALPHA
 10
877.549305
 20
-61.862358
 30
0.0
  0
VERTEX
  5
36A8
  8
ALPHA
 10
877.636224
 20
-59.745161
 30
0.0
  0
VERTEX
  5
36A9
  8
ALPHA
 10
877.326815
 20
-57.546139
 30
0.0
  0
VERTEX
  5
36AA
  8
ALPHA
 10
876.556806
 20
-55.301669
 30
0.0
  0
VERTEX
  5
36AB
  8
ALPHA
 10
875.261927
 20
-53.048126
 30
0.0
  0
VERTEX
  5
36AC
  8
ALPHA
 10
873.377908
 20
-50.821886
 30
0.0
  0
SEQEND
  5
36AD
  8
ALPHA
  0
DIMENSION
  5
3184
  8
COTATION1
  2
*D4
 10
822.71194
 20
-74.217363
 30
0.0
 11
822.71194
 21
-40.717378
 31
0.0
 70
   128
 13
839.708099
 23
-7.217394
 33
0.0
 14
862.662765
 24
-74.217363
 34
0.0
 50
90.0
  0
DIMENSION
  5
3191
  8
COTATION1
  2
*D5
 10
862.608065
 20
12.782606
 30
0.0
 11
851.158082
 21
12.782606
 31
0.0
 70
   128
 13
839.708099
 23
-7.217394
 33
0.0
 14
862.608065
 24
-2.217394
 34
0.0
  0
DIMENSION
  5
321A
  8
COTATION1
  2
*D6
 10
845.408089
 20
2.782606
 30
0.0
 11
855.550946
 21
5.282606
 31
0.0
 13
839.708099
 23
-7.217394
 33
0.0
 14
845.408089
 24
-19.04409
 34
0.0
  0
LINE
  5
3228
  8
AXE
 10
862.608065
 20
-2.217394
 30
0.0
 11
862.608065
 21
-89.217394
 31
0.0
  0
LINE
  5
3278
  8
AXE
 10
827.71194
 20
-60.252486
 30
0.0
 11
895.430715
 21
-60.252486
 31
0.0
  0
TEXT
  5
32BB
  8
AXE
 10
888.954524
 20
-59.252486
 30
0.0
 40
8.0
  1
X
 72
     2
 11
895.430715
 21
-59.252486
 31
0.0
  0
TEXT
  5
32BC
  8
AXE
 10
856.131875
 20
-89.217394
 30
0.0
 40
8.0
  1
Y
 72
     2
 11
862.608065
 21
-89.217394
 31
0.0
  0
ENDSEC
  0
EOF
