  0
SECTION
  2
HEADER
  9
$ACADVER
  1
AC1009
  9
$INSBASE
 10
-146.27124
 20
-153.796096
 30
0.0
  9
$EXTMIN
 10
824.554624
 20
-155.774489
 30
0.0
  9
$EXTMAX
 10
888.061506
 20
-3.466523
 30
0.0
  9
$LIMMIN
 10
-407.970438
 20
-367.832444
  9
$LIMMAX
 10
429.804077
 20
234.370848
  9
$ORTHOMODE
 70
     0
  9
$REGENMODE
 70
     1
  9
$FILLMODE
 70
     1
  9
$QTEXTMODE
 70
     0
  9
$MIRRTEXT
 70
     1
  9
$DRAGMODE
 70
     2
  9
$LTSCALE
 40
10.0
  9
$OSMODE
 70
    37
  9
$ATTMODE
 70
     1
  9
$TEXTSIZE
 40
6.0
  9
$TRACEWID
 40
1.0
  9
$TEXTSTYLE
  7
ROMANS
  9
$CLAYER
  8
COTATION1
  9
$CELTYPE
  6
BYLAYER
  9
$CECOLOR
 62
   256
  9
$DIMSCALE
 40
1.0
  9
$DIMASZ
 40
2.0
  9
$DIMEXO
 40
0.5
  9
$DIMDLI
 40
0.38
  9
$DIMRND
 40
0.0
  9
$DIMDLE
 40
0.0
  9
$DIMEXE
 40
0.18
  9
$DIMTP
 40
0.0
  9
$DIMTM
 40
0.0
  9
$DIMTXT
 40
2.0
  9
$DIMCEN
 40
0.09
  9
$DIMTSZ
 40
0.0
  9
$DIMTOL
 70
     0
  9
$DIMLIM
 70
     0
  9
$DIMTIH
 70
     0
  9
$DIMTOH
 70
     1
  9
$DIMSE1
 70
     0
  9
$DIMSE2
 70
     0
  9
$DIMTAD
 70
     1
  9
$DIMZIN
 70
    12
  9
$DIMBLK
  1
OPEN30
  9
$DIMASO
 70
     1
  9
$DIMSHO
 70
     1
  9
$DIMPOST
  1

  9
$DIMAPOST
  1

  9
$DIMALT
 70
     0
  9
$DIMALTD
 70
     2
  9
$DIMALTF
 40
25.4
  9
$DIMLFAC
 40
1.0
  9
$DIMTOFL
 70
     0
  9
$DIMTVP
 40
0.0
  9
$DIMTIX
 70
     0
  9
$DIMSOXD
 70
     0
  9
$DIMSAH
 70
     0
  9
$DIMBLK1
  1

  9
$DIMBLK2
  1

  9
$DIMSTYLE
  2
ROMANS
  9
$DIMCLRD
 70
     0
  9
$DIMCLRE
 70
     0
  9
$DIMCLRT
 70
     0
  9
$DIMTFAC
 40
1.0
  9
$DIMGAP
 40
0.5
  9
$LUNITS
 70
     2
  9
$LUPREC
 70
     1
  9
$SKETCHINC
 40
0.1
  9
$FILLETRAD
 40
0.0
  9
$AUNITS
 70
     0
  9
$AUPREC
 70
     0
  9
$MENU
  1
acad
  9
$ELEVATION
 40
0.0
  9
$PELEVATION
 40
0.0
  9
$THICKNESS
 40
0.0
  9
$LIMCHECK
 70
     0
  9
$BLIPMODE
 70
     0
  9
$CHAMFERA
 40
0.0
  9
$CHAMFERB
 40
0.0
  9
$SKPOLY
 70
     0
  9
$TDCREATE
 40
2450365.355314
  9
$TDUPDATE
 40
2452608.420179
  9
$TDINDWG
 40
0.534043
  9
$TDUSRTIMER
 40
0.534043
  9
$USRTIMER
 70
     1
  9
$ANGBASE
 50
0.0
  9
$ANGDIR
 70
     0
  9
$PDMODE
 70
    32
  9
$PDSIZE
 40
0.0
  9
$PLINEWID
 40
0.0
  9
$COORDS
 70
     2
  9
$SPLFRAME
 70
     0
  9
$SPLINETYPE
 70
     6
  9
$SPLINESEGS
 70
     8
  9
$ATTDIA
 70
     0
  9
$ATTREQ
 70
     1
  9
$HANDLING
 70
     1
  9
$HANDSEED
  5
3ADA
  9
$SURFTAB1
 70
     6
  9
$SURFTAB2
 70
     6
  9
$SURFTYPE
 70
     6
  9
$SURFU
 70
     6
  9
$SURFV
 70
     6
  9
$UCSNAME
  2

  9
$UCSORG
 10
0.0
 20
0.0
 30
0.0
  9
$UCSXDIR
 10
1.0
 20
0.0
 30
0.0
  9
$UCSYDIR
 10
0.0
 20
1.0
 30
0.0
  9
$PUCSNAME
  2

  9
$PUCSORG
 10
0.0
 20
0.0
 30
0.0
  9
$PUCSXDIR
 10
1.0
 20
0.0
 30
0.0
  9
$PUCSYDIR
 10
0.0
 20
1.0
 30
0.0
  9
$USERI1
 70
     0
  9
$USERI2
 70
     0
  9
$USERI3
 70
     0
  9
$USERI4
 70
     0
  9
$USERI5
 70
     0
  9
$USERR1
 40
0.0
  9
$USERR2
 40
0.0
  9
$USERR3
 40
0.0
  9
$USERR4
 40
0.0
  9
$USERR5
 40
0.0
  9
$WORLDVIEW
 70
     1
  9
$SHADEDGE
 70
     3
  9
$SHADEDIF
 70
    70
  9
$TILEMODE
 70
     1
  9
$MAXACTVP
 70
    16
  9
$PLIMCHECK
 70
     0
  9
$PEXTMIN
 10
1.000000E+020
 20
1.000000E+020
 30
1.000000E+020
  9
$PEXTMAX
 10
-1.000000E+020
 20
-1.000000E+020
 30
-1.000000E+020
  9
$PLIMMIN
 10
0.0
 20
0.0
  9
$PLIMMAX
 10
12.0
 20
9.0
  9
$UNITMODE
 70
     0
  9
$VISRETAIN
 70
     0
  9
$PLINEGEN
 70
     0
  9
$PSLTSCALE
 70
     0
  0
ENDSEC
  0
SECTION
  2
TABLES
  0
TABLE
  2
VPORT
 70
     2
  0
VPORT
  2
*ACTIVE
 70
     0
 10
0.0
 20
0.0
 11
1.0
 21
1.0
 12
856.271931
 22
-79.641191
 13
0.0
 23
0.0
 14
1.0
 24
1.0
 15
10.0
 25
10.0
 16
0.0
 26
0.0
 36
1.0
 17
0.0
 27
0.0
 37
0.0
 40
153.730595
 41
1.63142
 42
50.0
 43
0.0
 44
0.0
 50
0.0
 51
0.0
 71
     0
 72
   100
 73
     1
 74
     0
 75
     0
 76
     0
 77
     0
 78
     0
  0
ENDTAB
  0
TABLE
  2
LTYPE
 70
    26
  0
LTYPE
  2
CONTINUOUS
 70
     0
  3
Solid line
 72
    65
 73
     0
 40
0.0
  0
LTYPE
  2
AXES2
 70
     0
  3
___ _ ___ _ ___ _ ___ _ ___ _ ___ _ ___ _ ___ _
 72
    65
 73
     4
 40
1.125
 49
0.75
 49
-0.125
 49
0.125
 49
-0.125
  0
LTYPE
  2
ACAD_ISO04W100
 70
     0
  3
ISO Lang gestrichelt punktiert ____ . ____ . __
 72
    65
 73
     4
 40
30.5
 49
24.0
 49
-3.0
 49
0.5
 49
-3.0
  0
LTYPE
  2
AXES
 70
     0
  3
____ _ ____ _ ____ _ ____ _ ____ _ ____ _ ____ 
 72
    65
 73
     4
 40
2.0
 49
1.25
 49
-0.25
 49
0.25
 49
-0.25
  0
LTYPE
  2
AXESX2
 70
     0
  3
________  __  ________  __  ________  __  _____
 72
    65
 73
     4
 40
4.0
 49
2.5
 49
-0.5
 49
0.5
 49
-0.5
  0
LTYPE
  2
TIRETPT
 70
     0
  3
__ . __ . __ . __ . __ . __ . __ . __ . __ . __
 72
    65
 73
     4
 40
1.0
 49
0.5
 49
-0.25
 49
0.0
 49
-0.25
  0
LTYPE
  2
TIRETPT2
 70
     0
  3
_._._._._._._._._._._._._._._._._._._._._._._._
 72
    65
 73
     4
 40
0.5
 49
0.25
 49
-0.125
 49
0.0
 49
-0.125
  0
LTYPE
  2
TIRETPTX2
 70
     0
  3
____  .  ____  .  ____  .  ____  .  ____  .  __
 72
    65
 73
     4
 40
2.0
 49
1.0
 49
-0.5
 49
0.0
 49
-0.5
  0
LTYPE
  2
DISCONTINU
 70
     0
  3
__ __ __ __ __ __ __ __ __ __ __ __ __ __ __ __
 72
    65
 73
     2
 40
0.75
 49
0.5
 49
-0.25
  0
LTYPE
  2
DISCONTINU2
 70
     0
  3
_ _ _ _ _ _ _ _ _ _ _ _ _ _ _ _ _ _ _ _ _ _ _ _
 72
    65
 73
     2
 40
0.375
 49
0.25
 49
-0.125
  0
LTYPE
  2
DISCONTINUX2
 70
     0
  3
____  ____  ____  ____  ____  ____  ____  ____ 
 72
    65
 73
     2
 40
1.5
 49
1.0
 49
-0.5
  0
LTYPE
  2
DIVISE
 70
     0
  3
____ . . ____ . . ____ . . ____ . . ____ . . __
 72
    65
 73
     6
 40
1.25
 49
0.5
 49
-0.25
 49
0.0
 49
-0.25
 49
0.0
 49
-0.25
  0
LTYPE
  2
DIVISE2
 70
     0
  3
__..__..__..__..__..__..__..__..__..__..__..__.
 72
    65
 73
     6
 40
0.625
 49
0.25
 49
-0.125
 49
0.0
 49
-0.125
 49
0.0
 49
-0.125
  0
LTYPE
  2
DIVISEX2
 70
     0
  3
________  .  .  ________  .  .  ________  .  . 
 72
    65
 73
     6
 40
2.5
 49
1.0
 49
-0.5
 49
0.0
 49
-0.5
 49
0.0
 49
-0.5
  0
LTYPE
  2
POINTILLE
 70
     0
  3
. . . . . . . . . . . . . . . . . . . . . . . .
 72
    65
 73
     2
 40
0.25
 49
0.0
 49
-0.25
  0
LTYPE
  2
POINTILLE2
 70
     0
  3
...............................................
 72
    65
 73
     2
 40
0.125
 49
0.0
 49
-0.125
  0
LTYPE
  2
POINTILLEX2
 70
     0
  3
.  .  .  .  .  .  .  .  .  .  .  .  .  .  .  . 
 72
    65
 73
     2
 40
0.5
 49
0.0
 49
-0.5
  0
LTYPE
  2
CACHE
 70
     0
  3
__ __ __ __ __ __ __ __ __ __ __ __ __ __ __ __
 72
    65
 73
     2
 40
0.375
 49
0.25
 49
-0.125
  0
LTYPE
  2
CACHE2
 70
     0
  3
_ _ _ _ _ _ _ _ _ _ _ _ _ _ _ _ _ _ _ _ _ _ _ _
 72
    65
 73
     2
 40
0.1875
 49
0.125
 49
-0.0625
  0
LTYPE
  2
CACHEX2
 70
     0
  3
____ ____ ____ ____ ____ ____ ____ ____ ____ __
 72
    65
 73
     2
 40
0.75
 49
0.5
 49
-0.25
  0
LTYPE
  2
FANTOME
 70
     0
  3
______  __  __  ______  __  __  ______  __  __ 
 72
    65
 73
     6
 40
2.5
 49
1.25
 49
-0.25
 49
0.25
 49
-0.25
 49
0.25
 49
-0.25
  0
LTYPE
  2
FANTOME2
 70
     0
  3
___ _ _ ___ _ _ ___ _ _ ___ _ _ ___ _ _ ___ _ _
 72
    65
 73
     6
 40
1.25
 49
0.625
 49
-0.125
 49
0.125
 49
-0.125
 49
0.125
 49
-0.125
  0
LTYPE
  2
FANTOMEX2
 70
     0
  3
____________    ____    ____    ____________   
 72
    65
 73
     6
 40
5.0
 49
2.5
 49
-0.5
 49
0.5
 49
-0.5
 49
0.5
 49
-0.5
  0
LTYPE
  2
0
 70
     0
  3
MEDUSA PEN 0
 72
    65
 73
     0
 40
0.0
  0
LTYPE
  2
AI9-LTYPE1
 70
     0
  3
Illustrator Dash Style No.1
 72
    65
 73
     4
 40
5.64621
 49
4.106333
 49
-0.307975
 49
0.923926
 49
-0.307975
  0
LTYPE
  2
AI9-LTYPE2
 70
     0
  3
Illustrator Dash Style No.2
 72
    65
 73
     2
 40
1.33456
 49
1.026585
 49
-0.307975
  0
ENDTAB
  0
TABLE
  2
LAYER
 70
    20
  0
LAYER
  2
0
 70
     0
 62
     7
  6
CONTINUOUS
  0
LAYER
  2
TEXTE_MOYEN
 70
     0
 62
   131
  6
CONTINUOUS
  0
LAYER
  2
ALPHA
 70
     0
 62
   254
  6
CONTINUOUS
  0
LAYER
  2
COTATION1
 70
     0
 62
    50
  6
CONTINUOUS
  0
LAYER
  2
AXE
 70
     0
 62
    80
  6
AXES2
  0
LAYER
  2
DEFPOINTS
 70
     0
 62
     7
  6
CONTINUOUS
  0
LAYER
  2
MC_1_7_050
 70
     0
 62
     7
  6
CONTINUOUS
  0
LAYER
  2
MC_1_2_025
 70
     0
 62
     2
  6
CONTINUOUS
  0
LAYER
  2
MC_14_3_025
 70
     0
 62
     3
  6
ACAD_ISO04W100
  0
LAYER
  2
HACHURES1
 70
     0
 62
   130
  6
CONTINUOUS
  0
LAYER
  2
FMULT
 70
     0
 62
   210
  6
CONTINUOUS
  0
LAYER
  2
FDP_CARTOUCHE
 70
     0
 62
   136
  6
CONTINUOUS
  0
LAYER
  2
FDP_TEXTES
 70
     0
 62
   171
  6
CONTINUOUS
  0
LAYER
  2
FDP_LOGO_MG
 70
     0
 62
    30
  6
CONTINUOUS
  0
LAYER
  2
FDP_LOGO_SCH
 70
     0
 62
    90
  6
CONTINUOUS
  0
LAYER
  2
FDP_FDP
 70
     0
 62
   170
  6
CONTINUOUS
  0
LAYER
  2
POINTILLE_COURT2
 70
     0
 62
    41
  6
CACHE2
  0
LAYER
  2
POINTILLE_MOYEN2
 70
     0
 62
   141
  6
CACHE
  0
LAYER
  2
POINTILLE_LONG2
 70
     0
 62
   241
  6
CACHEX2
  0
LAYER
  2
ALPHA_FIN
 70
     0
 62
   255
  6
CONTINUOUS
  0
ENDTAB
  0
TABLE
  2
STYLE
 70
     5
  0
STYLE
  2
ROMANS
 70
     0
 40
0.0
 41
1.0
 50
0.0
 71
     0
 42
6.0
  3
romans
  4

  0
STYLE
  2
STANDARD
 70
     0
 40
0.2
 41
1.0
 50
0.0
 71
     0
 42
0.2
  3
txt
  4

  0
STYLE
  2
STD
 70
     0
 40
0.0
 41
1.0
 50
0.0
 71
     0
 42
0.0
  3
txt
  4

  0
STYLE
  2
INFOCAR
 70
     0
 40
0.0
 41
1.34
 50
0.0
 71
     0
 42
2.0
  3
ROMANS.SHX
  4

  0
STYLE
  2
CARTOUCHE
 70
     0
 40
0.0
 41
1.0
 50
0.0
 71
     0
 42
0.2
  3
ROMANS.SHX
  4

  0
ENDTAB
  0
TABLE
  2
VIEW
 70
     0
  0
ENDTAB
  0
TABLE
  2
UCS
 70
     0
  0
ENDTAB
  0
TABLE
  2
APPID
 70
     3
  0
APPID
  2
ACAD
 70
     0
  0
APPID
  2
AVE_RENDER
 70
     0
  0
APPID
  2
AVE_MATERIAL
 70
     0
  0
ENDTAB
  0
TABLE
  2
DIMSTYLE
 70
     2
  0
DIMSTYLE
  2
SC_DEFAUT
 70
     0
  3

  4

  5
OPEN30
  6

  7

 40
1.0
 41
2.0
 42
0.3
 43
0.1
 44
0.5
 45
0.0
 46
0.0
 47
0.0
 48
0.0
140
2.0
141
1.0
142
0.0
143
25.4
144
1.0
145
0.0
146
1.0
147
0.6
 71
     0
 72
     0
 73
     0
 74
     0
 75
     0
 76
     0
 77
     1
 78
    12
170
     0
171
     2
172
     0
173
     0
174
     0
175
     0
176
     0
177
     0
178
     0
  0
DIMSTYLE
  2
ROMANS
 70
     0
  3

  4

  5
OPEN30
  6

  7

 40
1.0
 41
2.0
 42
0.5
 43
0.38
 44
0.18
 45
0.0
 46
0.0
 47
0.0
 48
0.0
140
2.0
141
0.09
142
0.0
143
25.4
144
1.0
145
0.0
146
1.0
147
0.5
 71
     0
 72
     0
 73
     0
 74
     1
 75
     0
 76
     0
 77
     1
 78
    12
170
     0
171
     2
172
     0
173
     0
174
     0
175
     0
176
     0
177
     0
178
     0
  0
ENDTAB
  0
ENDSEC
  0
SECTION
  2
BLOCKS
  0
BLOCK
  8
0
  2
$MODEL_SPACE
 70
     0
 10
0.0
 20
0.0
 30
0.0
  3
$MODEL_SPACE
  1

  0
ENDBLK
  5
3A37
  8
0
  0
BLOCK
 67
     1
  8
0
  2
$PAPER_SPACE
 70
     0
 10
0.0
 20
0.0
 30
0.0
  3
$PAPER_SPACE
  1

  0
ENDBLK
  5
3A35
 67
     1
  8
0
  0
BLOCK
  8
0
  2
COTE
 70
     0
 10
0.0
 20
0.0
 30
0.0
  3
COTE
  1

  0
ENDBLK
  5
35
  8
0
  0
BLOCK
  8
0
  2
FOND
 70
     0
 10
0.0
 20
0.0
 30
0.0
  3
FOND
  1

  0
ENDBLK
  5
39
  8
0
  0
BLOCK
  8
0
  2
SCH_ISO
 70
     0
 10
0.0
 20
0.0
 30
0.0
  3
SCH_ISO
  1

  0
ENDBLK
  5
24AD
  8
0
  0
BLOCK
  8
0
  2
_OPEN30
 70
     0
 10
0.0
 20
0.0
 30
0.0
  3
_OPEN30
  1

  0
LINE
  5
27E1
  8
COTATION1
 62
     0
 10
-1.0
 20
0.267949
 30
0.0
 11
0.0
 21
0.0
 31
0.0
1001
ACAD
1000
RTLwPs
1070
   158
  0
LINE
  5
27E2
  8
COTATION1
 62
     0
 10
0.0
 20
0.0
 30
0.0
 11
-1.0
 21
-0.267949
 31
0.0
1001
ACAD
1000
RTLwPs
1070
   158
  0
LINE
  5
27E3
  8
COTATION1
 62
     0
 10
0.0
 20
0.0
 30
0.0
 11
-1.0
 21
0.0
 31
0.0
1001
ACAD
1000
RTLwPs
1070
   158
  0
ENDBLK
  5
27E5
  8
0
  0
BLOCK
  8
0
  2
*D4
 70
     1
 10
0.0
 20
0.0
 30
0.0
  3
*D4
  1

  0
LINE
  5
38BE
  8
COTATION1
 62
     0
 10
853.785172
 20
-8.466523
 30
0.0
 11
826.654624
 21
-8.466523
 31
0.0
1001
ACAD
1000
RTLwPs
1070
   158
  0
LINE
  5
38BF
  8
COTATION1
 62
     0
 10
857.205819
 20
-140.466547
 30
0.0
 11
826.654624
 21
-140.466547
 31
0.0
1001
ACAD
1000
RTLwPs
1070
   158
  0
LINE
  5
38C0
  8
COTATION1
 62
     0
 10
827.154624
 20
-10.466523
 30
0.0
 11
827.154624
 21
-138.466547
 31
0.0
1001
ACAD
1000
RTLwPs
1070
   158
  0
INSERT
  5
38C1
  8
COTATION1
 62
     0
  2
_OPEN30
 10
827.154624
 20
-8.466523
 30
0.0
 41
2.0
 42
2.0
 43
2.0
 50
90.0
1001
ACAD
1000
RTLwPs
1070
   158
  0
INSERT
  5
38C2
  8
COTATION1
 62
     0
  2
_OPEN30
 10
827.154624
 20
-140.466547
 30
0.0
 41
2.0
 42
2.0
 43
2.0
 50
270.0
1001
ACAD
1000
RTLwPs
1070
   158
  0
TEXT
  5
38C3
  8
COTATION1
 62
     0
 10
826.554624
 20
-77.466485
 30
0.0
 40
2.0
  1
132
 50
90.0
1001
ACAD
1000
MTEXTBEGIN
1070
    73
1070
     1
1070
    44
1040
1.0
1070
    74
1070
     0
1000
MTEXTEND
  0
POINT
  5
38C4
  8
DEFPOINTS
 62
     0
 10
854.085172
 20
-8.466523
 30
0.0
  0
POINT
  5
38C5
  8
DEFPOINTS
 62
     0
 10
857.505819
 20
-140.466547
 30
0.0
  0
POINT
  5
38C6
  8
DEFPOINTS
 62
     0
 10
827.154624
 20
-140.466547
 30
0.0
  0
ENDBLK
  5
35ED
  8
0
  0
BLOCK
  8
0
  2
*D5
 70
     1
 10
0.0
 20
0.0
 30
0.0
  3
*D5
  1

  0
LINE
  5
38B4
  8
COTATION1
 62
     0
 10
856.321334
 20
-100.466562
 30
0.0
 11
836.654624
 21
-100.466562
 31
0.0
1001
ACAD
1000
RTLwPs
1070
   158
  0
LINE
  5
38B5
  8
COTATION1
 62
     0
 10
857.205819
 20
-140.466547
 30
0.0
 11
836.654624
 21
-140.466547
 31
0.0
1001
ACAD
1000
RTLwPs
1070
   158
  0
LINE
  5
38B6
  8
COTATION1
 62
     0
 10
837.154624
 20
-102.466562
 30
0.0
 11
837.154624
 21
-138.466547
 31
0.0
1001
ACAD
1000
RTLwPs
1070
   158
  0
INSERT
  5
38B7
  8
COTATION1
 62
     0
  2
_OPEN30
 10
837.154624
 20
-100.466562
 30
0.0
 41
2.0
 42
2.0
 43
2.0
 50
90.0
1001
ACAD
1000
RTLwPs
1070
   158
  0
INSERT
  5
38B8
  8
COTATION1
 62
     0
  2
_OPEN30
 10
837.154624
 20
-140.466547
 30
0.0
 41
2.0
 42
2.0
 43
2.0
 50
270.0
1001
ACAD
1000
RTLwPs
1070
   158
  0
TEXT
  5
38B9
  8
COTATION1
 62
     0
 10
836.554624
 20
-122.371316
 30
0.0
 40
2.0
  1
40
 50
90.0
1001
ACAD
1000
MTEXTBEGIN
1070
    73
1070
     1
1070
    44
1040
1.0
1070
    74
1070
     0
1000
MTEXTEND
  0
POINT
  5
38BA
  8
DEFPOINTS
 62
     0
 10
856.621334
 20
-100.466562
 30
0.0
  0
POINT
  5
38BB
  8
DEFPOINTS
 62
     0
 10
857.505819
 20
-140.466547
 30
0.0
  0
POINT
  5
38BC
  8
DEFPOINTS
 62
     0
 10
837.154624
 20
-140.466547
 30
0.0
  0
ENDBLK
  5
3636
  8
0
  0
ENDSEC
  0
SECTION
  2
ENTITIES
  0
INSERT
  5
32
  8
0
  2
COTE
 10
0.0
 20
0.0
 30
0.0
  0
INSERT
  5
36
  8
0
  2
FOND
 10
0.0
 20
0.0
 30
0.0
  0
INSERT
  5
24AE
  8
ALPHA
  2
SCH_ISO
 10
-66.27012
 20
-238.940658
 30
0.0
  0
LINE
  5
3228
  8
AXE
 10
862.608065
 20
-3.466523
 30
0.0
 11
862.608065
 21
-155.182365
 31
0.0
  0
LINE
  5
3278
  8
AXE
 10
847.154624
 20
-60.252486
 30
0.0
 11
888.061506
 21
-60.252486
 31
0.0
  0
TEXT
  5
32BB
  8
AXE
 10
881.353402
 20
-59.107248
 30
0.0
 40
8.0
  1
X
 72
     2
 11
887.829592
 21
-59.107248
 31
0.0
  0
TEXT
  5
32BC
  8
AXE
 10
854.541107
 20
-155.774489
 30
0.0
 40
8.0
  1
Y
 72
     2
 11
861.017298
 21
-155.774489
 31
0.0
  0
LINE
  5
352E
  8
ALPHA
 10
853.307208
 20
-136.78977
 30
0.0
 11
851.905676
 21
-135.382852
 31
0.0
  0
LINE
  5
352F
  8
ALPHA
 10
872.818542
 20
-135.431924
 30
0.0
 11
871.422995
 21
-136.822684
 31
0.0
  0
POLYLINE
  5
3539
  8
ALPHA
 66
     1
 10
0.0
 20
0.0
 30
0.0
 70
   128
  0
VERTEX
  5
3A3D
  8
ALPHA
 10
868.623521
 20
-139.55214
 30
0.0
  0
VERTEX
  5
3A3E
  8
ALPHA
 10
868.623521
 20
-139.373009
 30
0.0
  0
VERTEX
  5
3A3F
  8
ALPHA
 10
868.623521
 20
-138.846578
 30
0.0
  0
VERTEX
  5
3A40
  8
ALPHA
 10
868.623521
 20
-137.989293
 30
0.0
  0
VERTEX
  5
3A41
  8
ALPHA
 10
868.623521
 20
-136.817598
 30
0.0
  0
SEQEND
  5
3A42
  8
ALPHA
  0
POLYLINE
  5
353A
  8
ALPHA
 66
     1
 10
0.0
 20
0.0
 30
0.0
 70
   128
210
0.0
220
0.0
230
-1.0
  0
VERTEX
  5
3A43
  8
ALPHA
 10
-855.971435
 20
-20.086311
 30
0.0
  0
VERTEX
  5
3A44
  8
ALPHA
 10
-856.415097
 20
-20.175903
 30
0.0
  0
VERTEX
  5
3A45
  8
ALPHA
 10
-856.60488
 20
-20.56123
 30
0.0
  0
VERTEX
  5
3A46
  8
ALPHA
 10
-856.618723
 20
-20.724258
 30
0.0
  0
VERTEX
  5
3A47
  8
ALPHA
 10
-856.621161
 20
-20.817654
 30
0.0
  0
VERTEX
  5
3A48
  8
ALPHA
 10
-856.621334
 20
-20.888475
 30
0.0
  0
VERTEX
  5
3A49
  8
ALPHA
 10
-856.621334
 20
-21.306378
 30
0.0
  0
VERTEX
  5
3A4A
  8
ALPHA
 10
-856.621334
 20
-22.163029
 30
0.0
  0
VERTEX
  5
3A4B
  8
ALPHA
 10
-856.621334
 20
-23.434048
 30
0.0
  0
VERTEX
  5
3A4C
  8
ALPHA
 10
-856.621334
 20
-25.095057
 30
0.0
  0
VERTEX
  5
3A4D
  8
ALPHA
 10
-856.621334
 20
-27.121676
 30
0.0
  0
VERTEX
  5
3A4E
  8
ALPHA
 10
-856.621334
 20
-29.489525
 30
0.0
  0
VERTEX
  5
3A4F
  8
ALPHA
 10
-856.621334
 20
-32.174225
 30
0.0
  0
VERTEX
  5
3A50
  8
ALPHA
 10
-856.621334
 20
-35.151397
 30
0.0
  0
VERTEX
  5
3A51
  8
ALPHA
 10
-856.621334
 20
-38.396662
 30
0.0
  0
VERTEX
  5
3A52
  8
ALPHA
 10
-856.621334
 20
-45.593949
 30
0.0
  0
VERTEX
  5
3A53
  8
ALPHA
 10
-856.621334
 20
-53.571052
 30
0.0
  0
VERTEX
  5
3A54
  8
ALPHA
 10
-856.621334
 20
-62.132937
 30
0.0
  0
VERTEX
  5
3A55
  8
ALPHA
 10
-856.621334
 20
-71.084566
 30
0.0
  0
VERTEX
  5
3A56
  8
ALPHA
 10
-856.621334
 20
-89.37692
 30
0.0
  0
VERTEX
  5
3A57
  8
ALPHA
 10
-856.621334
 20
-98.327573
 30
0.0
  0
VERTEX
  5
3A58
  8
ALPHA
 10
-856.621334
 20
-106.88783
 30
0.0
  0
SEQEND
  5
3A59
  8
ALPHA
  0
LINE
  5
353B
  8
ALPHA
 10
867.768958
 20
-100.466562
 30
0.0
 11
867.768958
 21
-106.88783
 31
0.0
1001
ACAD
1000
RTLwPs
1070
   128
  0
LINE
  5
353C
  8
ALPHA
 10
857.447173
 20
-100.466562
 30
0.0
 11
857.447173
 21
-106.88783
 31
0.0
1001
ACAD
1000
RTLwPs
1070
   128
  0
POLYLINE
  5
353D
  8
ALPHA
 66
     1
 10
0.0
 20
0.0
 30
0.0
 70
   128
210
0.0
220
0.0
230
-1.0
  0
VERTEX
  5
3A5A
  8
ALPHA
 10
-872.862826
 20
-135.297875
 30
0.0
  0
VERTEX
  5
3A5B
  8
ALPHA
 10
-871.29597
 20
-136.501182
 30
0.0
  0
VERTEX
  5
3A5C
  8
ALPHA
 10
-870.32459
 20
-136.7644
 30
0.0
  0
VERTEX
  5
3A5D
  8
ALPHA
 10
-869.224816
 20
-136.576858
 30
0.0
  0
VERTEX
  5
3A5E
  8
ALPHA
 10
-867.994329
 20
-135.769707
 30
0.0
  0
VERTEX
  5
3A5F
  8
ALPHA
 10
-867.666012
 20
-135.451317
 30
0.0
  0
VERTEX
  5
3A60
  8
ALPHA
 10
-867.501242
 20
-135.371823
 30
0.0
  0
VERTEX
  5
3A61
  8
ALPHA
 10
-867.334737
 20
-135.483275
 30
0.0
  0
VERTEX
  5
3A62
  8
ALPHA
 10
-866.584358
 20
-135.887164
 30
0.0
  0
VERTEX
  5
3A63
  8
ALPHA
 10
-864.75759
 20
-136.472576
 30
0.0
  0
VERTEX
  5
3A64
  8
ALPHA
 10
-862.658035
 20
-136.718108
 30
0.0
  0
VERTEX
  5
3A65
  8
ALPHA
 10
-860.479962
 20
-136.571689
 30
0.0
  0
VERTEX
  5
3A66
  8
ALPHA
 10
-858.417645
 20
-135.981249
 30
0.0
  0
VERTEX
  5
3A67
  8
ALPHA
 10
-857.490604
 20
-135.503248
 30
0.0
  0
VERTEX
  5
3A68
  8
ALPHA
 10
-857.154693
 20
-135.363239
 30
0.0
  0
VERTEX
  5
3A69
  8
ALPHA
 10
-857.003503
 20
-135.511594
 30
0.0
  0
VERTEX
  5
3A6A
  8
ALPHA
 10
-856.304295
 20
-136.11641
 30
0.0
  0
VERTEX
  5
3A6B
  8
ALPHA
 10
-855.451526
 20
-136.595089
 30
0.0
  0
VERTEX
  5
3A6C
  8
ALPHA
 10
-854.441929
 20
-136.755134
 30
0.0
  0
VERTEX
  5
3A6D
  8
ALPHA
 10
-853.272239
 20
-136.40405
 30
0.0
  0
VERTEX
  5
3A6E
  8
ALPHA
 10
-851.939188
 20
-135.34934
 30
0.0
  0
SEQEND
  5
3A6F
  8
ALPHA
  0
LINE
  5
3544
  8
ALPHA
 10
871.422995
 20
-136.822684
 30
0.0
 11
853.307208
 21
-136.78977
 31
0.0
  0
POLYLINE
  5
3545
  8
ALPHA
 66
     1
 10
0.0
 20
0.0
 30
0.0
 70
   128
  0
VERTEX
  5
3A70
  8
ALPHA
 10
857.505819
 20
-140.466547
 30
0.0
  0
VERTEX
  5
3A71
  8
ALPHA
 10
857.944242
 20
-140.466547
 30
0.0
  0
VERTEX
  5
3A72
  8
ALPHA
 10
859.100084
 20
-140.466547
 30
0.0
  0
VERTEX
  5
3A73
  8
ALPHA
 10
860.734206
 20
-140.466547
 30
0.0
  0
VERTEX
  5
3A74
  8
ALPHA
 10
862.607467
 20
-140.466547
 30
0.0
  0
VERTEX
  5
3A75
  8
ALPHA
 10
864.480728
 20
-140.466547
 30
0.0
  0
VERTEX
  5
3A76
  8
ALPHA
 10
866.11485
 20
-140.466547
 30
0.0
  0
VERTEX
  5
3A77
  8
ALPHA
 10
867.270692
 20
-140.466547
 30
0.0
  0
VERTEX
  5
3A78
  8
ALPHA
 10
867.709115
 20
-140.466547
 30
0.0
  0
SEQEND
  5
3A79
  8
ALPHA
  0
LINE
  5
3546
  8
ALPHA
 10
856.679981
 20
-139.462974
 30
0.0
 11
868.534953
 21
-139.462974
 31
0.0
1001
ACAD
1000
RTLwPs
1070
   128
  0
LINE
  5
3547
  8
ALPHA
 10
856.621334
 20
-139.581463
 30
0.0
 11
857.505819
 21
-140.466547
 31
0.0
  0
LINE
  5
3548
  8
ALPHA
 10
867.709115
 20
-140.466547
 30
0.0
 11
868.623521
 21
-139.55214
 31
0.0
  0
LINE
  5
3550
  8
ALPHA
 10
871.662368
 20
-8.938089
 30
0.0
 11
871.662368
 21
-20.086311
 31
0.0
  0
LINE
  5
3551
  8
ALPHA
 10
853.554959
 20
-20.086311
 30
0.0
 11
853.554959
 21
-8.938089
 31
0.0
  0
LINE
  5
3565
  8
ALPHA
 10
874.37447
 20
-117.717088
 30
0.0
 11
850.783014
 21
-117.717088
 31
0.0
  0
LINE
  5
3566
  8
ALPHA
 10
850.783014
 20
-120.313093
 30
0.0
 11
874.37447
 21
-120.313093
 31
0.0
  0
LINE
  5
3567
  8
ALPHA
 10
853.546581
 20
-106.88783
 30
0.0
 11
871.662368
 21
-106.88783
 31
0.0
  0
LINE
  5
3569
  8
ALPHA
 10
874.210499
 20
-123.402208
 30
0.0
 11
850.62024
 21
-123.358523
 31
0.0
  0
LINE
  5
356A
  8
ALPHA
 10
850.614256
 20
-125.95393
 30
0.0
 11
874.206908
 21
-125.997017
 31
0.0
  0
LINE
  5
356C
  8
ALPHA
 10
856.621334
 20
-100.466562
 30
0.0
 11
868.623521
 21
-100.466562
 31
0.0
1001
ACAD
1000
RTLwPs
1070
   128
  0
POLYLINE
  5
356D
  8
ALPHA
 66
     1
 10
0.0
 20
0.0
 30
0.0
 70
   128
  0
VERTEX
  5
3A7A
  8
ALPHA
 10
872.877189
 20
-127.52488
 30
0.0
  0
VERTEX
  5
3A7B
  8
ALPHA
 10
871.314435
 20
-126.316523
 30
0.0
  0
VERTEX
  5
3A7C
  8
ALPHA
 10
870.344089
 20
-126.050023
 30
0.0
  0
VERTEX
  5
3A7D
  8
ALPHA
 10
869.243723
 20
-126.233778
 30
0.0
  0
VERTEX
  5
3A7E
  8
ALPHA
 10
868.010309
 20
-127.036638
 30
0.0
  0
VERTEX
  5
3A7F
  8
ALPHA
 10
867.680812
 20
-127.353875
 30
0.0
  0
VERTEX
  5
3A80
  8
ALPHA
 10
867.515744
 20
-127.432781
 30
0.0
  0
VERTEX
  5
3A81
  8
ALPHA
 10
867.34965
 20
-127.320712
 30
0.0
  0
VERTEX
  5
3A82
  8
ALPHA
 10
866.600785
 20
-126.914053
 30
0.0
  0
VERTEX
  5
3A83
  8
ALPHA
 10
864.776328
 20
-126.321921
 30
0.0
  0
VERTEX
  5
3A84
  8
ALPHA
 10
862.677932
 20
-126.068666
 30
0.0
  0
VERTEX
  5
3A85
  8
ALPHA
 10
860.499632
 20
-126.207047
 30
0.0
  0
VERTEX
  5
3A86
  8
ALPHA
 10
858.43546
 20
-126.78982
 30
0.0
  0
VERTEX
  5
3A87
  8
ALPHA
 10
857.506809
 20
-127.26434
 30
0.0
  0
VERTEX
  5
3A88
  8
ALPHA
 10
857.170422
 20
-127.403093
 30
0.0
  0
VERTEX
  5
3A89
  8
ALPHA
 10
857.019746
 20
-127.254206
 30
0.0
  0
VERTEX
  5
3A8A
  8
ALPHA
 10
856.322547
 20
-126.64694
 30
0.0
  0
VERTEX
  5
3A8B
  8
ALPHA
 10
855.471283
 20
-126.165275
 30
0.0
  0
VERTEX
  5
3A8C
  8
ALPHA
 10
854.462117
 20
-126.001684
 30
0.0
  0
VERTEX
  5
3A8D
  8
ALPHA
 10
853.291217
 20
-126.348638
 30
0.0
  0
VERTEX
  5
3A8E
  8
ALPHA
 10
851.954748
 20
-127.398611
 30
0.0
  0
SEQEND
  5
3A8F
  8
ALPHA
  0
POLYLINE
  5
356E
  8
ALPHA
 66
     1
 10
0.0
 20
0.0
 30
0.0
 70
   128
  0
VERTEX
  5
3A90
  8
ALPHA
 10
852.11034
 20
-116.188028
 30
0.0
  0
VERTEX
  5
3A91
  8
ALPHA
 10
853.674882
 20
-117.394092
 30
0.0
  0
VERTEX
  5
3A92
  8
ALPHA
 10
854.645815
 20
-117.658806
 30
0.0
  0
VERTEX
  5
3A93
  8
ALPHA
 10
855.745994
 20
-117.472903
 30
0.0
  0
VERTEX
  5
3A94
  8
ALPHA
 10
856.978022
 20
-116.667578
 30
0.0
  0
VERTEX
  5
3A95
  8
ALPHA
 10
857.306936
 20
-116.349681
 30
0.0
  0
VERTEX
  5
3A96
  8
ALPHA
 10
857.471813
 20
-116.270467
 30
0.0
  0
VERTEX
  5
3A97
  8
ALPHA
 10
857.637991
 20
-116.382265
 30
0.0
  0
VERTEX
  5
3A98
  8
ALPHA
 10
858.387186
 20
-116.787646
 30
0.0
  0
VERTEX
  5
3A99
  8
ALPHA
 10
860.212213
 20
-117.376446
 30
0.0
  0
VERTEX
  5
3A9A
  8
ALPHA
 10
862.310943
 20
-117.62569
 30
0.0
  0
VERTEX
  5
3A9B
  8
ALPHA
 10
864.489199
 20
-117.483047
 30
0.0
  0
VERTEX
  5
3A9C
  8
ALPHA
 10
866.552805
 20
-116.896184
 30
0.0
  0
VERTEX
  5
3A9D
  8
ALPHA
 10
867.480934
 20
-116.419818
 30
0.0
  0
VERTEX
  5
3A9E
  8
ALPHA
 10
867.81711
 20
-116.280435
 30
0.0
  0
VERTEX
  5
3A9F
  8
ALPHA
 10
867.967822
 20
-116.42914
 30
0.0
  0
VERTEX
  5
3AA0
  8
ALPHA
 10
868.665468
 20
-117.035494
 30
0.0
  0
VERTEX
  5
3AA1
  8
ALPHA
 10
869.517306
 20
-117.515901
 30
0.0
  0
VERTEX
  5
3AA2
  8
ALPHA
 10
870.526697
 20
-117.677816
 30
0.0
  0
VERTEX
  5
3AA3
  8
ALPHA
 10
871.697003
 20
-117.328696
 30
0.0
  0
VERTEX
  5
3AA4
  8
ALPHA
 10
873.031585
 20
-116.275998
 30
0.0
  0
SEQEND
  5
3AA5
  8
ALPHA
  0
POLYLINE
  5
356F
  8
ALPHA
 66
     1
 10
0.0
 20
0.0
 30
0.0
 70
   128
210
0.0
220
0.0
230
-1.0
  0
VERTEX
  5
3AA6
  8
ALPHA
 10
-852.11034
 20
-108.413837
 30
0.0
  0
VERTEX
  5
3AA7
  8
ALPHA
 10
-853.674882
 20
-107.208457
 30
0.0
  0
VERTEX
  5
3AA8
  8
ALPHA
 10
-854.645815
 20
-106.943694
 30
0.0
  0
VERTEX
  5
3AA9
  8
ALPHA
 10
-855.745994
 20
-107.129383
 30
0.0
  0
VERTEX
  5
3AAA
  8
ALPHA
 10
-856.978022
 20
-107.934398
 30
0.0
  0
VERTEX
  5
3AAB
  8
ALPHA
 10
-857.306936
 20
-108.252211
 30
0.0
  0
VERTEX
  5
3AAC
  8
ALPHA
 10
-857.471813
 20
-108.331425
 30
0.0
  0
VERTEX
  5
3AAD
  8
ALPHA
 10
-857.637991
 20
-108.219703
 30
0.0
  0
VERTEX
  5
3AAE
  8
ALPHA
 10
-858.387186
 20
-107.814538
 30
0.0
  0
VERTEX
  5
3AAF
  8
ALPHA
 10
-860.212213
 20
-107.225828
 30
0.0
  0
VERTEX
  5
3AB0
  8
ALPHA
 10
-862.310943
 20
-106.976399
 30
0.0
  0
VERTEX
  5
3AB1
  8
ALPHA
 10
-864.489199
 20
-107.118794
 30
0.0
  0
VERTEX
  5
3AB2
  8
ALPHA
 10
-866.552805
 20
-107.705557
 30
0.0
  0
VERTEX
  5
3AB3
  8
ALPHA
 10
-867.480934
 20
-108.181998
 30
0.0
  0
VERTEX
  5
3AB4
  8
ALPHA
 10
-867.81711
 20
-108.321484
 30
0.0
  0
VERTEX
  5
3AB5
  8
ALPHA
 10
-867.967822
 20
-108.172935
 30
0.0
  0
VERTEX
  5
3AB6
  8
ALPHA
 10
-868.665468
 20
-107.567053
 30
0.0
  0
VERTEX
  5
3AB7
  8
ALPHA
 10
-869.517306
 20
-107.086897
 30
0.0
  0
VERTEX
  5
3AB8
  8
ALPHA
 10
-870.526697
 20
-106.925036
 30
0.0
  0
VERTEX
  5
3AB9
  8
ALPHA
 10
-871.697003
 20
-107.274036
 30
0.0
  0
VERTEX
  5
3ABA
  8
ALPHA
 10
-873.031585
 20
-108.326465
 30
0.0
  0
SEQEND
  5
3ABB
  8
ALPHA
  0
LINE
  5
3570
  8
ALPHA
 10
852.154624
 20
-108.280984
 30
0.0
 11
853.546581
 21
-106.88783
 31
0.0
  0
LINE
  5
3571
  8
ALPHA
 10
853.494505
 20
-117.717088
 30
0.0
 11
852.154624
 21
-116.375998
 31
0.0
  0
LINE
  5
3572
  8
ALPHA
 10
851.920038
 20
-127.298611
 30
0.0
 11
853.343239
 21
-125.958914
 31
0.0
  0
LINE
  5
3573
  8
ALPHA
 10
850.62024
 20
-123.358523
 30
0.0
 11
850.614256
 21
-125.95393
 31
0.0
  0
LINE
  5
3574
  8
ALPHA
 10
851.905676
 20
-135.382852
 30
0.0
 11
851.920038
 21
-127.298611
 31
0.0
  0
LINE
  5
3575
  8
ALPHA
 10
850.783014
 20
-117.717088
 30
0.0
 11
850.783014
 21
-120.313093
 31
0.0
  0
LINE
  5
3576
  8
ALPHA
 10
852.154624
 20
-116.375998
 30
0.0
 11
852.154624
 21
-108.280984
 31
0.0
  0
LINE
  5
3577
  8
ALPHA
 10
857.158728
 20
-135.358316
 30
0.0
 11
857.174287
 21
-127.351273
 31
0.0
  0
LINE
  5
3578
  8
ALPHA
 10
857.461535
 20
-108.326465
 30
0.0
 11
857.461535
 21
-116.332312
 31
0.0
  0
LINE
  5
3579
  8
ALPHA
 10
871.662368
 20
-106.88783
 30
0.0
 11
873.066294
 21
-108.292355
 31
0.0
  0
LINE
  5
357A
  8
ALPHA
 10
867.509238
 20
-135.378065
 30
0.0
 11
867.525994
 21
-127.371021
 31
0.0
  0
LINE
  5
357B
  8
ALPHA
 10
874.206908
 20
-125.997017
 30
0.0
 11
874.210499
 21
-123.402208
 31
0.0
  0
LINE
  5
357C
  8
ALPHA
 10
872.834101
 20
-127.33691
 30
0.0
 11
872.818542
 21
-135.431924
 31
0.0
  0
LINE
  5
357D
  8
ALPHA
 10
871.4947
 20
-125.992064
 30
0.0
 11
872.834101
 21
-127.33691
 31
0.0
  0
LINE
  5
357E
  8
ALPHA
 10
867.813242
 20
-108.326465
 30
0.0
 11
867.813242
 21
-116.332312
 31
0.0
  0
LINE
  5
357F
  8
ALPHA
 10
874.37447
 20
-120.313093
 30
0.0
 11
874.37447
 21
-117.717088
 31
0.0
  0
LINE
  5
3580
  8
ALPHA
 10
873.066294
 20
-116.375998
 30
0.0
 11
871.64781
 21
-117.717088
 31
0.0
  0
LINE
  5
3581
  8
ALPHA
 10
873.066294
 20
-108.292355
 30
0.0
 11
873.066294
 21
-116.375998
 31
0.0
  0
LINE
  5
3583
  8
ALPHA
 10
871.662368
 20
-20.086311
 30
0.0
 11
853.554959
 21
-20.086311
 31
0.0
  0
LINE
  5
3584
  8
ALPHA
 10
856.621334
 20
-20.852306
 30
0.0
 11
868.623415
 21
-20.852306
 31
0.0
  0
LINE
  5
358A
  8
ALPHA
 10
854.085172
 20
-8.466523
 30
0.0
 11
871.188409
 21
-8.466523
 31
0.0
  0
LINE
  5
358B
  8
ALPHA
 10
853.554959
 20
-8.938089
 30
0.0
 11
871.662368
 21
-8.938089
 31
0.0
  0
LINE
  5
358C
  8
ALPHA
 10
853.554959
 20
-8.938089
 30
0.0
 11
854.085172
 21
-8.466523
 31
0.0
  0
LINE
  5
358D
  8
ALPHA
 10
871.188409
 20
-8.466523
 30
0.0
 11
871.662368
 21
-8.938089
 31
0.0
  0
LINE
  5
35D9
  8
ALPHA
 10
857.447173
 20
-136.797292
 30
0.0
 11
857.447173
 21
-140.466547
 31
0.0
1001
ACAD
1000
RTLwPs
1070
   128
  0
POLYLINE
  5
35DA
  8
ALPHA
 66
     1
 10
0.0
 20
0.0
 30
0.0
 70
   128
  0
VERTEX
  5
3ABC
  8
ALPHA
 10
856.621334
 20
-136.795791
 30
0.0
  0
VERTEX
  5
3ABD
  8
ALPHA
 10
856.621334
 20
-137.989148
 30
0.0
  0
VERTEX
  5
3ABE
  8
ALPHA
 10
856.621334
 20
-138.86249
 30
0.0
  0
VERTEX
  5
3ABF
  8
ALPHA
 10
856.621334
 20
-139.398901
 30
0.0
  0
VERTEX
  5
3AC0
  8
ALPHA
 10
856.621334
 20
-139.581463
 30
0.0
  0
SEQEND
  5
3AC1
  8
ALPHA
  0
LINE
  5
35DB
  8
ALPHA
 10
867.768958
 20
-136.816045
 30
0.0
 11
867.768958
 21
-140.466547
 31
0.0
1001
ACAD
1000
RTLwPs
1070
   128
  0
LINE
  5
35DC
  8
ALPHA
 10
868.623521
 20
-123.391862
 30
0.0
 11
868.623521
 21
-120.313093
 31
0.0
  0
LINE
  5
35DD
  8
ALPHA
 10
857.447173
 20
-120.313093
 30
0.0
 11
857.447173
 21
-123.371165
 31
0.0
1001
ACAD
1000
RTLwPs
1070
   128
  0
LINE
  5
35DE
  8
ALPHA
 10
856.621334
 20
-120.313093
 30
0.0
 11
856.621334
 21
-123.369636
 31
0.0
  0
LINE
  5
35DF
  8
ALPHA
 10
867.768958
 20
-120.313093
 30
0.0
 11
867.768958
 21
-123.39028
 31
0.0
1001
ACAD
1000
RTLwPs
1070
   128
  0
POLYLINE
  5
35E0
  8
ALPHA
 66
     1
 10
0.0
 20
0.0
 30
0.0
 70
   128
  0
VERTEX
  5
3AC2
  8
ALPHA
 10
868.623521
 20
-106.88783
 30
0.0
  0
VERTEX
  5
3AC3
  8
ALPHA
 10
868.623521
 20
-98.304992
 30
0.0
  0
VERTEX
  5
3AC4
  8
ALPHA
 10
868.623521
 20
-89.330002
 30
0.0
  0
VERTEX
  5
3AC5
  8
ALPHA
 10
868.623521
 20
-70.990972
 30
0.0
  0
VERTEX
  5
3AC6
  8
ALPHA
 10
868.623521
 20
-62.020634
 30
0.0
  0
VERTEX
  5
3AC7
  8
ALPHA
 10
868.623521
 20
-53.445549
 30
0.0
  0
VERTEX
  5
3AC8
  8
ALPHA
 10
868.623521
 20
-45.462568
 30
0.0
  0
VERTEX
  5
3AC9
  8
ALPHA
 10
868.623521
 20
-38.268542
 30
0.0
  0
VERTEX
  5
3ACA
  8
ALPHA
 10
868.623521
 20
-35.028902
 30
0.0
  0
VERTEX
  5
3ACB
  8
ALPHA
 10
868.623521
 20
-32.060321
 30
0.0
  0
VERTEX
  5
3ACC
  8
ALPHA
 10
868.623521
 20
-29.387404
 30
0.0
  0
VERTEX
  5
3ACD
  8
ALPHA
 10
868.623521
 20
-27.034758
 30
0.0
  0
VERTEX
  5
3ACE
  8
ALPHA
 10
868.623521
 20
-25.026989
 30
0.0
  0
VERTEX
  5
3ACF
  8
ALPHA
 10
868.623521
 20
-23.388703
 30
0.0
  0
VERTEX
  5
3AD0
  8
ALPHA
 10
868.623521
 20
-22.144507
 30
0.0
  0
VERTEX
  5
3AD1
  8
ALPHA
 10
868.623521
 20
-21.319007
 30
0.0
  0
VERTEX
  5
3AD2
  8
ALPHA
 10
868.623521
 20
-20.93681
 30
0.0
  0
VERTEX
  5
3AD3
  8
ALPHA
 10
868.623499
 20
-20.88749
 30
0.0
  0
VERTEX
  5
3AD4
  8
ALPHA
 10
868.623323
 20
-20.815991
 30
0.0
  0
VERTEX
  5
3AD5
  8
ALPHA
 10
868.624285
 20
-20.679625
 30
0.0
  0
VERTEX
  5
3AD6
  8
ALPHA
 10
868.724408
 20
-20.251416
 30
0.0
  0
VERTEX
  5
3AD7
  8
ALPHA
 10
869.184852
 20
-20.086311
 30
0.0
  0
SEQEND
  5
3AD8
  8
ALPHA
  0
DIMENSION
  5
35E1
  8
COTATION1
  2
*D4
 10
827.154624
 20
-140.466547
 30
0.0
 11
827.154624
 21
-74.466485
 31
0.0
 70
   128
 13
854.085172
 23
-8.466523
 33
0.0
 14
857.505819
 24
-140.466547
 34
0.0
 50
90.0
  0
LINE
  5
3628
  8
ALPHA
 10
856.621334
 20
-99.641321
 30
0.0
 11
857.447173
 21
-100.467758
 31
0.0
  0
LINE
  5
3629
  8
ALPHA
 10
867.768958
 20
-100.466562
 30
0.0
 11
868.623521
 21
-99.611998
 31
0.0
  0
DIMENSION
  5
362A
  8
COTATION1
  2
*D5
 10
837.154624
 20
-140.466547
 30
0.0
 11
837.154624
 21
-120.466554
 31
0.0
 70
   128
 13
856.621334
 23
-100.466562
 33
0.0
 14
857.505819
 24
-140.466547
 34
0.0
 50
90.0
  0
ENDSEC
  0
EOF
