  0
SECTION
  2
HEADER
  9
$ACADVER
  1
AC1009
  9
$INSBASE
 10
-146.27124
 20
-153.796096
 30
0.0
  9
$EXTMIN
 10
1329.453086
 20
85.190673
 30
0.0
  9
$EXTMAX
 10
1441.608842
 20
240.79452
 30
0.0
  9
$LIMMIN
 10
-407.970438
 20
-367.832444
  9
$LIMMAX
 10
429.804077
 20
234.370848
  9
$ORTHOMODE
 70
     1
  9
$REGENMODE
 70
     1
  9
$FILLMODE
 70
     1
  9
$QTEXTMODE
 70
     0
  9
$MIRRTEXT
 70
     1
  9
$DRAGMODE
 70
     2
  9
$LTSCALE
 40
10.0
  9
$OSMODE
 70
    33
  9
$ATTMODE
 70
     1
  9
$TEXTSIZE
 40
6.0
  9
$TRACEWID
 40
1.0
  9
$TEXTSTYLE
  7
ROMANS
  9
$CLAYER
  8
ALPHA
  9
$CELTYPE
  6
BYLAYER
  9
$CECOLOR
 62
   256
  9
$DIMSCALE
 40
1.0
  9
$DIMASZ
 40
3.0
  9
$DIMEXO
 40
1.0
  9
$DIMDLI
 40
0.1
  9
$DIMRND
 40
0.0
  9
$DIMDLE
 40
0.0
  9
$DIMEXE
 40
0.5
  9
$DIMTP
 40
0.0
  9
$DIMTM
 40
0.0
  9
$DIMTXT
 40
3.0
  9
$DIMCEN
 40
0.0
  9
$DIMTSZ
 40
0.0
  9
$DIMTOL
 70
     0
  9
$DIMLIM
 70
     0
  9
$DIMTIH
 70
     0
  9
$DIMTOH
 70
     0
  9
$DIMSE1
 70
     0
  9
$DIMSE2
 70
     0
  9
$DIMTAD
 70
     1
  9
$DIMZIN
 70
    12
  9
$DIMBLK
  1
OPEN30
  9
$DIMASO
 70
     1
  9
$DIMSHO
 70
     1
  9
$DIMPOST
  1

  9
$DIMAPOST
  1

  9
$DIMALT
 70
     0
  9
$DIMALTD
 70
     2
  9
$DIMALTF
 40
25.4
  9
$DIMLFAC
 40
1.0
  9
$DIMTOFL
 70
     0
  9
$DIMTVP
 40
0.0
  9
$DIMTIX
 70
     0
  9
$DIMSOXD
 70
     0
  9
$DIMSAH
 70
     0
  9
$DIMBLK1
  1

  9
$DIMBLK2
  1

  9
$DIMSTYLE
  2
SC_DEFAUT
  9
$DIMCLRD
 70
     0
  9
$DIMCLRE
 70
     0
  9
$DIMCLRT
 70
     0
  9
$DIMTFAC
 40
1.0
  9
$DIMGAP
 40
0.6
  9
$LUNITS
 70
     2
  9
$LUPREC
 70
     1
  9
$SKETCHINC
 40
0.1
  9
$FILLETRAD
 40
0.0
  9
$AUNITS
 70
     0
  9
$AUPREC
 70
     0
  9
$MENU
  1
acad
  9
$ELEVATION
 40
0.0
  9
$PELEVATION
 40
0.0
  9
$THICKNESS
 40
0.0
  9
$LIMCHECK
 70
     0
  9
$BLIPMODE
 70
     0
  9
$CHAMFERA
 40
0.0
  9
$CHAMFERB
 40
0.0
  9
$SKPOLY
 70
     0
  9
$TDCREATE
 40
2450365.355314
  9
$TDUPDATE
 40
2452576.591842
  9
$TDINDWG
 40
0.952245
  9
$TDUSRTIMER
 40
0.952245
  9
$USRTIMER
 70
     1
  9
$ANGBASE
 50
0.0
  9
$ANGDIR
 70
     0
  9
$PDMODE
 70
    32
  9
$PDSIZE
 40
0.0
  9
$PLINEWID
 40
0.0
  9
$COORDS
 70
     2
  9
$SPLFRAME
 70
     0
  9
$SPLINETYPE
 70
     6
  9
$SPLINESEGS
 70
     8
  9
$ATTDIA
 70
     0
  9
$ATTREQ
 70
     1
  9
$HANDLING
 70
     1
  9
$HANDSEED
  5
645C
  9
$SURFTAB1
 70
     6
  9
$SURFTAB2
 70
     6
  9
$SURFTYPE
 70
     6
  9
$SURFU
 70
     6
  9
$SURFV
 70
     6
  9
$UCSNAME
  2

  9
$UCSORG
 10
0.0
 20
0.0
 30
0.0
  9
$UCSXDIR
 10
1.0
 20
0.0
 30
0.0
  9
$UCSYDIR
 10
0.0
 20
1.0
 30
0.0
  9
$PUCSNAME
  2

  9
$PUCSORG
 10
0.0
 20
0.0
 30
0.0
  9
$PUCSXDIR
 10
1.0
 20
0.0
 30
0.0
  9
$PUCSYDIR
 10
0.0
 20
1.0
 30
0.0
  9
$USERI1
 70
     0
  9
$USERI2
 70
     0
  9
$USERI3
 70
     0
  9
$USERI4
 70
     0
  9
$USERI5
 70
     0
  9
$USERR1
 40
0.0
  9
$USERR2
 40
0.0
  9
$USERR3
 40
0.0
  9
$USERR4
 40
0.0
  9
$USERR5
 40
0.0
  9
$WORLDVIEW
 70
     1
  9
$SHADEDGE
 70
     3
  9
$SHADEDIF
 70
    70
  9
$TILEMODE
 70
     1
  9
$MAXACTVP
 70
    16
  9
$PLIMCHECK
 70
     0
  9
$PEXTMIN
 10
1.000000E+020
 20
1.000000E+020
 30
1.000000E+020
  9
$PEXTMAX
 10
-1.000000E+020
 20
-1.000000E+020
 30
-1.000000E+020
  9
$PLIMMIN
 10
0.0
 20
0.0
  9
$PLIMMAX
 10
12.0
 20
9.0
  9
$UNITMODE
 70
     0
  9
$VISRETAIN
 70
     0
  9
$PLINEGEN
 70
     0
  9
$PSLTSCALE
 70
     0
  0
ENDSEC
  0
SECTION
  2
TABLES
  0
TABLE
  2
VPORT
 70
     2
  0
VPORT
  2
*ACTIVE
 70
     0
 10
0.0
 20
0.0
 11
1.0
 21
1.0
 12
1385.502835
 22
162.988786
 13
0.0
 23
0.0
 14
1.0
 24
1.0
 15
10.0
 25
10.0
 16
0.0
 26
0.0
 36
1.0
 17
0.0
 27
0.0
 37
0.0
 40
157.057204
 41
1.63142
 42
50.0
 43
0.0
 44
0.0
 50
0.0
 51
0.0
 71
     0
 72
   100
 73
     1
 74
     0
 75
     0
 76
     0
 77
     0
 78
     0
  0
ENDTAB
  0
TABLE
  2
LTYPE
 70
    25
  0
LTYPE
  2
CONTINUOUS
 70
     0
  3
Solid line
 72
    65
 73
     0
 40
0.0
  0
LTYPE
  2
AXES2
 70
     0
  3
___ _ ___ _ ___ _ ___ _ ___ _ ___ _ ___ _ ___ _
 72
    65
 73
     4
 40
1.125
 49
0.75
 49
-0.125
 49
0.125
 49
-0.125
  0
LTYPE
  2
AXES
 70
     0
  3
____ _ ____ _ ____ _ ____ _ ____ _ ____ _ ____ 
 72
    65
 73
     4
 40
2.0
 49
1.25
 49
-0.25
 49
0.25
 49
-0.25
  0
LTYPE
  2
AXESX2
 70
     0
  3
________  __  ________  __  ________  __  _____
 72
    65
 73
     4
 40
4.0
 49
2.5
 49
-0.5
 49
0.5
 49
-0.5
  0
LTYPE
  2
TIRETPT
 70
     0
  3
__ . __ . __ . __ . __ . __ . __ . __ . __ . __
 72
    65
 73
     4
 40
1.0
 49
0.5
 49
-0.25
 49
0.0
 49
-0.25
  0
LTYPE
  2
TIRETPT2
 70
     0
  3
_._._._._._._._._._._._._._._._._._._._._._._._
 72
    65
 73
     4
 40
0.5
 49
0.25
 49
-0.125
 49
0.0
 49
-0.125
  0
LTYPE
  2
TIRETPTX2
 70
     0
  3
____  .  ____  .  ____  .  ____  .  ____  .  __
 72
    65
 73
     4
 40
2.0
 49
1.0
 49
-0.5
 49
0.0
 49
-0.5
  0
LTYPE
  2
DISCONTINU
 70
     0
  3
__ __ __ __ __ __ __ __ __ __ __ __ __ __ __ __
 72
    65
 73
     2
 40
0.75
 49
0.5
 49
-0.25
  0
LTYPE
  2
DISCONTINU2
 70
     0
  3
_ _ _ _ _ _ _ _ _ _ _ _ _ _ _ _ _ _ _ _ _ _ _ _
 72
    65
 73
     2
 40
0.375
 49
0.25
 49
-0.125
  0
LTYPE
  2
DISCONTINUX2
 70
     0
  3
____  ____  ____  ____  ____  ____  ____  ____ 
 72
    65
 73
     2
 40
1.5
 49
1.0
 49
-0.5
  0
LTYPE
  2
DIVISE
 70
     0
  3
____ . . ____ . . ____ . . ____ . . ____ . . __
 72
    65
 73
     6
 40
1.25
 49
0.5
 49
-0.25
 49
0.0
 49
-0.25
 49
0.0
 49
-0.25
  0
LTYPE
  2
DIVISE2
 70
     0
  3
__..__..__..__..__..__..__..__..__..__..__..__.
 72
    65
 73
     6
 40
0.625
 49
0.25
 49
-0.125
 49
0.0
 49
-0.125
 49
0.0
 49
-0.125
  0
LTYPE
  2
DIVISEX2
 70
     0
  3
________  .  .  ________  .  .  ________  .  . 
 72
    65
 73
     6
 40
2.5
 49
1.0
 49
-0.5
 49
0.0
 49
-0.5
 49
0.0
 49
-0.5
  0
LTYPE
  2
POINTILLE
 70
     0
  3
. . . . . . . . . . . . . . . . . . . . . . . .
 72
    65
 73
     2
 40
0.25
 49
0.0
 49
-0.25
  0
LTYPE
  2
POINTILLE2
 70
     0
  3
...............................................
 72
    65
 73
     2
 40
0.125
 49
0.0
 49
-0.125
  0
LTYPE
  2
POINTILLEX2
 70
     0
  3
.  .  .  .  .  .  .  .  .  .  .  .  .  .  .  . 
 72
    65
 73
     2
 40
0.5
 49
0.0
 49
-0.5
  0
LTYPE
  2
CACHE
 70
     0
  3
__ __ __ __ __ __ __ __ __ __ __ __ __ __ __ __
 72
    65
 73
     2
 40
0.375
 49
0.25
 49
-0.125
  0
LTYPE
  2
CACHE2
 70
     0
  3
_ _ _ _ _ _ _ _ _ _ _ _ _ _ _ _ _ _ _ _ _ _ _ _
 72
    65
 73
     2
 40
0.1875
 49
0.125
 49
-0.0625
  0
LTYPE
  2
CACHEX2
 70
     0
  3
____ ____ ____ ____ ____ ____ ____ ____ ____ __
 72
    65
 73
     2
 40
0.75
 49
0.5
 49
-0.25
  0
LTYPE
  2
FANTOME
 70
     0
  3
______  __  __  ______  __  __  ______  __  __ 
 72
    65
 73
     6
 40
2.5
 49
1.25
 49
-0.25
 49
0.25
 49
-0.25
 49
0.25
 49
-0.25
  0
LTYPE
  2
FANTOME2
 70
     0
  3
___ _ _ ___ _ _ ___ _ _ ___ _ _ ___ _ _ ___ _ _
 72
    65
 73
     6
 40
1.25
 49
0.625
 49
-0.125
 49
0.125
 49
-0.125
 49
0.125
 49
-0.125
  0
LTYPE
  2
FANTOMEX2
 70
     0
  3
____________    ____    ____    ____________   
 72
    65
 73
     6
 40
5.0
 49
2.5
 49
-0.5
 49
0.5
 49
-0.5
 49
0.5
 49
-0.5
  0
LTYPE
  2
0
 70
     0
  3
MEDUSA PEN 0
 72
    65
 73
     0
 40
0.0
  0
LTYPE
  2
AI9-LTYPE1
 70
     0
  3
Illustrator Dash Style No.1
 72
    65
 73
     4
 40
5.64621
 49
4.106333
 49
-0.307975
 49
0.923926
 49
-0.307975
  0
LTYPE
  2
ACAD_ISO04W100
 70
     0
  3
ISO Lang gestrichelt punktiert ____ . ____ . __
 72
    65
 73
     4
 40
30.5
 49
24.0
 49
-3.0
 49
0.5
 49
-3.0
  0
ENDTAB
  0
TABLE
  2
LAYER
 70
    17
  0
LAYER
  2
0
 70
     0
 62
     7
  6
CONTINUOUS
  0
LAYER
  2
TEXTE_MOYEN
 70
     0
 62
   131
  6
CONTINUOUS
  0
LAYER
  2
ALPHA
 70
     0
 62
   254
  6
CONTINUOUS
  0
LAYER
  2
COTATION1
 70
     0
 62
    50
  6
CONTINUOUS
  0
LAYER
  2
AXE
 70
     0
 62
    80
  6
AXES2
  0
LAYER
  2
DEFPOINTS
 70
     0
 62
     7
  6
CONTINUOUS
  0
LAYER
  2
HACHURES1
 70
     0
 62
   130
  6
CONTINUOUS
  0
LAYER
  2
FMULT
 70
     0
 62
   210
  6
CONTINUOUS
  0
LAYER
  2
FDP_CARTOUCHE
 70
     0
 62
   136
  6
CONTINUOUS
  0
LAYER
  2
FDP_TEXTES
 70
     0
 62
   171
  6
CONTINUOUS
  0
LAYER
  2
FDP_LOGO_MG
 70
     0
 62
    30
  6
CONTINUOUS
  0
LAYER
  2
FDP_LOGO_SCH
 70
     0
 62
    90
  6
CONTINUOUS
  0
LAYER
  2
FDP_FDP
 70
     0
 62
   170
  6
CONTINUOUS
  0
LAYER
  2
POINTILLE_COURT2
 70
     0
 62
    41
  6
CACHE2
  0
LAYER
  2
POINTILLE_MOYEN2
 70
     0
 62
   141
  6
CACHE
  0
LAYER
  2
POINTILLE_LONG2
 70
     0
 62
   241
  6
CACHEX2
  0
LAYER
  2
ALPHA_FIN
 70
     0
 62
   255
  6
CONTINUOUS
  0
ENDTAB
  0
TABLE
  2
STYLE
 70
     4
  0
STYLE
  2
ROMANS
 70
     0
 40
0.0
 41
1.0
 50
0.0
 71
     0
 42
6.0
  3
romans
  4

  0
STYLE
  2
STANDARD
 70
     0
 40
0.2
 41
1.0
 50
0.0
 71
     0
 42
0.2
  3
txt
  4

  0
STYLE
  2
CARTOUCHE
 70
     0
 40
0.0
 41
1.0
 50
0.0
 71
     0
 42
0.2
  3
ROMANS.SHX
  4

  0
STYLE
  2
STD
 70
     0
 40
0.0
 41
1.0
 50
0.0
 71
     0
 42
0.0
  3
txt
  4

  0
ENDTAB
  0
TABLE
  2
VIEW
 70
     0
  0
ENDTAB
  0
TABLE
  2
UCS
 70
     0
  0
ENDTAB
  0
TABLE
  2
APPID
 70
     3
  0
APPID
  2
ACAD
 70
     0
  0
APPID
  2
AVE_RENDER
 70
     0
  0
APPID
  2
AVE_MATERIAL
 70
     0
  0
ENDTAB
  0
TABLE
  2
DIMSTYLE
 70
     2
  0
DIMSTYLE
  2
SC_DEFAUT
 70
     0
  3

  4

  5
OPEN30
  6

  7

 40
1.0
 41
3.0
 42
1.0
 43
0.1
 44
0.5
 45
0.0
 46
0.0
 47
0.0
 48
0.0
140
3.0
141
0.0
142
0.0
143
25.4
144
1.0
145
0.0
146
1.0
147
0.6
 71
     0
 72
     0
 73
     0
 74
     0
 75
     0
 76
     0
 77
     1
 78
    12
170
     0
171
     2
172
     0
173
     0
174
     0
175
     0
176
     0
177
     0
178
     0
  0
DIMSTYLE
  2
STANDARD
 70
     0
  3

  4

  5

  6

  7

 40
1.0
 41
0.18
 42
0.0625
 43
0.38
 44
0.18
 45
0.0
 46
0.0
 47
0.0
 48
0.0
140
0.18
141
0.09
142
0.0
143
25.4
144
1.0
145
0.0
146
1.0
147
0.09
 71
     0
 72
     0
 73
     1
 74
     1
 75
     0
 76
     0
 77
     0
 78
     0
170
     0
171
     2
172
     0
173
     0
174
     0
175
     0
176
     0
177
     0
178
     0
  0
ENDTAB
  0
ENDSEC
  0
SECTION
  2
BLOCKS
  0
BLOCK
  8
0
  2
$MODEL_SPACE
 70
     0
 10
0.0
 20
0.0
 30
0.0
  3
$MODEL_SPACE
  1

  0
ENDBLK
  5
644D
  8
0
  0
BLOCK
 67
     1
  8
0
  2
$PAPER_SPACE
 70
     0
 10
0.0
 20
0.0
 30
0.0
  3
$PAPER_SPACE
  1

  0
ENDBLK
  5
644B
 67
     1
  8
0
  0
BLOCK
  8
0
  2
COTE
 70
     0
 10
0.0
 20
0.0
 30
0.0
  3
COTE
  1

  0
ENDBLK
  5
35
  8
0
  0
BLOCK
  8
0
  2
FOND
 70
     0
 10
0.0
 20
0.0
 30
0.0
  3
FOND
  1

  0
ENDBLK
  5
39
  8
0
  0
BLOCK
  8
0
  2
SCH_ISO
 70
     0
 10
0.0
 20
0.0
 30
0.0
  3
SCH_ISO
  1

  0
ENDBLK
  5
24AD
  8
0
  0
BLOCK
  8
0
  2
_OPEN30
 70
     0
 10
0.0
 20
0.0
 30
0.0
  3
_OPEN30
  1

  0
LINE
  5
27E1
  8
COTATION1
 62
     0
 10
-1.0
 20
0.267949
 30
0.0
 11
0.0
 21
0.0
 31
0.0
1001
ACAD
1000
RTLwPs
1070
   158
  0
LINE
  5
27E2
  8
COTATION1
 62
     0
 10
0.0
 20
0.0
 30
0.0
 11
-1.0
 21
-0.267949
 31
0.0
1001
ACAD
1000
RTLwPs
1070
   158
  0
LINE
  5
27E3
  8
COTATION1
 62
     0
 10
0.0
 20
0.0
 30
0.0
 11
-1.0
 21
0.0
 31
0.0
1001
ACAD
1000
RTLwPs
1070
   158
  0
ENDBLK
  5
27E5
  8
0
  0
BLOCK
  8
0
  2
*D4
 70
     1
 10
0.0
 20
0.0
 30
0.0
  3
*D4
  1

  0
LINE
  5
626D
  8
COTATION1
 62
     0
 10
1397.553086
 20
196.39452
 30
0.0
 11
1397.553086
 21
227.69452
 31
0.0
1001
ACAD
1000
RTLwPs
1070
   158
  0
LINE
  5
626E
  8
COTATION1
 62
     0
 10
1373.553086
 20
208.19452
 30
0.0
 11
1373.553086
 21
227.69452
 31
0.0
1001
ACAD
1000
RTLwPs
1070
   158
  0
LINE
  5
626F
  8
COTATION1
 62
     0
 10
1394.553086
 20
227.19452
 30
0.0
 11
1376.553086
 21
227.19452
 31
0.0
1001
ACAD
1000
RTLwPs
1070
   158
  0
INSERT
  5
6270
  8
COTATION1
 62
     0
  2
_OPEN30
 10
1397.553086
 20
227.19452
 30
0.0
 41
3.0
 42
3.0
 43
3.0
1001
ACAD
1000
RTLwPs
1070
   158
  0
INSERT
  5
6271
  8
COTATION1
 62
     0
  2
_OPEN30
 10
1373.553086
 20
227.19452
 30
0.0
 41
3.0
 42
3.0
 43
3.0
 50
180.0
1001
ACAD
1000
RTLwPs
1070
   158
  0
TEXT
  5
6272
  8
COTATION1
 62
     0
 10
1382.624514
 20
227.79452
 30
0.0
 40
3.0
  1
24
1001
ACAD
1000
MTEXTBEGIN
1070
    73
1070
     1
1070
    44
1040
1.0
1070
    74
1070
     0
1000
MTEXTEND
1000
MTEXTBEGIN
1070
    73
1070
     1
1070
    44
1040
1.0
1070
    74
1070
     0
1000
MTEXTEND
1000
MTEXTBEGIN
1070
    73
1070
     1
1070
    44
1040
1.0
1070
    74
1070
     0
1000
MTEXTEND
1000
MTEXTBEGIN
1070
    73
1070
     1
1070
    44
1040
1.0
1070
    74
1070
     0
1000
MTEXTEND
1000
MTEXTBEGIN
1070
    73
1070
     1
1070
    44
1040
1.0
1070
    74
1070
     0
1000
MTEXTEND
  0
POINT
  5
6273
  8
DEFPOINTS
 62
     0
 10
1397.553086
 20
195.39452
 30
0.0
  0
POINT
  5
6274
  8
DEFPOINTS
 62
     0
 10
1373.553086
 20
207.19452
 30
0.0
  0
POINT
  5
6275
  8
DEFPOINTS
 62
     0
 10
1373.553086
 20
227.19452
 30
0.0
  0
ENDBLK
  5
60A7
  8
0
  0
BLOCK
  8
0
  2
*D5
 70
     1
 10
0.0
 20
0.0
 30
0.0
  3
*D5
  1

  0
LINE
  5
6264
  8
COTATION1
 62
     0
 10
1397.553086
 20
196.39452
 30
0.0
 11
1397.553086
 21
237.69452
 31
0.0
1001
ACAD
1000
RTLwPs
1070
   158
  0
LINE
  5
6265
  8
COTATION1
 62
     0
 10
1357.753086
 20
200.29452
 30
0.0
 11
1357.753086
 21
237.69452
 31
0.0
1001
ACAD
1000
RTLwPs
1070
   158
  0
LINE
  5
6266
  8
COTATION1
 62
     0
 10
1394.553086
 20
237.19452
 30
0.0
 11
1360.753086
 21
237.19452
 31
0.0
1001
ACAD
1000
RTLwPs
1070
   158
  0
INSERT
  5
6267
  8
COTATION1
 62
     0
  2
_OPEN30
 10
1397.553086
 20
237.19452
 30
0.0
 41
3.0
 42
3.0
 43
3.0
1001
ACAD
1000
RTLwPs
1070
   158
  0
INSERT
  5
6268
  8
COTATION1
 62
     0
  2
_OPEN30
 10
1357.753086
 20
237.19452
 30
0.0
 41
3.0
 42
3.0
 43
3.0
 50
180.0
1001
ACAD
1000
RTLwPs
1070
   158
  0
TEXT
  5
6269
  8
COTATION1
 62
     0
 10
1372.653086
 20
237.79452
 30
0.0
 40
3.0
  1
39.8
1001
ACAD
1000
MTEXTBEGIN
1070
    73
1070
     1
1070
    44
1040
1.0
1070
    74
1070
     0
1000
MTEXTEND
1000
MTEXTBEGIN
1070
    73
1070
     1
1070
    44
1040
1.0
1070
    74
1070
     0
1000
MTEXTEND
1000
MTEXTBEGIN
1070
    73
1070
     1
1070
    44
1040
1.0
1070
    74
1070
     0
1000
MTEXTEND
1000
MTEXTBEGIN
1070
    73
1070
     1
1070
    44
1040
1.0
1070
    74
1070
     0
1000
MTEXTEND
1000
MTEXTBEGIN
1070
    73
1070
     1
1070
    44
1040
1.0
1070
    74
1070
     0
1000
MTEXTEND
  0
POINT
  5
626A
  8
DEFPOINTS
 62
     0
 10
1397.553086
 20
195.39452
 30
0.0
  0
POINT
  5
626B
  8
DEFPOINTS
 62
     0
 10
1357.753086
 20
199.29452
 30
0.0
  0
POINT
  5
626C
  8
DEFPOINTS
 62
     0
 10
1357.753086
 20
237.19452
 30
0.0
  0
ENDBLK
  5
60D0
  8
0
  0
BLOCK
  8
0
  2
*D6
 70
     1
 10
0.0
 20
0.0
 30
0.0
  3
*D6
  1

  0
LINE
  5
6140
  8
COTATION1
 62
     0
 10
1373.553086
 20
114.99452
 30
0.0
 11
1373.553086
 21
95.49452
 31
0.0
1001
ACAD
1000
RTLwPs
1070
   158
  0
LINE
  5
6141
  8
COTATION1
 62
     0
 10
1415.753086
 20
126.79452
 30
0.0
 11
1415.753086
 21
95.49452
 31
0.0
1001
ACAD
1000
RTLwPs
1070
   158
  0
LINE
  5
6142
  8
COTATION1
 62
     0
 10
1376.553086
 20
95.99452
 30
0.0
 11
1412.753086
 21
95.99452
 31
0.0
1001
ACAD
1000
RTLwPs
1070
   158
  0
INSERT
  5
6143
  8
COTATION1
 62
     0
  2
_OPEN30
 10
1373.553086
 20
95.99452
 30
0.0
 41
3.0
 42
3.0
 43
3.0
 50
180.0
1001
ACAD
1000
RTLwPs
1070
   158
  0
INSERT
  5
6144
  8
COTATION1
 62
     0
  2
_OPEN30
 10
1415.753086
 20
95.99452
 30
0.0
 41
3.0
 42
3.0
 43
3.0
1001
ACAD
1000
RTLwPs
1070
   158
  0
TEXT
  5
6145
  8
COTATION1
 62
     0
 10
1389.653086
 20
96.59452
 30
0.0
 40
3.0
  1
42.2
1001
ACAD
1000
MTEXTBEGIN
1070
    73
1070
     1
1070
    44
1040
1.0
1070
    74
1070
     0
1000
MTEXTEND
1000
MTEXTBEGIN
1070
    73
1070
     1
1070
    44
1040
1.0
1070
    74
1070
     0
1000
MTEXTEND
1000
MTEXTBEGIN
1070
    73
1070
     1
1070
    44
1040
1.0
1070
    74
1070
     0
1000
MTEXTEND
1000
MTEXTBEGIN
1070
    73
1070
     1
1070
    44
1040
1.0
1070
    74
1070
     0
1000
MTEXTEND
1000
MTEXTBEGIN
1070
    73
1070
     1
1070
    44
1040
1.0
1070
    74
1070
     0
1000
MTEXTEND
1000
MTEXTBEGIN
1070
    73
1070
     1
1070
    44
1040
1.0
1070
    74
1070
     0
1000
MTEXTEND
  0
POINT
  5
6146
  8
DEFPOINTS
 62
     0
 10
1373.553086
 20
115.99452
 30
0.0
  0
POINT
  5
6147
  8
DEFPOINTS
 62
     0
 10
1415.753086
 20
127.79452
 30
0.0
  0
POINT
  5
6148
  8
DEFPOINTS
 62
     0
 10
1415.753086
 20
95.99452
 30
0.0
  0
ENDBLK
  5
610F
  8
0
  0
BLOCK
  8
0
  2
*D7
 70
     1
 10
0.0
 20
0.0
 30
0.0
  3
*D7
  1

  0
LINE
  5
6152
  8
COTATION1
 62
     0
 10
1357.753086
 20
127.19452
 30
0.0
 11
1357.753086
 21
85.49452
 31
0.0
1001
ACAD
1000
RTLwPs
1070
   158
  0
LINE
  5
6153
  8
COTATION1
 62
     0
 10
1415.753086
 20
127.19452
 30
0.0
 11
1415.753086
 21
85.49452
 31
0.0
1001
ACAD
1000
RTLwPs
1070
   158
  0
LINE
  5
6154
  8
COTATION1
 62
     0
 10
1360.753086
 20
85.99452
 30
0.0
 11
1412.753086
 21
85.99452
 31
0.0
1001
ACAD
1000
RTLwPs
1070
   158
  0
INSERT
  5
6155
  8
COTATION1
 62
     0
  2
_OPEN30
 10
1357.753086
 20
85.99452
 30
0.0
 41
3.0
 42
3.0
 43
3.0
 50
180.0
1001
ACAD
1000
RTLwPs
1070
   158
  0
INSERT
  5
6156
  8
COTATION1
 62
     0
  2
_OPEN30
 10
1415.753086
 20
85.99452
 30
0.0
 41
3.0
 42
3.0
 43
3.0
1001
ACAD
1000
RTLwPs
1070
   158
  0
TEXT
  5
6157
  8
COTATION1
 62
     0
 10
1383.895943
 20
86.59452
 30
0.0
 40
3.0
  1
58
1001
ACAD
1000
MTEXTBEGIN
1070
    73
1070
     1
1070
    44
1040
1.0
1070
    74
1070
     0
1000
MTEXTEND
1000
MTEXTBEGIN
1070
    73
1070
     1
1070
    44
1040
1.0
1070
    74
1070
     0
1000
MTEXTEND
1000
MTEXTBEGIN
1070
    73
1070
     1
1070
    44
1040
1.0
1070
    74
1070
     0
1000
MTEXTEND
1000
MTEXTBEGIN
1070
    73
1070
     1
1070
    44
1040
1.0
1070
    74
1070
     0
1000
MTEXTEND
1000
MTEXTBEGIN
1070
    73
1070
     1
1070
    44
1040
1.0
1070
    74
1070
     0
1000
MTEXTEND
1000
MTEXTBEGIN
1070
    73
1070
     1
1070
    44
1040
1.0
1070
    74
1070
     0
1000
MTEXTEND
  0
POINT
  5
6158
  8
DEFPOINTS
 62
     0
 10
1357.753086
 20
128.19452
 30
0.0
  0
POINT
  5
6159
  8
DEFPOINTS
 62
     0
 10
1415.753086
 20
128.19452
 30
0.0
  0
POINT
  5
615A
  8
DEFPOINTS
 62
     0
 10
1415.753086
 20
85.99452
 30
0.0
  0
ENDBLK
  5
611B
  8
0
  0
BLOCK
  8
0
  2
*D8
 70
     1
 10
0.0
 20
0.0
 30
0.0
  3
*D8
  1

  0
LINE
  5
617A
  8
COTATION1
 62
     0
 10
1351.853086
 20
125.89452
 30
0.0
 11
1351.853086
 21
95.49452
 31
0.0
1001
ACAD
1000
RTLwPs
1070
   158
  0
LINE
  5
617B
  8
COTATION1
 62
     0
 10
1357.753086
 20
127.19452
 30
0.0
 11
1357.753086
 21
95.49452
 31
0.0
1001
ACAD
1000
RTLwPs
1070
   158
  0
LINE
  5
617C
  8
COTATION1
 62
     0
 10
1348.853086
 20
95.99452
 30
0.0
 11
1345.853086
 21
95.99452
 31
0.0
1001
ACAD
1000
RTLwPs
1070
   158
  0
LINE
  5
617D
  8
COTATION1
 62
     0
 10
1360.753086
 20
95.99452
 30
0.0
 11
1371.095943
 21
95.99452
 31
0.0
1001
ACAD
1000
RTLwPs
1070
   158
  0
INSERT
  5
617E
  8
COTATION1
 62
     0
  2
_OPEN30
 10
1351.853086
 20
95.99452
 30
0.0
 41
3.0
 42
3.0
 43
3.0
1001
ACAD
1000
RTLwPs
1070
   158
  0
INSERT
  5
617F
  8
COTATION1
 62
     0
  2
_OPEN30
 10
1357.753086
 20
95.99452
 30
0.0
 41
3.0
 42
3.0
 43
3.0
 50
180.0
1001
ACAD
1000
RTLwPs
1070
   158
  0
TEXT
  5
6180
  8
COTATION1
 62
     0
 10
1363.924514
 20
96.59452
 30
0.0
 40
3.0
  1
5.9
1001
ACAD
1000
MTEXTBEGIN
1070
    73
1070
     1
1070
    44
1040
1.0
1070
    74
1070
     0
1000
MTEXTEND
1000
MTEXTBEGIN
1070
    73
1070
     1
1070
    44
1040
1.0
1070
    74
1070
     0
1000
MTEXTEND
1000
MTEXTBEGIN
1070
    73
1070
     1
1070
    44
1040
1.0
1070
    74
1070
     0
1000
MTEXTEND
1000
MTEXTBEGIN
1070
    73
1070
     1
1070
    44
1040
1.0
1070
    74
1070
     0
1000
MTEXTEND
1000
MTEXTBEGIN
1070
    73
1070
     1
1070
    44
1040
1.0
1070
    74
1070
     0
1000
MTEXTEND
1000
MTEXTBEGIN
1070
    73
1070
     1
1070
    44
1040
1.0
1070
    74
1070
     0
1000
MTEXTEND
  0
POINT
  5
6181
  8
DEFPOINTS
 62
     0
 10
1351.853086
 20
126.89452
 30
0.0
  0
POINT
  5
6182
  8
DEFPOINTS
 62
     0
 10
1357.753086
 20
128.19452
 30
0.0
  0
POINT
  5
6183
  8
DEFPOINTS
 62
     0
 10
1357.753086
 20
95.99452
 30
0.0
  0
ENDBLK
  5
6167
  8
0
  0
BLOCK
  8
0
  2
*D9
 70
     1
 10
0.0
 20
0.0
 30
0.0
  3
*D9
  1

  0
LINE
  5
61DD
  8
COTATION1
 62
     0
 10
1391.053086
 20
161.89452
 30
0.0
 11
1342.253086
 21
161.89452
 31
0.0
1001
ACAD
1000
RTLwPs
1070
   158
  0
LINE
  5
61DE
  8
COTATION1
 62
     0
 10
1391.053086
 20
189.89452
 30
0.0
 11
1342.253086
 21
189.89452
 31
0.0
1001
ACAD
1000
RTLwPs
1070
   158
  0
LINE
  5
61DF
  8
COTATION1
 62
     0
 10
1342.753086
 20
164.89452
 30
0.0
 11
1342.753086
 21
186.89452
 31
0.0
1001
ACAD
1000
RTLwPs
1070
   158
  0
INSERT
  5
61E0
  8
COTATION1
 62
     0
  2
_OPEN30
 10
1342.753086
 20
161.89452
 30
0.0
 41
3.0
 42
3.0
 43
3.0
 50
270.0
1001
ACAD
1000
RTLwPs
1070
   158
  0
INSERT
  5
61E1
  8
COTATION1
 62
     0
  2
_OPEN30
 10
1342.753086
 20
189.89452
 30
0.0
 41
3.0
 42
3.0
 43
3.0
 50
90.0
1001
ACAD
1000
RTLwPs
1070
   158
  0
TEXT
  5
61E2
  8
COTATION1
 62
     0
 10
1342.153086
 20
173.037377
 30
0.0
 40
3.0
  1
28
 50
90.0
1001
ACAD
1000
MTEXTBEGIN
1070
    73
1070
     1
1070
    44
1040
1.0
1070
    74
1070
     0
1000
MTEXTEND
1000
MTEXTBEGIN
1070
    73
1070
     1
1070
    44
1040
1.0
1070
    74
1070
     0
1000
MTEXTEND
1000
MTEXTBEGIN
1070
    73
1070
     1
1070
    44
1040
1.0
1070
    74
1070
     0
1000
MTEXTEND
1000
MTEXTBEGIN
1070
    73
1070
     1
1070
    44
1040
1.0
1070
    74
1070
     0
1000
MTEXTEND
1000
MTEXTBEGIN
1070
    73
1070
     1
1070
    44
1040
1.0
1070
    74
1070
     0
1000
MTEXTEND
1000
MTEXTBEGIN
1070
    73
1070
     1
1070
    44
1040
1.0
1070
    74
1070
     0
1000
MTEXTEND
  0
POINT
  5
61E3
  8
DEFPOINTS
 62
     0
 10
1392.053086
 20
161.89452
 30
0.0
  0
POINT
  5
61E4
  8
DEFPOINTS
 62
     0
 10
1392.053086
 20
189.89452
 30
0.0
  0
POINT
  5
61E5
  8
DEFPOINTS
 62
     0
 10
1342.753086
 20
189.89452
 30
0.0
  0
ENDBLK
  5
6191
  8
0
  0
BLOCK
  8
0
  2
*D10
 70
     1
 10
0.0
 20
0.0
 30
0.0
  3
*D10
  1

  0
LINE
  5
61C2
  8
COTATION1
 62
     0
 10
1359.653086
 20
125.29452
 30
0.0
 11
1342.253086
 21
125.29452
 31
0.0
1001
ACAD
1000
RTLwPs
1070
   158
  0
LINE
  5
61C3
  8
COTATION1
 62
     0
 10
1391.053086
 20
161.89452
 30
0.0
 11
1342.253086
 21
161.89452
 31
0.0
1001
ACAD
1000
RTLwPs
1070
   158
  0
LINE
  5
61C4
  8
COTATION1
 62
     0
 10
1342.753086
 20
128.29452
 30
0.0
 11
1342.753086
 21
158.89452
 31
0.0
1001
ACAD
1000
RTLwPs
1070
   158
  0
INSERT
  5
61C5
  8
COTATION1
 62
     0
  2
_OPEN30
 10
1342.753086
 20
125.29452
 30
0.0
 41
3.0
 42
3.0
 43
3.0
 50
270.0
1001
ACAD
1000
RTLwPs
1070
   158
  0
INSERT
  5
61C6
  8
COTATION1
 62
     0
  2
_OPEN30
 10
1342.753086
 20
161.89452
 30
0.0
 41
3.0
 42
3.0
 43
3.0
 50
90.0
1001
ACAD
1000
RTLwPs
1070
   158
  0
TEXT
  5
61C7
  8
COTATION1
 62
     0
 10
1342.153086
 20
138.59452
 30
0.0
 40
3.0
  1
36.6
 50
90.0
1001
ACAD
1000
MTEXTBEGIN
1070
    73
1070
     1
1070
    44
1040
1.0
1070
    74
1070
     0
1000
MTEXTEND
1000
MTEXTBEGIN
1070
    73
1070
     1
1070
    44
1040
1.0
1070
    74
1070
     0
1000
MTEXTEND
1000
MTEXTBEGIN
1070
    73
1070
     1
1070
    44
1040
1.0
1070
    74
1070
     0
1000
MTEXTEND
1000
MTEXTBEGIN
1070
    73
1070
     1
1070
    44
1040
1.0
1070
    74
1070
     0
1000
MTEXTEND
1000
MTEXTBEGIN
1070
    73
1070
     1
1070
    44
1040
1.0
1070
    74
1070
     0
1000
MTEXTEND
1000
MTEXTBEGIN
1070
    73
1070
     1
1070
    44
1040
1.0
1070
    74
1070
     0
1000
MTEXTEND
  0
POINT
  5
61C8
  8
DEFPOINTS
 62
     0
 10
1360.653086
 20
125.29452
 30
0.0
  0
POINT
  5
61C9
  8
DEFPOINTS
 62
     0
 10
1392.053086
 20
161.89452
 30
0.0
  0
POINT
  5
61CA
  8
DEFPOINTS
 62
     0
 10
1342.753086
 20
161.89452
 30
0.0
  0
ENDBLK
  5
619D
  8
0
  0
BLOCK
  8
0
  2
*D11
 70
     1
 10
0.0
 20
0.0
 30
0.0
  3
*D11
  1

  0
LINE
  5
62A2
  8
COTATION1
 62
     0
 10
1360.053086
 20
120.99452
 30
0.0
 11
1332.553086
 21
120.99452
 31
0.0
1001
ACAD
1000
RTLwPs
1070
   158
  0
LINE
  5
62A3
  8
COTATION1
 62
     0
 10
1359.553086
 20
202.19452
 30
0.0
 11
1332.553086
 21
202.19452
 31
0.0
1001
ACAD
1000
RTLwPs
1070
   158
  0
LINE
  5
62A4
  8
COTATION1
 62
     0
 10
1333.053086
 20
123.99452
 30
0.0
 11
1333.053086
 21
199.19452
 31
0.0
1001
ACAD
1000
RTLwPs
1070
   158
  0
INSERT
  5
62A5
  8
COTATION1
 62
     0
  2
_OPEN30
 10
1333.053086
 20
120.99452
 30
0.0
 41
3.0
 42
3.0
 43
3.0
 50
270.0
1001
ACAD
1000
RTLwPs
1070
   158
  0
INSERT
  5
62A6
  8
COTATION1
 62
     0
  2
_OPEN30
 10
1333.053086
 20
202.19452
 30
0.0
 41
3.0
 42
3.0
 43
3.0
 50
90.0
1001
ACAD
1000
RTLwPs
1070
   158
  0
TEXT
  5
62A7
  8
COTATION1
 62
     0
 10
1332.453086
 20
156.59452
 30
0.0
 40
3.0
  1
81.2
 50
90.0
1001
ACAD
1000
MTEXTBEGIN
1070
    73
1070
     1
1070
    44
1040
1.0
1070
    74
1070
     0
1000
MTEXTEND
1000
MTEXTBEGIN
1070
    73
1070
     1
1070
    44
1040
1.0
1070
    74
1070
     0
1000
MTEXTEND
1000
MTEXTBEGIN
1070
    73
1070
     1
1070
    44
1040
1.0
1070
    74
1070
     0
1000
MTEXTEND
1000
MTEXTBEGIN
1070
    73
1070
     1
1070
    44
1040
1.0
1070
    74
1070
     0
1000
MTEXTEND
1000
MTEXTBEGIN
1070
    73
1070
     1
1070
    44
1040
1.0
1070
    74
1070
     0
1000
MTEXTEND
  0
POINT
  5
62A8
  8
DEFPOINTS
 62
     0
 10
1361.053086
 20
120.99452
 30
0.0
  0
POINT
  5
62A9
  8
DEFPOINTS
 62
     0
 10
1360.553086
 20
202.19452
 30
0.0
  0
POINT
  5
62AA
  8
DEFPOINTS
 62
     0
 10
1333.053086
 20
202.19452
 30
0.0
  0
ENDBLK
  5
6295
  8
0
  0
BLOCK
  8
0
  2
*D12
 70
     1
 10
0.0
 20
0.0
 30
0.0
  3
*D12
  1

  0
LINE
  5
62BD
  8
COTATION1
 62
     0
 10
1359.653086
 20
202.19452
 30
0.0
 11
1332.553086
 21
202.19452
 31
0.0
1001
ACAD
1000
RTLwPs
1070
   158
  0
LINE
  5
62BE
  8
COTATION1
 62
     0
 10
1402.753086
 20
217.19452
 30
0.0
 11
1332.553086
 21
217.19452
 31
0.0
1001
ACAD
1000
RTLwPs
1070
   158
  0
LINE
  5
62BF
  8
COTATION1
 62
     0
 10
1333.053086
 20
205.19452
 30
0.0
 11
1333.053086
 21
214.19452
 31
0.0
1001
ACAD
1000
RTLwPs
1070
   158
  0
INSERT
  5
62C0
  8
COTATION1
 62
     0
  2
_OPEN30
 10
1333.053086
 20
202.19452
 30
0.0
 41
3.0
 42
3.0
 43
3.0
 50
270.0
1001
ACAD
1000
RTLwPs
1070
   158
  0
INSERT
  5
62C1
  8
COTATION1
 62
     0
  2
_OPEN30
 10
1333.053086
 20
217.19452
 30
0.0
 41
3.0
 42
3.0
 43
3.0
 50
90.0
1001
ACAD
1000
RTLwPs
1070
   158
  0
TEXT
  5
62C2
  8
COTATION1
 62
     0
 10
1332.453086
 20
206.623092
 30
0.0
 40
3.0
  1
15
 50
90.0
1001
ACAD
1000
MTEXTBEGIN
1070
    73
1070
     1
1070
    44
1040
1.0
1070
    74
1070
     0
1000
MTEXTEND
1000
MTEXTBEGIN
1070
    73
1070
     1
1070
    44
1040
1.0
1070
    74
1070
     0
1000
MTEXTEND
1000
MTEXTBEGIN
1070
    73
1070
     1
1070
    44
1040
1.0
1070
    74
1070
     0
1000
MTEXTEND
1000
MTEXTBEGIN
1070
    73
1070
     1
1070
    44
1040
1.0
1070
    74
1070
     0
1000
MTEXTEND
1000
MTEXTBEGIN
1070
    73
1070
     1
1070
    44
1040
1.0
1070
    74
1070
     0
1000
MTEXTEND
  0
POINT
  5
62C3
  8
DEFPOINTS
 62
     0
 10
1360.653086
 20
202.19452
 30
0.0
  0
POINT
  5
62C4
  8
DEFPOINTS
 62
     0
 10
1403.753086
 20
217.19452
 30
0.0
  0
POINT
  5
62C5
  8
DEFPOINTS
 62
     0
 10
1333.053086
 20
217.19452
 30
0.0
  0
ENDBLK
  5
62A1
  8
0
  0
ENDSEC
  0
SECTION
  2
ENTITIES
  0
INSERT
  5
32
  8
0
  2
COTE
 10
0.0
 20
0.0
 30
0.0
  0
INSERT
  5
36
  8
0
  2
FOND
 10
0.0
 20
0.0
 30
0.0
  0
INSERT
  5
24AE
  8
ALPHA
  2
SCH_ISO
 10
-66.27012
 20
-238.940658
 30
0.0
  0
LINE
  5
5F79
  8
ALPHA
 10
1357.753086
 20
199.29452
 30
0.0
 11
1357.753086
 21
128.19452
 31
0.0
  0
LINE
  5
5F7D
  8
ALPHA
 10
1415.753086
 20
207.69452
 30
0.0
 11
1415.753086
 21
127.79452
 31
0.0
  0
LINE
  5
5F7E
  8
AXE
 10
1386.753086
 20
217.245031
 30
0.0
 11
1386.753086
 21
106.045031
 31
0.0
  0
TEXT
  5
5F7F
  8
AXE
 10
1379.276895
 20
106.045031
 30
0.0
 40
8.0
  1
Y
 72
     2
 11
1385.753086
 21
106.045031
 31
0.0
  0
LINE
  5
5F81
  8
ALPHA
 10
1413.253086
 20
125.29452
 30
0.0
 11
1360.653086
 21
125.29452
 31
0.0
  0
LINE
  5
5F8B
  8
AXE
 10
1431.347219
 20
161.59452
 30
0.0
 11
1352.753086
 21
161.59452
 31
0.0
  0
LINE
  5
5F8C
  8
AXE
 10
1397.553086
 20
167.39452
 30
0.0
 11
1397.553086
 21
156.39452
 31
0.0
  0
LINE
  5
5F8D
  8
AXE
 10
1392.053086
 20
161.89452
 30
0.0
 11
1403.053086
 21
161.89452
 31
0.0
  0
ARC
  5
5F8E
  8
ALPHA_FIN
 10
1397.553086
 20
161.89452
 30
0.0
 40
1.99999
 50
270.0
 51
180.0
  0
CIRCLE
  5
5F8F
  8
ALPHA
 10
1397.553086
 20
161.89452
 30
0.0
 40
2.5
  0
TEXT
  5
5F90
  8
AXE
 10
1424.871029
 20
162.59452
 30
0.0
 40
8.0
  1
Z
 72
     2
 11
1431.347219
 21
162.59452
 31
0.0
  0
LINE
  5
5F93
  8
AXE
 10
1408.753086
 20
222.19452
 30
0.0
 11
1408.753086
 21
197.19452
 31
0.0
  0
LINE
  5
5F94
  8
ALPHA
 10
1401.753086
 20
207.69452
 30
0.0
 11
1401.753086
 21
202.19452
 31
0.0
  0
LINE
  5
5F97
  8
ALPHA
 10
1412.853086
 20
202.19452
 30
0.0
 11
1360.653086
 21
202.19452
 31
0.0
  0
CIRCLE
  5
5F98
  8
ALPHA
 10
1397.553086
 20
189.89452
 30
0.0
 40
2.5
  0
ARC
  5
5F99
  8
ALPHA_FIN
 10
1397.553086
 20
189.89452
 30
0.0
 40
1.99999
 50
270.0
 51
180.0
  0
LINE
  5
5F9A
  8
AXE
 10
1397.553086
 20
195.39452
 30
0.0
 11
1397.553086
 21
184.39452
 31
0.0
  0
LINE
  5
5F9B
  8
AXE
 10
1392.053086
 20
189.89452
 30
0.0
 11
1403.053086
 21
189.89452
 31
0.0
  0
LINE
  5
5FA1
  8
ALPHA
 10
1408.753086
 20
217.19452
 30
0.0
 11
1403.753086
 21
217.19452
 31
0.0
  0
LINE
  5
5FA2
  8
ALPHA
 10
1408.753086
 20
216.19452
 30
0.0
 11
1402.753086
 21
216.19452
 31
0.0
  0
LINE
  5
5FA3
  8
ALPHA
 10
1415.753086
 20
207.69452
 30
0.0
 11
1401.753086
 21
207.69452
 31
0.0
  0
LINE
  5
5FA4
  8
ALPHA_FIN
 10
1403.753086
 20
217.19452
 30
0.0
 11
1403.753086
 21
207.69452
 31
0.0
  0
LINE
  5
5FA5
  8
ALPHA
 10
1402.753086
 20
216.19452
 30
0.0
 11
1402.753086
 21
207.69452
 31
0.0
  0
LINE
  5
5FA6
  8
ALPHA
 10
1403.753086
 20
217.19452
 30
0.0
 11
1402.753086
 21
216.19452
 31
0.0
  0
LINE
  5
5FA7
  8
ALPHA
 10
1413.753086
 20
217.19452
 30
0.0
 11
1414.753086
 21
216.19452
 31
0.0
  0
LINE
  5
5FA8
  8
ALPHA
 10
1414.753086
 20
216.19452
 30
0.0
 11
1414.753086
 21
207.69452
 31
0.0
  0
LINE
  5
5FA9
  8
ALPHA_FIN
 10
1413.753086
 20
217.19452
 30
0.0
 11
1413.753086
 21
207.69452
 31
0.0
  0
LINE
  5
5FAA
  8
ALPHA
 10
1408.753086
 20
216.19452
 30
0.0
 11
1414.753086
 21
216.19452
 31
0.0
  0
LINE
  5
5FAB
  8
ALPHA
 10
1408.753086
 20
217.19452
 30
0.0
 11
1413.753086
 21
217.19452
 31
0.0
  0
LINE
  5
5FAE
  8
ALPHA
 10
1361.053086
 20
120.99452
 30
0.0
 11
1373.553086
 21
120.99452
 31
0.0
  0
LINE
  5
5FAF
  8
ALPHA
 10
1361.053086
 20
125.29452
 30
0.0
 11
1361.053086
 21
120.99452
 31
0.0
  0
LINE
  5
5FB0
  8
ALPHA
 10
1386.053086
 20
125.29452
 30
0.0
 11
1386.053086
 21
120.99452
 31
0.0
  0
LINE
  5
5FB1
  8
ALPHA
 10
1386.053086
 20
120.99452
 30
0.0
 11
1373.553086
 21
120.99452
 31
0.0
  0
LINE
  5
5FB2
  8
AXE
 10
1373.553086
 20
207.19452
 30
0.0
 11
1373.553086
 21
115.99452
 31
0.0
  0
LINE
  5
5FB8
  8
ALPHA
 10
1357.753086
 20
151.89452
 30
0.0
 11
1356.253086
 21
151.89452
 31
0.0
  0
LINE
  5
5FBA
  8
ALPHA
 10
1351.853086
 20
151.89452
 30
0.0
 11
1351.853086
 21
126.89452
 31
0.0
  0
LINE
  5
5FBD
  8
ALPHA
 10
1360.653086
 20
199.29452
 30
0.0
 11
1360.653086
 21
197.79452
 31
0.0
  0
LINE
  5
5FBE
  8
ALPHA
 10
1360.653086
 20
199.29452
 30
0.0
 11
1362.153086
 21
199.29452
 31
0.0
  0
CIRCLE
  5
5FBF
  8
ALPHA
 10
1360.653086
 20
199.29452
 30
0.0
 40
2.7
  0
LINE
  5
5FC3
  8
ALPHA
 10
1360.653086
 20
199.29452
 30
0.0
 11
1360.653086
 21
200.79452
 31
0.0
  0
LINE
  5
5FC4
  8
ALPHA
 10
1360.653086
 20
199.29452
 30
0.0
 11
1359.153086
 21
199.29452
 31
0.0
  0
CIRCLE
  5
5FC5
  8
ALPHA
 10
1412.853086
 20
199.29452
 30
0.0
 40
2.7
  0
LINE
  5
5FC6
  8
ALPHA
 10
1412.853086
 20
199.29452
 30
0.0
 11
1414.353086
 21
199.29452
 31
0.0
  0
LINE
  5
5FC7
  8
ALPHA
 10
1412.853086
 20
199.29452
 30
0.0
 11
1412.853086
 21
200.79452
 31
0.0
  0
LINE
  5
5FC8
  8
ALPHA
 10
1412.853086
 20
199.29452
 30
0.0
 11
1412.853086
 21
197.79452
 31
0.0
  0
LINE
  5
5FC9
  8
ALPHA
 10
1412.853086
 20
199.29452
 30
0.0
 11
1411.353086
 21
199.29452
 31
0.0
  0
LINE
  5
6018
  8
ALPHA
 10
1360.053086
 20
196.457268
 30
0.0
 11
1360.053086
 21
131.031773
 31
0.0
  0
ARC
  5
6019
  8
ALPHA
 10
1360.653086
 20
199.29452
 30
0.0
 40
2.9
 50
11.940544
 51
258.059456
  0
LINE
  5
601A
  8
ALPHA
 10
1410.015834
 20
199.89452
 30
0.0
 11
1363.490338
 21
199.89452
 31
0.0
  0
ARC
  5
601B
  8
ALPHA
 10
1412.853086
 20
199.29452
 30
0.0
 40
2.9
 50
281.940544
 51
168.059456
  0
LINE
  5
601C
  8
ALPHA
 10
1413.453086
 20
207.69452
 30
0.0
 11
1413.453086
 21
202.131773
 31
0.0
  0
LINE
  5
601D
  8
ALPHA
 10
1413.453086
 20
196.457268
 30
0.0
 11
1413.453086
 21
131.031773
 31
0.0
  0
ARC
  5
6058
  8
ALPHA
 10
1360.653086
 20
128.19452
 30
0.0
 40
2.9
 50
101.940544
 51
348.059456
  0
CIRCLE
  5
6059
  8
ALPHA
 10
1360.653086
 20
128.19452
 30
0.0
 40
2.7
  0
LINE
  5
605A
  8
ALPHA
 10
1360.653086
 20
128.19452
 30
0.0
 11
1359.153086
 21
128.19452
 31
0.0
  0
LINE
  5
605B
  8
ALPHA
 10
1360.653086
 20
128.19452
 30
0.0
 11
1360.653086
 21
126.69452
 31
0.0
  0
LINE
  5
605C
  8
ALPHA
 10
1360.653086
 20
128.19452
 30
0.0
 11
1360.653086
 21
129.69452
 31
0.0
  0
LINE
  5
605D
  8
ALPHA
 10
1360.653086
 20
128.19452
 30
0.0
 11
1362.153086
 21
128.19452
 31
0.0
  0
ARC
  5
605E
  8
ALPHA
 10
1412.853086
 20
128.19452
 30
0.0
 40
2.9
 50
191.940544
 51
78.059456
  0
LINE
  5
605F
  8
ALPHA
 10
1412.853086
 20
128.19452
 30
0.0
 11
1411.353086
 21
128.19452
 31
0.0
  0
LINE
  5
6060
  8
ALPHA
 10
1412.853086
 20
128.19452
 30
0.0
 11
1412.853086
 21
129.69452
 31
0.0
  0
LINE
  5
6061
  8
ALPHA
 10
1412.853086
 20
128.19452
 30
0.0
 11
1412.853086
 21
126.69452
 31
0.0
  0
LINE
  5
6062
  8
ALPHA
 10
1412.853086
 20
128.19452
 30
0.0
 11
1414.353086
 21
128.19452
 31
0.0
  0
CIRCLE
  5
6063
  8
ALPHA
 10
1412.853086
 20
128.19452
 30
0.0
 40
2.7
  0
LINE
  5
6064
  8
ALPHA
 10
1410.015834
 20
127.59452
 30
0.0
 11
1363.490338
 21
127.59452
 31
0.0
  0
DIMENSION
  5
609B
  8
COTATION1
  2
*D4
 10
1373.553086
 20
227.19452
 30
0.0
 11
1385.553086
 21
229.29452
 31
0.0
 13
1397.553086
 23
195.39452
 33
0.0
 14
1373.553086
 24
207.19452
 34
0.0
  0
DIMENSION
  5
60C4
  8
COTATION1
  2
*D5
 10
1357.753086
 20
237.19452
 30
0.0
 11
1377.653086
 21
239.29452
 31
0.0
 13
1397.553086
 23
195.39452
 33
0.0
 14
1357.753086
 24
199.29452
 34
0.0
  0
SOLID
  5
60FE
  8
COTATION1
  6
CONTINUOUS
 10
-1403.003347
 20
190.785955
 30
0.0
 11
-1399.973636
 21
190.519768
 31
0.0
 12
-1402.753248
 22
191.754176
 32
0.0
 13
-1402.753248
 23
191.754176
 33
0.0
210
0.0
220
0.0
230
-1.0
1001
ACAD
1000
DSTYLE
1002
{
1070
     5
1000
OPEN30
1070
   342
1005
E408DF05000027E0
1002
}
  0
POLYLINE
  5
63E8
  8
COTATION1
 66
     1
 10
0.0
 20
0.0
 30
0.0
 70
   128
1001
ACAD
1000
R13OBJECT
1002
{
1005
60FE
1002
}
  0
VERTEX
  5
6453
  8
COTATION1
 10
1402.878297
 20
191.270066
 30
0.0
  0
VERTEX
  5
6454
  8
COTATION1
 10
1425.008842
 20
196.986564
 30
0.0
  0
VERTEX
  5
6455
  8
COTATION1
 10
1441.608842
 20
196.986564
 30
0.0
  0
SEQEND
  5
6456
  8
COTATION1
  0
TEXT
  5
60FF
  8
COTATION1
 10
1424.9411
 20
198.142977
 30
0.0
 40
3.0
  1
8xM5x6
1001
ACAD
1000
MTEXTBEGIN
1070
    73
1070
     1
1070
    44
1040
1.0
1070
    74
1070
     0
1000
MTEXTEND
1000
MTEXTBEGIN
1070
    73
1070
     1
1070
    44
1040
1.0
1070
    74
1070
     0
1000
MTEXTEND
1000
MTEXTBEGIN
1070
    73
1070
     1
1070
    44
1040
1.0
1070
    74
1070
     0
1000
MTEXTEND
1000
MTEXTBEGIN
1070
    73
1070
     1
1070
    44
1040
1.0
1070
    74
1070
     0
1000
MTEXTEND
1000
MTEXTBEGIN
1070
    73
1070
     1
1070
    44
1040
1.0
1070
    74
1070
     0
1000
MTEXTEND
1000
MTEXTBEGIN
1070
    73
1070
     1
1070
    44
1040
1.0
1070
    74
1070
     0
1000
MTEXTEND
1000
MTEXTBEGIN
1070
    73
1070
     1
1070
    44
1040
1.0
1070
    74
1070
     0
1000
MTEXTEND
1000
MTEXTBEGIN
1070
    73
1070
     1
1070
    44
1040
1.0
1070
    74
1070
     0
1000
MTEXTEND
1000
MTEXTBEGIN
1070
    73
1070
     1
1070
    44
1040
1.0
1070
    74
1070
     0
1000
MTEXTEND
1000
MTEXTBEGIN
1070
    73
1070
     1
1070
    44
1040
1.0
1070
    74
1070
     0
1000
MTEXTEND
1000
MTEXTBEGIN
1070
    73
1070
     1
1070
    44
1040
1.0
1070
    74
1070
     0
1000
MTEXTEND
1000
MTEXTBEGIN
1070
    73
1070
     1
1070
    44
1040
1.0
1070
    74
1070
     0
1000
MTEXTEND
1000
MTEXTBEGIN
1070
    73
1070
     1
1070
    44
1040
1.0
1070
    74
1070
     0
1000
MTEXTEND
1000
MTEXTBEGIN
1070
    73
1070
     1
1070
    44
1040
1.0
1070
    74
1070
     0
1000
MTEXTEND
1000
MTEXTBEGIN
1070
    73
1070
     1
1070
    44
1040
1.0
1070
    74
1070
     0
1000
MTEXTEND
1000
MTEXTBEGIN
1070
    73
1070
     1
1070
    44
1040
1.0
1070
    74
1070
     0
1000
MTEXTEND
1000
MTEXTBEGIN
1070
    73
1070
     1
1070
    44
1040
1.0
1070
    74
1070
     0
1000
MTEXTEND
1000
MTEXTBEGIN
1070
    73
1070
     1
1070
    44
1040
1.0
1070
    74
1070
     0
1000
MTEXTEND
1000
MTEXTBEGIN
1070
    73
1070
     1
1070
    44
1040
1.0
1070
    74
1070
     0
1000
MTEXTEND
  0
SOLID
  5
6100
  8
COTATION1
  6
CONTINUOUS
 10
-1417.010014
 20
215.249439
 30
0.0
 11
-1414.163261
 21
214.178926
 31
0.0
 12
-1416.508942
 22
216.114845
 32
0.0
 13
-1416.508942
 23
216.114845
 33
0.0
210
0.0
220
0.0
230
-1.0
1001
ACAD
1000
DSTYLE
1002
{
1070
     5
1000
OPEN30
1070
   342
1005
EC3FDF05000027E0
1002
}
  0
POLYLINE
  5
63ED
  8
COTATION1
 66
     1
 10
0.0
 20
0.0
 30
0.0
 70
   128
1001
ACAD
1000
R13OBJECT
1002
{
1005
6100
1002
}
  0
VERTEX
  5
6457
  8
COTATION1
 10
1416.759478
 20
215.682142
 30
0.0
  0
VERTEX
  5
6458
  8
COTATION1
 10
1423.842529
 20
219.783244
 30
0.0
  0
VERTEX
  5
6459
  8
COTATION1
 10
1440.013958
 20
219.783244
 30
0.0
  0
SEQEND
  5
645A
  8
COTATION1
  0
TEXT
  5
6101
  8
COTATION1
 10
1426.63193
 20
220.939657
 30
0.0
 40
3.0
  1
M12x1
1001
ACAD
1000
MTEXTBEGIN
1070
    73
1070
     1
1070
    44
1040
1.0
1070
    74
1070
     0
1000
MTEXTEND
1000
MTEXTBEGIN
1070
    73
1070
     1
1070
    44
1040
1.0
1070
    74
1070
     0
1000
MTEXTEND
1000
MTEXTBEGIN
1070
    73
1070
     1
1070
    44
1040
1.0
1070
    74
1070
     0
1000
MTEXTEND
1000
MTEXTBEGIN
1070
    73
1070
     1
1070
    44
1040
1.0
1070
    74
1070
     0
1000
MTEXTEND
1000
MTEXTBEGIN
1070
    73
1070
     1
1070
    44
1040
1.0
1070
    74
1070
     0
1000
MTEXTEND
1000
MTEXTBEGIN
1070
    73
1070
     1
1070
    44
1040
1.0
1070
    74
1070
     0
1000
MTEXTEND
1000
MTEXTBEGIN
1070
    73
1070
     1
1070
    44
1040
1.0
1070
    74
1070
     0
1000
MTEXTEND
1000
MTEXTBEGIN
1070
    73
1070
     1
1070
    44
1040
1.0
1070
    74
1070
     0
1000
MTEXTEND
1000
MTEXTBEGIN
1070
    73
1070
     1
1070
    44
1040
1.0
1070
    74
1070
     0
1000
MTEXTEND
1000
MTEXTBEGIN
1070
    73
1070
     1
1070
    44
1040
1.0
1070
    74
1070
     0
1000
MTEXTEND
1000
MTEXTBEGIN
1070
    73
1070
     1
1070
    44
1040
1.0
1070
    74
1070
     0
1000
MTEXTEND
1000
MTEXTBEGIN
1070
    73
1070
     1
1070
    44
1040
1.0
1070
    74
1070
     0
1000
MTEXTEND
1000
MTEXTBEGIN
1070
    73
1070
     1
1070
    44
1040
1.0
1070
    74
1070
     0
1000
MTEXTEND
1000
MTEXTBEGIN
1070
    73
1070
     1
1070
    44
1040
1.0
1070
    74
1070
     0
1000
MTEXTEND
1000
MTEXTBEGIN
1070
    73
1070
     1
1070
    44
1040
1.0
1070
    74
1070
     0
1000
MTEXTEND
1000
MTEXTBEGIN
1070
    73
1070
     1
1070
    44
1040
1.0
1070
    74
1070
     0
1000
MTEXTEND
1000
MTEXTBEGIN
1070
    73
1070
     1
1070
    44
1040
1.0
1070
    74
1070
     0
1000
MTEXTEND
1000
MTEXTBEGIN
1070
    73
1070
     1
1070
    44
1040
1.0
1070
    74
1070
     0
1000
MTEXTEND
1000
MTEXTBEGIN
1070
    73
1070
     1
1070
    44
1040
1.0
1070
    74
1070
     0
1000
MTEXTEND
  0
DIMENSION
  5
6102
  8
COTATION1
  2
*D7
 10
1415.753086
 20
85.99452
 30
0.0
 11
1386.753086
 21
88.09452
 31
0.0
 13
1357.753086
 23
128.19452
 33
0.0
 14
1415.753086
 24
128.19452
 34
0.0
  0
DIMENSION
  5
6103
  8
COTATION1
  2
*D6
 10
1415.753086
 20
95.99452
 30
0.0
 11
1394.653086
 21
98.09452
 31
0.0
 13
1373.553086
 23
115.99452
 33
0.0
 14
1415.753086
 24
127.79452
 34
0.0
  0
DIMENSION
  5
615B
  8
COTATION1
  2
*D8
 10
1357.753086
 20
95.99452
 30
0.0
 11
1367.424514
 21
98.09452
 31
0.0
 13
1351.853086
 23
126.89452
 33
0.0
 14
1357.753086
 24
128.19452
 34
0.0
  0
DIMENSION
  5
6184
  8
COTATION1
  2
*D10
 10
1342.753086
 20
161.89452
 30
0.0
 11
1340.653086
 21
143.59452
 31
0.0
 13
1360.653086
 23
125.29452
 33
0.0
 14
1392.053086
 24
161.89452
 34
0.0
 50
90.0
  0
DIMENSION
  5
6185
  8
COTATION1
  2
*D9
 10
1342.753086
 20
189.89452
 30
0.0
 11
1340.653086
 21
175.89452
 31
0.0
 13
1392.053086
 23
161.89452
 33
0.0
 14
1392.053086
 24
189.89452
 34
0.0
 50
90.0
  0
LINE
  5
6256
  8
ALPHA
 10
1354.053086
 20
151.29452
 30
0.0
 11
1353.353086
 21
151.29452
 31
0.0
  0
LINE
  5
6258
  8
ALPHA
 10
1353.353086
 20
151.89452
 30
0.0
 11
1353.353086
 21
126.89452
 31
0.0
  0
LINE
  5
6259
  8
ALPHA
 10
1354.053086
 20
151.89452
 30
0.0
 11
1354.053086
 21
126.89452
 31
0.0
  0
LINE
  5
625A
  8
ALPHA
 10
1355.553086
 20
151.89452
 30
0.0
 11
1355.553086
 21
126.89452
 31
0.0
  0
LINE
  5
625B
  8
ALPHA
 10
1356.253086
 20
151.89452
 30
0.0
 11
1356.253086
 21
126.89452
 31
0.0
  0
LINE
  5
625C
  8
ALPHA
 10
1355.553086
 20
151.89452
 30
0.0
 11
1354.053086
 21
151.89452
 31
0.0
  0
LINE
  5
625D
  8
ALPHA
 10
1353.353086
 20
151.89452
 30
0.0
 11
1351.853086
 21
151.89452
 31
0.0
  0
LINE
  5
625E
  8
ALPHA
 10
1356.253086
 20
151.29452
 30
0.0
 11
1355.553086
 21
151.29452
 31
0.0
  0
LINE
  5
625F
  8
ALPHA
 10
1356.253086
 20
127.49452
 30
0.0
 11
1355.553086
 21
127.49452
 31
0.0
  0
LINE
  5
6260
  8
ALPHA
 10
1354.053086
 20
127.49452
 30
0.0
 11
1353.353086
 21
127.49452
 31
0.0
  0
LINE
  5
6261
  8
ALPHA
 10
1355.553086
 20
126.89452
 30
0.0
 11
1354.053086
 21
126.89452
 31
0.0
  0
LINE
  5
6262
  8
ALPHA
 10
1353.353086
 20
126.89452
 30
0.0
 11
1351.853086
 21
126.89452
 31
0.0
  0
LINE
  5
6263
  8
ALPHA
 10
1358.06079
 20
126.89452
 30
0.0
 11
1356.253086
 21
126.89452
 31
0.0
  0
DIMENSION
  5
6288
  8
COTATION1
  2
*D11
 10
1333.053086
 20
202.19452
 30
0.0
 11
1330.953086
 21
161.59452
 31
0.0
 13
1361.053086
 23
120.99452
 33
0.0
 14
1360.553086
 24
202.19452
 34
0.0
 50
90.0
  0
DIMENSION
  5
6289
  8
COTATION1
  2
*D12
 10
1333.053086
 20
217.19452
 30
0.0
 11
1330.953086
 21
209.69452
 31
0.0
 13
1360.653086
 23
202.19452
 33
0.0
 14
1403.753086
 24
217.19452
 34
0.0
 50
90.0
  0
ENDSEC
  0
EOF
