  0
SECTION
  2
HEADER
  9
$ACADVER
  1
AC1009
  9
$INSBASE
 10
-146.27124
 20
-153.796096
 30
0.0
  9
$EXTMIN
 10
613.670933
 20
-31.314832
 30
0.0
  9
$EXTMAX
 10
709.332428
 20
120.053301
 30
0.0
  9
$LIMMIN
 10
-407.970438
 20
-367.832444
  9
$LIMMAX
 10
429.804077
 20
234.370848
  9
$ORTHOMODE
 70
     1
  9
$REGENMODE
 70
     1
  9
$FILLMODE
 70
     1
  9
$QTEXTMODE
 70
     0
  9
$MIRRTEXT
 70
     1
  9
$DRAGMODE
 70
     2
  9
$LTSCALE
 40
10.0
  9
$OSMODE
 70
    33
  9
$ATTMODE
 70
     1
  9
$TEXTSIZE
 40
6.0
  9
$TRACEWID
 40
1.0
  9
$TEXTSTYLE
  7
ROMANS
  9
$CLAYER
  8
COTATION1
  9
$CELTYPE
  6
BYLAYER
  9
$CECOLOR
 62
   256
  9
$DIMSCALE
 40
1.0
  9
$DIMASZ
 40
3.0
  9
$DIMEXO
 40
0.5
  9
$DIMDLI
 40
0.38
  9
$DIMRND
 40
0.0
  9
$DIMDLE
 40
0.0
  9
$DIMEXE
 40
0.18
  9
$DIMTP
 40
0.0
  9
$DIMTM
 40
0.0
  9
$DIMTXT
 40
3.0
  9
$DIMCEN
 40
0.09
  9
$DIMTSZ
 40
0.0
  9
$DIMTOL
 70
     0
  9
$DIMLIM
 70
     0
  9
$DIMTIH
 70
     0
  9
$DIMTOH
 70
     0
  9
$DIMSE1
 70
     0
  9
$DIMSE2
 70
     0
  9
$DIMTAD
 70
     1
  9
$DIMZIN
 70
    12
  9
$DIMBLK
  1
OPEN30
  9
$DIMASO
 70
     1
  9
$DIMSHO
 70
     1
  9
$DIMPOST
  1

  9
$DIMAPOST
  1

  9
$DIMALT
 70
     0
  9
$DIMALTD
 70
     2
  9
$DIMALTF
 40
25.4
  9
$DIMLFAC
 40
1.0
  9
$DIMTOFL
 70
     0
  9
$DIMTVP
 40
0.0
  9
$DIMTIX
 70
     0
  9
$DIMSOXD
 70
     0
  9
$DIMSAH
 70
     0
  9
$DIMBLK1
  1

  9
$DIMBLK2
  1

  9
$DIMSTYLE
  2
ROMANS
  9
$DIMCLRD
 70
     0
  9
$DIMCLRE
 70
     0
  9
$DIMCLRT
 70
     0
  9
$DIMTFAC
 40
1.0
  9
$DIMGAP
 40
1.0
  9
$LUNITS
 70
     2
  9
$LUPREC
 70
     1
  9
$SKETCHINC
 40
0.1
  9
$FILLETRAD
 40
0.0
  9
$AUNITS
 70
     0
  9
$AUPREC
 70
     0
  9
$MENU
  1
acad
  9
$ELEVATION
 40
0.0
  9
$PELEVATION
 40
0.0
  9
$THICKNESS
 40
0.0
  9
$LIMCHECK
 70
     0
  9
$BLIPMODE
 70
     0
  9
$CHAMFERA
 40
0.0
  9
$CHAMFERB
 40
0.0
  9
$SKPOLY
 70
     0
  9
$TDCREATE
 40
2450365.355314
  9
$TDUPDATE
 40
2452576.587367
  9
$TDINDWG
 40
0.497669
  9
$TDUSRTIMER
 40
0.497669
  9
$USRTIMER
 70
     1
  9
$ANGBASE
 50
0.0
  9
$ANGDIR
 70
     0
  9
$PDMODE
 70
    32
  9
$PDSIZE
 40
0.0
  9
$PLINEWID
 40
0.0
  9
$COORDS
 70
     2
  9
$SPLFRAME
 70
     0
  9
$SPLINETYPE
 70
     6
  9
$SPLINESEGS
 70
     8
  9
$ATTDIA
 70
     0
  9
$ATTREQ
 70
     1
  9
$HANDLING
 70
     1
  9
$HANDSEED
  5
39F3
  9
$SURFTAB1
 70
     6
  9
$SURFTAB2
 70
     6
  9
$SURFTYPE
 70
     6
  9
$SURFU
 70
     6
  9
$SURFV
 70
     6
  9
$UCSNAME
  2

  9
$UCSORG
 10
0.0
 20
0.0
 30
0.0
  9
$UCSXDIR
 10
1.0
 20
0.0
 30
0.0
  9
$UCSYDIR
 10
0.0
 20
1.0
 30
0.0
  9
$PUCSNAME
  2

  9
$PUCSORG
 10
0.0
 20
0.0
 30
0.0
  9
$PUCSXDIR
 10
1.0
 20
0.0
 30
0.0
  9
$PUCSYDIR
 10
0.0
 20
1.0
 30
0.0
  9
$USERI1
 70
     0
  9
$USERI2
 70
     0
  9
$USERI3
 70
     0
  9
$USERI4
 70
     0
  9
$USERI5
 70
     0
  9
$USERR1
 40
0.0
  9
$USERR2
 40
0.0
  9
$USERR3
 40
0.0
  9
$USERR4
 40
0.0
  9
$USERR5
 40
0.0
  9
$WORLDVIEW
 70
     1
  9
$SHADEDGE
 70
     3
  9
$SHADEDIF
 70
    70
  9
$TILEMODE
 70
     1
  9
$MAXACTVP
 70
    16
  9
$PLIMCHECK
 70
     0
  9
$PEXTMIN
 10
1.000000E+020
 20
1.000000E+020
 30
1.000000E+020
  9
$PEXTMAX
 10
-1.000000E+020
 20
-1.000000E+020
 30
-1.000000E+020
  9
$PLIMMIN
 10
0.0
 20
0.0
  9
$PLIMMAX
 10
12.0
 20
9.0
  9
$UNITMODE
 70
     0
  9
$VISRETAIN
 70
     0
  9
$PLINEGEN
 70
     0
  9
$PSLTSCALE
 70
     0
  0
ENDSEC
  0
SECTION
  2
TABLES
  0
TABLE
  2
VPORT
 70
     2
  0
VPORT
  2
*ACTIVE
 70
     0
 10
0.0
 20
0.0
 11
1.0
 21
1.0
 12
661.502334
 22
44.36292
 13
0.0
 23
0.0
 14
1.0
 24
1.0
 15
10.0
 25
10.0
 16
0.0
 26
0.0
 36
1.0
 17
0.0
 27
0.0
 37
0.0
 40
152.80339
 41
1.63142
 42
50.0
 43
0.0
 44
0.0
 50
0.0
 51
0.0
 71
     0
 72
   100
 73
     1
 74
     0
 75
     0
 76
     0
 77
     0
 78
     0
  0
ENDTAB
  0
TABLE
  2
LTYPE
 70
    24
  0
LTYPE
  2
CONTINUOUS
 70
     0
  3
Solid line
 72
    65
 73
     0
 40
0.0
  0
LTYPE
  2
AXES2
 70
     0
  3
___ _ ___ _ ___ _ ___ _ ___ _ ___ _ ___ _ ___ _
 72
    65
 73
     4
 40
1.125
 49
0.75
 49
-0.125
 49
0.125
 49
-0.125
  0
LTYPE
  2
ACAD_ISO04W100
 70
     0
  3
ISO Lang gestrichelt punktiert ____ . ____ . __
 72
    65
 73
     4
 40
30.5
 49
24.0
 49
-3.0
 49
0.5
 49
-3.0
  0
LTYPE
  2
AXES
 70
     0
  3
____ _ ____ _ ____ _ ____ _ ____ _ ____ _ ____ 
 72
    65
 73
     4
 40
2.0
 49
1.25
 49
-0.25
 49
0.25
 49
-0.25
  0
LTYPE
  2
AXESX2
 70
     0
  3
________  __  ________  __  ________  __  _____
 72
    65
 73
     4
 40
4.0
 49
2.5
 49
-0.5
 49
0.5
 49
-0.5
  0
LTYPE
  2
TIRETPT
 70
     0
  3
__ . __ . __ . __ . __ . __ . __ . __ . __ . __
 72
    65
 73
     4
 40
1.0
 49
0.5
 49
-0.25
 49
0.0
 49
-0.25
  0
LTYPE
  2
TIRETPT2
 70
     0
  3
_._._._._._._._._._._._._._._._._._._._._._._._
 72
    65
 73
     4
 40
0.5
 49
0.25
 49
-0.125
 49
0.0
 49
-0.125
  0
LTYPE
  2
TIRETPTX2
 70
     0
  3
____  .  ____  .  ____  .  ____  .  ____  .  __
 72
    65
 73
     4
 40
2.0
 49
1.0
 49
-0.5
 49
0.0
 49
-0.5
  0
LTYPE
  2
DISCONTINU
 70
     0
  3
__ __ __ __ __ __ __ __ __ __ __ __ __ __ __ __
 72
    65
 73
     2
 40
0.75
 49
0.5
 49
-0.25
  0
LTYPE
  2
DISCONTINU2
 70
     0
  3
_ _ _ _ _ _ _ _ _ _ _ _ _ _ _ _ _ _ _ _ _ _ _ _
 72
    65
 73
     2
 40
0.375
 49
0.25
 49
-0.125
  0
LTYPE
  2
DISCONTINUX2
 70
     0
  3
____  ____  ____  ____  ____  ____  ____  ____ 
 72
    65
 73
     2
 40
1.5
 49
1.0
 49
-0.5
  0
LTYPE
  2
DIVISE
 70
     0
  3
____ . . ____ . . ____ . . ____ . . ____ . . __
 72
    65
 73
     6
 40
1.25
 49
0.5
 49
-0.25
 49
0.0
 49
-0.25
 49
0.0
 49
-0.25
  0
LTYPE
  2
DIVISE2
 70
     0
  3
__..__..__..__..__..__..__..__..__..__..__..__.
 72
    65
 73
     6
 40
0.625
 49
0.25
 49
-0.125
 49
0.0
 49
-0.125
 49
0.0
 49
-0.125
  0
LTYPE
  2
DIVISEX2
 70
     0
  3
________  .  .  ________  .  .  ________  .  . 
 72
    65
 73
     6
 40
2.5
 49
1.0
 49
-0.5
 49
0.0
 49
-0.5
 49
0.0
 49
-0.5
  0
LTYPE
  2
POINTILLE
 70
     0
  3
. . . . . . . . . . . . . . . . . . . . . . . .
 72
    65
 73
     2
 40
0.25
 49
0.0
 49
-0.25
  0
LTYPE
  2
POINTILLE2
 70
     0
  3
...............................................
 72
    65
 73
     2
 40
0.125
 49
0.0
 49
-0.125
  0
LTYPE
  2
POINTILLEX2
 70
     0
  3
.  .  .  .  .  .  .  .  .  .  .  .  .  .  .  . 
 72
    65
 73
     2
 40
0.5
 49
0.0
 49
-0.5
  0
LTYPE
  2
CACHE
 70
     0
  3
__ __ __ __ __ __ __ __ __ __ __ __ __ __ __ __
 72
    65
 73
     2
 40
0.375
 49
0.25
 49
-0.125
  0
LTYPE
  2
CACHE2
 70
     0
  3
_ _ _ _ _ _ _ _ _ _ _ _ _ _ _ _ _ _ _ _ _ _ _ _
 72
    65
 73
     2
 40
0.1875
 49
0.125
 49
-0.0625
  0
LTYPE
  2
CACHEX2
 70
     0
  3
____ ____ ____ ____ ____ ____ ____ ____ ____ __
 72
    65
 73
     2
 40
0.75
 49
0.5
 49
-0.25
  0
LTYPE
  2
FANTOME
 70
     0
  3
______  __  __  ______  __  __  ______  __  __ 
 72
    65
 73
     6
 40
2.5
 49
1.25
 49
-0.25
 49
0.25
 49
-0.25
 49
0.25
 49
-0.25
  0
LTYPE
  2
FANTOME2
 70
     0
  3
___ _ _ ___ _ _ ___ _ _ ___ _ _ ___ _ _ ___ _ _
 72
    65
 73
     6
 40
1.25
 49
0.625
 49
-0.125
 49
0.125
 49
-0.125
 49
0.125
 49
-0.125
  0
LTYPE
  2
FANTOMEX2
 70
     0
  3
____________    ____    ____    ____________   
 72
    65
 73
     6
 40
5.0
 49
2.5
 49
-0.5
 49
0.5
 49
-0.5
 49
0.5
 49
-0.5
  0
LTYPE
  2
0
 70
     0
  3
MEDUSA PEN 0
 72
    65
 73
     0
 40
0.0
  0
ENDTAB
  0
TABLE
  2
LAYER
 70
    17
  0
LAYER
  2
0
 70
     0
 62
     7
  6
CONTINUOUS
  0
LAYER
  2
TEXTE_MOYEN
 70
     0
 62
   131
  6
CONTINUOUS
  0
LAYER
  2
ALPHA
 70
     0
 62
   254
  6
CONTINUOUS
  0
LAYER
  2
COTATION1
 70
     0
 62
    50
  6
CONTINUOUS
  0
LAYER
  2
AXE
 70
     0
 62
    80
  6
AXES2
  0
LAYER
  2
DEFPOINTS
 70
     0
 62
     7
  6
CONTINUOUS
  0
LAYER
  2
HACHURES1
 70
     0
 62
   130
  6
CONTINUOUS
  0
LAYER
  2
FMULT
 70
     0
 62
   210
  6
CONTINUOUS
  0
LAYER
  2
FDP_CARTOUCHE
 70
     0
 62
   136
  6
CONTINUOUS
  0
LAYER
  2
FDP_TEXTES
 70
     0
 62
   171
  6
CONTINUOUS
  0
LAYER
  2
FDP_LOGO_MG
 70
     0
 62
    30
  6
CONTINUOUS
  0
LAYER
  2
FDP_LOGO_SCH
 70
     0
 62
    90
  6
CONTINUOUS
  0
LAYER
  2
FDP_FDP
 70
     0
 62
   170
  6
CONTINUOUS
  0
LAYER
  2
POINTILLE_COURT2
 70
     0
 62
    41
  6
CACHE2
  0
LAYER
  2
POINTILLE_MOYEN2
 70
     0
 62
   141
  6
CACHE
  0
LAYER
  2
POINTILLE_LONG2
 70
     0
 62
   241
  6
CACHEX2
  0
LAYER
  2
ALPHA_FIN
 70
     0
 62
   255
  6
CONTINUOUS
  0
ENDTAB
  0
TABLE
  2
STYLE
 70
     5
  0
STYLE
  2
ROMANS
 70
     0
 40
0.0
 41
1.0
 50
0.0
 71
     0
 42
6.0
  3
romans
  4

  0
STYLE
  2
STANDARD
 70
     0
 40
0.2
 41
1.0
 50
0.0
 71
     0
 42
0.2
  3
txt
  4

  0
STYLE
  2
STD
 70
     0
 40
0.0
 41
1.0
 50
0.0
 71
     0
 42
0.0
  3
txt
  4

  0
STYLE
  2
INFOCAR
 70
     0
 40
0.0
 41
1.34
 50
0.0
 71
     0
 42
2.0
  3
ROMANS.SHX
  4

  0
STYLE
  2
CARTOUCHE
 70
     0
 40
0.0
 41
1.0
 50
0.0
 71
     0
 42
0.2
  3
ROMANS.SHX
  4

  0
ENDTAB
  0
TABLE
  2
VIEW
 70
     0
  0
ENDTAB
  0
TABLE
  2
UCS
 70
     0
  0
ENDTAB
  0
TABLE
  2
APPID
 70
     3
  0
APPID
  2
ACAD
 70
     0
  0
APPID
  2
AVE_RENDER
 70
     0
  0
APPID
  2
AVE_MATERIAL
 70
     0
  0
ENDTAB
  0
TABLE
  2
DIMSTYLE
 70
     2
  0
DIMSTYLE
  2
SC_DEFAUT
 70
     0
  3

  4

  5
OPEN30
  6

  7

 40
1.0
 41
2.0
 42
0.3
 43
0.1
 44
0.5
 45
0.0
 46
0.0
 47
0.0
 48
0.0
140
2.0
141
0.0
142
0.0
143
25.4
144
1.0
145
0.0
146
1.0
147
0.6
 71
     0
 72
     0
 73
     0
 74
     0
 75
     0
 76
     0
 77
     1
 78
    12
170
     0
171
     2
172
     0
173
     0
174
     0
175
     0
176
     0
177
     0
178
     0
  0
DIMSTYLE
  2
ROMANS
 70
     0
  3

  4

  5
OPEN30
  6

  7

 40
1.0
 41
3.0
 42
0.5
 43
0.38
 44
0.18
 45
0.0
 46
0.0
 47
0.0
 48
0.0
140
3.0
141
0.09
142
0.0
143
25.4
144
1.0
145
0.0
146
1.0
147
1.0
 71
     0
 72
     0
 73
     0
 74
     0
 75
     0
 76
     0
 77
     1
 78
    12
170
     0
171
     2
172
     0
173
     0
174
     0
175
     0
176
     0
177
     0
178
     0
  0
ENDTAB
  0
ENDSEC
  0
SECTION
  2
BLOCKS
  0
BLOCK
  8
0
  2
$MODEL_SPACE
 70
     0
 10
0.0
 20
0.0
 30
0.0
  3
$MODEL_SPACE
  1

  0
ENDBLK
  5
3907
  8
0
  0
BLOCK
 67
     1
  8
0
  2
$PAPER_SPACE
 70
     0
 10
0.0
 20
0.0
 30
0.0
  3
$PAPER_SPACE
  1

  0
ENDBLK
  5
3905
 67
     1
  8
0
  0
BLOCK
  8
0
  2
COTE
 70
     0
 10
0.0
 20
0.0
 30
0.0
  3
COTE
  1

  0
ENDBLK
  5
35
  8
0
  0
BLOCK
  8
0
  2
FOND
 70
     0
 10
0.0
 20
0.0
 30
0.0
  3
FOND
  1

  0
ENDBLK
  5
39
  8
0
  0
BLOCK
  8
0
  2
SCH_ISO
 70
     0
 10
0.0
 20
0.0
 30
0.0
  3
SCH_ISO
  1

  0
ENDBLK
  5
24AD
  8
0
  0
BLOCK
  8
0
  2
_OPEN30
 70
     0
 10
0.0
 20
0.0
 30
0.0
  3
_OPEN30
  1

  0
LINE
  5
27E1
  8
COTATION1
 62
     0
 10
-1.0
 20
0.267949
 30
0.0
 11
0.0
 21
0.0
 31
0.0
1001
ACAD
1000
RTLwPs
1070
   158
  0
LINE
  5
27E2
  8
COTATION1
 62
     0
 10
0.0
 20
0.0
 30
0.0
 11
-1.0
 21
-0.267949
 31
0.0
1001
ACAD
1000
RTLwPs
1070
   158
  0
LINE
  5
27E3
  8
COTATION1
 62
     0
 10
0.0
 20
0.0
 30
0.0
 11
-1.0
 21
0.0
 31
0.0
1001
ACAD
1000
RTLwPs
1070
   158
  0
ENDBLK
  5
27E5
  8
0
  0
BLOCK
  8
0
  2
*D4
 70
     1
 10
0.0
 20
0.0
 30
0.0
  3
*D4
  1

  0
LINE
  5
3704
  8
COTATION1
 62
     0
 10
667.567008
 20
4.489015
 30
0.0
 11
708.70858
 21
4.489015
 31
0.0
1001
ACAD
1000
RTLwPs
1070
   158
  0
LINE
  5
3705
  8
COTATION1
 62
     0
 10
659.386842
 20
103.339015
 30
0.0
 11
708.70858
 21
103.339015
 31
0.0
1001
ACAD
1000
RTLwPs
1070
   158
  0
LINE
  5
3706
  8
COTATION1
 62
     0
 10
708.52858
 20
7.489015
 30
0.0
 11
708.52858
 21
100.339015
 31
0.0
1001
ACAD
1000
RTLwPs
1070
   158
  0
INSERT
  5
3707
  8
COTATION1
 62
     0
  2
_OPEN30
 10
708.52858
 20
4.489015
 30
0.0
 41
3.0
 42
3.0
 43
3.0
 50
270.0
1001
ACAD
1000
RTLwPs
1070
   158
  0
INSERT
  5
3708
  8
COTATION1
 62
     0
  2
_OPEN30
 10
708.52858
 20
103.339015
 30
0.0
 41
3.0
 42
3.0
 43
3.0
 50
90.0
1001
ACAD
1000
RTLwPs
1070
   158
  0
TEXT
  5
3709
  8
COTATION1
 62
     0
 10
707.52858
 20
47.485444
 30
0.0
 40
3.0
  1
98.85
 50
90.0
1001
ACAD
1000
MTEXTBEGIN
1070
    73
1070
     1
1070
    44
1040
1.0
1070
    74
1070
     0
1000
MTEXTEND
1000
MTEXTBEGIN
1070
    73
1070
     1
1070
    44
1040
1.0
1070
    74
1070
     0
1000
MTEXTEND
  0
POINT
  5
370A
  8
DEFPOINTS
 62
     0
 10
667.067008
 20
4.489015
 30
0.0
  0
POINT
  5
370B
  8
DEFPOINTS
 62
     0
 10
658.886842
 20
103.339015
 30
0.0
  0
POINT
  5
370C
  8
DEFPOINTS
 62
     0
 10
708.52858
 20
103.339015
 30
0.0
  0
ENDBLK
  5
3210
  8
0
  0
BLOCK
  8
0
  2
*D5
 70
     1
 10
0.0
 20
0.0
 30
0.0
  3
*D5
  1

  0
LINE
  5
36F1
  8
COTATION1
 62
     0
 10
668.723567
 20
16.989015
 30
0.0
 11
696.786937
 21
16.989015
 31
0.0
1001
ACAD
1000
RTLwPs
1070
   158
  0
LINE
  5
36F2
  8
COTATION1
 62
     0
 10
668.723567
 20
101.989015
 30
0.0
 11
696.786937
 21
101.989015
 31
0.0
1001
ACAD
1000
RTLwPs
1070
   158
  0
LINE
  5
36F3
  8
COTATION1
 62
     0
 10
696.606937
 20
19.989015
 30
0.0
 11
696.606937
 21
98.989015
 31
0.0
1001
ACAD
1000
RTLwPs
1070
   158
  0
INSERT
  5
36F4
  8
COTATION1
 62
     0
  2
_OPEN30
 10
696.606937
 20
16.989015
 30
0.0
 41
3.0
 42
3.0
 43
3.0
 50
270.0
1001
ACAD
1000
RTLwPs
1070
   158
  0
INSERT
  5
36F5
  8
COTATION1
 62
     0
  2
_OPEN30
 10
696.606937
 20
101.989015
 30
0.0
 41
3.0
 42
3.0
 43
3.0
 50
90.0
1001
ACAD
1000
RTLwPs
1070
   158
  0
TEXT
  5
36F6
  8
COTATION1
 62
     0
 10
695.606937
 20
56.631872
 30
0.0
 40
3.0
  1
85
 50
90.0
1001
ACAD
1000
MTEXTBEGIN
1070
    73
1070
     1
1070
    44
1040
1.0
1070
    74
1070
     0
1000
MTEXTEND
1000
MTEXTBEGIN
1070
    73
1070
     1
1070
    44
1040
1.0
1070
    74
1070
     0
1000
MTEXTEND
  0
POINT
  5
36F7
  8
DEFPOINTS
 62
     0
 10
668.223567
 20
16.989015
 30
0.0
  0
POINT
  5
36F8
  8
DEFPOINTS
 62
     0
 10
668.223567
 20
101.989015
 30
0.0
  0
POINT
  5
36F9
  8
DEFPOINTS
 62
     0
 10
696.606937
 20
101.989015
 30
0.0
  0
ENDBLK
  5
321D
  8
0
  0
BLOCK
  8
0
  2
*D6
 70
     1
 10
0.0
 20
0.0
 30
0.0
  3
*D6
  1

  0
LINE
  5
36E7
  8
COTATION1
 62
     0
 10
669.023567
 20
101.989015
 30
0.0
 11
696.786937
 21
101.989015
 31
0.0
1001
ACAD
1000
RTLwPs
1070
   158
  0
LINE
  5
36E8
  8
COTATION1
 62
     0
 10
659.686842
 20
103.339015
 30
0.0
 11
696.786937
 21
103.339015
 31
0.0
1001
ACAD
1000
RTLwPs
1070
   158
  0
LINE
  5
36E9
  8
COTATION1
 62
     0
 10
696.606937
 20
98.989015
 30
0.0
 11
696.606937
 21
95.989015
 31
0.0
1001
ACAD
1000
RTLwPs
1070
   158
  0
LINE
  5
36EA
  8
COTATION1
 62
     0
 10
696.606937
 20
106.339015
 30
0.0
 11
696.606937
 21
120.053301
 31
0.0
1001
ACAD
1000
RTLwPs
1070
   158
  0
INSERT
  5
36EB
  8
COTATION1
 62
     0
  2
_OPEN30
 10
696.606937
 20
101.989015
 30
0.0
 41
3.0
 42
3.0
 43
3.0
 50
90.0
1001
ACAD
1000
RTLwPs
1070
   158
  0
INSERT
  5
36EC
  8
COTATION1
 62
     0
  2
_OPEN30
 10
696.606937
 20
103.339015
 30
0.0
 41
3.0
 42
3.0
 43
3.0
 50
270.0
1001
ACAD
1000
RTLwPs
1070
   158
  0
TEXT
  5
36ED
  8
COTATION1
 62
     0
 10
695.606937
 20
109.481872
 30
0.0
 40
3.0
  1
1.35
 50
90.0
1001
ACAD
1000
MTEXTBEGIN
1070
    73
1070
     1
1070
    44
1040
1.0
1070
    74
1070
     0
1000
MTEXTEND
1000
MTEXTBEGIN
1070
    73
1070
     1
1070
    44
1040
1.0
1070
    74
1070
     0
1000
MTEXTEND
  0
POINT
  5
36EE
  8
DEFPOINTS
 62
     0
 10
668.523567
 20
101.989015
 30
0.0
  0
POINT
  5
36EF
  8
DEFPOINTS
 62
     0
 10
659.186842
 20
103.339015
 30
0.0
  0
POINT
  5
36F0
  8
DEFPOINTS
 62
     0
 10
696.606937
 20
103.339015
 30
0.0
  0
ENDBLK
  5
322B
  8
0
  0
BLOCK
  8
0
  2
*D7
 70
     1
 10
0.0
 20
0.0
 30
0.0
  3
*D7
  1

  0
LINE
  5
3636
  8
COTATION1
 62
     0
 10
669.870933
 20
100.84103
 30
0.0
 11
669.870933
 21
113.572061
 31
0.0
1001
ACAD
1000
RTLwPs
1070
   158
  0
LINE
  5
3637
  8
COTATION1
 62
     0
 10
642.670933
 20
100.84103
 30
0.0
 11
642.670933
 21
113.572061
 31
0.0
1001
ACAD
1000
RTLwPs
1070
   158
  0
LINE
  5
3638
  8
COTATION1
 62
     0
 10
666.870933
 20
113.392061
 30
0.0
 11
645.670933
 21
113.392061
 31
0.0
1001
ACAD
1000
RTLwPs
1070
   158
  0
INSERT
  5
3639
  8
COTATION1
 62
     0
  2
_OPEN30
 10
669.870933
 20
113.392061
 30
0.0
 41
3.0
 42
3.0
 43
3.0
1001
ACAD
1000
RTLwPs
1070
   158
  0
INSERT
  5
363A
  8
COTATION1
 62
     0
  2
_OPEN30
 10
642.670933
 20
113.392061
 30
0.0
 41
3.0
 42
3.0
 43
3.0
 50
180.0
1001
ACAD
1000
RTLwPs
1070
   158
  0
TEXT
  5
363B
  8
COTATION1
 62
     0
 10
651.270933
 20
114.392061
 30
0.0
 40
3.0
  1
27.2
1001
ACAD
1000
MTEXTBEGIN
1070
    73
1070
     1
1070
    44
1040
1.0
1070
    74
1070
     0
1000
MTEXTEND
1000
MTEXTBEGIN
1070
    73
1070
     1
1070
    44
1040
1.0
1070
    74
1070
     0
1000
MTEXTEND
  0
POINT
  5
363C
  8
DEFPOINTS
 62
     0
 10
669.870933
 20
100.34103
 30
0.0
  0
POINT
  5
363D
  8
DEFPOINTS
 62
     0
 10
642.670933
 20
100.34103
 30
0.0
  0
POINT
  5
363E
  8
DEFPOINTS
 62
     0
 10
642.670933
 20
113.392061
 30
0.0
  0
ENDBLK
  5
3247
  8
0
  0
BLOCK
  8
0
  2
*D8
 70
     1
 10
0.0
 20
0.0
 30
0.0
  3
*D8
  1

  0
LINE
  5
36B9
  8
COTATION1
 62
     0
 10
651.895229
 20
51.037467
 30
0.0
 11
627.490933
 21
51.037467
 31
0.0
1001
ACAD
1000
RTLwPs
1070
   158
  0
LINE
  5
36BA
  8
COTATION1
 62
     0
 10
651.895229
 20
21.037467
 30
0.0
 11
627.490933
 21
21.037467
 31
0.0
1001
ACAD
1000
RTLwPs
1070
   158
  0
LINE
  5
36BB
  8
COTATION1
 62
     0
 10
627.670933
 20
48.037467
 30
0.0
 11
627.670933
 21
24.037467
 31
0.0
1001
ACAD
1000
RTLwPs
1070
   158
  0
INSERT
  5
36BC
  8
COTATION1
 62
     0
  2
_OPEN30
 10
627.670933
 20
51.037467
 30
0.0
 41
3.0
 42
3.0
 43
3.0
 50
90.0
1001
ACAD
1000
RTLwPs
1070
   158
  0
INSERT
  5
36BD
  8
COTATION1
 62
     0
  2
_OPEN30
 10
627.670933
 20
21.037467
 30
0.0
 41
3.0
 42
3.0
 43
3.0
 50
270.0
1001
ACAD
1000
RTLwPs
1070
   158
  0
TEXT
  5
36BE
  8
COTATION1
 62
     0
 10
626.670933
 20
33.180324
 30
0.0
 40
3.0
  1
30
 50
90.0
1001
ACAD
1000
MTEXTBEGIN
1070
    73
1070
     1
1070
    44
1040
1.0
1070
    74
1070
     0
1000
MTEXTEND
1000
MTEXTBEGIN
1070
    73
1070
     1
1070
    44
1040
1.0
1070
    74
1070
     0
1000
MTEXTEND
  0
POINT
  5
36BF
  8
DEFPOINTS
 62
     0
 10
652.395229
 20
51.037467
 30
0.0
  0
POINT
  5
36C0
  8
DEFPOINTS
 62
     0
 10
652.395229
 20
21.037467
 30
0.0
  0
POINT
  5
36C1
  8
DEFPOINTS
 62
     0
 10
627.670933
 20
21.037467
 30
0.0
  0
ENDBLK
  5
3298
  8
0
  0
BLOCK
  8
0
  2
*D9
 70
     1
 10
0.0
 20
0.0
 30
0.0
  3
*D9
  1

  0
LINE
  5
369E
  8
COTATION1
 62
     0
 10
649.367008
 20
4.489015
 30
0.0
 11
617.490933
 21
4.489015
 31
0.0
1001
ACAD
1000
RTLwPs
1070
   158
  0
LINE
  5
369F
  8
COTATION1
 62
     0
 10
651.895229
 20
66.991705
 30
0.0
 11
617.490933
 21
66.991705
 31
0.0
1001
ACAD
1000
RTLwPs
1070
   158
  0
LINE
  5
36A0
  8
COTATION1
 62
     0
 10
617.670933
 20
7.489015
 30
0.0
 11
617.670933
 21
63.991705
 31
0.0
1001
ACAD
1000
RTLwPs
1070
   158
  0
INSERT
  5
36A1
  8
COTATION1
 62
     0
  2
_OPEN30
 10
617.670933
 20
4.489015
 30
0.0
 41
3.0
 42
3.0
 43
3.0
 50
270.0
1001
ACAD
1000
RTLwPs
1070
   158
  0
INSERT
  5
36A2
  8
COTATION1
 62
     0
  2
_OPEN30
 10
617.670933
 20
66.991705
 30
0.0
 41
3.0
 42
3.0
 43
3.0
 50
90.0
1001
ACAD
1000
RTLwPs
1070
   158
  0
TEXT
  5
36A3
  8
COTATION1
 62
     0
 10
616.670933
 20
30.668932
 30
0.0
 40
3.0
  1
62.5
 50
90.0
1001
ACAD
1000
MTEXTBEGIN
1070
    73
1070
     1
1070
    44
1040
1.0
1070
    74
1070
     0
1000
MTEXTEND
1000
MTEXTBEGIN
1070
    73
1070
     1
1070
    44
1040
1.0
1070
    74
1070
     0
1000
MTEXTEND
  0
POINT
  5
36A4
  8
DEFPOINTS
 62
     0
 10
649.867008
 20
4.489015
 30
0.0
  0
POINT
  5
36A5
  8
DEFPOINTS
 62
     0
 10
652.395229
 20
66.991705
 30
0.0
  0
POINT
  5
36A6
  8
DEFPOINTS
 62
     0
 10
617.670933
 20
66.991705
 30
0.0
  0
ENDBLK
  5
32A5
  8
0
  0
BLOCK
  8
0
  2
*D10
 70
     1
 10
0.0
 20
0.0
 30
0.0
  3
*D10
  1

  0
LINE
  5
36C2
  8
COTATION1
 62
     0
 10
651.595229
 20
66.988705
 30
0.0
 11
617.490933
 21
66.988705
 31
0.0
1001
ACAD
1000
RTLwPs
1070
   158
  0
LINE
  5
36C3
  8
COTATION1
 62
     0
 10
651.895229
 20
79.988705
 30
0.0
 11
617.490933
 21
79.988705
 31
0.0
1001
ACAD
1000
RTLwPs
1070
   158
  0
LINE
  5
36C4
  8
COTATION1
 62
     0
 10
617.670933
 20
69.988705
 30
0.0
 11
617.670933
 21
76.988705
 31
0.0
1001
ACAD
1000
RTLwPs
1070
   158
  0
INSERT
  5
36C5
  8
COTATION1
 62
     0
  2
_OPEN30
 10
617.670933
 20
66.988705
 30
0.0
 41
3.0
 42
3.0
 43
3.0
 50
270.0
1001
ACAD
1000
RTLwPs
1070
   158
  0
INSERT
  5
36C6
  8
COTATION1
 62
     0
  2
_OPEN30
 10
617.670933
 20
79.988705
 30
0.0
 41
3.0
 42
3.0
 43
3.0
 50
90.0
1001
ACAD
1000
RTLwPs
1070
   158
  0
TEXT
  5
36C7
  8
COTATION1
 62
     0
 10
616.670933
 20
70.417277
 30
0.0
 40
3.0
  1
13
 50
90.0
1001
ACAD
1000
MTEXTBEGIN
1070
    73
1070
     1
1070
    44
1040
1.0
1070
    74
1070
     0
1000
MTEXTEND
1000
MTEXTBEGIN
1070
    73
1070
     1
1070
    44
1040
1.0
1070
    74
1070
     0
1000
MTEXTEND
  0
POINT
  5
36C8
  8
DEFPOINTS
 62
     0
 10
652.095229
 20
66.988705
 30
0.0
  0
POINT
  5
36C9
  8
DEFPOINTS
 62
     0
 10
652.395229
 20
79.988705
 30
0.0
  0
POINT
  5
36CA
  8
DEFPOINTS
 62
     0
 10
617.670933
 20
79.988705
 30
0.0
  0
ENDBLK
  5
3345
  8
0
  0
BLOCK
  8
0
  2
*D11
 70
     1
 10
0.0
 20
0.0
 30
0.0
  3
*D11
  1

  0
LINE
  5
3747
  8
COTATION1
 62
     0
 10
649.867008
 20
3.989015
 30
0.0
 11
649.867008
 21
-20.690985
 31
0.0
1001
ACAD
1000
RTLwPs
1070
   158
  0
LINE
  5
3748
  8
COTATION1
 62
     0
 10
659.867008
 20
-0.134832
 30
0.0
 11
659.867008
 21
-20.690985
 31
0.0
1001
ACAD
1000
RTLwPs
1070
   158
  0
LINE
  5
3749
  8
COTATION1
 62
     0
 10
652.867008
 20
-20.510985
 30
0.0
 11
656.867008
 21
-20.510985
 31
0.0
1001
ACAD
1000
RTLwPs
1070
   158
  0
INSERT
  5
374A
  8
COTATION1
 62
     0
  2
_OPEN30
 10
649.867008
 20
-20.510985
 30
0.0
 41
3.0
 42
3.0
 43
3.0
 50
180.0
1001
ACAD
1000
RTLwPs
1070
   158
  0
INSERT
  5
374B
  8
COTATION1
 62
     0
  2
_OPEN30
 10
659.867008
 20
-20.510985
 30
0.0
 41
3.0
 42
3.0
 43
3.0
1001
ACAD
1000
RTLwPs
1070
   158
  0
TEXT
  5
374C
  8
COTATION1
 62
     0
 10
651.795579
 20
-19.510985
 30
0.0
 40
3.0
  1
10
1001
ACAD
1000
MTEXTBEGIN
1070
    73
1070
     1
1070
    44
1040
1.0
1070
    74
1070
     0
1000
MTEXTEND
1000
MTEXTBEGIN
1070
    73
1070
     1
1070
    44
1040
1.0
1070
    74
1070
     0
1000
MTEXTEND
  0
POINT
  5
374D
  8
DEFPOINTS
 62
     0
 10
649.867008
 20
4.489015
 30
0.0
  0
POINT
  5
374E
  8
DEFPOINTS
 62
     0
 10
659.867008
 20
0.365168
 30
0.0
  0
POINT
  5
374F
  8
DEFPOINTS
 62
     0
 10
659.867008
 20
-20.510985
 30
0.0
  0
ENDBLK
  5
3398
  8
0
  0
BLOCK
  8
0
  2
*D12
 70
     1
 10
0.0
 20
0.0
 30
0.0
  3
*D12
  1

  0
LINE
  5
372C
  8
COTATION1
 62
     0
 10
659.867008
 20
-0.434832
 30
0.0
 11
659.867008
 21
-20.690985
 31
0.0
1001
ACAD
1000
RTLwPs
1070
   158
  0
LINE
  5
372D
  8
COTATION1
 62
     0
 10
669.867008
 20
8.989015
 30
0.0
 11
669.867008
 21
-20.690985
 31
0.0
1001
ACAD
1000
RTLwPs
1070
   158
  0
LINE
  5
372E
  8
COTATION1
 62
     0
 10
662.867008
 20
-20.510985
 30
0.0
 11
666.867008
 21
-20.510985
 31
0.0
1001
ACAD
1000
RTLwPs
1070
   158
  0
INSERT
  5
372F
  8
COTATION1
 62
     0
  2
_OPEN30
 10
659.867008
 20
-20.510985
 30
0.0
 41
3.0
 42
3.0
 43
3.0
 50
180.0
1001
ACAD
1000
RTLwPs
1070
   158
  0
INSERT
  5
3730
  8
COTATION1
 62
     0
  2
_OPEN30
 10
669.867008
 20
-20.510985
 30
0.0
 41
3.0
 42
3.0
 43
3.0
1001
ACAD
1000
RTLwPs
1070
   158
  0
TEXT
  5
3731
  8
COTATION1
 62
     0
 10
661.795579
 20
-19.510985
 30
0.0
 40
3.0
  1
10
1001
ACAD
1000
MTEXTBEGIN
1070
    73
1070
     1
1070
    44
1040
1.0
1070
    74
1070
     0
1000
MTEXTEND
1000
MTEXTBEGIN
1070
    73
1070
     1
1070
    44
1040
1.0
1070
    74
1070
     0
1000
MTEXTEND
  0
POINT
  5
3732
  8
DEFPOINTS
 62
     0
 10
659.867008
 20
0.065168
 30
0.0
  0
POINT
  5
3733
  8
DEFPOINTS
 62
     0
 10
669.867008
 20
9.489015
 30
0.0
  0
POINT
  5
3734
  8
DEFPOINTS
 62
     0
 10
669.867008
 20
-20.510985
 30
0.0
  0
ENDBLK
  5
33A5
  8
0
  0
BLOCK
  8
0
  2
*D13
 70
     1
 10
0.0
 20
0.0
 30
0.0
  3
*D13
  1

  0
LINE
  5
371A
  8
COTATION1
 62
     0
 10
642.670933
 20
18.136381
 30
0.0
 11
642.670933
 21
-30.690985
 31
0.0
1001
ACAD
1000
RTLwPs
1070
   158
  0
LINE
  5
371B
  8
COTATION1
 62
     0
 10
675.270933
 20
17.609967
 30
0.0
 11
675.270933
 21
-30.690985
 31
0.0
1001
ACAD
1000
RTLwPs
1070
   158
  0
LINE
  5
371C
  8
COTATION1
 62
     0
 10
645.670933
 20
-30.510985
 30
0.0
 11
672.270933
 21
-30.510985
 31
0.0
1001
ACAD
1000
RTLwPs
1070
   158
  0
INSERT
  5
371D
  8
COTATION1
 62
     0
  2
_OPEN30
 10
642.670933
 20
-30.510985
 30
0.0
 41
3.0
 42
3.0
 43
3.0
 50
180.0
1001
ACAD
1000
RTLwPs
1070
   158
  0
INSERT
  5
371E
  8
COTATION1
 62
     0
  2
_OPEN30
 10
675.270933
 20
-30.510985
 30
0.0
 41
3.0
 42
3.0
 43
3.0
1001
ACAD
1000
RTLwPs
1070
   158
  0
TEXT
  5
371F
  8
COTATION1
 62
     0
 10
653.970933
 20
-29.510985
 30
0.0
 40
3.0
  1
32.6
1001
ACAD
1000
MTEXTBEGIN
1070
    73
1070
     1
1070
    44
1040
1.0
1070
    74
1070
     0
1000
MTEXTEND
1000
MTEXTBEGIN
1070
    73
1070
     1
1070
    44
1040
1.0
1070
    74
1070
     0
1000
MTEXTEND
  0
POINT
  5
3720
  8
DEFPOINTS
 62
     0
 10
642.670933
 20
18.636381
 30
0.0
  0
POINT
  5
3721
  8
DEFPOINTS
 62
     0
 10
675.270933
 20
18.109967
 30
0.0
  0
POINT
  5
3722
  8
DEFPOINTS
 62
     0
 10
675.270933
 20
-30.510985
 30
0.0
  0
ENDBLK
  5
33C7
  8
0
  0
ENDSEC
  0
SECTION
  2
ENTITIES
  0
INSERT
  5
32
  8
0
  2
COTE
 10
0.0
 20
0.0
 30
0.0
  0
INSERT
  5
36
  8
0
  2
FOND
 10
0.0
 20
0.0
 30
0.0
  0
INSERT
  5
24AE
  8
ALPHA
  2
SCH_ISO
 10
-66.27012
 20
-238.940658
 30
0.0
  0
CIRCLE
  5
2EBD
  8
ALPHA
 10
655.59211
 20
21.038086
 30
0.0
 40
2.196694
  0
CIRCLE
  5
2F1E
  8
ALPHA
 10
655.59211
 20
51.037777
 30
0.0
 40
2.196385
  0
LINE
  5
2F1F
  8
AXE
 10
652.395229
 20
51.037467
 30
0.0
 11
687.159036
 21
51.037467
 31
0.0
  0
TEXT
  5
2F98
  8
ALPHA
 10
660.135651
 20
63.561029
 30
0.0
 40
6.794718
  1
E
  7
STD
  0
TEXT
  5
2F99
  8
ALPHA
 10
660.135651
 20
76.393896
 30
0.0
 40
6.794718
  1
R
  7
STD
  0
POLYLINE
  5
301F
  8
ALPHA
 66
     1
 10
0.0
 20
0.0
 30
0.0
 70
   128
  0
VERTEX
  5
390D
  8
ALPHA
 10
647.902751
 20
92.774659
 30
0.0
  0
VERTEX
  5
390E
  8
ALPHA
 10
648.087786
 20
92.774659
 30
0.0
  0
VERTEX
  5
390F
  8
ALPHA
 10
648.61071
 20
92.774659
 30
0.0
  0
VERTEX
  5
3910
  8
ALPHA
 10
649.423254
 20
92.774659
 30
0.0
  0
VERTEX
  5
3911
  8
ALPHA
 10
650.477147
 20
92.774659
 30
0.0
  0
VERTEX
  5
3912
  8
ALPHA
 10
653.115904
 20
92.774659
 30
0.0
  0
VERTEX
  5
3913
  8
ALPHA
 10
656.140819
 20
92.774659
 30
0.0
  0
VERTEX
  5
3914
  8
ALPHA
 10
659.165735
 20
92.774659
 30
0.0
  0
VERTEX
  5
3915
  8
ALPHA
 10
661.804491
 20
92.774659
 30
0.0
  0
VERTEX
  5
3916
  8
ALPHA
 10
662.858384
 20
92.774659
 30
0.0
  0
VERTEX
  5
3917
  8
ALPHA
 10
663.670928
 20
92.774659
 30
0.0
  0
VERTEX
  5
3918
  8
ALPHA
 10
664.193853
 20
92.774659
 30
0.0
  0
VERTEX
  5
3919
  8
ALPHA
 10
664.378887
 20
92.774659
 30
0.0
  0
SEQEND
  5
391A
  8
ALPHA
  0
POLYLINE
  5
3020
  8
ALPHA
 66
     1
 10
0.0
 20
0.0
 30
0.0
 70
   128
210
0.0
220
0.0
230
-1.0
  0
VERTEX
  5
391B
  8
ALPHA
 10
-664.378887
 20
92.774659
 30
0.0
  0
VERTEX
  5
391C
  8
ALPHA
 10
-665.233265
 20
92.601948
 30
0.0
  0
VERTEX
  5
391D
  8
ALPHA
 10
-665.931808
 20
92.13104
 30
0.0
  0
VERTEX
  5
391E
  8
ALPHA
 10
-666.40322
 20
91.432768
 30
0.0
  0
VERTEX
  5
391F
  8
ALPHA
 10
-666.576201
 20
90.577964
 30
0.0
  0
SEQEND
  5
3920
  8
ALPHA
  0
POLYLINE
  5
3021
  8
ALPHA
 66
     1
 10
0.0
 20
0.0
 30
0.0
 70
   128
  0
VERTEX
  5
3921
  8
ALPHA
 10
666.576201
 20
90.577964
 30
0.0
  0
VERTEX
  5
3922
  8
ALPHA
 10
666.576201
 20
90.207916
 30
0.0
  0
VERTEX
  5
3923
  8
ALPHA
 10
666.576201
 20
89.162126
 30
0.0
  0
VERTEX
  5
3924
  8
ALPHA
 10
666.576201
 20
87.53713
 30
0.0
  0
VERTEX
  5
3925
  8
ALPHA
 10
666.576201
 20
85.429462
 30
0.0
  0
VERTEX
  5
3926
  8
ALPHA
 10
666.576201
 20
82.935656
 30
0.0
  0
VERTEX
  5
3927
  8
ALPHA
 10
666.576201
 20
80.152247
 30
0.0
  0
VERTEX
  5
3928
  8
ALPHA
 10
666.576201
 20
74.102757
 30
0.0
  0
VERTEX
  5
3929
  8
ALPHA
 10
666.576201
 20
68.053267
 30
0.0
  0
VERTEX
  5
392A
  8
ALPHA
 10
666.576201
 20
65.269858
 30
0.0
  0
VERTEX
  5
392B
  8
ALPHA
 10
666.576201
 20
62.776052
 30
0.0
  0
VERTEX
  5
392C
  8
ALPHA
 10
666.576201
 20
60.668384
 30
0.0
  0
VERTEX
  5
392D
  8
ALPHA
 10
666.576201
 20
59.043388
 30
0.0
  0
VERTEX
  5
392E
  8
ALPHA
 10
666.576201
 20
57.997599
 30
0.0
  0
VERTEX
  5
392F
  8
ALPHA
 10
666.576201
 20
57.62755
 30
0.0
  0
SEQEND
  5
3930
  8
ALPHA
  0
POLYLINE
  5
3022
  8
ALPHA
 66
     1
 10
0.0
 20
0.0
 30
0.0
 70
   128
210
0.0
220
0.0
230
-1.0
  0
VERTEX
  5
3931
  8
ALPHA
 10
-666.576201
 20
57.62755
 30
0.0
  0
VERTEX
  5
3932
  8
ALPHA
 10
-666.40322
 20
56.772747
 30
0.0
  0
VERTEX
  5
3933
  8
ALPHA
 10
-665.931808
 20
56.074474
 30
0.0
  0
VERTEX
  5
3934
  8
ALPHA
 10
-665.233265
 20
55.603566
 30
0.0
  0
VERTEX
  5
3935
  8
ALPHA
 10
-664.378887
 20
55.430856
 30
0.0
  0
SEQEND
  5
3936
  8
ALPHA
  0
POLYLINE
  5
3023
  8
ALPHA
 66
     1
 10
0.0
 20
0.0
 30
0.0
 70
   128
  0
VERTEX
  5
3937
  8
ALPHA
 10
664.378887
 20
55.430856
 30
0.0
  0
VERTEX
  5
3938
  8
ALPHA
 10
664.193853
 20
55.430856
 30
0.0
  0
VERTEX
  5
3939
  8
ALPHA
 10
663.670928
 20
55.430856
 30
0.0
  0
VERTEX
  5
393A
  8
ALPHA
 10
662.858384
 20
55.430856
 30
0.0
  0
VERTEX
  5
393B
  8
ALPHA
 10
661.804491
 20
55.430856
 30
0.0
  0
VERTEX
  5
393C
  8
ALPHA
 10
659.165735
 20
55.430856
 30
0.0
  0
VERTEX
  5
393D
  8
ALPHA
 10
656.140819
 20
55.430856
 30
0.0
  0
VERTEX
  5
393E
  8
ALPHA
 10
653.115904
 20
55.430856
 30
0.0
  0
VERTEX
  5
393F
  8
ALPHA
 10
650.477147
 20
55.430856
 30
0.0
  0
VERTEX
  5
3940
  8
ALPHA
 10
649.423254
 20
55.430856
 30
0.0
  0
VERTEX
  5
3941
  8
ALPHA
 10
648.61071
 20
55.430856
 30
0.0
  0
VERTEX
  5
3942
  8
ALPHA
 10
648.087786
 20
55.430856
 30
0.0
  0
VERTEX
  5
3943
  8
ALPHA
 10
647.902751
 20
55.430856
 30
0.0
  0
SEQEND
  5
3944
  8
ALPHA
  0
POLYLINE
  5
3024
  8
ALPHA
 66
     1
 10
0.0
 20
0.0
 30
0.0
 70
   128
210
0.0
220
0.0
230
-1.0
  0
VERTEX
  5
3945
  8
ALPHA
 10
-647.902751
 20
55.430856
 30
0.0
  0
VERTEX
  5
3946
  8
ALPHA
 10
-647.048761
 20
55.603566
 30
0.0
  0
VERTEX
  5
3947
  8
ALPHA
 10
-646.351069
 20
56.074474
 30
0.0
  0
VERTEX
  5
3948
  8
ALPHA
 10
-645.880509
 20
56.772747
 30
0.0
  0
VERTEX
  5
3949
  8
ALPHA
 10
-645.707915
 20
57.62755
 30
0.0
  0
SEQEND
  5
394A
  8
ALPHA
  0
POLYLINE
  5
3025
  8
ALPHA
 66
     1
 10
0.0
 20
0.0
 30
0.0
 70
   128
  0
VERTEX
  5
394B
  8
ALPHA
 10
645.707915
 20
57.62755
 30
0.0
  0
VERTEX
  5
394C
  8
ALPHA
 10
645.707915
 20
57.997599
 30
0.0
  0
VERTEX
  5
394D
  8
ALPHA
 10
645.707915
 20
59.043388
 30
0.0
  0
VERTEX
  5
394E
  8
ALPHA
 10
645.707915
 20
60.668384
 30
0.0
  0
VERTEX
  5
394F
  8
ALPHA
 10
645.707915
 20
62.776052
 30
0.0
  0
VERTEX
  5
3950
  8
ALPHA
 10
645.707915
 20
65.269858
 30
0.0
  0
VERTEX
  5
3951
  8
ALPHA
 10
645.707915
 20
68.053267
 30
0.0
  0
VERTEX
  5
3952
  8
ALPHA
 10
645.707915
 20
74.102757
 30
0.0
  0
VERTEX
  5
3953
  8
ALPHA
 10
645.707915
 20
80.152247
 30
0.0
  0
VERTEX
  5
3954
  8
ALPHA
 10
645.707915
 20
82.935656
 30
0.0
  0
VERTEX
  5
3955
  8
ALPHA
 10
645.707915
 20
85.429462
 30
0.0
  0
VERTEX
  5
3956
  8
ALPHA
 10
645.707915
 20
87.53713
 30
0.0
  0
VERTEX
  5
3957
  8
ALPHA
 10
645.707915
 20
89.162126
 30
0.0
  0
VERTEX
  5
3958
  8
ALPHA
 10
645.707915
 20
90.207916
 30
0.0
  0
VERTEX
  5
3959
  8
ALPHA
 10
645.707915
 20
90.577964
 30
0.0
  0
SEQEND
  5
395A
  8
ALPHA
  0
POLYLINE
  5
3026
  8
ALPHA
 66
     1
 10
0.0
 20
0.0
 30
0.0
 70
   128
210
0.0
220
0.0
230
-1.0
  0
VERTEX
  5
395B
  8
ALPHA
 10
-645.707915
 20
90.577964
 30
0.0
  0
VERTEX
  5
395C
  8
ALPHA
 10
-645.880509
 20
91.432768
 30
0.0
  0
VERTEX
  5
395D
  8
ALPHA
 10
-646.351069
 20
92.13104
 30
0.0
  0
VERTEX
  5
395E
  8
ALPHA
 10
-647.048761
 20
92.601948
 30
0.0
  0
VERTEX
  5
395F
  8
ALPHA
 10
-647.902751
 20
92.774659
 30
0.0
  0
SEQEND
  5
3960
  8
ALPHA
  0
LINE
  5
30AD
  8
ALPHA
 10
649.867008
 20
4.489015
 30
0.0
 11
649.867008
 21
6.689015
 31
0.0
  0
POLYLINE
  5
30B0
  8
ALPHA
 66
     1
 10
0.0
 20
0.0
 30
0.0
 70
   128
  0
VERTEX
  5
3961
  8
ALPHA
 10
669.867008
 20
9.489015
 30
0.0
  0
VERTEX
  5
3962
  8
ALPHA
 10
669.867019
 20
9.620806
 30
0.0
  0
VERTEX
  5
3963
  8
ALPHA
 10
669.867052
 20
10.004964
 30
0.0
  0
VERTEX
  5
3964
  8
ALPHA
 10
669.867176
 20
11.463079
 30
0.0
  0
VERTEX
  5
3965
  8
ALPHA
 10
669.86737
 20
13.728765
 30
0.0
  0
VERTEX
  5
3966
  8
ALPHA
 10
669.867621
 20
16.667428
 30
0.0
  0
VERTEX
  5
3967
  8
ALPHA
 10
669.867918
 20
20.144471
 30
0.0
  0
VERTEX
  5
3968
  8
ALPHA
 10
669.86825
 20
24.025301
 30
0.0
  0
VERTEX
  5
3969
  8
ALPHA
 10
669.86897
 20
32.459935
 30
0.0
  0
VERTEX
  5
396A
  8
ALPHA
 10
669.869691
 20
40.89457
 30
0.0
  0
VERTEX
  5
396B
  8
ALPHA
 10
669.870022
 20
44.775399
 30
0.0
  0
VERTEX
  5
396C
  8
ALPHA
 10
669.870319
 20
48.252443
 30
0.0
  0
VERTEX
  5
396D
  8
ALPHA
 10
669.87057
 20
51.191106
 30
0.0
  0
VERTEX
  5
396E
  8
ALPHA
 10
669.870764
 20
53.456792
 30
0.0
  0
VERTEX
  5
396F
  8
ALPHA
 10
669.870889
 20
54.914907
 30
0.0
  0
VERTEX
  5
3970
  8
ALPHA
 10
669.870921
 20
55.299064
 30
0.0
  0
VERTEX
  5
3971
  8
ALPHA
 10
669.870933
 20
55.430856
 30
0.0
  0
SEQEND
  5
3972
  8
ALPHA
  0
POLYLINE
  5
30B1
  8
ALPHA
 66
     1
 10
0.0
 20
0.0
 30
0.0
 70
   128
  0
VERTEX
  5
3973
  8
ALPHA
 10
669.870933
 20
55.430856
 30
0.0
  0
VERTEX
  5
3974
  8
ALPHA
 10
670.214069
 20
55.430856
 30
0.0
  0
VERTEX
  5
3975
  8
ALPHA
 10
670.96897
 20
55.430856
 30
0.0
  0
VERTEX
  5
3976
  8
ALPHA
 10
671.723871
 20
55.430856
 30
0.0
  0
VERTEX
  5
3977
  8
ALPHA
 10
672.067008
 20
55.430856
 30
0.0
  0
SEQEND
  5
3978
  8
ALPHA
  0
POLYLINE
  5
30B2
  8
ALPHA
 66
     1
 10
0.0
 20
0.0
 30
0.0
 70
   128
  0
VERTEX
  5
3979
  8
ALPHA
 10
672.067008
 20
55.430856
 30
0.0
  0
VERTEX
  5
397A
  8
ALPHA
 10
672.067008
 20
55.308125
 30
0.0
  0
VERTEX
  5
397B
  8
ALPHA
 10
672.067008
 20
54.949979
 30
0.0
  0
VERTEX
  5
397C
  8
ALPHA
 10
672.067008
 20
53.587725
 30
0.0
  0
VERTEX
  5
397D
  8
ALPHA
 10
672.067008
 20
51.464663
 30
0.0
  0
VERTEX
  5
397E
  8
ALPHA
 10
672.067008
 20
48.701357
 30
0.0
  0
VERTEX
  5
397F
  8
ALPHA
 10
672.067008
 20
45.418376
 30
0.0
  0
VERTEX
  5
3980
  8
ALPHA
 10
672.067008
 20
41.736284
 30
0.0
  0
VERTEX
  5
3981
  8
ALPHA
 10
672.067008
 20
33.65704
 30
0.0
  0
VERTEX
  5
3982
  8
ALPHA
 10
672.067008
 20
25.428158
 30
0.0
  0
VERTEX
  5
3983
  8
ALPHA
 10
672.067008
 20
21.559019
 30
0.0
  0
VERTEX
  5
3984
  8
ALPHA
 10
672.067008
 20
18.014171
 30
0.0
  0
VERTEX
  5
3985
  8
ALPHA
 10
672.067008
 20
14.914179
 30
0.0
  0
VERTEX
  5
3986
  8
ALPHA
 10
672.067008
 20
12.379612
 30
0.0
  0
VERTEX
  5
3987
  8
ALPHA
 10
672.067008
 20
10.531035
 30
0.0
  0
VERTEX
  5
3988
  8
ALPHA
 10
672.067008
 20
9.489015
 30
0.0
  0
SEQEND
  5
3989
  8
ALPHA
  0
POLYLINE
  5
30B5
  8
ALPHA
 66
     1
 10
0.0
 20
0.0
 30
0.0
 70
   128
  0
VERTEX
  5
398A
  8
ALPHA
 10
644.318299
 20
101.989015
 30
0.0
  0
VERTEX
  5
398B
  8
ALPHA
 10
644.586766
 20
101.989015
 30
0.0
  0
VERTEX
  5
398C
  8
ALPHA
 10
645.345478
 20
101.989015
 30
0.0
  0
VERTEX
  5
398D
  8
ALPHA
 10
646.5244
 20
101.989015
 30
0.0
  0
VERTEX
  5
398E
  8
ALPHA
 10
648.053497
 20
101.989015
 30
0.0
  0
VERTEX
  5
398F
  8
ALPHA
 10
651.882075
 20
101.989015
 30
0.0
  0
VERTEX
  5
3990
  8
ALPHA
 10
656.270933
 20
101.989015
 30
0.0
  0
VERTEX
  5
3991
  8
ALPHA
 10
660.65979
 20
101.989015
 30
0.0
  0
VERTEX
  5
3992
  8
ALPHA
 10
664.488369
 20
101.989015
 30
0.0
  0
VERTEX
  5
3993
  8
ALPHA
 10
666.017465
 20
101.989015
 30
0.0
  0
VERTEX
  5
3994
  8
ALPHA
 10
667.196387
 20
101.989015
 30
0.0
  0
VERTEX
  5
3995
  8
ALPHA
 10
667.955099
 20
101.989015
 30
0.0
  0
VERTEX
  5
3996
  8
ALPHA
 10
668.223567
 20
101.989015
 30
0.0
  0
SEQEND
  5
3997
  8
ALPHA
  0
POLYLINE
  5
30B6
  8
ALPHA
 66
     1
 10
0.0
 20
0.0
 30
0.0
 70
   128
210
0.0
220
0.0
230
-1.0
  0
VERTEX
  5
3998
  8
ALPHA
 10
-668.223567
 20
101.989015
 30
0.0
  0
VERTEX
  5
3999
  8
ALPHA
 10
-668.864514
 20
101.859453
 30
0.0
  0
VERTEX
  5
399A
  8
ALPHA
 10
-669.38818
 20
101.506185
 30
0.0
  0
VERTEX
  5
399B
  8
ALPHA
 10
-669.741381
 20
100.982336
 30
0.0
  0
VERTEX
  5
399C
  8
ALPHA
 10
-669.870933
 20
100.34103
 30
0.0
  0
SEQEND
  5
399D
  8
ALPHA
  0
POLYLINE
  5
30B7
  8
ALPHA
 66
     1
 10
0.0
 20
0.0
 30
0.0
 70
   128
  0
VERTEX
  5
399E
  8
ALPHA
 10
669.870933
 20
100.34103
 30
0.0
  0
VERTEX
  5
399F
  8
ALPHA
 10
669.870933
 20
100.106648
 30
0.0
  0
VERTEX
  5
39A0
  8
ALPHA
 10
669.870933
 20
99.423448
 30
0.0
  0
VERTEX
  5
39A1
  8
ALPHA
 10
669.870933
 20
98.321353
 30
0.0
  0
VERTEX
  5
39A2
  8
ALPHA
 10
669.870933
 20
96.830283
 30
0.0
  0
VERTEX
  5
39A3
  8
ALPHA
 10
669.870933
 20
94.98016
 30
0.0
  0
VERTEX
  5
39A4
  8
ALPHA
 10
669.870933
 20
92.800904
 30
0.0
  0
VERTEX
  5
39A5
  8
ALPHA
 10
669.870933
 20
90.322436
 30
0.0
  0
VERTEX
  5
39A6
  8
ALPHA
 10
669.870933
 20
87.574679
 30
0.0
  0
VERTEX
  5
39A7
  8
ALPHA
 10
669.870933
 20
81.390977
 30
0.0
  0
VERTEX
  5
39A8
  8
ALPHA
 10
669.870933
 20
74.489168
 30
0.0
  0
VERTEX
  5
39A9
  8
ALPHA
 10
669.870933
 20
67.108621
 30
0.0
  0
VERTEX
  5
39AA
  8
ALPHA
 10
669.870933
 20
59.488705
 30
0.0
  0
VERTEX
  5
39AB
  8
ALPHA
 10
669.870933
 20
51.868789
 30
0.0
  0
VERTEX
  5
39AC
  8
ALPHA
 10
669.870933
 20
44.488243
 30
0.0
  0
VERTEX
  5
39AD
  8
ALPHA
 10
669.870933
 20
37.586434
 30
0.0
  0
VERTEX
  5
39AE
  8
ALPHA
 10
669.870933
 20
31.402732
 30
0.0
  0
VERTEX
  5
39AF
  8
ALPHA
 10
669.870933
 20
28.654975
 30
0.0
  0
VERTEX
  5
39B0
  8
ALPHA
 10
669.870933
 20
26.176507
 30
0.0
  0
VERTEX
  5
39B1
  8
ALPHA
 10
669.870933
 20
23.997251
 30
0.0
  0
VERTEX
  5
39B2
  8
ALPHA
 10
669.870933
 20
22.147128
 30
0.0
  0
VERTEX
  5
39B3
  8
ALPHA
 10
669.870933
 20
20.656058
 30
0.0
  0
VERTEX
  5
39B4
  8
ALPHA
 10
669.870933
 20
19.553963
 30
0.0
  0
VERTEX
  5
39B5
  8
ALPHA
 10
669.870933
 20
18.870763
 30
0.0
  0
VERTEX
  5
39B6
  8
ALPHA
 10
669.870933
 20
18.636381
 30
0.0
  0
SEQEND
  5
39B7
  8
ALPHA
  0
POLYLINE
  5
30B8
  8
ALPHA
 66
     1
 10
0.0
 20
0.0
 30
0.0
 70
   128
210
0.0
220
0.0
230
-1.0
  0
VERTEX
  5
39B8
  8
ALPHA
 10
-669.870933
 20
18.636381
 30
0.0
  0
VERTEX
  5
39B9
  8
ALPHA
 10
-669.741381
 20
17.995433
 30
0.0
  0
VERTEX
  5
39BA
  8
ALPHA
 10
-669.38818
 20
17.471768
 30
0.0
  0
VERTEX
  5
39BB
  8
ALPHA
 10
-668.864514
 20
17.118567
 30
0.0
  0
VERTEX
  5
39BC
  8
ALPHA
 10
-668.223567
 20
16.989015
 30
0.0
  0
SEQEND
  5
39BD
  8
ALPHA
  0
POLYLINE
  5
30B9
  8
ALPHA
 66
     1
 10
0.0
 20
0.0
 30
0.0
 70
   128
  0
VERTEX
  5
39BE
  8
ALPHA
 10
668.223567
 20
16.989015
 30
0.0
  0
VERTEX
  5
39BF
  8
ALPHA
 10
667.955099
 20
16.989015
 30
0.0
  0
VERTEX
  5
39C0
  8
ALPHA
 10
667.196387
 20
16.989015
 30
0.0
  0
VERTEX
  5
39C1
  8
ALPHA
 10
666.017465
 20
16.989015
 30
0.0
  0
VERTEX
  5
39C2
  8
ALPHA
 10
664.488369
 20
16.989015
 30
0.0
  0
VERTEX
  5
39C3
  8
ALPHA
 10
660.65979
 20
16.989015
 30
0.0
  0
VERTEX
  5
39C4
  8
ALPHA
 10
656.270933
 20
16.989015
 30
0.0
  0
VERTEX
  5
39C5
  8
ALPHA
 10
651.882075
 20
16.989015
 30
0.0
  0
VERTEX
  5
39C6
  8
ALPHA
 10
648.053497
 20
16.989015
 30
0.0
  0
VERTEX
  5
39C7
  8
ALPHA
 10
646.5244
 20
16.989015
 30
0.0
  0
VERTEX
  5
39C8
  8
ALPHA
 10
645.345478
 20
16.989015
 30
0.0
  0
VERTEX
  5
39C9
  8
ALPHA
 10
644.586766
 20
16.989015
 30
0.0
  0
VERTEX
  5
39CA
  8
ALPHA
 10
644.318299
 20
16.989015
 30
0.0
  0
SEQEND
  5
39CB
  8
ALPHA
  0
POLYLINE
  5
30BA
  8
ALPHA
 66
     1
 10
0.0
 20
0.0
 30
0.0
 70
   128
210
0.0
220
0.0
230
-1.0
  0
VERTEX
  5
39CC
  8
ALPHA
 10
-644.318299
 20
16.989015
 30
0.0
  0
VERTEX
  5
39CD
  8
ALPHA
 10
-643.677351
 20
17.118567
 30
0.0
  0
VERTEX
  5
39CE
  8
ALPHA
 10
-643.153685
 20
17.471768
 30
0.0
  0
VERTEX
  5
39CF
  8
ALPHA
 10
-642.800485
 20
17.995433
 30
0.0
  0
VERTEX
  5
39D0
  8
ALPHA
 10
-642.670933
 20
18.636381
 30
0.0
  0
SEQEND
  5
39D1
  8
ALPHA
  0
POLYLINE
  5
30BB
  8
ALPHA
 66
     1
 10
0.0
 20
0.0
 30
0.0
 70
   128
  0
VERTEX
  5
39D2
  8
ALPHA
 10
642.670933
 20
18.636381
 30
0.0
  0
VERTEX
  5
39D3
  8
ALPHA
 10
642.670933
 20
18.870763
 30
0.0
  0
VERTEX
  5
39D4
  8
ALPHA
 10
642.670933
 20
19.553963
 30
0.0
  0
VERTEX
  5
39D5
  8
ALPHA
 10
642.670933
 20
20.656058
 30
0.0
  0
VERTEX
  5
39D6
  8
ALPHA
 10
642.670933
 20
22.147128
 30
0.0
  0
VERTEX
  5
39D7
  8
ALPHA
 10
642.670933
 20
23.997251
 30
0.0
  0
VERTEX
  5
39D8
  8
ALPHA
 10
642.670933
 20
26.176507
 30
0.0
  0
VERTEX
  5
39D9
  8
ALPHA
 10
642.670933
 20
28.654975
 30
0.0
  0
VERTEX
  5
39DA
  8
ALPHA
 10
642.670933
 20
31.402732
 30
0.0
  0
VERTEX
  5
39DB
  8
ALPHA
 10
642.670933
 20
37.586434
 30
0.0
  0
VERTEX
  5
39DC
  8
ALPHA
 10
642.670933
 20
44.488243
 30
0.0
  0
VERTEX
  5
39DD
  8
ALPHA
 10
642.670933
 20
51.868789
 30
0.0
  0
VERTEX
  5
39DE
  8
ALPHA
 10
642.670933
 20
59.488705
 30
0.0
  0
VERTEX
  5
39DF
  8
ALPHA
 10
642.670933
 20
67.108621
 30
0.0
  0
VERTEX
  5
39E0
  8
ALPHA
 10
642.670933
 20
74.489168
 30
0.0
  0
VERTEX
  5
39E1
  8
ALPHA
 10
642.670933
 20
81.390977
 30
0.0
  0
VERTEX
  5
39E2
  8
ALPHA
 10
642.670933
 20
87.574679
 30
0.0
  0
VERTEX
  5
39E3
  8
ALPHA
 10
642.670933
 20
90.322436
 30
0.0
  0
VERTEX
  5
39E4
  8
ALPHA
 10
642.670933
 20
92.800904
 30
0.0
  0
VERTEX
  5
39E5
  8
ALPHA
 10
642.670933
 20
94.98016
 30
0.0
  0
VERTEX
  5
39E6
  8
ALPHA
 10
642.670933
 20
96.830283
 30
0.0
  0
VERTEX
  5
39E7
  8
ALPHA
 10
642.670933
 20
98.321353
 30
0.0
  0
VERTEX
  5
39E8
  8
ALPHA
 10
642.670933
 20
99.423448
 30
0.0
  0
VERTEX
  5
39E9
  8
ALPHA
 10
642.670933
 20
100.106648
 30
0.0
  0
VERTEX
  5
39EA
  8
ALPHA
 10
642.670933
 20
100.34103
 30
0.0
  0
SEQEND
  5
39EB
  8
ALPHA
  0
POLYLINE
  5
30BC
  8
ALPHA
 66
     1
 10
0.0
 20
0.0
 30
0.0
 70
   128
210
0.0
220
0.0
230
-1.0
  0
VERTEX
  5
39EC
  8
ALPHA
 10
-642.670933
 20
100.34103
 30
0.0
  0
VERTEX
  5
39ED
  8
ALPHA
 10
-642.800485
 20
100.982336
 30
0.0
  0
VERTEX
  5
39EE
  8
ALPHA
 10
-643.153685
 20
101.506185
 30
0.0
  0
VERTEX
  5
39EF
  8
ALPHA
 10
-643.677351
 20
101.859453
 30
0.0
  0
VERTEX
  5
39F0
  8
ALPHA
 10
-644.318299
 20
101.989015
 30
0.0
  0
SEQEND
  5
39F1
  8
ALPHA
  0
LINE
  5
30EE
  8
ALPHA
 10
673.165664
 20
24.700669
 30
0.0
 11
675.270933
 21
24.700669
 31
0.0
  0
LINE
  5
30EF
  8
ALPHA
 10
675.270933
 20
24.700669
 30
0.0
 11
675.270933
 21
22.1937
 31
0.0
  0
LINE
  5
30F0
  8
ALPHA
 10
675.270933
 20
22.1937
 30
0.0
 11
674.205719
 21
22.1937
 31
0.0
  0
LINE
  5
30F1
  8
ALPHA
 10
674.205719
 20
22.1937
 30
0.0
 11
674.205719
 21
21.129725
 31
0.0
  0
LINE
  5
30F2
  8
ALPHA
 10
674.205719
 20
21.129725
 30
0.0
 11
675.270933
 21
21.129725
 31
0.0
  0
LINE
  5
30F3
  8
ALPHA
 10
675.270933
 20
21.129725
 30
0.0
 11
675.270933
 21
18.109967
 31
0.0
  0
LINE
  5
30F4
  8
ALPHA
 10
675.270933
 20
18.109967
 30
0.0
 11
673.165664
 21
18.109967
 31
0.0
  0
LINE
  5
30F5
  8
ALPHA
 10
672.067008
 20
25.798087
 30
0.0
 11
673.165664
 21
25.798087
 31
0.0
  0
LINE
  5
30F6
  8
ALPHA
 10
673.165664
 20
25.798087
 30
0.0
 11
673.165664
 21
17.01131
 31
0.0
  0
LINE
  5
30F7
  8
ALPHA
 10
673.165664
 20
17.01131
 30
0.0
 11
672.067008
 21
17.01131
 31
0.0
  0
LINE
  5
30F8
  8
ALPHA
 10
672.067008
 20
17.01131
 30
0.0
 11
672.067008
 21
25.798087
 31
0.0
  0
LINE
  5
30FF
  8
ALPHA
 10
673.165664
 20
53.611941
 30
0.0
 11
675.270933
 21
53.611941
 31
0.0
  0
LINE
  5
3100
  8
ALPHA
 10
675.270933
 20
53.611941
 30
0.0
 11
675.270933
 21
51.10683
 31
0.0
  0
LINE
  5
3101
  8
ALPHA
 10
675.270933
 20
51.10683
 30
0.0
 11
674.205719
 21
51.10683
 31
0.0
  0
LINE
  5
3102
  8
ALPHA
 10
674.205719
 20
51.10683
 30
0.0
 11
674.205719
 21
50.042854
 31
0.0
  0
LINE
  5
3103
  8
ALPHA
 10
674.205719
 20
50.042854
 30
0.0
 11
675.270933
 21
50.042854
 31
0.0
  0
LINE
  5
3104
  8
ALPHA
 10
675.270933
 20
50.042854
 30
0.0
 11
675.270933
 21
47.021858
 31
0.0
  0
LINE
  5
3105
  8
ALPHA
 10
675.270933
 20
47.021858
 30
0.0
 11
673.165664
 21
47.021858
 31
0.0
  0
LINE
  5
3106
  8
ALPHA
 10
672.067008
 20
54.710598
 30
0.0
 11
673.165664
 21
54.710598
 31
0.0
  0
LINE
  5
3107
  8
ALPHA
 10
673.165664
 20
54.710598
 30
0.0
 11
673.165664
 21
45.923201
 31
0.0
  0
LINE
  5
3108
  8
ALPHA
 10
673.165664
 20
45.923201
 30
0.0
 11
672.067008
 21
45.923201
 31
0.0
  0
LINE
  5
3109
  8
ALPHA
 10
672.067008
 20
45.923201
 30
0.0
 11
672.067008
 21
54.710598
 31
0.0
  0
LINE
  5
310A
  8
ALPHA
 10
652.29614
 20
101.989015
 30
0.0
 11
653.394796
 21
103.339015
 31
0.0
  0
LINE
  5
310B
  8
ALPHA
 10
653.394796
 20
103.339015
 30
0.0
 11
658.886842
 21
103.339015
 31
0.0
  0
LINE
  5
310C
  8
ALPHA
 10
658.886842
 20
103.339015
 30
0.0
 11
659.98426
 21
101.989015
 31
0.0
  0
LINE
  5
3181
  8
ALPHA
 10
649.867008
 20
4.489015
 30
0.0
 11
667.067008
 21
4.489015
 31
0.0
  0
LINE
  5
31C1
  8
ALPHA
 10
649.867008
 20
6.689015
 30
0.0
 11
667.067008
 21
6.689015
 31
0.0
  0
ARC
  5
31C2
  8
ALPHA
 10
667.067008
 20
9.489015
 30
0.0
 40
5.0
 50
270.0
 51
0.0
  0
ARC
  5
31C4
  8
ALPHA
 10
667.067008
 20
9.489015
 30
0.0
 40
2.8
 50
270.0
 51
0.0
  0
DIMENSION
  5
3204
  8
COTATION1
  2
*D4
 10
708.52858
 20
103.339015
 30
0.0
 11
706.02858
 21
53.914015
 31
0.0
 13
667.067008
 23
4.489015
 33
0.0
 14
658.886842
 24
103.339015
 34
0.0
 50
90.0
  0
DIMENSION
  5
3211
  8
COTATION1
  2
*D5
 10
696.606937
 20
101.989015
 30
0.0
 11
694.106937
 21
59.489015
 31
0.0
 13
668.223567
 23
16.989015
 33
0.0
 14
668.223567
 24
101.989015
 34
0.0
 50
90.0
  0
DIMENSION
  5
321E
  8
COTATION1
  2
*D6
 10
696.606937
 20
103.339015
 30
0.0
 11
694.106937
 21
114.696158
 31
0.0
 13
668.523567
 23
101.989015
 33
0.0
 14
659.186842
 24
103.339015
 34
0.0
 50
90.0
  0
DIMENSION
  5
323B
  8
COTATION1
  2
*D7
 10
642.670933
 20
113.392061
 30
0.0
 11
656.270933
 21
115.892061
 31
0.0
 13
669.870933
 23
100.34103
 33
0.0
 14
642.670933
 24
100.34103
 34
0.0
  0
LINE
  5
324B
  8
AXE
 10
652.395229
 20
66.991705
 30
0.0
 11
658.886842
 21
66.991705
 31
0.0
  0
LINE
  5
324C
  8
AXE
 10
652.395229
 20
79.988705
 30
0.0
 11
658.886842
 21
79.988705
 31
0.0
  0
LINE
  5
328B
  8
AXE
 10
652.395229
 20
21.037467
 30
0.0
 11
658.886842
 21
21.037467
 31
0.0
  0
DIMENSION
  5
328C
  8
COTATION1
  2
*D8
 10
627.670933
 20
21.037467
 30
0.0
 11
625.170933
 21
36.037467
 31
0.0
 13
652.395229
 23
51.037467
 33
0.0
 14
652.395229
 24
21.037467
 34
0.0
 50
90.0
  0
DIMENSION
  5
3299
  8
COTATION1
  2
*D9
 10
617.670933
 20
66.991705
 30
0.0
 11
615.170933
 21
35.74036
 31
0.0
 13
649.867008
 23
4.489015
 33
0.0
 14
652.395229
 24
66.991705
 34
0.0
 50
90.0
1001
ACAD
1000
DSTYLE
1002
{
1070
   271
1070
     2
1002
}
  0
DIMENSION
  5
3339
  8
COTATION1
  2
*D10
 10
617.670933
 20
79.988705
 30
0.0
 11
615.170933
 21
73.488705
 31
0.0
 13
652.095229
 23
66.988705
 33
0.0
 14
652.395229
 24
79.988705
 34
0.0
 50
90.0
  0
TEXT
  5
3346
  8
AXE
 10
680.104081
 20
52.610897
 30
0.0
 40
8.0
  1
X
 72
     2
 11
686.580272
 21
52.610897
 31
0.0
  0
TEXT
  5
3347
  8
AXE
 10
647.389113
 20
-10.058364
 30
0.0
 40
8.0
  1
Y
 72
     2
 11
653.865304
 21
-10.058364
 31
0.0
  0
LINE
  5
3381
  8
AXE
 10
659.867008
 20
9.489015
 30
0.0
 11
659.867008
 21
0.365168
 31
0.0
  0
DIMENSION
  5
338C
  8
COTATION1
  2
*D11
 10
659.867008
 20
-20.510985
 30
0.0
 11
654.867008
 21
-18.010985
 31
0.0
 13
649.867008
 23
4.489015
 33
0.0
 14
659.867008
 24
0.365168
 34
0.0
  0
DIMENSION
  5
3399
  8
COTATION1
  2
*D12
 10
669.867008
 20
-20.510985
 30
0.0
 11
664.867008
 21
-18.010985
 31
0.0
 13
659.867008
 23
0.065168
 33
0.0
 14
669.867008
 24
9.489015
 34
0.0
  0
LINE
  5
33B8
  8
AXE
 10
655.59211
 20
-10.510985
 30
0.0
 11
655.59211
 21
108.339015
 31
0.0
  0
DIMENSION
  5
33BB
  8
COTATION1
  2
*D13
 10
675.270933
 20
-30.510985
 30
0.0
 11
658.970933
 21
-28.010985
 31
0.0
 13
642.670933
 23
18.636381
 33
0.0
 14
675.270933
 24
18.109967
 34
0.0
  0
ENDSEC
  0
EOF
