  0
SECTION
  2
HEADER
  9
$ACADVER
  1
AC1009
  9
$INSBASE
 10
-146.27124
 20
-153.796096
 30
0.0
  9
$EXTMIN
 10
735.282515
 20
-137.979818
 30
0.0
  9
$EXTMAX
 10
775.408873
 20
-90.378047
 30
0.0
  9
$LIMMIN
 10
-407.970438
 20
-367.832444
  9
$LIMMAX
 10
429.804077
 20
234.370848
  9
$ORTHOMODE
 70
     0
  9
$REGENMODE
 70
     1
  9
$FILLMODE
 70
     1
  9
$QTEXTMODE
 70
     0
  9
$MIRRTEXT
 70
     1
  9
$DRAGMODE
 70
     2
  9
$LTSCALE
 40
10.0
  9
$OSMODE
 70
   165
  9
$ATTMODE
 70
     1
  9
$TEXTSIZE
 40
6.0
  9
$TRACEWID
 40
1.0
  9
$TEXTSTYLE
  7
ROMANS
  9
$CLAYER
  8
COTATION1
  9
$CELTYPE
  6
BYLAYER
  9
$CECOLOR
 62
   256
  9
$DIMSCALE
 40
1.0
  9
$DIMASZ
 40
2.0
  9
$DIMEXO
 40
0.3
  9
$DIMDLI
 40
0.1
  9
$DIMRND
 40
0.0
  9
$DIMDLE
 40
0.0
  9
$DIMEXE
 40
0.5
  9
$DIMTP
 40
0.0
  9
$DIMTM
 40
0.0
  9
$DIMTXT
 40
2.0
  9
$DIMCEN
 40
0.0
  9
$DIMTSZ
 40
0.0
  9
$DIMTOL
 70
     0
  9
$DIMLIM
 70
     0
  9
$DIMTIH
 70
     0
  9
$DIMTOH
 70
     0
  9
$DIMSE1
 70
     0
  9
$DIMSE2
 70
     0
  9
$DIMTAD
 70
     1
  9
$DIMZIN
 70
    12
  9
$DIMBLK
  1
OPEN30
  9
$DIMASO
 70
     1
  9
$DIMSHO
 70
     1
  9
$DIMPOST
  1

  9
$DIMAPOST
  1

  9
$DIMALT
 70
     0
  9
$DIMALTD
 70
     2
  9
$DIMALTF
 40
25.4
  9
$DIMLFAC
 40
1.0
  9
$DIMTOFL
 70
     0
  9
$DIMTVP
 40
0.0
  9
$DIMTIX
 70
     0
  9
$DIMSOXD
 70
     0
  9
$DIMSAH
 70
     0
  9
$DIMBLK1
  1

  9
$DIMBLK2
  1

  9
$DIMSTYLE
  2
SC_DEFAUT
  9
$DIMCLRD
 70
     0
  9
$DIMCLRE
 70
     0
  9
$DIMCLRT
 70
     0
  9
$DIMTFAC
 40
1.0
  9
$DIMGAP
 40
0.6
  9
$LUNITS
 70
     2
  9
$LUPREC
 70
     1
  9
$SKETCHINC
 40
0.1
  9
$FILLETRAD
 40
5.0
  9
$AUNITS
 70
     0
  9
$AUPREC
 70
     0
  9
$MENU
  1
acad
  9
$ELEVATION
 40
0.0
  9
$PELEVATION
 40
0.0
  9
$THICKNESS
 40
0.0
  9
$LIMCHECK
 70
     0
  9
$BLIPMODE
 70
     0
  9
$CHAMFERA
 40
0.0
  9
$CHAMFERB
 40
0.0
  9
$SKPOLY
 70
     0
  9
$TDCREATE
 40
2450365.355314
  9
$TDUPDATE
 40
2452587.57123
  9
$TDINDWG
 40
0.602996
  9
$TDUSRTIMER
 40
0.602996
  9
$USRTIMER
 70
     1
  9
$ANGBASE
 50
0.0
  9
$ANGDIR
 70
     0
  9
$PDMODE
 70
    32
  9
$PDSIZE
 40
0.0
  9
$PLINEWID
 40
0.0
  9
$COORDS
 70
     2
  9
$SPLFRAME
 70
     0
  9
$SPLINETYPE
 70
     6
  9
$SPLINESEGS
 70
     8
  9
$ATTDIA
 70
     0
  9
$ATTREQ
 70
     1
  9
$HANDLING
 70
     1
  9
$HANDSEED
  5
4ECC
  9
$SURFTAB1
 70
     6
  9
$SURFTAB2
 70
     6
  9
$SURFTYPE
 70
     6
  9
$SURFU
 70
     6
  9
$SURFV
 70
     6
  9
$UCSNAME
  2

  9
$UCSORG
 10
0.0
 20
0.0
 30
0.0
  9
$UCSXDIR
 10
1.0
 20
0.0
 30
0.0
  9
$UCSYDIR
 10
0.0
 20
1.0
 30
0.0
  9
$PUCSNAME
  2

  9
$PUCSORG
 10
0.0
 20
0.0
 30
0.0
  9
$PUCSXDIR
 10
1.0
 20
0.0
 30
0.0
  9
$PUCSYDIR
 10
0.0
 20
1.0
 30
0.0
  9
$USERI1
 70
     0
  9
$USERI2
 70
     0
  9
$USERI3
 70
     0
  9
$USERI4
 70
     0
  9
$USERI5
 70
     0
  9
$USERR1
 40
0.0
  9
$USERR2
 40
0.0
  9
$USERR3
 40
0.0
  9
$USERR4
 40
0.0
  9
$USERR5
 40
0.0
  9
$WORLDVIEW
 70
     1
  9
$SHADEDGE
 70
     3
  9
$SHADEDIF
 70
    70
  9
$TILEMODE
 70
     1
  9
$MAXACTVP
 70
    16
  9
$PLIMCHECK
 70
     0
  9
$PEXTMIN
 10
1.000000E+020
 20
1.000000E+020
 30
1.000000E+020
  9
$PEXTMAX
 10
-1.000000E+020
 20
-1.000000E+020
 30
-1.000000E+020
  9
$PLIMMIN
 10
0.0
 20
0.0
  9
$PLIMMAX
 10
12.0
 20
9.0
  9
$UNITMODE
 70
     0
  9
$VISRETAIN
 70
     0
  9
$PLINEGEN
 70
     0
  9
$PSLTSCALE
 70
     0
  0
ENDSEC
  0
SECTION
  2
TABLES
  0
TABLE
  2
VPORT
 70
     2
  0
VPORT
  2
*ACTIVE
 70
     0
 10
0.0
 20
0.0
 11
1.0
 21
1.0
 12
755.352265
 22
-114.168457
 13
0.0
 23
0.0
 14
1.0
 24
1.0
 15
10.0
 25
10.0
 16
0.0
 26
0.0
 36
1.0
 17
0.0
 27
0.0
 37
0.0
 40
48.075581
 41
1.63142
 42
50.0
 43
0.0
 44
0.0
 50
0.0
 51
0.0
 71
     0
 72
   100
 73
     1
 74
     0
 75
     0
 76
     0
 77
     0
 78
     0
  0
ENDTAB
  0
TABLE
  2
LTYPE
 70
    24
  0
LTYPE
  2
CONTINUOUS
 70
     0
  3
Solid line
 72
    65
 73
     0
 40
0.0
  0
LTYPE
  2
AXES2
 70
     0
  3
___ _ ___ _ ___ _ ___ _ ___ _ ___ _ ___ _ ___ _
 72
    65
 73
     4
 40
1.125
 49
0.75
 49
-0.125
 49
0.125
 49
-0.125
  0
LTYPE
  2
ACAD_ISO04W100
 70
     0
  3
ISO Lang gestrichelt punktiert ____ . ____ . __
 72
    65
 73
     4
 40
30.5
 49
24.0
 49
-3.0
 49
0.5
 49
-3.0
  0
LTYPE
  2
AXES
 70
     0
  3
____ _ ____ _ ____ _ ____ _ ____ _ ____ _ ____ 
 72
    65
 73
     4
 40
2.0
 49
1.25
 49
-0.25
 49
0.25
 49
-0.25
  0
LTYPE
  2
AXESX2
 70
     0
  3
________  __  ________  __  ________  __  _____
 72
    65
 73
     4
 40
4.0
 49
2.5
 49
-0.5
 49
0.5
 49
-0.5
  0
LTYPE
  2
TIRETPT
 70
     0
  3
__ . __ . __ . __ . __ . __ . __ . __ . __ . __
 72
    65
 73
     4
 40
1.0
 49
0.5
 49
-0.25
 49
0.0
 49
-0.25
  0
LTYPE
  2
TIRETPT2
 70
     0
  3
_._._._._._._._._._._._._._._._._._._._._._._._
 72
    65
 73
     4
 40
0.5
 49
0.25
 49
-0.125
 49
0.0
 49
-0.125
  0
LTYPE
  2
TIRETPTX2
 70
     0
  3
____  .  ____  .  ____  .  ____  .  ____  .  __
 72
    65
 73
     4
 40
2.0
 49
1.0
 49
-0.5
 49
0.0
 49
-0.5
  0
LTYPE
  2
DISCONTINU
 70
     0
  3
__ __ __ __ __ __ __ __ __ __ __ __ __ __ __ __
 72
    65
 73
     2
 40
0.75
 49
0.5
 49
-0.25
  0
LTYPE
  2
DISCONTINU2
 70
     0
  3
_ _ _ _ _ _ _ _ _ _ _ _ _ _ _ _ _ _ _ _ _ _ _ _
 72
    65
 73
     2
 40
0.375
 49
0.25
 49
-0.125
  0
LTYPE
  2
DISCONTINUX2
 70
     0
  3
____  ____  ____  ____  ____  ____  ____  ____ 
 72
    65
 73
     2
 40
1.5
 49
1.0
 49
-0.5
  0
LTYPE
  2
DIVISE
 70
     0
  3
____ . . ____ . . ____ . . ____ . . ____ . . __
 72
    65
 73
     6
 40
1.25
 49
0.5
 49
-0.25
 49
0.0
 49
-0.25
 49
0.0
 49
-0.25
  0
LTYPE
  2
DIVISE2
 70
     0
  3
__..__..__..__..__..__..__..__..__..__..__..__.
 72
    65
 73
     6
 40
0.625
 49
0.25
 49
-0.125
 49
0.0
 49
-0.125
 49
0.0
 49
-0.125
  0
LTYPE
  2
DIVISEX2
 70
     0
  3
________  .  .  ________  .  .  ________  .  . 
 72
    65
 73
     6
 40
2.5
 49
1.0
 49
-0.5
 49
0.0
 49
-0.5
 49
0.0
 49
-0.5
  0
LTYPE
  2
POINTILLE
 70
     0
  3
. . . . . . . . . . . . . . . . . . . . . . . .
 72
    65
 73
     2
 40
0.25
 49
0.0
 49
-0.25
  0
LTYPE
  2
POINTILLE2
 70
     0
  3
...............................................
 72
    65
 73
     2
 40
0.125
 49
0.0
 49
-0.125
  0
LTYPE
  2
POINTILLEX2
 70
     0
  3
.  .  .  .  .  .  .  .  .  .  .  .  .  .  .  . 
 72
    65
 73
     2
 40
0.5
 49
0.0
 49
-0.5
  0
LTYPE
  2
CACHE
 70
     0
  3
__ __ __ __ __ __ __ __ __ __ __ __ __ __ __ __
 72
    65
 73
     2
 40
0.375
 49
0.25
 49
-0.125
  0
LTYPE
  2
CACHE2
 70
     0
  3
_ _ _ _ _ _ _ _ _ _ _ _ _ _ _ _ _ _ _ _ _ _ _ _
 72
    65
 73
     2
 40
0.1875
 49
0.125
 49
-0.0625
  0
LTYPE
  2
CACHEX2
 70
     0
  3
____ ____ ____ ____ ____ ____ ____ ____ ____ __
 72
    65
 73
     2
 40
0.75
 49
0.5
 49
-0.25
  0
LTYPE
  2
FANTOME
 70
     0
  3
______  __  __  ______  __  __  ______  __  __ 
 72
    65
 73
     6
 40
2.5
 49
1.25
 49
-0.25
 49
0.25
 49
-0.25
 49
0.25
 49
-0.25
  0
LTYPE
  2
FANTOME2
 70
     0
  3
___ _ _ ___ _ _ ___ _ _ ___ _ _ ___ _ _ ___ _ _
 72
    65
 73
     6
 40
1.25
 49
0.625
 49
-0.125
 49
0.125
 49
-0.125
 49
0.125
 49
-0.125
  0
LTYPE
  2
FANTOMEX2
 70
     0
  3
____________    ____    ____    ____________   
 72
    65
 73
     6
 40
5.0
 49
2.5
 49
-0.5
 49
0.5
 49
-0.5
 49
0.5
 49
-0.5
  0
LTYPE
  2
0
 70
     0
  3
MEDUSA PEN 0
 72
    65
 73
     0
 40
0.0
  0
ENDTAB
  0
TABLE
  2
LAYER
 70
    17
  0
LAYER
  2
0
 70
     0
 62
     7
  6
CONTINUOUS
  0
LAYER
  2
TEXTE_MOYEN
 70
     0
 62
   131
  6
CONTINUOUS
  0
LAYER
  2
ALPHA
 70
     0
 62
   254
  6
CONTINUOUS
  0
LAYER
  2
COTATION1
 70
     0
 62
    50
  6
CONTINUOUS
  0
LAYER
  2
AXE
 70
     0
 62
    80
  6
AXES2
  0
LAYER
  2
DEFPOINTS
 70
     0
 62
     7
  6
CONTINUOUS
  0
LAYER
  2
HACHURES1
 70
     0
 62
   130
  6
CONTINUOUS
  0
LAYER
  2
FMULT
 70
     0
 62
   210
  6
CONTINUOUS
  0
LAYER
  2
FDP_CARTOUCHE
 70
     0
 62
   136
  6
CONTINUOUS
  0
LAYER
  2
FDP_TEXTES
 70
     0
 62
   171
  6
CONTINUOUS
  0
LAYER
  2
FDP_LOGO_MG
 70
     0
 62
    30
  6
CONTINUOUS
  0
LAYER
  2
FDP_LOGO_SCH
 70
     0
 62
    90
  6
CONTINUOUS
  0
LAYER
  2
FDP_FDP
 70
     0
 62
   170
  6
CONTINUOUS
  0
LAYER
  2
POINTILLE_COURT2
 70
     0
 62
    41
  6
CACHE2
  0
LAYER
  2
POINTILLE_MOYEN2
 70
     0
 62
   141
  6
CACHE
  0
LAYER
  2
POINTILLE_LONG2
 70
     0
 62
   241
  6
CACHEX2
  0
LAYER
  2
ALPHA_FIN
 70
     0
 62
   255
  6
CONTINUOUS
  0
ENDTAB
  0
TABLE
  2
STYLE
 70
     5
  0
STYLE
  2
ROMANS
 70
     0
 40
0.0
 41
1.0
 50
0.0
 71
     0
 42
6.0
  3
romans
  4

  0
STYLE
  2
STANDARD
 70
     0
 40
0.2
 41
1.0
 50
0.0
 71
     0
 42
0.2
  3
txt
  4

  0
STYLE
  2
STD
 70
     0
 40
0.0
 41
1.0
 50
0.0
 71
     0
 42
0.0
  3
txt
  4

  0
STYLE
  2
INFOCAR
 70
     0
 40
0.0
 41
1.34
 50
0.0
 71
     0
 42
2.0
  3
ROMANS.SHX
  4

  0
STYLE
  2
CARTOUCHE
 70
     0
 40
0.0
 41
1.0
 50
0.0
 71
     0
 42
0.2
  3
ROMANS.SHX
  4

  0
ENDTAB
  0
TABLE
  2
VIEW
 70
     0
  0
ENDTAB
  0
TABLE
  2
UCS
 70
     0
  0
ENDTAB
  0
TABLE
  2
APPID
 70
     3
  0
APPID
  2
ACAD
 70
     0
  0
APPID
  2
AVE_RENDER
 70
     0
  0
APPID
  2
AVE_MATERIAL
 70
     0
  0
ENDTAB
  0
TABLE
  2
DIMSTYLE
 70
     2
  0
DIMSTYLE
  2
SC_DEFAUT
 70
     0
  3

  4

  5
OPEN30
  6

  7

 40
1.0
 41
2.0
 42
0.3
 43
0.1
 44
0.5
 45
0.0
 46
0.0
 47
0.0
 48
0.0
140
2.0
141
0.0
142
0.0
143
25.4
144
1.0
145
0.0
146
1.0
147
0.6
 71
     0
 72
     0
 73
     0
 74
     0
 75
     0
 76
     0
 77
     1
 78
    12
170
     0
171
     2
172
     0
173
     0
174
     0
175
     0
176
     0
177
     0
178
     0
  0
DIMSTYLE
  2
ROMANS
 70
     0
  3

  4

  5
OPEN30
  6

  7

 40
1.0
 41
2.0
 42
0.5
 43
0.38
 44
0.18
 45
0.0
 46
0.0
 47
0.0
 48
0.0
140
2.0
141
0.09
142
0.0
143
25.4
144
1.0
145
0.0
146
1.0
147
0.5
 71
     0
 72
     0
 73
     0
 74
     1
 75
     0
 76
     0
 77
     1
 78
    12
170
     0
171
     2
172
     0
173
     0
174
     0
175
     0
176
   256
177
   256
178
   256
  0
ENDTAB
  0
ENDSEC
  0
SECTION
  2
BLOCKS
  0
BLOCK
  8
0
  2
$MODEL_SPACE
 70
     0
 10
0.0
 20
0.0
 30
0.0
  3
$MODEL_SPACE
  1

  0
ENDBLK
  5
4E88
  8
0
  0
BLOCK
 67
     1
  8
0
  2
$PAPER_SPACE
 70
     0
 10
0.0
 20
0.0
 30
0.0
  3
$PAPER_SPACE
  1

  0
ENDBLK
  5
4E86
 67
     1
  8
0
  0
BLOCK
  8
0
  2
COTE
 70
     0
 10
0.0
 20
0.0
 30
0.0
  3
COTE
  1

  0
ENDBLK
  5
35
  8
0
  0
BLOCK
  8
0
  2
FOND
 70
     0
 10
0.0
 20
0.0
 30
0.0
  3
FOND
  1

  0
ENDBLK
  5
39
  8
0
  0
BLOCK
  8
0
  2
SCH_ISO
 70
     0
 10
0.0
 20
0.0
 30
0.0
  3
SCH_ISO
  1

  0
ENDBLK
  5
24AD
  8
0
  0
BLOCK
  8
0
  2
_OPEN30
 70
     0
 10
0.0
 20
0.0
 30
0.0
  3
_OPEN30
  1

  0
LINE
  5
27E1
  8
COTATION1
 62
     0
 10
-1.0
 20
0.267949
 30
0.0
 11
0.0
 21
0.0
 31
0.0
1001
ACAD
1000
RTLwPs
1070
   158
  0
LINE
  5
27E2
  8
COTATION1
 62
     0
 10
0.0
 20
0.0
 30
0.0
 11
-1.0
 21
-0.267949
 31
0.0
1001
ACAD
1000
RTLwPs
1070
   158
  0
LINE
  5
27E3
  8
COTATION1
 62
     0
 10
0.0
 20
0.0
 30
0.0
 11
-1.0
 21
0.0
 31
0.0
1001
ACAD
1000
RTLwPs
1070
   158
  0
ENDBLK
  5
27E5
  8
0
  0
BLOCK
  8
0
  2
*D4
 70
     1
 10
0.0
 20
0.0
 30
0.0
  3
*D4
  1

  0
LINE
  5
4CED
  8
COTATION1
 10
739.982623
 20
-102.726024
 30
0.0
 11
746.577861
 21
-102.726024
 31
0.0
1001
ACAD
1000
RTLwPs
1070
   158
  0
LINE
  5
4CEE
  8
COTATION1
 10
746.577861
 20
-102.726024
 30
0.0
 11
749.163925
 21
-107.47814
 31
0.0
1001
ACAD
1000
RTLwPs
1070
   158
  0
TEXT
  5
4CEF
  8
COTATION1
 10
739.792147
 20
-102.226024
 30
0.0
 40
2.0
  1
%%c3.4
1001
ACAD
1000
MTEXTBEGIN
1070
    73
1070
     1
1070
    44
1040
1.0
1070
    74
1070
     0
1000
MTEXTEND
1000
MTEXTBEGIN
1070
    73
1070
     1
1070
    44
1040
1.0
1070
    74
1070
     0
1000
MTEXTEND
  0
INSERT
  5
4CF0
  8
COTATION1
  2
_OPEN30
 10
750.11992
 20
-109.234862
 30
0.0
 41
2.0
 42
2.0
 43
2.0
 50
298.554684
1001
ACAD
1000
RTLwPs
1070
   158
  0
LINE
  5
4CF1
  8
COTATION1
 10
750.842515
 20
-110.728076
 30
0.0
 11
751.022515
 21
-110.728076
 31
0.0
1001
ACAD
1000
RTLwPs
1070
   158
  0
LINE
  5
4CF2
  8
COTATION1
 10
750.932515
 20
-110.818076
 30
0.0
 11
750.932515
 21
-110.638076
 31
0.0
1001
ACAD
1000
RTLwPs
1070
   158
  0
POINT
  5
4CF3
  8
DEFPOINTS
 62
     0
 10
750.11992
 20
-109.234862
 30
0.0
  0
POINT
  5
4CF4
  8
DEFPOINTS
 62
     0
 10
751.745111
 20
-112.221291
 30
0.0
  0
ENDBLK
  5
4887
  8
0
  0
BLOCK
  8
0
  2
*D5
 70
     1
 10
0.0
 20
0.0
 30
0.0
  3
*D5
  1

  0
LINE
  5
4D75
  8
COTATION1
 62
     0
 10
747.582515
 20
-107.978076
 30
0.0
 11
737.382515
 21
-107.978076
 31
0.0
1001
ACAD
1000
RTLwPs
1070
   158
  0
LINE
  5
4D76
  8
COTATION1
 62
     0
 10
750.632515
 20
-110.728076
 30
0.0
 11
737.382515
 21
-110.728076
 31
0.0
1001
ACAD
1000
RTLwPs
1070
   158
  0
LINE
  5
4D77
  8
COTATION1
 62
     0
 10
737.882515
 20
-112.728076
 30
0.0
 11
737.882515
 21
-114.728076
 31
0.0
1001
ACAD
1000
RTLwPs
1070
   158
  0
LINE
  5
4D78
  8
COTATION1
 62
     0
 10
737.882515
 20
-105.978076
 30
0.0
 11
737.882515
 21
-96.682838
 31
0.0
1001
ACAD
1000
RTLwPs
1070
   158
  0
INSERT
  5
4D79
  8
COTATION1
 62
     0
  2
_OPEN30
 10
737.882515
 20
-110.728076
 30
0.0
 41
2.0
 42
2.0
 43
2.0
 50
90.0
1001
ACAD
1000
RTLwPs
1070
   158
  0
INSERT
  5
4D7A
  8
COTATION1
 62
     0
  2
_OPEN30
 10
737.882515
 20
-107.978076
 30
0.0
 41
2.0
 42
2.0
 43
2.0
 50
270.0
1001
ACAD
1000
RTLwPs
1070
   158
  0
TEXT
  5
4D7B
  8
COTATION1
 62
     0
 10
737.282515
 20
-103.663791
 30
0.0
 40
2.0
  1
2.75
 50
90.0
1001
ACAD
1000
MTEXTBEGIN
1070
    73
1070
     1
1070
    44
1040
1.0
1070
    74
1070
     0
1000
MTEXTEND
  0
POINT
  5
4D7C
  8
DEFPOINTS
 62
     0
 10
747.882515
 20
-107.978076
 30
0.0
  0
POINT
  5
4D7D
  8
DEFPOINTS
 62
     0
 10
750.932515
 20
-110.728076
 30
0.0
  0
POINT
  5
4D7E
  8
DEFPOINTS
 62
     0
 10
737.882515
 20
-110.728076
 30
0.0
  0
ENDBLK
  5
4954
  8
0
  0
BLOCK
  8
0
  2
*D6
 70
     1
 10
0.0
 20
0.0
 30
0.0
  3
*D6
  1

  0
LINE
  5
4D6C
  8
COTATION1
 62
     0
 10
750.632515
 20
-110.728076
 30
0.0
 11
737.382515
 21
-110.728076
 31
0.0
1001
ACAD
1000
RTLwPs
1070
   158
  0
LINE
  5
4D6D
  8
COTATION1
 62
     0
 10
750.632515
 20
-120.228076
 30
0.0
 11
737.382515
 21
-120.228076
 31
0.0
1001
ACAD
1000
RTLwPs
1070
   158
  0
LINE
  5
4D6E
  8
COTATION1
 62
     0
 10
737.882515
 20
-112.728076
 30
0.0
 11
737.882515
 21
-118.228076
 31
0.0
1001
ACAD
1000
RTLwPs
1070
   158
  0
INSERT
  5
4D6F
  8
COTATION1
 62
     0
  2
_OPEN30
 10
737.882515
 20
-110.728076
 30
0.0
 41
2.0
 42
2.0
 43
2.0
 50
90.0
1001
ACAD
1000
RTLwPs
1070
   158
  0
INSERT
  5
4D70
  8
COTATION1
 62
     0
  2
_OPEN30
 10
737.882515
 20
-120.228076
 30
0.0
 41
2.0
 42
2.0
 43
2.0
 50
270.0
1001
ACAD
1000
RTLwPs
1070
   158
  0
TEXT
  5
4D71
  8
COTATION1
 62
     0
 10
737.282515
 20
-117.859029
 30
0.0
 40
2.0
  1
9.5
 50
90.0
1001
ACAD
1000
MTEXTBEGIN
1070
    73
1070
     1
1070
    44
1040
1.0
1070
    74
1070
     0
1000
MTEXTEND
  0
POINT
  5
4D72
  8
DEFPOINTS
 62
     0
 10
750.932515
 20
-110.728076
 30
0.0
  0
POINT
  5
4D73
  8
DEFPOINTS
 62
     0
 10
750.932515
 20
-120.228076
 30
0.0
  0
POINT
  5
4D74
  8
DEFPOINTS
 62
     0
 10
737.882515
 20
-120.228076
 30
0.0
  0
ENDBLK
  5
4961
  8
0
  0
BLOCK
  8
0
  2
*D7
 70
     1
 10
0.0
 20
0.0
 30
0.0
  3
*D7
  1

  0
LINE
  5
4D43
  8
COTATION1
 62
     0
 10
760.682488
 20
-107.978047
 30
0.0
 11
765.882488
 21
-107.978047
 31
0.0
1001
ACAD
1000
RTLwPs
1070
   158
  0
LINE
  5
4D44
  8
COTATION1
 62
     0
 10
760.682488
 20
-122.978076
 30
0.0
 11
765.882488
 21
-122.978076
 31
0.0
1001
ACAD
1000
RTLwPs
1070
   158
  0
LINE
  5
4D45
  8
COTATION1
 62
     0
 10
765.382488
 20
-109.978047
 30
0.0
 11
765.382488
 21
-120.978076
 31
0.0
1001
ACAD
1000
RTLwPs
1070
   158
  0
INSERT
  5
4D46
  8
COTATION1
 62
     0
  2
_OPEN30
 10
765.382488
 20
-107.978047
 30
0.0
 41
2.0
 42
2.0
 43
2.0
 50
90.0
1001
ACAD
1000
RTLwPs
1070
   158
  0
INSERT
  5
4D47
  8
COTATION1
 62
     0
  2
_OPEN30
 10
765.382488
 20
-122.978076
 30
0.0
 41
2.0
 42
2.0
 43
2.0
 50
270.0
1001
ACAD
1000
RTLwPs
1070
   158
  0
TEXT
  5
4D48
  8
COTATION1
 62
     0
 10
764.782488
 20
-117.525681
 30
0.0
 40
2.0
  1
15
 50
90.0
1001
ACAD
1000
MTEXTBEGIN
1070
    73
1070
     1
1070
    44
1040
1.0
1070
    74
1070
     0
1000
MTEXTEND
  0
POINT
  5
4D49
  8
DEFPOINTS
 62
     0
 10
760.382488
 20
-107.978047
 30
0.0
  0
POINT
  5
4D4A
  8
DEFPOINTS
 62
     0
 10
760.382488
 20
-122.978076
 30
0.0
  0
POINT
  5
4D4B
  8
DEFPOINTS
 62
     0
 10
765.382488
 20
-122.978076
 30
0.0
  0
ENDBLK
  5
4986
  8
0
  0
BLOCK
  8
0
  2
*D8
 70
     1
 10
0.0
 20
0.0
 30
0.0
  3
*D8
  1

  0
LINE
  5
4D4C
  8
COTATION1
 62
     0
 10
747.882515
 20
-107.678047
 30
0.0
 11
747.882515
 21
-97.478047
 31
0.0
1001
ACAD
1000
RTLwPs
1070
   158
  0
LINE
  5
4D4D
  8
COTATION1
 62
     0
 10
750.932515
 20
-110.428076
 30
0.0
 11
750.932515
 21
-97.478047
 31
0.0
1001
ACAD
1000
RTLwPs
1070
   158
  0
LINE
  5
4D4E
  8
COTATION1
 62
     0
 10
745.882515
 20
-97.978047
 30
0.0
 11
743.882515
 21
-97.978047
 31
0.0
1001
ACAD
1000
RTLwPs
1070
   158
  0
LINE
  5
4D4F
  8
COTATION1
 62
     0
 10
752.932515
 20
-97.978047
 30
0.0
 11
754.932515
 21
-97.978047
 31
0.0
1001
ACAD
1000
RTLwPs
1070
   158
  0
INSERT
  5
4D50
  8
COTATION1
 62
     0
  2
_OPEN30
 10
747.882515
 20
-97.978047
 30
0.0
 41
2.0
 42
2.0
 43
2.0
1001
ACAD
1000
RTLwPs
1070
   158
  0
INSERT
  5
4D51
  8
COTATION1
 62
     0
  2
_OPEN30
 10
750.932515
 20
-97.978047
 30
0.0
 41
2.0
 42
2.0
 43
2.0
 50
180.0
1001
ACAD
1000
RTLwPs
1070
   158
  0
TEXT
  5
4D52
  8
COTATION1
 62
     0
 10
746.074182
 20
-97.378047
 30
0.0
 40
2.0
  1
3.05
1001
ACAD
1000
MTEXTBEGIN
1070
    73
1070
     1
1070
    44
1040
1.0
1070
    74
1070
     0
1000
MTEXTEND
  0
POINT
  5
4D53
  8
DEFPOINTS
 62
     0
 10
747.882515
 20
-107.978047
 30
0.0
  0
POINT
  5
4D54
  8
DEFPOINTS
 62
     0
 10
750.932515
 20
-110.728076
 30
0.0
  0
POINT
  5
4D55
  8
DEFPOINTS
 62
     0
 10
750.932515
 20
-97.978047
 30
0.0
  0
ENDBLK
  5
4B57
  8
0
  0
BLOCK
  8
0
  2
*D9
 70
     1
 10
0.0
 20
0.0
 30
0.0
  3
*D9
  1

  0
LINE
  5
4D63
  8
COTATION1
 62
     0
 10
747.882515
 20
-107.678047
 30
0.0
 11
747.882515
 21
-92.478047
 31
0.0
1001
ACAD
1000
RTLwPs
1070
   158
  0
LINE
  5
4D64
  8
COTATION1
 62
     0
 10
760.382488
 20
-107.678047
 30
0.0
 11
760.382488
 21
-92.478047
 31
0.0
1001
ACAD
1000
RTLwPs
1070
   158
  0
LINE
  5
4D65
  8
COTATION1
 62
     0
 10
749.882515
 20
-92.978047
 30
0.0
 11
758.382488
 21
-92.978047
 31
0.0
1001
ACAD
1000
RTLwPs
1070
   158
  0
INSERT
  5
4D66
  8
COTATION1
 62
     0
  2
_OPEN30
 10
747.882515
 20
-92.978047
 30
0.0
 41
2.0
 42
2.0
 43
2.0
 50
180.0
1001
ACAD
1000
RTLwPs
1070
   158
  0
INSERT
  5
4D67
  8
COTATION1
 62
     0
  2
_OPEN30
 10
760.382488
 20
-92.978047
 30
0.0
 41
2.0
 42
2.0
 43
2.0
1001
ACAD
1000
RTLwPs
1070
   158
  0
TEXT
  5
4D68
  8
COTATION1
 62
     0
 10
750.656311
 20
-92.378047
 30
0.0
 40
2.0
  1
12.5
1001
ACAD
1000
MTEXTBEGIN
1070
    73
1070
     1
1070
    44
1040
1.0
1070
    74
1070
     0
1000
MTEXTEND
  0
POINT
  5
4D69
  8
DEFPOINTS
 62
     0
 10
747.882515
 20
-107.978047
 30
0.0
  0
POINT
  5
4D6A
  8
DEFPOINTS
 62
     0
 10
760.382488
 20
-107.978047
 30
0.0
  0
POINT
  5
4D6B
  8
DEFPOINTS
 62
     0
 10
760.382488
 20
-92.978047
 30
0.0
  0
ENDBLK
  5
4D62
  8
0
  0
ENDSEC
  0
SECTION
  2
ENTITIES
  0
INSERT
  5
32
  8
0
  2
COTE
 10
0.0
 20
0.0
 30
0.0
  0
INSERT
  5
36
  8
0
  2
FOND
 10
0.0
 20
0.0
 30
0.0
  0
INSERT
  5
24AE
  8
ALPHA
  2
SCH_ISO
 10
-66.27012
 20
-238.940658
 30
0.0
  0
TEXT
  5
2C8F
  8
AXE
 10
746.82418
 20
-137.832156
 30
0.0
 40
8.0
  1
Y
 72
     2
 11
753.30037
 21
-137.832156
 31
0.0
  0
LINE
  5
3C69
  8
AXE
 10
754.132515
 20
-137.979818
 30
0.0
 11
754.132515
 21
-102.978047
 31
0.0
  0
TEXT
  5
415C
  8
AXE
 10
768.932682
 20
-112.977599
 30
0.0
 40
8.0
  1
X
 72
     2
 11
775.408873
 21
-112.977599
 31
0.0
  0
LINE
  5
4327
  8
AXE
 10
775.382488
 20
-114.199252
 30
0.0
 11
742.882515
 21
-114.199252
 31
0.0
  0
CIRCLE
  5
4787
  8
ALPHA
 10
750.932515
 20
-110.728076
 30
0.0
 40
1.7
  0
CIRCLE
  5
4788
  8
ALPHA
 10
750.932515
 20
-120.228076
 30
0.0
 40
1.7
  0
POLYLINE
  5
483F
  8
ALPHA
 66
     1
 10
0.0
 20
0.0
 30
0.0
 70
   128
  0
VERTEX
  5
4E8E
  8
ALPHA
 10
758.735698
 20
-116.229844
 30
0.0
  0
VERTEX
  5
4E8F
  8
ALPHA
 10
758.67507
 20
-116.229844
 30
0.0
  0
VERTEX
  5
4E90
  8
ALPHA
 10
758.503728
 20
-116.229844
 30
0.0
  0
VERTEX
  5
4E91
  8
ALPHA
 10
758.237489
 20
-116.229844
 30
0.0
  0
VERTEX
  5
4E92
  8
ALPHA
 10
757.892169
 20
-116.229844
 30
0.0
  0
VERTEX
  5
4E93
  8
ALPHA
 10
757.027552
 20
-116.229844
 30
0.0
  0
VERTEX
  5
4E94
  8
ALPHA
 10
756.036405
 20
-116.229844
 30
0.0
  0
VERTEX
  5
4E95
  8
ALPHA
 10
755.045259
 20
-116.229844
 30
0.0
  0
VERTEX
  5
4E96
  8
ALPHA
 10
754.180641
 20
-116.229844
 30
0.0
  0
VERTEX
  5
4E97
  8
ALPHA
 10
753.835322
 20
-116.229844
 30
0.0
  0
VERTEX
  5
4E98
  8
ALPHA
 10
753.569083
 20
-116.229844
 30
0.0
  0
VERTEX
  5
4E99
  8
ALPHA
 10
753.397741
 20
-116.229844
 30
0.0
  0
VERTEX
  5
4E9A
  8
ALPHA
 10
753.337112
 20
-116.229844
 30
0.0
  0
VERTEX
  5
4E9B
  8
ALPHA
 10
752.711022
 20
-115.751495
 30
0.0
  0
VERTEX
  5
4E9C
  8
ALPHA
 10
751.990947
 20
-115.410563
 30
0.0
  0
SEQEND
  5
4E9D
  8
ALPHA
  0
POLYLINE
  5
4841
  8
ALPHA
 66
     1
 10
0.0
 20
0.0
 30
0.0
 70
   128
  0
VERTEX
  5
4E9E
  8
ALPHA
 10
758.736331
 20
-117.679171
 30
0.0
  0
VERTEX
  5
4E9F
  8
ALPHA
 10
758.672955
 20
-117.679171
 30
0.0
  0
VERTEX
  5
4EA0
  8
ALPHA
 10
758.49385
 20
-117.679171
 30
0.0
  0
VERTEX
  5
4EA1
  8
ALPHA
 10
758.215548
 20
-117.679171
 30
0.0
  0
VERTEX
  5
4EA2
  8
ALPHA
 10
757.854581
 20
-117.679171
 30
0.0
  0
VERTEX
  5
4EA3
  8
ALPHA
 10
756.950788
 20
-117.679171
 30
0.0
  0
VERTEX
  5
4EA4
  8
ALPHA
 10
755.914731
 20
-117.679171
 30
0.0
  0
VERTEX
  5
4EA5
  8
ALPHA
 10
754.878675
 20
-117.679171
 30
0.0
  0
VERTEX
  5
4EA6
  8
ALPHA
 10
753.974882
 20
-117.679171
 30
0.0
  0
VERTEX
  5
4EA7
  8
ALPHA
 10
753.613915
 20
-117.679171
 30
0.0
  0
VERTEX
  5
4EA8
  8
ALPHA
 10
753.335613
 20
-117.679171
 30
0.0
  0
VERTEX
  5
4EA9
  8
ALPHA
 10
753.156507
 20
-117.679171
 30
0.0
  0
VERTEX
  5
4EAA
  8
ALPHA
 10
753.093132
 20
-117.679171
 30
0.0
  0
VERTEX
  5
4EAB
  8
ALPHA
 10
752.596834
 20
-117.289274
 30
0.0
  0
VERTEX
  5
4EAC
  8
ALPHA
 10
752.032718
 20
-116.994578
 30
0.0
  0
VERTEX
  5
4EAD
  8
ALPHA
 10
751.413065
 20
-116.808166
 30
0.0
  0
VERTEX
  5
4EAE
  8
ALPHA
 10
750.750158
 20
-116.743121
 30
0.0
  0
VERTEX
  5
4EAF
  8
ALPHA
 10
750.085664
 20
-116.807167
 30
0.0
  0
VERTEX
  5
4EB0
  8
ALPHA
 10
749.464632
 20
-116.991572
 30
0.0
  0
VERTEX
  5
4EB1
  8
ALPHA
 10
748.899433
 20
-117.284735
 30
0.0
  0
VERTEX
  5
4EB2
  8
ALPHA
 10
748.402438
 20
-117.675058
 30
0.0
  0
VERTEX
  5
4EB3
  8
ALPHA
 10
748.3212
 20
-117.675058
 30
0.0
  0
VERTEX
  5
4EB4
  8
ALPHA
 10
748.142477
 20
-117.675058
 30
0.0
  0
VERTEX
  5
4EB5
  8
ALPHA
 10
747.963753
 20
-117.675058
 30
0.0
  0
VERTEX
  5
4EB6
  8
ALPHA
 10
747.882515
 20
-117.675058
 30
0.0
  0
SEQEND
  5
4EB7
  8
ALPHA
  0
POLYLINE
  5
4842
  8
ALPHA
 66
     1
 10
0.0
 20
0.0
 30
0.0
 70
     1
  0
VERTEX
  5
4EB8
  8
ALPHA
 10
760.382488
 20
-122.981557
 30
0.0
  0
VERTEX
  5
4EB9
  8
ALPHA
 10
760.382488
 20
-117.662716
 30
0.0
  0
VERTEX
  5
4EBA
  8
ALPHA
 10
758.746932
 20
-117.676007
 30
0.0
  0
VERTEX
  5
4EBB
  8
ALPHA
 10
758.746932
 20
-116.227945
 30
0.0
  0
VERTEX
  5
4EBC
  8
ALPHA
 10
760.382488
 20
-116.227945
 30
0.0
  0
VERTEX
  5
4EBD
  8
ALPHA
 10
760.382488
 20
-107.978047
 30
0.0
  0
VERTEX
  5
4EBE
  8
ALPHA
 10
747.882515
 20
-107.978047
 30
0.0
  0
VERTEX
  5
4EBF
  8
ALPHA
 10
747.882515
 20
-122.978076
 30
0.0
  0
SEQEND
  5
4EC0
  8
ALPHA
  0
LINE
  5
484C
  8
ALPHA
 10
759.560043
 20
-117.682652
 30
0.0
 11
759.560043
 21
-122.981557
 31
0.0
  0
LINE
  5
4854
  8
ALPHA
 10
753.923489
 20
-117.682652
 30
0.0
 11
753.923489
 21
-122.981557
 31
0.0
  0
POLYLINE
  5
485E
  8
ALPHA
 66
     1
 10
0.0
 20
0.0
 30
0.0
  0
VERTEX
  5
4EC1
  8
ALPHA
 10
747.882515
 20
-112.85228
 30
0.0
  0
VERTEX
  5
4EC2
  8
ALPHA
 10
755.244022
 20
-112.85228
 30
0.0
  0
VERTEX
  5
4EC3
  8
ALPHA
 10
755.244022
 20
-115.40993
 30
0.0
  0
VERTEX
  5
4EC4
  8
ALPHA
 10
747.882515
 20
-115.40993
 30
0.0
  0
SEQEND
  5
4EC5
  8
ALPHA
  0
POLYLINE
  5
4864
  8
ALPHA
 66
     1
 10
0.0
 20
0.0
 30
0.0
 70
   128
  0
VERTEX
  5
4EC6
  8
ALPHA
 10
749.514116
 20
-115.407398
 30
0.0
  0
VERTEX
  5
4EC7
  8
ALPHA
 10
748.792538
 20
-115.748607
 30
0.0
  0
VERTEX
  5
4EC8
  8
ALPHA
 10
748.165419
 20
-116.229844
 30
0.0
  0
VERTEX
  5
4EC9
  8
ALPHA
 10
747.880933
 20
-116.229844
 30
0.0
  0
SEQEND
  5
4ECA
  8
ALPHA
  0
DIMENSION
  5
487F
  8
COTATION1
  2
*D4
 10
751.745111
 20
-112.221291
 30
0.0
 11
743.030242
 21
-102.726024
 31
0.0
 70
   131
 15
750.11992
 25
-109.234862
 35
0.0
 40
0.0
  0
DIMENSION
  5
4947
  8
COTATION1
  2
*D5
 10
737.882515
 20
-110.728076
 30
0.0
 11
737.882515
 21
-100.330457
 31
0.0
 70
   128
 13
747.882515
 23
-107.978076
 33
0.0
 14
750.932515
 24
-110.728076
 34
0.0
 50
90.0
  0
DIMENSION
  5
4955
  8
COTATION1
  2
*D6
 10
737.882515
 20
-120.228076
 30
0.0
 11
737.882515
 21
-115.478076
 31
0.0
 70
   128
 13
750.932515
 23
-110.728076
 33
0.0
 14
750.932515
 24
-120.228076
 34
0.0
 50
90.0
  0
DIMENSION
  5
497A
  8
COTATION1
  2
*D7
 10
765.382488
 20
-122.978076
 30
0.0
 11
765.382488
 21
-115.478062
 31
0.0
 70
   128
 13
760.382488
 23
-107.978047
 33
0.0
 14
760.382488
 24
-122.978076
 34
0.0
 50
90.0
  0
DIMENSION
  5
4B4A
  8
COTATION1
  2
*D8
 10
750.932515
 20
-97.978047
 30
0.0
 11
749.407515
 21
-97.978047
 31
0.0
 70
   128
 13
747.882515
 23
-107.978047
 33
0.0
 14
750.932515
 24
-110.728076
 34
0.0
 50
180.0
  0
DIMENSION
  5
4D56
  8
COTATION1
  2
*D9
 10
760.382488
 20
-92.978047
 30
0.0
 11
754.132502
 21
-91.378047
 31
0.0
 13
747.882515
 23
-107.978047
 33
0.0
 14
760.382488
 24
-107.978047
 34
0.0
  0
ENDSEC
  0
EOF
