  0
SECTION
  2
HEADER
  9
$ACADVER
  1
AC1014
  9
$ACADMAINTVER
 70
     0
  9
$DWGCODEPAGE
  3
ANSI_1252
  9
$INSBASE
 10
157.323413
 20
17.666133
 30
0.0
  9
$EXTMIN
 10
114.696857
 20
-6.824475
 30
0.0
  9
$EXTMAX
 10
210.857626
 20
53.965505
 30
0.0
  9
$LIMMIN
 10
0.0
 20
0.0
  9
$LIMMAX
 10
210.0
 20
297.0
  9
$ORTHOMODE
 70
     0
  9
$REGENMODE
 70
     1
  9
$FILLMODE
 70
     1
  9
$QTEXTMODE
 70
     0
  9
$MIRRTEXT
 70
     1
  9
$DRAGMODE
 70
     2
  9
$LTSCALE
 40
10.0
  9
$OSMODE
 70
     0
  9
$ATTMODE
 70
     1
  9
$TEXTSIZE
 40
2.9
  9
$TRACEWID
 40
0.05
  9
$TEXTSTYLE
  7
ROMANS
  9
$CLAYER
  8
AXE
  9
$CELTYPE
  6
BYLAYER
  9
$CECOLOR
 62
   256
  9
$CELTSCALE
 40
1.0
  9
$DELOBJ
 70
     1
  9
$DISPSILH
 70
     0
  9
$DIMSCALE
 40
1.0
  9
$DIMASZ
 40
3.0
  9
$DIMEXO
 40
0.0625
  9
$DIMDLI
 40
0.38
  9
$DIMRND
 40
0.01
  9
$DIMDLE
 40
0.0
  9
$DIMEXE
 40
0.18
  9
$DIMTP
 40
0.0
  9
$DIMTM
 40
0.0
  9
$DIMTXT
 40
2.5
  9
$DIMCEN
 40
0.09
  9
$DIMTSZ
 40
0.0
  9
$DIMTOL
 70
     0
  9
$DIMLIM
 70
     0
  9
$DIMTIH
 70
     0
  9
$DIMTOH
 70
     0
  9
$DIMSE1
 70
     0
  9
$DIMSE2
 70
     0
  9
$DIMTAD
 70
     1
  9
$DIMZIN
 70
    12
  9
$DIMBLK
  1
_OPEN
  9
$DIMASO
 70
     1
  9
$DIMSHO
 70
     1
  9
$DIMPOST
  1

  9
$DIMAPOST
  1

  9
$DIMALT
 70
     0
  9
$DIMALTD
 70
     2
  9
$DIMALTF
 40
25.4
  9
$DIMLFAC
 40
1.0
  9
$DIMTOFL
 70
     1
  9
$DIMTVP
 40
0.0
  9
$DIMTIX
 70
     0
  9
$DIMSOXD
 70
     0
  9
$DIMSAH
 70
     0
  9
$DIMBLK1
  1

  9
$DIMBLK2
  1

  9
$DIMSTYLE
  2
SC_STAND
  9
$DIMCLRD
 70
     0
  9
$DIMCLRE
 70
     0
  9
$DIMCLRT
 70
     0
  9
$DIMTFAC
 40
1.0
  9
$DIMGAP
 40
1.0
  9
$DIMJUST
 70
     0
  9
$DIMSD1
 70
     0
  9
$DIMSD2
 70
     0
  9
$DIMTOLJ
 70
     1
  9
$DIMTZIN
 70
    12
  9
$DIMALTZ
 70
    12
  9
$DIMALTTZ
 70
    12
  9
$DIMFIT
 70
     5
  9
$DIMUPT
 70
     0
  9
$DIMUNIT
 70
     2
  9
$DIMDEC
 70
     4
  9
$DIMTDEC
 70
     4
  9
$DIMALTU
 70
     2
  9
$DIMALTTD
 70
     2
  9
$DIMTXSTY
  7
ROMANS
  9
$DIMAUNIT
 70
     0
  9
$LUNITS
 70
     2
  9
$LUPREC
 70
     4
  9
$SKETCHINC
 40
0.1
  9
$FILLETRAD
 40
0.0
  9
$AUNITS
 70
     0
  9
$AUPREC
 70
     0
  9
$MENU
  1
.
  9
$ELEVATION
 40
0.0
  9
$PELEVATION
 40
0.0
  9
$THICKNESS
 40
0.0
  9
$LIMCHECK
 70
     0
  9
$BLIPMODE
 70
     1
  9
$CHAMFERA
 40
0.0
  9
$CHAMFERB
 40
0.0
  9
$CHAMFERC
 40
0.0
  9
$CHAMFERD
 40
0.0
  9
$SKPOLY
 70
     0
  9
$TDCREATE
 40
2451260.710417940
  9
$TDUPDATE
 40
2451387.896140382
  9
$TDINDWG
 40
0.0463924884
  9
$TDUSRTIMER
 40
0.0463924884
  9
$USRTIMER
 70
     1
  9
$ANGBASE
 50
0.0
  9
$ANGDIR
 70
     0
  9
$PDMODE
 70
     0
  9
$PDSIZE
 40
0.0
  9
$PLINEWID
 40
0.0
  9
$COORDS
 70
     1
  9
$SPLFRAME
 70
     0
  9
$SPLINETYPE
 70
     6
  9
$SPLINESEGS
 70
     8
  9
$ATTDIA
 70
     1
  9
$ATTREQ
 70
     1
  9
$HANDLING
 70
     1
  9
$HANDSEED
  5
127
  9
$SURFTAB1
 70
     6
  9
$SURFTAB2
 70
     6
  9
$SURFTYPE
 70
     6
  9
$SURFU
 70
     6
  9
$SURFV
 70
     6
  9
$UCSNAME
  2

  9
$UCSORG
 10
0.0
 20
0.0
 30
0.0
  9
$UCSXDIR
 10
1.0
 20
0.0
 30
0.0
  9
$UCSYDIR
 10
0.0
 20
1.0
 30
0.0
  9
$PUCSNAME
  2

  9
$PUCSORG
 10
0.0
 20
0.0
 30
0.0
  9
$PUCSXDIR
 10
1.0
 20
0.0
 30
0.0
  9
$PUCSYDIR
 10
0.0
 20
1.0
 30
0.0
  9
$USERI1
 70
     0
  9
$USERI2
 70
     0
  9
$USERI3
 70
     0
  9
$USERI4
 70
     0
  9
$USERI5
 70
     0
  9
$USERR1
 40
0.0
  9
$USERR2
 40
0.0
  9
$USERR3
 40
0.0
  9
$USERR4
 40
0.0
  9
$USERR5
 40
0.0
  9
$WORLDVIEW
 70
     1
  9
$SHADEDGE
 70
     3
  9
$SHADEDIF
 70
    70
  9
$TILEMODE
 70
     1
  9
$MAXACTVP
 70
    16
  9
$PINSBASE
 10
0.0
 20
0.0
 30
0.0
  9
$PLIMCHECK
 70
     0
  9
$PEXTMIN
 10
0.0
 20
0.0
 30
0.0
  9
$PEXTMAX
 10
420.0
 20
297.0
 30
0.0
  9
$PLIMMIN
 10
0.0
 20
0.0
  9
$PLIMMAX
 10
420.0
 20
297.0
  9
$UNITMODE
 70
     0
  9
$VISRETAIN
 70
     0
  9
$PLINEGEN
 70
     0
  9
$PSLTSCALE
 70
     1
  9
$TREEDEPTH
 70
  3020
  9
$PICKSTYLE
 70
     1
  9
$CMLSTYLE
  2
STANDARD
  9
$CMLJUST
 70
     0
  9
$CMLSCALE
 40
1.0
  9
$PROXYGRAPHICS
 70
     1
  9
$MEASUREMENT
 70
     0
  0
ENDSEC
  0
SECTION
  2
CLASSES
  0
CLASS
  1
DICTIONARYVAR
  2
AcDbDictionaryVar
  3
"AutoCAD"
 90
        0
280
     0
281
     0
  0
CLASS
  1
LWPOLYLINE
  2
AcDbPolyline
  3
"AutoCAD"
 90
        0
280
     0
281
     1
  0
ENDSEC
  0
SECTION
  2
TABLES
  0
TABLE
  2
VPORT
  5
F4
100
AcDbSymbolTable
 70
     1
  0
VPORT
  5
122
100
AcDbSymbolTableRecord
100
AcDbViewportTableRecord
  2
*ACTIVE
 70
     0
 10
0.0
 20
0.0
 11
1.0
 21
1.0
 12
190.184393
 22
38.349169
 13
0.0
 23
0.0
 14
1.0
 24
1.0
 15
0.0
 25
0.0
 16
0.0
 26
0.0
 36
1.0
 17
0.0
 27
0.0
 37
0.0
 40
90.347287
 41
1.671053
 42
50.0
 43
0.0
 44
0.0
 50
0.0
 51
0.0
 71
     0
 72
   100
 73
     1
 74
     1
 75
     0
 76
     0
 77
     0
 78
     0
  0
ENDTAB
  0
TABLE
  2
LTYPE
  5
F1
100
AcDbSymbolTable
 70
     2
  0
LTYPE
  5
FD
100
AcDbSymbolTableRecord
100
AcDbLinetypeTableRecord
  2
BYBLOCK
 70
     0
  3

 72
    65
 73
     0
 40
0.0
  0
LTYPE
  5
FE
100
AcDbSymbolTableRecord
100
AcDbLinetypeTableRecord
  2
BYLAYER
 70
     0
  3

 72
    65
 73
     0
 40
0.0
  0
LTYPE
  5
FF
100
AcDbSymbolTableRecord
100
AcDbLinetypeTableRecord
  2
CONTINUOUS
 70
     0
  3
Solid line
 72
    65
 73
     0
 40
0.0
  0
LTYPE
  5
112
100
AcDbSymbolTableRecord
100
AcDbLinetypeTableRecord
  2
AXES2
 70
     0
  3
___ _ ___ _ ___ _ ___ _ ___ _ ___ _ ___ _ ___ _
 72
    65
 73
     4
 40
1.125
 49
0.75
 74
     0
 49
-0.125
 74
     0
 49
0.125
 74
     0
 49
-0.125
 74
     0
  0
ENDTAB
  0
TABLE
  2
LAYER
  5
EE
100
AcDbSymbolTable
 70
     5
  0
LAYER
  5
FA
100
AcDbSymbolTableRecord
100
AcDbLayerTableRecord
  2
0
 70
     0
 62
   255
  6
CONTINUOUS
  0
LAYER
  5
115
100
AcDbSymbolTableRecord
100
AcDbLayerTableRecord
  2
AXE
 70
     0
 62
    80
  6
AXES2
  0
LAYER
  5
116
100
AcDbSymbolTableRecord
100
AcDbLayerTableRecord
  2
COTATION1
 70
     0
 62
     2
  6
CONTINUOUS
  0
LAYER
  5
117
100
AcDbSymbolTableRecord
100
AcDbLayerTableRecord
  2
ALPHA
 70
     0
 62
   254
  6
CONTINUOUS
  0
LAYER
  5
118
100
AcDbSymbolTableRecord
100
AcDbLayerTableRecord
  2
DEFPOINTS
 70
     0
 62
     7
  6
CONTINUOUS
  0
ENDTAB
  0
TABLE
  2
STYLE
  5
EF
100
AcDbSymbolTable
 70
     2
  0
STYLE
  5
FB
100
AcDbSymbolTableRecord
100
AcDbTextStyleTableRecord
  2
STANDARD
 70
     0
 40
0.0
 41
1.0
 50
0.0
 71
     0
 42
0.2
  3
txt
  4

  0
STYLE
  5
111
100
AcDbSymbolTableRecord
100
AcDbTextStyleTableRecord
  2
ROMANS
 70
     0
 40
0.0
 41
1.0
 50
0.0
 71
     0
 42
2.9
  3
romans.shx
  4

  0
ENDTAB
  0
TABLE
  2
VIEW
  5
F2
100
AcDbSymbolTable
 70
     0
  0
ENDTAB
  0
TABLE
  2
UCS
  5
F3
100
AcDbSymbolTable
 70
     0
  0
ENDTAB
  0
TABLE
  2
APPID
  5
F5
100
AcDbSymbolTable
 70
     1
  0
APPID
  5
FC
100
AcDbSymbolTableRecord
100
AcDbRegAppTableRecord
  2
ACAD
 70
     0
  0
ENDTAB
  0
TABLE
  2
DIMSTYLE
  5
F6
100
AcDbSymbolTable
 70
     1
  0
DIMSTYLE
105
114
102
{ACAD_REACTORS
330
24
330
3A
330
51
330
61
330
76
330
85
330
AE
330
BE
102
}
100
AcDbSymbolTableRecord
100
AcDbDimStyleTableRecord
  2
SC_STAND
 70
     0
  3

  4

  5

  6

  7

 40
1.0
 41
3.0
 42
0.0625
 43
0.38
 44
0.18
 45
0.01
 46
0.0
 47
0.0
 48
0.0
140
2.5
141
0.09
142
0.0
143
25.4
144
1.0
145
0.0
146
1.0
147
1.0
 71
     0
 72
     0
 73
     0
 74
     0
 75
     0
 76
     0
 77
     1
 78
    12
170
     0
171
     2
172
     1
173
     0
174
     0
175
     0
176
     0
177
     0
178
     0
270
     2
271
     4
272
     4
273
     2
274
     2
340
111
275
     0
280
     0
281
     0
282
     0
283
     1
284
    12
285
    12
286
    12
287
     5
288
     0
  0
ENDTAB
  0
TABLE
  2
BLOCK_RECORD
  5
ED
100
AcDbSymbolTable
 70
     9
  0
BLOCK_RECORD
  5
103
100
AcDbSymbolTableRecord
100
AcDbBlockTableRecord
  2
*MODEL_SPACE
  0
BLOCK_RECORD
  5
100
100
AcDbSymbolTableRecord
100
AcDbBlockTableRecord
  2
*PAPER_SPACE
  0
BLOCK_RECORD
  5
108
100
AcDbSymbolTableRecord
100
AcDbBlockTableRecord
  2
*D0
  0
BLOCK_RECORD
  5
109
100
AcDbSymbolTableRecord
100
AcDbBlockTableRecord
  2
*D1
  0
BLOCK_RECORD
  5
10A
100
AcDbSymbolTableRecord
100
AcDbBlockTableRecord
  2
*D2
  0
BLOCK_RECORD
  5
10B
100
AcDbSymbolTableRecord
100
AcDbBlockTableRecord
  2
*D3
  0
BLOCK_RECORD
  5
10C
100
AcDbSymbolTableRecord
100
AcDbBlockTableRecord
  2
*D4
  0
BLOCK_RECORD
  5
10D
100
AcDbSymbolTableRecord
100
AcDbBlockTableRecord
  2
*D5
  0
BLOCK_RECORD
  5
10E
100
AcDbSymbolTableRecord
100
AcDbBlockTableRecord
  2
*D6
  0
BLOCK_RECORD
  5
10F
100
AcDbSymbolTableRecord
100
AcDbBlockTableRecord
  2
*D7
  0
BLOCK_RECORD
  5
110
100
AcDbSymbolTableRecord
100
AcDbBlockTableRecord
  2
_OPEN
  0
ENDTAB
  0
ENDSEC
  0
SECTION
  2
BLOCKS
  0
BLOCK
  5
11B
100
AcDbEntity
  8
0
100
AcDbBlockBegin
  2
*MODEL_SPACE
 70
     0
 10
0.0
 20
0.0
 30
0.0
  3
*MODEL_SPACE
  1

  0
ENDBLK
  5
11C
100
AcDbEntity
  8
0
100
AcDbBlockEnd
  0
BLOCK
  5
119
100
AcDbEntity
 67
     1
  8
0
100
AcDbBlockBegin
  2
*PAPER_SPACE
 70
     0
 10
0.0
 20
0.0
 30
0.0
  3
*PAPER_SPACE
  1

  0
ENDBLK
  5
11A
100
AcDbEntity
 67
     1
  8
0
100
AcDbBlockEnd
  0
BLOCK
  5
47
100
AcDbEntity
  8
0
100
AcDbBlockBegin
  2
*D0
 70
     1
 10
0.0
 20
0.0
 30
0.0
  3
*D0
  1

  0
LINE
  5
3C
100
AcDbEntity
  8
0
  6
BYBLOCK
 62
     0
100
AcDbLine
 10
122.757807
 20
5.35358
 30
0.0
 11
122.757807
 21
-6.504475
 31
0.0
  0
LINE
  5
3D
100
AcDbEntity
  8
0
  6
BYBLOCK
 62
     0
100
AcDbLine
 10
110.257807
 20
5.35358
 30
0.0
 11
110.257807
 21
-6.504475
 31
0.0
  0
LINE
  5
3E
100
AcDbEntity
  8
0
  6
BYBLOCK
 62
     0
100
AcDbLine
 10
125.757807
 20
-6.324475
 30
0.0
 11
128.757807
 21
-6.324475
 31
0.0
  0
LINE
  5
3F
100
AcDbEntity
  8
0
  6
BYBLOCK
 62
     0
100
AcDbLine
 10
107.257807
 20
-6.324475
 30
0.0
 11
104.257807
 21
-6.324475
 31
0.0
  0
LINE
  5
40
100
AcDbEntity
  8
0
  6
BYBLOCK
 62
     0
100
AcDbLine
 10
122.757807
 20
-6.324475
 30
0.0
 11
110.257807
 21
-6.324475
 31
0.0
  0
INSERT
  5
41
100
AcDbEntity
  8
0
  6
BYBLOCK
 62
     0
100
AcDbBlockReference
  2
_OPEN
 10
122.757807
 20
-6.324475
 30
0.0
 41
3.0
 42
3.0
 43
3.0
 50
180.0
  0
INSERT
  5
42
100
AcDbEntity
  8
0
  6
BYBLOCK
 62
     0
100
AcDbBlockReference
  2
_OPEN
 10
110.257807
 20
-6.324475
 30
0.0
 41
3.0
 42
3.0
 43
3.0
  0
TEXT
  5
43
100
AcDbEntity
  8
0
  6
BYBLOCK
 62
     0
100
AcDbText
 10
113.174474
 20
-5.324475
 30
0.0
 40
2.5
  1
12.5
100
AcDbText
  0
POINT
  5
44
100
AcDbEntity
  8
DEFPOINTS
  6
BYBLOCK
 62
     0
100
AcDbPoint
 10
122.757807
 20
5.41608
 30
0.0
  0
POINT
  5
45
100
AcDbEntity
  8
DEFPOINTS
  6
BYBLOCK
 62
     0
100
AcDbPoint
 10
110.257807
 20
5.41608
 30
0.0
  0
POINT
  5
46
100
AcDbEntity
  8
DEFPOINTS
  6
BYBLOCK
 62
     0
100
AcDbPoint
 10
110.257807
 20
-6.324475
 30
0.0
  0
ENDBLK
  5
48
100
AcDbEntity
  8
0
100
AcDbBlockEnd
  0
BLOCK
  5
92
100
AcDbEntity
  8
0
100
AcDbBlockBegin
  2
*D1
 70
     1
 10
0.0
 20
0.0
 30
0.0
  3
*D1
  1

  0
LINE
  5
87
100
AcDbEntity
  8
0
  6
BYBLOCK
 62
     0
100
AcDbLine
 10
201.107598
 20
5.353798
 30
0.0
 11
201.107598
 21
-4.370444
 31
0.0
  0
LINE
  5
88
100
AcDbEntity
  8
0
  6
BYBLOCK
 62
     0
100
AcDbLine
 10
213.607598
 20
5.353798
 30
0.0
 11
213.607598
 21
-4.370444
 31
0.0
  0
LINE
  5
89
100
AcDbEntity
  8
0
  6
BYBLOCK
 62
     0
100
AcDbLine
 10
198.107598
 20
-4.190444
 30
0.0
 11
195.107598
 21
-4.190444
 31
0.0
  0
LINE
  5
8A
100
AcDbEntity
  8
0
  6
BYBLOCK
 62
     0
100
AcDbLine
 10
216.607598
 20
-4.190444
 30
0.0
 11
219.607598
 21
-4.190444
 31
0.0
  0
LINE
  5
8B
100
AcDbEntity
  8
0
  6
BYBLOCK
 62
     0
100
AcDbLine
 10
201.107598
 20
-4.190444
 30
0.0
 11
213.607598
 21
-4.190444
 31
0.0
  0
INSERT
  5
8C
100
AcDbEntity
  8
0
  6
BYBLOCK
 62
     0
100
AcDbBlockReference
  2
_OPEN
 10
201.107598
 20
-4.190444
 30
0.0
 41
3.0
 42
3.0
 43
3.0
  0
INSERT
  5
8D
100
AcDbEntity
  8
0
  6
BYBLOCK
 62
     0
100
AcDbBlockReference
  2
_OPEN
 10
213.607598
 20
-4.190444
 30
0.0
 41
3.0
 42
3.0
 43
3.0
 50
180.0
  0
TEXT
  5
8E
100
AcDbEntity
  8
0
  6
BYBLOCK
 62
     0
100
AcDbText
 10
204.024265
 20
-3.190444
 30
0.0
 40
2.5
  1
12.5
100
AcDbText
  0
POINT
  5
8F
100
AcDbEntity
  8
DEFPOINTS
  6
BYBLOCK
 62
     0
100
AcDbPoint
 10
201.107598
 20
5.416298
 30
0.0
  0
POINT
  5
90
100
AcDbEntity
  8
DEFPOINTS
  6
BYBLOCK
 62
     0
100
AcDbPoint
 10
213.607598
 20
5.416298
 30
0.0
  0
POINT
  5
91
100
AcDbEntity
  8
DEFPOINTS
  6
BYBLOCK
 62
     0
100
AcDbPoint
 10
213.607598
 20
-4.190444
 30
0.0
  0
ENDBLK
  5
93
100
AcDbEntity
  8
0
100
AcDbBlockEnd
  0
BLOCK
  5
83
100
AcDbEntity
  8
0
100
AcDbBlockBegin
  2
*D2
 70
     1
 10
0.0
 20
0.0
 30
0.0
  3
*D2
  1

  0
LINE
  5
78
100
AcDbEntity
  8
0
  6
BYBLOCK
 62
     0
100
AcDbLine
 10
213.607598
 20
20.478798
 30
0.0
 11
213.607598
 21
28.480581
 31
0.0
  0
LINE
  5
79
100
AcDbEntity
  8
0
  6
BYBLOCK
 62
     0
100
AcDbLine
 10
210.557598
 20
19.428798
 30
0.0
 11
210.557598
 21
28.480581
 31
0.0
  0
LINE
  5
7A
100
AcDbEntity
  8
0
  6
BYBLOCK
 62
     0
100
AcDbLine
 10
216.607598
 20
28.300581
 30
0.0
 11
219.607598
 21
28.300581
 31
0.0
  0
LINE
  5
7B
100
AcDbEntity
  8
0
  6
BYBLOCK
 62
     0
100
AcDbLine
 10
207.557598
 20
28.300581
 30
0.0
 11
195.474265
 21
28.300581
 31
0.0
  0
LINE
  5
7C
100
AcDbEntity
  8
0
  6
BYBLOCK
 62
     0
100
AcDbLine
 10
213.607598
 20
28.300581
 30
0.0
 11
210.557598
 21
28.300581
 31
0.0
  0
INSERT
  5
7D
100
AcDbEntity
  8
0
  6
BYBLOCK
 62
     0
100
AcDbBlockReference
  2
_OPEN
 10
213.607598
 20
28.300581
 30
0.0
 41
3.0
 42
3.0
 43
3.0
 50
180.0
  0
INSERT
  5
7E
100
AcDbEntity
  8
0
  6
BYBLOCK
 62
     0
100
AcDbBlockReference
  2
_OPEN
 10
210.557598
 20
28.300581
 30
0.0
 41
3.0
 42
3.0
 43
3.0
  0
TEXT
  5
7F
100
AcDbEntity
  8
0
  6
BYBLOCK
 62
     0
100
AcDbText
 10
196.474265
 20
29.300581
 30
0.0
 40
2.5
  1
3.05
100
AcDbText
  0
POINT
  5
80
100
AcDbEntity
  8
DEFPOINTS
  6
BYBLOCK
 62
     0
100
AcDbPoint
 10
213.607598
 20
20.416298
 30
0.0
  0
POINT
  5
81
100
AcDbEntity
  8
DEFPOINTS
  6
BYBLOCK
 62
     0
100
AcDbPoint
 10
210.557598
 20
19.366298
 30
0.0
  0
POINT
  5
82
100
AcDbEntity
  8
DEFPOINTS
  6
BYBLOCK
 62
     0
100
AcDbPoint
 10
210.557598
 20
28.300581
 30
0.0
  0
ENDBLK
  5
84
100
AcDbEntity
  8
0
100
AcDbBlockEnd
  0
BLOCK
  5
38
100
AcDbEntity
  8
0
100
AcDbBlockBegin
  2
*D3
 70
     1
 10
0.0
 20
0.0
 30
0.0
  3
*D3
  1

  0
LINE
  5
26
100
AcDbEntity
  8
0
  6
BYBLOCK
 62
     0
100
AcDbLine
 10
110.257807
 20
20.47858
 30
0.0
 11
110.257807
 21
26.137033
 31
0.0
  0
LINE
  5
27
100
AcDbEntity
  8
0
  6
BYBLOCK
 62
     0
100
AcDbLine
 10
113.307807
 20
19.42858
 30
0.0
 11
113.307807
 21
26.137033
 31
0.0
  0
LINE
  5
28
100
AcDbEntity
  8
0
  6
BYBLOCK
 62
     0
100
AcDbLine
 10
107.257807
 20
25.957033
 30
0.0
 11
104.257807
 21
25.957033
 31
0.0
  0
LINE
  5
29
100
AcDbEntity
  8
0
  6
BYBLOCK
 62
     0
100
AcDbLine
 10
116.307807
 20
25.957033
 30
0.0
 11
128.39114
 21
25.957033
 31
0.0
  0
LINE
  5
2A
100
AcDbEntity
  8
0
  6
BYBLOCK
 62
     0
100
AcDbLine
 10
110.257807
 20
25.957033
 30
0.0
 11
113.307807
 21
25.957033
 31
0.0
  0
INSERT
  5
2B
100
AcDbEntity
  8
0
  6
BYBLOCK
 62
     0
100
AcDbBlockReference
  2
_OPEN
 10
110.257807
 20
25.957033
 30
0.0
 41
3.0
 42
3.0
 43
3.0
  0
INSERT
  5
32
100
AcDbEntity
  8
0
  6
BYBLOCK
 62
     0
100
AcDbBlockReference
  2
_OPEN
 10
113.307807
 20
25.957033
 30
0.0
 41
3.0
 42
3.0
 43
3.0
 50
180.0
  0
TEXT
  5
33
100
AcDbEntity
  8
0
  6
BYBLOCK
 62
     0
100
AcDbText
 10
120.307807
 20
26.957033
 30
0.0
 40
2.5
  1
3.05
100
AcDbText
  0
POINT
  5
34
100
AcDbEntity
  8
DEFPOINTS
  6
BYBLOCK
 62
     0
100
AcDbPoint
 10
110.257807
 20
20.41608
 30
0.0
  0
POINT
  5
36
100
AcDbEntity
  8
DEFPOINTS
  6
BYBLOCK
 62
     0
100
AcDbPoint
 10
113.307807
 20
19.36608
 30
0.0
  0
POINT
  5
37
100
AcDbEntity
  8
DEFPOINTS
  6
BYBLOCK
 62
     0
100
AcDbPoint
 10
113.307807
 20
25.957033
 30
0.0
  0
ENDBLK
  5
39
100
AcDbEntity
  8
0
100
AcDbBlockEnd
  0
BLOCK
  5
CB
100
AcDbEntity
  8
0
100
AcDbBlockBegin
  2
*D4
 70
     1
 10
0.0
 20
0.0
 30
0.0
  3
*D4
  1

  0
LINE
  5
C0
100
AcDbEntity
  8
0
  6
BYBLOCK
 62
     0
100
AcDbLine
 10
212.84111
 20
17.666298
 30
0.0
 11
225.893269
 21
17.666298
 31
0.0
  0
LINE
  5
C1
100
AcDbEntity
  8
0
  6
BYBLOCK
 62
     0
100
AcDbLine
 10
213.670098
 20
20.416298
 30
0.0
 11
225.893269
 21
20.416298
 31
0.0
  0
LINE
  5
C2
100
AcDbEntity
  8
0
  6
BYBLOCK
 62
     0
100
AcDbLine
 10
225.713269
 20
14.666298
 30
0.0
 11
225.713269
 21
11.666298
 31
0.0
  0
LINE
  5
C3
100
AcDbEntity
  8
0
  6
BYBLOCK
 62
     0
100
AcDbLine
 10
225.713269
 20
23.416298
 30
0.0
 11
225.713269
 21
33.916298
 31
0.0
  0
LINE
  5
C4
100
AcDbEntity
  8
0
  6
BYBLOCK
 62
     0
100
AcDbLine
 10
225.713269
 20
17.666298
 30
0.0
 11
225.713269
 21
20.416298
 31
0.0
  0
INSERT
  5
C5
100
AcDbEntity
  8
0
  6
BYBLOCK
 62
     0
100
AcDbBlockReference
  2
_OPEN
 10
225.713269
 20
17.666298
 30
0.0
 41
3.0
 42
3.0
 43
3.0
 50
90.0
  0
INSERT
  5
C6
100
AcDbEntity
  8
0
  6
BYBLOCK
 62
     0
100
AcDbBlockReference
  2
_OPEN
 10
225.713269
 20
20.416298
 30
0.0
 41
3.0
 42
3.0
 43
3.0
 50
270.0
  0
TEXT
  5
C7
100
AcDbEntity
  8
0
  6
BYBLOCK
 62
     0
100
AcDbText
 10
224.713269
 20
25.416298
 30
0.0
 40
2.5
  1
2.75
 50
90.0
100
AcDbText
  0
POINT
  5
C8
100
AcDbEntity
  8
DEFPOINTS
  6
BYBLOCK
 62
     0
100
AcDbPoint
 10
212.77861
 20
17.666298
 30
0.0
  0
POINT
  5
C9
100
AcDbEntity
  8
DEFPOINTS
  6
BYBLOCK
 62
     0
100
AcDbPoint
 10
213.607598
 20
20.416298
 30
0.0
  0
POINT
  5
CA
100
AcDbEntity
  8
DEFPOINTS
  6
BYBLOCK
 62
     0
100
AcDbPoint
 10
225.713269
 20
20.416298
 30
0.0
  0
ENDBLK
  5
CC
100
AcDbEntity
  8
0
100
AcDbBlockEnd
  0
BLOCK
  5
BB
100
AcDbEntity
  8
0
100
AcDbBlockBegin
  2
*D5
 70
     1
 10
0.0
 20
0.0
 30
0.0
  3
*D5
  1

  0
LINE
  5
B0
100
AcDbEntity
  8
0
  6
BYBLOCK
 62
     0
100
AcDbLine
 10
192.845329
 20
17.666298
 30
0.0
 11
193.142829
 21
17.666298
 31
0.0
  0
LINE
  5
B1
100
AcDbEntity
  8
0
  6
BYBLOCK
 62
     0
100
AcDbLine
 10
183.101519
 20
8.166298
 30
0.0
 11
193.142829
 21
8.166298
 31
0.0
  0
LINE
  5
B2
100
AcDbEntity
  8
0
  6
BYBLOCK
 62
     0
100
AcDbLine
 10
192.962829
 20
20.666298
 30
0.0
 11
192.962829
 21
23.666298
 31
0.0
  0
LINE
  5
B3
100
AcDbEntity
  8
0
  6
BYBLOCK
 62
     0
100
AcDbLine
 10
192.962829
 20
5.166298
 30
0.0
 11
192.962829
 21
2.166298
 31
0.0
  0
LINE
  5
B4
100
AcDbEntity
  8
0
  6
BYBLOCK
 62
     0
100
AcDbLine
 10
192.962829
 20
17.666298
 30
0.0
 11
192.962829
 21
8.166298
 31
0.0
  0
INSERT
  5
B5
100
AcDbEntity
  8
0
  6
BYBLOCK
 62
     0
100
AcDbBlockReference
  2
_OPEN
 10
192.962829
 20
17.666298
 30
0.0
 41
3.0
 42
3.0
 43
3.0
 50
270.0
  0
INSERT
  5
B6
100
AcDbEntity
  8
0
  6
BYBLOCK
 62
     0
100
AcDbBlockReference
  2
_OPEN
 10
192.962829
 20
8.166298
 30
0.0
 41
3.0
 42
3.0
 43
3.0
 50
90.0
  0
TEXT
  5
B7
100
AcDbEntity
  8
0
  6
BYBLOCK
 62
     0
100
AcDbText
 10
191.962829
 20
10.416298
 30
0.0
 40
2.5
  1
9.5
 50
90.0
100
AcDbText
  0
POINT
  5
B8
100
AcDbEntity
  8
DEFPOINTS
  6
BYBLOCK
 62
     0
100
AcDbPoint
 10
192.782829
 20
17.666298
 30
0.0
  0
POINT
  5
B9
100
AcDbEntity
  8
DEFPOINTS
  6
BYBLOCK
 62
     0
100
AcDbPoint
 10
183.039019
 20
8.166298
 30
0.0
  0
POINT
  5
BA
100
AcDbEntity
  8
DEFPOINTS
  6
BYBLOCK
 62
     0
100
AcDbPoint
 10
192.962829
 20
8.166298
 30
0.0
  0
ENDBLK
  5
BC
100
AcDbEntity
  8
0
100
AcDbBlockEnd
  0
BLOCK
  5
6E
100
AcDbEntity
  8
0
100
AcDbBlockBegin
  2
*D6
 70
     1
 10
0.0
 20
0.0
 30
0.0
  3
*D6
  1

  0
LINE
  5
63
100
AcDbEntity
  8
0
  6
BYBLOCK
 62
     0
100
AcDbLine
 10
111.545307
 20
17.66608
 30
0.0
 11
98.016857
 21
17.66608
 31
0.0
  0
LINE
  5
64
100
AcDbEntity
  8
0
  6
BYBLOCK
 62
     0
100
AcDbLine
 10
110.195307
 20
20.41608
 30
0.0
 11
98.016857
 21
20.41608
 31
0.0
  0
LINE
  5
65
100
AcDbEntity
  8
0
  6
BYBLOCK
 62
     0
100
AcDbLine
 10
98.196857
 20
14.66608
 30
0.0
 11
98.196857
 21
11.66608
 31
0.0
  0
LINE
  5
66
100
AcDbEntity
  8
0
  6
BYBLOCK
 62
     0
100
AcDbLine
 10
98.196857
 20
23.41608
 30
0.0
 11
98.196857
 21
35.91608
 31
0.0
  0
LINE
  5
67
100
AcDbEntity
  8
0
  6
BYBLOCK
 62
     0
100
AcDbLine
 10
98.196857
 20
17.66608
 30
0.0
 11
98.196857
 21
20.41608
 31
0.0
  0
INSERT
  5
68
100
AcDbEntity
  8
0
  6
BYBLOCK
 62
     0
100
AcDbBlockReference
  2
_OPEN
 10
98.196857
 20
17.66608
 30
0.0
 41
3.0
 42
3.0
 43
3.0
 50
90.0
  0
INSERT
  5
69
100
AcDbEntity
  8
0
  6
BYBLOCK
 62
     0
100
AcDbBlockReference
  2
_OPEN
 10
98.196857
 20
20.41608
 30
0.0
 41
3.0
 42
3.0
 43
3.0
 50
270.0
  0
TEXT
  5
6A
100
AcDbEntity
  8
0
  6
BYBLOCK
 62
     0
100
AcDbText
 10
97.196857
 20
27.41608
 30
0.0
 40
2.5
  1
2.75
 50
90.0
100
AcDbText
  0
POINT
  5
6B
100
AcDbEntity
  8
DEFPOINTS
  6
BYBLOCK
 62
     0
100
AcDbPoint
 10
111.607807
 20
17.66608
 30
0.0
  0
POINT
  5
6C
100
AcDbEntity
  8
DEFPOINTS
  6
BYBLOCK
 62
     0
100
AcDbPoint
 10
110.257807
 20
20.41608
 30
0.0
  0
POINT
  5
6D
100
AcDbEntity
  8
DEFPOINTS
  6
BYBLOCK
 62
     0
100
AcDbPoint
 10
98.196857
 20
20.41608
 30
0.0
  0
ENDBLK
  5
6F
100
AcDbEntity
  8
0
100
AcDbBlockEnd
  0
BLOCK
  5
5E
100
AcDbEntity
  8
0
100
AcDbBlockBegin
  2
*D7
 70
     1
 10
0.0
 20
0.0
 30
0.0
  3
*D7
  1

  0
LINE
  5
53
100
AcDbEntity
  8
0
  6
BYBLOCK
 62
     0
100
AcDbLine
 10
110.195307
 20
17.66608
 30
0.0
 11
104.539636
 21
17.66608
 31
0.0
  0
LINE
  5
54
100
AcDbEntity
  8
0
  6
BYBLOCK
 62
     0
100
AcDbLine
 10
111.545307
 20
8.16608
 30
0.0
 11
104.539636
 21
8.16608
 31
0.0
  0
LINE
  5
55
100
AcDbEntity
  8
0
  6
BYBLOCK
 62
     0
100
AcDbLine
 10
104.719636
 20
20.66608
 30
0.0
 11
104.719636
 21
23.66608
 31
0.0
  0
LINE
  5
56
100
AcDbEntity
  8
0
  6
BYBLOCK
 62
     0
100
AcDbLine
 10
104.719636
 20
5.16608
 30
0.0
 11
104.719636
 21
2.16608
 31
0.0
  0
LINE
  5
57
100
AcDbEntity
  8
0
  6
BYBLOCK
 62
     0
100
AcDbLine
 10
104.719636
 20
17.66608
 30
0.0
 11
104.719636
 21
8.16608
 31
0.0
  0
INSERT
  5
58
100
AcDbEntity
  8
0
  6
BYBLOCK
 62
     0
100
AcDbBlockReference
  2
_OPEN
 10
104.719636
 20
17.66608
 30
0.0
 41
3.0
 42
3.0
 43
3.0
 50
270.0
  0
INSERT
  5
59
100
AcDbEntity
  8
0
  6
BYBLOCK
 62
     0
100
AcDbBlockReference
  2
_OPEN
 10
104.719636
 20
8.16608
 30
0.0
 41
3.0
 42
3.0
 43
3.0
 50
90.0
  0
TEXT
  5
5A
100
AcDbEntity
  8
0
  6
BYBLOCK
 62
     0
100
AcDbText
 10
103.719636
 20
10.41608
 30
0.0
 40
2.5
  1
9.5
 50
90.0
100
AcDbText
  0
POINT
  5
5B
100
AcDbEntity
  8
DEFPOINTS
  6
BYBLOCK
 62
     0
100
AcDbPoint
 10
110.257807
 20
17.66608
 30
0.0
  0
POINT
  5
5C
100
AcDbEntity
  8
DEFPOINTS
  6
BYBLOCK
 62
     0
100
AcDbPoint
 10
111.607807
 20
8.16608
 30
0.0
  0
POINT
  5
5D
100
AcDbEntity
  8
DEFPOINTS
  6
BYBLOCK
 62
     0
100
AcDbPoint
 10
104.719636
 20
8.16608
 30
0.0
  0
ENDBLK
  5
5F
100
AcDbEntity
  8
0
100
AcDbBlockEnd
  0
BLOCK
  5
30
100
AcDbEntity
  8
0
100
AcDbBlockBegin
  2
_OPEN
 70
     0
 10
0.0
 20
0.0
 30
0.0
  3
_OPEN
  1

  0
LINE
  5
2D
100
AcDbEntity
  8
0
  6
BYBLOCK
 62
     0
100
AcDbLine
 10
-1.0
 20
0.166667
 30
0.0
 11
0.0
 21
0.0
 31
0.0
  0
LINE
  5
2E
100
AcDbEntity
  8
0
  6
BYBLOCK
 62
     0
100
AcDbLine
 10
0.0
 20
0.0
 30
0.0
 11
-1.0
 21
-0.166667
 31
0.0
  0
LINE
  5
2F
100
AcDbEntity
  8
0
  6
BYBLOCK
 62
     0
100
AcDbLine
 10
0.0
 20
0.0
 30
0.0
 11
-1.0
 21
0.0
 31
0.0
  0
ENDBLK
  5
31
100
AcDbEntity
  8
0
100
AcDbBlockEnd
  0
ENDSEC
  0
SECTION
  2
ENTITIES
  0
LINE
  5
21
100
AcDbEntity
  8
AXE
100
AcDbLine
 10
130.195307
 20
17.66608
 30
0.0
 11
210.66022
 21
17.666236
 31
0.0
  0
INSERT
  5
22
100
AcDbEntity
  8
COTATION1
100
AcDbBlockReference
  2
_OPEN
 10
133.307807
 20
8.16608
 30
0.0
 41
3.0
 42
3.0
 43
3.0
 50
64.215986
1001
ACAD
1000
DSTYLE
1002
{
1070
   284
1070
     0
1070
   340
1005
5C0C02020000000E
1070
   287
1070
     3
1070
     5
1000
_OPEN
1070
   285
1070
     0
1070
   286
1070
     0
1002
}
  0
LWPOLYLINE
  5
E1
100
AcDbEntity
  8
COTATION1
100
AcDbPolyline
 90
        3
 70
   128
 43
0.0
 10
132.002867
 20
5.464759
 10
128.378219
 20
-2.038527
 10
116.878219
 20
-2.038527
1001
ACAD
1000
R13OBJECT
1002
{
1005
22
1002
}
  0
DIMENSION
  5
24
100
AcDbEntity
  8
COTATION1
100
AcDbDimension
  2
*D3
 10
133.307807
 20
25.957033
 30
0.0
 11
123.849474
 21
28.207033
 31
0.0
 12
20.0
 22
0.0
 32
0.0
  3
SC_STAND
100
AcDbAlignedDimension
 13
130.257807
 23
20.41608
 33
0.0
 14
133.307807
 24
19.36608
 34
0.0
100
AcDbRotatedDimension
1001
ACAD
1000
DSTYLE
1002
{
1070
   284
1070
     0
1070
   340
1005
E
1070
   287
1070
     3
1070
     5
1000
_OPEN
1070
   285
1070
     0
1070
   286
1070
     0
1002
}
  0
DIMENSION
  5
3A
100
AcDbEntity
  8
COTATION1
100
AcDbDimension
  2
*D0
 10
130.257807
 20
-6.324475
 30
0.0
 11
116.507807
 21
-4.074475
 31
0.0
 12
20.0
 22
0.0
 32
0.0
  3
SC_STAND
100
AcDbAlignedDimension
 13
142.757807
 23
5.41608
 33
0.0
 14
130.257807
 24
5.41608
 34
0.0
100
AcDbRotatedDimension
1001
ACAD
1000
DSTYLE
1002
{
1070
   284
1070
     0
1070
   340
1005
E
1070
   287
1070
     3
1070
     5
1000
_OPEN
1070
   285
1070
     0
1070
   286
1070
     0
1002
}
  0
LINE
  5
49
100
AcDbEntity
  8
ALPHA
  6
CONTINUOUS
100
AcDbLine
 10
130.257807
 20
5.41608
 30
0.0
 11
142.757807
 21
5.41608
 31
0.0
  0
ARC
  5
4A
100
AcDbEntity
  8
ALPHA
  6
CONTINUOUS
100
AcDbCircle
 10
133.307807
 20
8.16608
 30
0.0
 40
3.2
100
AcDbArc
 50
47.520391
 51
132.479609
  0
CIRCLE
  5
4B
100
AcDbEntity
  8
ALPHA
  6
CONTINUOUS
100
AcDbCircle
 10
133.307807
 20
17.66608
 30
0.0
 40
1.7
  0
CIRCLE
  5
4C
100
AcDbEntity
  8
ALPHA
  6
CONTINUOUS
100
AcDbCircle
 10
133.307807
 20
8.16608
 30
0.0
 40
1.7
  0
LINE
  5
4D
100
AcDbEntity
  8
AXE
100
AcDbLine
 10
131.192771
 20
8.16608
 30
0.0
 11
135.431758
 21
8.16608
 31
0.0
  0
LINE
  5
4E
100
AcDbEntity
  8
ALPHA
  6
CONTINUOUS
100
AcDbLine
 10
130.257807
 20
20.41608
 30
0.0
 11
142.757807
 21
20.41608
 31
0.0
  0
LINE
  5
4F
100
AcDbEntity
  8
ALPHA
  6
CONTINUOUS
100
AcDbLine
 10
137.352681
 20
12.709885
 30
0.0
 11
130.257807
 21
12.709885
 31
0.0
  0
LINE
  5
50
100
AcDbEntity
  8
ALPHA
  6
CONTINUOUS
100
AcDbLine
 10
130.257807
 20
15.718109
 30
0.0
 11
137.352681
 21
15.718109
 31
0.0
  0
DIMENSION
  5
51
100
AcDbEntity
  8
COTATION1
100
AcDbDimension
  2
*D7
 10
124.719636
 20
8.16608
 30
0.0
 11
102.469636
 21
12.91608
 31
0.0
 12
20.0
 22
0.0
 32
0.0
  3
SC_STAND
100
AcDbAlignedDimension
 13
130.257807
 23
17.66608
 33
0.0
 14
131.607807
 24
8.16608
 34
0.0
 50
270.0
100
AcDbRotatedDimension
1001
ACAD
1000
DSTYLE
1002
{
1070
   284
1070
     0
1070
   340
1005
E
1070
   287
1070
     3
1070
     5
1000
_OPEN
1070
   285
1070
     0
1070
   286
1070
     0
1002
}
  0
TEXT
  5
60
100
AcDbEntity
  8
COTATION1
100
AcDbText
 10
116.878219
 20
-1.038527
 30
0.0
 40
2.5
  1
%%c
100
AcDbText
  0
TEXT
  5
E6
100
AcDbEntity
  8
COTATION1
100
AcDbText
 10
119.378219
 20
-1.038527
 30
0.0
 40
2.5
  1
3.4
100
AcDbText
1001
ACAD
1000
R13OBJECT
1002
{
1005
60
1002
}
  0
DIMENSION
  5
61
100
AcDbEntity
  8
COTATION1
100
AcDbDimension
  2
*D6
 10
118.196857
 20
20.41608
 30
0.0
 11
95.946857
 21
31.16608
 31
0.0
 12
20.0
 22
0.0
 32
0.0
  3
SC_STAND
100
AcDbAlignedDimension
 13
131.607807
 23
17.66608
 33
0.0
 14
130.257807
 24
20.41608
 34
0.0
 50
270.0
100
AcDbRotatedDimension
1001
ACAD
1000
DSTYLE
1002
{
1070
   284
1070
     0
1070
   340
1005
E
1070
   287
1070
     3
1070
     5
1000
_OPEN
1070
   285
1070
     0
1070
   286
1070
     0
1002
}
  0
LINE
  5
70
100
AcDbEntity
  8
ALPHA
  6
CONTINUOUS
100
AcDbLine
 10
130.257807
 20
5.41608
 30
0.0
 11
130.257807
 21
20.41608
 31
0.0
  0
ARC
  5
71
100
AcDbEntity
  8
ALPHA
  6
CONTINUOUS
100
AcDbCircle
 10
133.307807
 20
8.16608
 30
0.0
 40
4.5953
100
AcDbArc
 50
98.585618
 51
125.235558
  0
LINE
  5
72
100
AcDbEntity
  8
ALPHA
  6
CONTINUOUS
100
AcDbLine
 10
131.146758
 20
10.526137
 30
0.0
 11
130.257807
 21
10.526137
 31
0.0
  0
LINE
  5
73
100
AcDbEntity
  8
ALPHA
  6
CONTINUOUS
100
AcDbLine
 10
130.656598
 20
11.919461
 30
0.0
 11
130.256367
 21
11.919461
 31
0.0
  0
TEXT
  5
74
100
AcDbEntity
  8
AXE
100
AcDbText
 10
141.396894
 20
37.539941
 30
0.0
 40
15.0
  1
Y
  7
ROMANS
100
AcDbText
  0
LINE
  5
75
100
AcDbEntity
  8
AXE
100
AcDbLine
 10
157.323413
 20
10.464039
 30
0.0
 11
157.323413
 21
53.965505
 31
0.0
  0
DIMENSION
  5
76
100
AcDbEntity
  8
COTATION1
100
AcDbDimension
  2
*D2
 10
181.339019
 20
28.300581
 30
0.0
 11
200.015932
 21
30.550581
 31
0.0
 12
-29.218579
 22
0.0
 32
0.0
  3
SC_STAND
100
AcDbAlignedDimension
 13
184.389019
 23
20.416298
 33
0.0
 14
181.339019
 24
19.366298
 34
0.0
 50
180.0
100
AcDbRotatedDimension
1001
ACAD
1000
DSTYLE
1002
{
1070
   284
1070
     0
1070
   340
1005
E
1070
   287
1070
     3
1070
     5
1000
_OPEN
1070
   285
1070
     0
1070
   286
1070
     0
1002
}
  0
DIMENSION
  5
85
100
AcDbEntity
  8
COTATION1
100
AcDbDimension
  2
*D1
 10
184.389019
 20
-4.190444
 30
0.0
 11
207.357598
 21
-1.940444
 31
0.0
 12
-29.218579
 22
0.0
 32
0.0
  3
SC_STAND
100
AcDbAlignedDimension
 13
171.889019
 23
5.416298
 33
0.0
 14
184.389019
 24
5.416298
 34
0.0
 50
180.0
100
AcDbRotatedDimension
1001
ACAD
1000
DSTYLE
1002
{
1070
   284
1070
     0
1070
   340
1005
E
1070
   287
1070
     3
1070
     5
1000
_OPEN
1070
   285
1070
     0
1070
   286
1070
     0
1002
}
  0
LINE
  5
94
100
AcDbEntity
  8
ALPHA
  6
CONTINUOUS
100
AcDbLine
 10
184.389019
 20
20.416298
 30
0.0
 11
171.889019
 21
20.416298
 31
0.0
  0
LINE
  5
95
100
AcDbEntity
  8
ALPHA
  6
CONTINUOUS
100
AcDbLine
 10
173.475603
 20
10.526355
 30
0.0
 11
179.177971
 21
10.526355
 31
0.0
  0
LINE
  5
96
100
AcDbEntity
  8
ALPHA
  6
CONTINUOUS
100
AcDbLine
 10
173.476367
 20
11.919679
 30
0.0
 11
178.68781
 21
11.919679
 31
0.0
  0
LINE
  5
97
100
AcDbEntity
  8
ALPHA
  6
CONTINUOUS
100
AcDbLine
 10
184.389019
 20
5.416298
 30
0.0
 11
171.889019
 21
5.416298
 31
0.0
  0
LINE
  5
98
100
AcDbEntity
  8
AXE
100
AcDbLine
 10
140.074758
 20
1.737378
 30
0.0
 11
140.074758
 21
17.66608
 31
0.0
  0
LINE
  5
99
100
AcDbEntity
  8
ALPHA
  6
CONTINUOUS
100
AcDbLine
 10
142.757807
 20
20.41608
 30
0.0
 11
142.757807
 21
11.921446
 31
0.0
  0
LINE
  5
9A
100
AcDbEntity
  8
ALPHA
  6
CONTINUOUS
100
AcDbLine
 10
137.352681
 20
15.718109
 30
0.0
 11
137.352681
 21
12.709885
 31
0.0
  0
LINE
  5
9B
100
AcDbEntity
  8
ALPHA
  6
CONTINUOUS
100
AcDbLine
 10
141.171223
 20
10.526137
 30
0.0
 11
135.468856
 21
10.526137
 31
0.0
  0
LINE
  5
9C
100
AcDbEntity
  8
ALPHA
  6
CONTINUOUS
100
AcDbLine
 10
141.17046
 20
11.919461
 30
0.0
 11
135.959016
 21
11.919461
 31
0.0
  0
LINE
  5
9D
100
AcDbEntity
  8
AXE
100
AcDbLine
 10
133.307807
 20
6.10953
 30
0.0
 11
133.307807
 21
10.211775
 31
0.0
  0
LINE
  5
9E
100
AcDbEntity
  8
ALPHA
  6
CONTINUOUS
100
AcDbLine
 10
136.080102
 20
10.526137
 30
0.0
 11
136.080102
 21
5.41608
 31
0.0
  0
ARC
  5
9F
100
AcDbEntity
  8
ALPHA
  6
CONTINUOUS
100
AcDbCircle
 10
133.307807
 20
8.16608
 30
0.0
 40
4.5953
100
AcDbArc
 50
54.764442
 51
81.414382
  0
LINE
  5
A0
100
AcDbEntity
  8
ALPHA
  6
CONTINUOUS
100
AcDbLine
 10
141.965071
 20
10.526137
 30
0.0
 11
141.965071
 21
5.41608
 31
0.0
  0
LINE
  5
A1
100
AcDbEntity
  8
ALPHA
  6
CONTINUOUS
100
AcDbLine
 10
142.757807
 20
10.526137
 30
0.0
 11
142.757807
 21
5.41608
 31
0.0
  0
LINE
  5
A2
100
AcDbEntity
  8
ALPHA
  6
CONTINUOUS
100
AcDbLine
 10
141.181542
 20
10.526137
 30
0.0
 11
142.757807
 21
10.526137
 31
0.0
  0
LINE
  5
A3
100
AcDbEntity
  8
ALPHA
  6
CONTINUOUS
100
AcDbLine
 10
141.181542
 20
11.921446
 30
0.0
 11
141.181542
 21
10.526137
 31
0.0
  0
LINE
  5
A4
100
AcDbEntity
  8
ALPHA
  6
CONTINUOUS
100
AcDbLine
 10
142.757807
 20
11.921446
 30
0.0
 11
141.181542
 21
11.921446
 31
0.0
  0
LINE
  5
A5
100
AcDbEntity
  8
AXE
100
AcDbLine
 10
133.307807
 20
15.410308
 30
0.0
 11
133.307807
 21
19.866195
 31
0.0
  0
LINE
  5
A6
100
AcDbEntity
  8
ALPHA
  6
CONTINUOUS
100
AcDbLine
 10
171.889019
 20
20.416298
 30
0.0
 11
171.889019
 21
11.921665
 31
0.0
  0
LINE
  5
A7
100
AcDbEntity
  8
ALPHA
  6
CONTINUOUS
100
AcDbLine
 10
171.889019
 20
10.526355
 30
0.0
 11
171.889019
 21
5.416298
 31
0.0
  0
LINE
  5
A8
100
AcDbEntity
  8
ALPHA
  6
CONTINUOUS
100
AcDbLine
 10
172.681755
 20
10.526355
 30
0.0
 11
172.681755
 21
5.416298
 31
0.0
  0
LINE
  5
A9
100
AcDbEntity
  8
ALPHA
  6
CONTINUOUS
100
AcDbLine
 10
173.465285
 20
11.921665
 30
0.0
 11
173.465285
 21
10.526355
 31
0.0
  0
LINE
  5
AA
100
AcDbEntity
  8
ALPHA
  6
CONTINUOUS
100
AcDbLine
 10
171.889019
 20
11.921665
 30
0.0
 11
173.465285
 21
11.921665
 31
0.0
  0
LINE
  5
AB
100
AcDbEntity
  8
ALPHA
  6
CONTINUOUS
100
AcDbLine
 10
173.465285
 20
10.526355
 30
0.0
 11
171.889019
 21
10.526355
 31
0.0
  0
TEXT
  5
AC
100
AcDbEntity
  8
COTATION1
100
AcDbText
 10
187.744244
 20
0.549156
 30
0.0
 40
2.5
  1
%%c
100
AcDbText
  0
TEXT
  5
E7
100
AcDbEntity
  8
COTATION1
100
AcDbText
 10
190.244244
 20
0.549156
 30
0.0
 40
2.5
  1
3.4
100
AcDbText
1001
ACAD
1000
R13OBJECT
1002
{
1005
AC
1002
}
  0
INSERT
  5
AD
100
AcDbEntity
  8
COTATION1
100
AcDbBlockReference
  2
_OPEN
 10
181.339019
 20
8.166298
 30
0.0
 41
3.0
 42
3.0
 43
3.0
 50
105.595532
1001
ACAD
1000
DSTYLE
1002
{
1070
   284
1070
     0
1070
   340
1005
183E02020000000E
1070
   287
1070
     3
1070
     5
1000
_OPEN
1070
   285
1070
     0
1070
   286
1070
     0
1002
}
  0
LWPOLYLINE
  5
E8
100
AcDbEntity
  8
COTATION1
100
AcDbPolyline
 90
        3
 70
   128
 43
0.0
 10
182.145554
 20
5.276748
 10
183.744244
 20
-0.450844
 10
195.244244
 20
-0.450844
1001
ACAD
1000
R13OBJECT
1002
{
1005
AD
1002
}
  0
DIMENSION
  5
AE
100
AcDbEntity
  8
COTATION1
100
AcDbDimension
  2
*D5
 10
192.962829
 20
8.166298
 30
0.0
 11
190.712829
 21
12.916298
 31
0.0
  3
SC_STAND
100
AcDbAlignedDimension
 13
192.782829
 23
17.666298
 33
0.0
 14
183.039019
 24
8.166298
 34
0.0
 50
90.0
100
AcDbRotatedDimension
1001
ACAD
1000
DSTYLE
1002
{
1070
   284
1070
     0
1070
   340
1005
E
1070
   287
1070
     3
1070
     5
1000
_OPEN
1070
   285
1070
     0
1070
   286
1070
     0
1002
}
  0
LINE
  5
BD
100
AcDbEntity
  8
AXE
100
AcDbLine
 10
174.572069
 20
2.580029
 30
0.0
 11
174.572069
 21
17.666298
 31
0.0
  0
DIMENSION
  5
BE
100
AcDbEntity
  8
COTATION1
100
AcDbDimension
  2
*D4
 10
196.49469
 20
20.416298
 30
0.0
 11
196.49469
 21
29.166298
 31
0.0
 12
-29.218579
 22
0.0
 32
0.0
 70
   128
  3
SC_STAND
100
AcDbAlignedDimension
 13
183.560031
 23
17.666298
 33
0.0
 14
184.389019
 24
20.416298
 34
0.0
 50
90.0
100
AcDbRotatedDimension
1001
ACAD
1000
DSTYLE
1002
{
1070
   284
1070
     0
1070
   340
1005
E
1070
   287
1070
     3
1070
     5
1000
_OPEN
1070
   285
1070
     0
1070
   286
1070
     0
1002
}
  0
LINE
  5
CD
100
AcDbEntity
  8
ALPHA
  6
CONTINUOUS
100
AcDbLine
 10
177.294146
 20
15.718327
 30
0.0
 11
177.294146
 21
12.710103
 31
0.0
  0
LINE
  5
CE
100
AcDbEntity
  8
ALPHA
  6
CONTINUOUS
100
AcDbLine
 10
184.389019
 20
5.416298
 30
0.0
 11
184.389019
 21
20.416298
 31
0.0
  0
LINE
  5
CF
100
AcDbEntity
  8
AXE
100
AcDbLine
 10
183.454056
 20
8.166298
 30
0.0
 11
178.292767
 21
8.166298
 31
0.0
  0
ARC
  5
D0
100
AcDbEntity
  8
ALPHA
  6
CONTINUOUS
100
AcDbCircle
 10
181.339019
 20
8.166298
 30
0.0
 40
4.5953
100
AcDbArc
 50
98.585618
 51
125.235558
  0
ARC
  5
D1
100
AcDbEntity
  8
ALPHA
  6
CONTINUOUS
100
AcDbCircle
 10
181.339019
 20
8.166298
 30
0.0
 40
3.2
100
AcDbArc
 50
47.520391
 51
132.479609
  0
LINE
  5
D2
100
AcDbEntity
  8
ALPHA
  6
CONTINUOUS
100
AcDbLine
 10
177.294146
 20
12.710103
 30
0.0
 11
184.389019
 21
12.710103
 31
0.0
  0
LINE
  5
D3
100
AcDbEntity
  8
ALPHA
  6
CONTINUOUS
100
AcDbLine
 10
178.566724
 20
10.526355
 30
0.0
 11
178.566724
 21
5.416298
 31
0.0
  0
CIRCLE
  5
D4
100
AcDbEntity
  8
ALPHA
  6
CONTINUOUS
100
AcDbCircle
 10
181.339019
 20
8.166298
 30
0.0
 40
1.7
  0
LINE
  5
D5
100
AcDbEntity
  8
AXE
100
AcDbLine
 10
181.339019
 20
6.109748
 30
0.0
 11
181.339019
 21
10.211993
 31
0.0
  0
ARC
  5
D6
100
AcDbEntity
  8
ALPHA
  6
CONTINUOUS
100
AcDbCircle
 10
181.339019
 20
8.166298
 30
0.0
 40
4.5953
100
AcDbArc
 50
54.764442
 51
81.414382
  0
LINE
  5
D7
100
AcDbEntity
  8
ALPHA
  6
CONTINUOUS
100
AcDbLine
 10
183.990229
 20
11.919679
 30
0.0
 11
184.390459
 21
11.919679
 31
0.0
  0
LINE
  5
D8
100
AcDbEntity
  8
ALPHA
  6
CONTINUOUS
100
AcDbLine
 10
183.500068
 20
10.526355
 30
0.0
 11
184.389019
 21
10.526355
 31
0.0
  0
LINE
  5
D9
100
AcDbEntity
  8
ALPHA
  6
CONTINUOUS
100
AcDbLine
 10
184.389019
 20
15.718327
 30
0.0
 11
177.294146
 21
15.718327
 31
0.0
  0
CIRCLE
  5
DA
100
AcDbEntity
  8
ALPHA
  6
CONTINUOUS
100
AcDbCircle
 10
181.339019
 20
17.666298
 30
0.0
 40
1.7
  0
LINE
  5
DB
100
AcDbEntity
  8
AXE
100
AcDbLine
 10
181.339019
 20
15.410526
 30
0.0
 11
181.339019
 21
19.866413
 31
0.0
  0
TEXT
  5
DC
100
AcDbEntity
  8
AXE
100
AcDbText
 10
198.714769
 20
19.270243
 30
0.0
 40
15.0
  1
X
  7
ROMANS
100
AcDbText
  0
ENDSEC
  0
SECTION
  2
OBJECTS
  0
DICTIONARY
  5
F8
100
AcDbDictionary
  3
ACAD_GROUP
350
F9
  3
ACAD_MLINESTYLE
350
106
  3
ACDBVARIABLEDICTIONARY
350
11D
  0
DICTIONARY
  5
F9
102
{ACAD_REACTORS
330
F8
102
}
100
AcDbDictionary
  0
DICTIONARY
  5
106
102
{ACAD_REACTORS
330
F8
102
}
100
AcDbDictionary
  3
STANDARD
350
107
  0
DICTIONARY
  5
11D
102
{ACAD_REACTORS
330
F8
102
}
100
AcDbDictionary
  3
DIMADEC
350
11E
  0
MLINESTYLE
  5
107
102
{ACAD_REACTORS
330
106
102
}
100
AcDbMlineStyle
  2
STANDARD
 70
     0
  3

 62
   256
 51
90.0
 52
90.0
 71
     2
 49
0.5
 62
   256
  6
BYLAYER
 49
-0.5
 62
   256
  6
BYLAYER
  0
DICTIONARYVAR
  5
11E
102
{ACAD_REACTORS
330
11D
102
}
100
DictionaryVariables
280
     0
  1
0
  0
ENDSEC
  0
EOF
