  0
SECTION
  2
HEADER
  9
$ACADVER
  1
AC1009
  9
$INSBASE
 10
-146.27124
 20
-153.796096
 30
0.0
  9
$EXTMIN
 10
730.032515
 20
-148.996747
 30
0.0
  9
$EXTMAX
 10
772.632515
 20
-106.101094
 30
0.0
  9
$LIMMIN
 10
-407.970438
 20
-367.832444
  9
$LIMMAX
 10
429.804077
 20
234.370848
  9
$ORTHOMODE
 70
     1
  9
$REGENMODE
 70
     1
  9
$FILLMODE
 70
     1
  9
$QTEXTMODE
 70
     0
  9
$MIRRTEXT
 70
     1
  9
$DRAGMODE
 70
     2
  9
$LTSCALE
 40
10.0
  9
$OSMODE
 70
   165
  9
$ATTMODE
 70
     1
  9
$TEXTSIZE
 40
6.0
  9
$TRACEWID
 40
1.0
  9
$TEXTSTYLE
  7
ROMANS
  9
$CLAYER
  8
COTATION1
  9
$CELTYPE
  6
BYLAYER
  9
$CECOLOR
 62
   256
  9
$DIMSCALE
 40
1.0
  9
$DIMASZ
 40
2.0
  9
$DIMEXO
 40
0.3
  9
$DIMDLI
 40
0.1
  9
$DIMRND
 40
0.0
  9
$DIMDLE
 40
0.0
  9
$DIMEXE
 40
0.5
  9
$DIMTP
 40
0.0
  9
$DIMTM
 40
0.0
  9
$DIMTXT
 40
2.0
  9
$DIMCEN
 40
0.0
  9
$DIMTSZ
 40
0.0
  9
$DIMTOL
 70
     0
  9
$DIMLIM
 70
     0
  9
$DIMTIH
 70
     0
  9
$DIMTOH
 70
     0
  9
$DIMSE1
 70
     0
  9
$DIMSE2
 70
     0
  9
$DIMTAD
 70
     1
  9
$DIMZIN
 70
    12
  9
$DIMBLK
  1
OPEN30
  9
$DIMASO
 70
     1
  9
$DIMSHO
 70
     1
  9
$DIMPOST
  1

  9
$DIMAPOST
  1

  9
$DIMALT
 70
     0
  9
$DIMALTD
 70
     2
  9
$DIMALTF
 40
25.4
  9
$DIMLFAC
 40
1.0
  9
$DIMTOFL
 70
     0
  9
$DIMTVP
 40
0.0
  9
$DIMTIX
 70
     0
  9
$DIMSOXD
 70
     0
  9
$DIMSAH
 70
     0
  9
$DIMBLK1
  1

  9
$DIMBLK2
  1

  9
$DIMSTYLE
  2
SC_DEFAUT
  9
$DIMCLRD
 70
     0
  9
$DIMCLRE
 70
     0
  9
$DIMCLRT
 70
     0
  9
$DIMTFAC
 40
1.0
  9
$DIMGAP
 40
0.6
  9
$LUNITS
 70
     2
  9
$LUPREC
 70
     1
  9
$SKETCHINC
 40
0.1
  9
$FILLETRAD
 40
0.0
  9
$AUNITS
 70
     0
  9
$AUPREC
 70
     0
  9
$MENU
  1
acad
  9
$ELEVATION
 40
0.0
  9
$PELEVATION
 40
0.0
  9
$THICKNESS
 40
0.0
  9
$LIMCHECK
 70
     0
  9
$BLIPMODE
 70
     0
  9
$CHAMFERA
 40
0.0
  9
$CHAMFERB
 40
0.0
  9
$SKPOLY
 70
     0
  9
$TDCREATE
 40
2450365.355314
  9
$TDUPDATE
 40
2452587.554958
  9
$TDINDWG
 40
0.570837
  9
$TDUSRTIMER
 40
0.570837
  9
$USRTIMER
 70
     1
  9
$ANGBASE
 50
0.0
  9
$ANGDIR
 70
     0
  9
$PDMODE
 70
    32
  9
$PDSIZE
 40
0.0
  9
$PLINEWID
 40
0.0
  9
$COORDS
 70
     2
  9
$SPLFRAME
 70
     0
  9
$SPLINETYPE
 70
     6
  9
$SPLINESEGS
 70
     8
  9
$ATTDIA
 70
     0
  9
$ATTREQ
 70
     1
  9
$HANDLING
 70
     1
  9
$HANDSEED
  5
4710
  9
$SURFTAB1
 70
     6
  9
$SURFTAB2
 70
     6
  9
$SURFTYPE
 70
     6
  9
$SURFU
 70
     6
  9
$SURFV
 70
     6
  9
$UCSNAME
  2

  9
$UCSORG
 10
0.0
 20
0.0
 30
0.0
  9
$UCSXDIR
 10
1.0
 20
0.0
 30
0.0
  9
$UCSYDIR
 10
0.0
 20
1.0
 30
0.0
  9
$PUCSNAME
  2

  9
$PUCSORG
 10
0.0
 20
0.0
 30
0.0
  9
$PUCSXDIR
 10
1.0
 20
0.0
 30
0.0
  9
$PUCSYDIR
 10
0.0
 20
1.0
 30
0.0
  9
$USERI1
 70
     0
  9
$USERI2
 70
     0
  9
$USERI3
 70
     0
  9
$USERI4
 70
     0
  9
$USERI5
 70
     0
  9
$USERR1
 40
0.0
  9
$USERR2
 40
0.0
  9
$USERR3
 40
0.0
  9
$USERR4
 40
0.0
  9
$USERR5
 40
0.0
  9
$WORLDVIEW
 70
     1
  9
$SHADEDGE
 70
     3
  9
$SHADEDIF
 70
    70
  9
$TILEMODE
 70
     1
  9
$MAXACTVP
 70
    16
  9
$PLIMCHECK
 70
     0
  9
$PEXTMIN
 10
1.000000E+020
 20
1.000000E+020
 30
1.000000E+020
  9
$PEXTMAX
 10
-1.000000E+020
 20
-1.000000E+020
 30
-1.000000E+020
  9
$PLIMMIN
 10
0.0
 20
0.0
  9
$PLIMMAX
 10
12.0
 20
9.0
  9
$UNITMODE
 70
     0
  9
$VISRETAIN
 70
     0
  9
$PLINEGEN
 70
     0
  9
$PSLTSCALE
 70
     0
  0
ENDSEC
  0
SECTION
  2
TABLES
  0
TABLE
  2
VPORT
 70
     2
  0
VPORT
  2
*ACTIVE
 70
     0
 10
0.0
 20
0.0
 11
1.0
 21
1.0
 12
751.335195
 22
-127.538296
 13
0.0
 23
0.0
 14
1.0
 24
1.0
 15
10.0
 25
10.0
 16
0.0
 26
0.0
 36
1.0
 17
0.0
 27
0.0
 37
0.0
 40
43.346835
 41
1.63142
 42
50.0
 43
0.0
 44
0.0
 50
0.0
 51
0.0
 71
     0
 72
   100
 73
     1
 74
     0
 75
     0
 76
     0
 77
     0
 78
     0
  0
ENDTAB
  0
TABLE
  2
LTYPE
 70
    24
  0
LTYPE
  2
CONTINUOUS
 70
     0
  3
Solid line
 72
    65
 73
     0
 40
0.0
  0
LTYPE
  2
AXES2
 70
     0
  3
___ _ ___ _ ___ _ ___ _ ___ _ ___ _ ___ _ ___ _
 72
    65
 73
     4
 40
1.125
 49
0.75
 49
-0.125
 49
0.125
 49
-0.125
  0
LTYPE
  2
ACAD_ISO04W100
 70
     0
  3
ISO Lang gestrichelt punktiert ____ . ____ . __
 72
    65
 73
     4
 40
30.5
 49
24.0
 49
-3.0
 49
0.5
 49
-3.0
  0
LTYPE
  2
AXES
 70
     0
  3
____ _ ____ _ ____ _ ____ _ ____ _ ____ _ ____ 
 72
    65
 73
     4
 40
2.0
 49
1.25
 49
-0.25
 49
0.25
 49
-0.25
  0
LTYPE
  2
AXESX2
 70
     0
  3
________  __  ________  __  ________  __  _____
 72
    65
 73
     4
 40
4.0
 49
2.5
 49
-0.5
 49
0.5
 49
-0.5
  0
LTYPE
  2
TIRETPT
 70
     0
  3
__ . __ . __ . __ . __ . __ . __ . __ . __ . __
 72
    65
 73
     4
 40
1.0
 49
0.5
 49
-0.25
 49
0.0
 49
-0.25
  0
LTYPE
  2
TIRETPT2
 70
     0
  3
_._._._._._._._._._._._._._._._._._._._._._._._
 72
    65
 73
     4
 40
0.5
 49
0.25
 49
-0.125
 49
0.0
 49
-0.125
  0
LTYPE
  2
TIRETPTX2
 70
     0
  3
____  .  ____  .  ____  .  ____  .  ____  .  __
 72
    65
 73
     4
 40
2.0
 49
1.0
 49
-0.5
 49
0.0
 49
-0.5
  0
LTYPE
  2
DISCONTINU
 70
     0
  3
__ __ __ __ __ __ __ __ __ __ __ __ __ __ __ __
 72
    65
 73
     2
 40
0.75
 49
0.5
 49
-0.25
  0
LTYPE
  2
DISCONTINU2
 70
     0
  3
_ _ _ _ _ _ _ _ _ _ _ _ _ _ _ _ _ _ _ _ _ _ _ _
 72
    65
 73
     2
 40
0.375
 49
0.25
 49
-0.125
  0
LTYPE
  2
DISCONTINUX2
 70
     0
  3
____  ____  ____  ____  ____  ____  ____  ____ 
 72
    65
 73
     2
 40
1.5
 49
1.0
 49
-0.5
  0
LTYPE
  2
DIVISE
 70
     0
  3
____ . . ____ . . ____ . . ____ . . ____ . . __
 72
    65
 73
     6
 40
1.25
 49
0.5
 49
-0.25
 49
0.0
 49
-0.25
 49
0.0
 49
-0.25
  0
LTYPE
  2
DIVISE2
 70
     0
  3
__..__..__..__..__..__..__..__..__..__..__..__.
 72
    65
 73
     6
 40
0.625
 49
0.25
 49
-0.125
 49
0.0
 49
-0.125
 49
0.0
 49
-0.125
  0
LTYPE
  2
DIVISEX2
 70
     0
  3
________  .  .  ________  .  .  ________  .  . 
 72
    65
 73
     6
 40
2.5
 49
1.0
 49
-0.5
 49
0.0
 49
-0.5
 49
0.0
 49
-0.5
  0
LTYPE
  2
POINTILLE
 70
     0
  3
. . . . . . . . . . . . . . . . . . . . . . . .
 72
    65
 73
     2
 40
0.25
 49
0.0
 49
-0.25
  0
LTYPE
  2
POINTILLE2
 70
     0
  3
...............................................
 72
    65
 73
     2
 40
0.125
 49
0.0
 49
-0.125
  0
LTYPE
  2
POINTILLEX2
 70
     0
  3
.  .  .  .  .  .  .  .  .  .  .  .  .  .  .  . 
 72
    65
 73
     2
 40
0.5
 49
0.0
 49
-0.5
  0
LTYPE
  2
CACHE
 70
     0
  3
__ __ __ __ __ __ __ __ __ __ __ __ __ __ __ __
 72
    65
 73
     2
 40
0.375
 49
0.25
 49
-0.125
  0
LTYPE
  2
CACHE2
 70
     0
  3
_ _ _ _ _ _ _ _ _ _ _ _ _ _ _ _ _ _ _ _ _ _ _ _
 72
    65
 73
     2
 40
0.1875
 49
0.125
 49
-0.0625
  0
LTYPE
  2
CACHEX2
 70
     0
  3
____ ____ ____ ____ ____ ____ ____ ____ ____ __
 72
    65
 73
     2
 40
0.75
 49
0.5
 49
-0.25
  0
LTYPE
  2
FANTOME
 70
     0
  3
______  __  __  ______  __  __  ______  __  __ 
 72
    65
 73
     6
 40
2.5
 49
1.25
 49
-0.25
 49
0.25
 49
-0.25
 49
0.25
 49
-0.25
  0
LTYPE
  2
FANTOME2
 70
     0
  3
___ _ _ ___ _ _ ___ _ _ ___ _ _ ___ _ _ ___ _ _
 72
    65
 73
     6
 40
1.25
 49
0.625
 49
-0.125
 49
0.125
 49
-0.125
 49
0.125
 49
-0.125
  0
LTYPE
  2
FANTOMEX2
 70
     0
  3
____________    ____    ____    ____________   
 72
    65
 73
     6
 40
5.0
 49
2.5
 49
-0.5
 49
0.5
 49
-0.5
 49
0.5
 49
-0.5
  0
LTYPE
  2
0
 70
     0
  3
MEDUSA PEN 0
 72
    65
 73
     0
 40
0.0
  0
ENDTAB
  0
TABLE
  2
LAYER
 70
    17
  0
LAYER
  2
0
 70
     0
 62
     7
  6
CONTINUOUS
  0
LAYER
  2
TEXTE_MOYEN
 70
     0
 62
   131
  6
CONTINUOUS
  0
LAYER
  2
ALPHA
 70
     0
 62
   254
  6
CONTINUOUS
  0
LAYER
  2
COTATION1
 70
     0
 62
    50
  6
CONTINUOUS
  0
LAYER
  2
AXE
 70
     0
 62
    80
  6
AXES2
  0
LAYER
  2
DEFPOINTS
 70
     0
 62
     7
  6
CONTINUOUS
  0
LAYER
  2
HACHURES1
 70
     0
 62
   130
  6
CONTINUOUS
  0
LAYER
  2
FMULT
 70
     0
 62
   210
  6
CONTINUOUS
  0
LAYER
  2
FDP_CARTOUCHE
 70
     0
 62
   136
  6
CONTINUOUS
  0
LAYER
  2
FDP_TEXTES
 70
     0
 62
   171
  6
CONTINUOUS
  0
LAYER
  2
FDP_LOGO_MG
 70
     0
 62
    30
  6
CONTINUOUS
  0
LAYER
  2
FDP_LOGO_SCH
 70
     0
 62
    90
  6
CONTINUOUS
  0
LAYER
  2
FDP_FDP
 70
     0
 62
   170
  6
CONTINUOUS
  0
LAYER
  2
POINTILLE_COURT2
 70
     0
 62
    41
  6
CACHE2
  0
LAYER
  2
POINTILLE_MOYEN2
 70
     0
 62
   141
  6
CACHE
  0
LAYER
  2
POINTILLE_LONG2
 70
     0
 62
   241
  6
CACHEX2
  0
LAYER
  2
ALPHA_FIN
 70
     0
 62
   255
  6
CONTINUOUS
  0
ENDTAB
  0
TABLE
  2
STYLE
 70
     5
  0
STYLE
  2
ROMANS
 70
     0
 40
0.0
 41
1.0
 50
0.0
 71
     0
 42
6.0
  3
romans
  4

  0
STYLE
  2
STANDARD
 70
     0
 40
0.2
 41
1.0
 50
0.0
 71
     0
 42
0.2
  3
txt
  4

  0
STYLE
  2
STD
 70
     0
 40
0.0
 41
1.0
 50
0.0
 71
     0
 42
0.0
  3
txt
  4

  0
STYLE
  2
INFOCAR
 70
     0
 40
0.0
 41
1.34
 50
0.0
 71
     0
 42
2.0
  3
ROMANS.SHX
  4

  0
STYLE
  2
CARTOUCHE
 70
     0
 40
0.0
 41
1.0
 50
0.0
 71
     0
 42
0.2
  3
ROMANS.SHX
  4

  0
ENDTAB
  0
TABLE
  2
VIEW
 70
     0
  0
ENDTAB
  0
TABLE
  2
UCS
 70
     0
  0
ENDTAB
  0
TABLE
  2
APPID
 70
     3
  0
APPID
  2
ACAD
 70
     0
  0
APPID
  2
AVE_RENDER
 70
     0
  0
APPID
  2
AVE_MATERIAL
 70
     0
  0
ENDTAB
  0
TABLE
  2
DIMSTYLE
 70
     2
  0
DIMSTYLE
  2
SC_DEFAUT
 70
     0
  3

  4

  5
OPEN30
  6

  7

 40
1.0
 41
2.0
 42
0.3
 43
0.1
 44
0.5
 45
0.0
 46
0.0
 47
0.0
 48
0.0
140
2.0
141
0.0
142
0.0
143
25.4
144
1.0
145
0.0
146
1.0
147
0.6
 71
     0
 72
     0
 73
     0
 74
     0
 75
     0
 76
     0
 77
     1
 78
    12
170
     0
171
     2
172
     0
173
     0
174
     0
175
     0
176
     0
177
     0
178
     0
  0
DIMSTYLE
  2
ROMANS
 70
     0
  3

  4

  5
OPEN30
  6

  7

 40
1.0
 41
2.0
 42
0.5
 43
0.38
 44
0.18
 45
0.0
 46
0.0
 47
0.0
 48
0.0
140
2.0
141
0.09
142
0.0
143
25.4
144
1.0
145
0.0
146
1.0
147
0.5
 71
     0
 72
     0
 73
     0
 74
     0
 75
     0
 76
     0
 77
     1
 78
    12
170
     0
171
     2
172
     0
173
     0
174
     0
175
     0
176
     0
177
     0
178
     0
  0
ENDTAB
  0
ENDSEC
  0
SECTION
  2
BLOCKS
  0
BLOCK
  8
0
  2
$MODEL_SPACE
 70
     0
 10
0.0
 20
0.0
 30
0.0
  3
$MODEL_SPACE
  1

  0
ENDBLK
  5
46FA
  8
0
  0
BLOCK
 67
     1
  8
0
  2
$PAPER_SPACE
 70
     0
 10
0.0
 20
0.0
 30
0.0
  3
$PAPER_SPACE
  1

  0
ENDBLK
  5
46F8
 67
     1
  8
0
  0
BLOCK
  8
0
  2
COTE
 70
     0
 10
0.0
 20
0.0
 30
0.0
  3
COTE
  1

  0
ENDBLK
  5
35
  8
0
  0
BLOCK
  8
0
  2
FOND
 70
     0
 10
0.0
 20
0.0
 30
0.0
  3
FOND
  1

  0
ENDBLK
  5
39
  8
0
  0
BLOCK
  8
0
  2
SCH_ISO
 70
     0
 10
0.0
 20
0.0
 30
0.0
  3
SCH_ISO
  1

  0
ENDBLK
  5
24AD
  8
0
  0
BLOCK
  8
0
  2
_OPEN30
 70
     0
 10
0.0
 20
0.0
 30
0.0
  3
_OPEN30
  1

  0
LINE
  5
27E1
  8
COTATION1
 62
     0
 10
-1.0
 20
0.267949
 30
0.0
 11
0.0
 21
0.0
 31
0.0
1001
ACAD
1000
RTLwPs
1070
   158
  0
LINE
  5
27E2
  8
COTATION1
 62
     0
 10
0.0
 20
0.0
 30
0.0
 11
-1.0
 21
-0.267949
 31
0.0
1001
ACAD
1000
RTLwPs
1070
   158
  0
LINE
  5
27E3
  8
COTATION1
 62
     0
 10
0.0
 20
0.0
 30
0.0
 11
-1.0
 21
0.0
 31
0.0
1001
ACAD
1000
RTLwPs
1070
   158
  0
ENDBLK
  5
27E5
  8
0
  0
BLOCK
  8
0
  2
*D4
 70
     1
 10
0.0
 20
0.0
 30
0.0
  3
*D4
  1

  0
LINE
  5
4616
  8
COTATION1
 62
     0
 10
750.332515
 20
-112.978076
 30
0.0
 11
732.132515
 21
-112.978076
 31
0.0
1001
ACAD
1000
RTLwPs
1070
   158
  0
LINE
  5
4617
  8
COTATION1
 62
     0
 10
750.332515
 20
-117.978076
 30
0.0
 11
732.132515
 21
-117.978076
 31
0.0
1001
ACAD
1000
RTLwPs
1070
   158
  0
LINE
  5
4618
  8
COTATION1
 62
     0
 10
732.632515
 20
-110.978076
 30
0.0
 11
732.632515
 21
-108.978076
 31
0.0
1001
ACAD
1000
RTLwPs
1070
   158
  0
LINE
  5
4619
  8
COTATION1
 62
     0
 10
732.632515
 20
-119.978076
 30
0.0
 11
732.632515
 21
-121.978076
 31
0.0
1001
ACAD
1000
RTLwPs
1070
   158
  0
INSERT
  5
461A
  8
COTATION1
 62
     0
  2
_OPEN30
 10
732.632515
 20
-112.978076
 30
0.0
 41
2.0
 42
2.0
 43
2.0
 50
270.0
1001
ACAD
1000
RTLwPs
1070
   158
  0
INSERT
  5
461B
  8
COTATION1
 62
     0
  2
_OPEN30
 10
732.632515
 20
-117.978076
 30
0.0
 41
2.0
 42
2.0
 43
2.0
 50
90.0
1001
ACAD
1000
RTLwPs
1070
   158
  0
TEXT
  5
461C
  8
COTATION1
 62
     0
 10
732.032515
 20
-117.478076
 30
0.0
 40
2.0
  1
Ø5
 50
90.0
1001
ACAD
1000
MTEXTBEGIN
1070
    73
1070
     1
1070
    44
1040
1.0
1070
    74
1070
     0
1000
MTEXTEND
  0
POINT
  5
461D
  8
DEFPOINTS
 62
     0
 10
750.632515
 20
-112.978076
 30
0.0
  0
POINT
  5
461E
  8
DEFPOINTS
 62
     0
 10
750.632515
 20
-117.978076
 30
0.0
  0
POINT
  5
461F
  8
DEFPOINTS
 62
     0
 10
732.632515
 20
-117.978076
 30
0.0
  0
ENDBLK
  5
4492
  8
0
  0
BLOCK
  8
0
  2
*D5
 70
     1
 10
0.0
 20
0.0
 30
0.0
  3
*D5
  1

  0
LINE
  5
460C
  8
COTATION1
 62
     0
 10
747.332515
 20
-113.228076
 30
0.0
 11
737.132515
 21
-113.228076
 31
0.0
1001
ACAD
1000
RTLwPs
1070
   158
  0
LINE
  5
460D
  8
COTATION1
 62
     0
 10
747.332515
 20
-117.728076
 30
0.0
 11
737.132515
 21
-117.728076
 31
0.0
1001
ACAD
1000
RTLwPs
1070
   158
  0
LINE
  5
460E
  8
COTATION1
 62
     0
 10
737.632515
 20
-111.228076
 30
0.0
 11
737.632515
 21
-109.228076
 31
0.0
1001
ACAD
1000
RTLwPs
1070
   158
  0
LINE
  5
460F
  8
COTATION1
 62
     0
 10
737.632515
 20
-119.728076
 30
0.0
 11
737.632515
 21
-129.213791
 31
0.0
1001
ACAD
1000
RTLwPs
1070
   158
  0
INSERT
  5
4610
  8
COTATION1
 62
     0
  2
_OPEN30
 10
737.632515
 20
-113.228076
 30
0.0
 41
2.0
 42
2.0
 43
2.0
 50
270.0
1001
ACAD
1000
RTLwPs
1070
   158
  0
INSERT
  5
4611
  8
COTATION1
 62
     0
  2
_OPEN30
 10
737.632515
 20
-117.728076
 30
0.0
 41
2.0
 42
2.0
 43
2.0
 50
90.0
1001
ACAD
1000
RTLwPs
1070
   158
  0
TEXT
  5
4612
  8
COTATION1
 62
     0
 10
737.032515
 20
-128.899505
 30
0.0
 40
2.0
  1
Ø4.5
 50
90.0
1001
ACAD
1000
MTEXTBEGIN
1070
    73
1070
     1
1070
    44
1040
1.0
1070
    74
1070
     0
1000
MTEXTEND
  0
POINT
  5
4613
  8
DEFPOINTS
 62
     0
 10
747.632515
 20
-113.228076
 30
0.0
  0
POINT
  5
4614
  8
DEFPOINTS
 62
     0
 10
747.632515
 20
-117.728076
 30
0.0
  0
POINT
  5
4615
  8
DEFPOINTS
 62
     0
 10
737.632515
 20
-117.728076
 30
0.0
  0
ENDBLK
  5
44AA
  8
0
  0
BLOCK
  8
0
  2
*D6
 70
     1
 10
0.0
 20
0.0
 30
0.0
  3
*D6
  1

  0
LINE
  5
45C6
  8
COTATION1
 62
     0
 10
750.632515
 20
-118.028076
 30
0.0
 11
750.632515
 21
-128.478076
 31
0.0
1001
ACAD
1000
RTLwPs
1070
   158
  0
LINE
  5
45C7
  8
COTATION1
 62
     0
 10
747.632515
 20
-118.028076
 30
0.0
 11
747.632515
 21
-128.478076
 31
0.0
1001
ACAD
1000
RTLwPs
1070
   158
  0
LINE
  5
45C8
  8
COTATION1
 62
     0
 10
752.632515
 20
-127.978076
 30
0.0
 11
754.632515
 21
-127.978076
 31
0.0
1001
ACAD
1000
RTLwPs
1070
   158
  0
LINE
  5
45C9
  8
COTATION1
 62
     0
 10
745.632515
 20
-127.978076
 30
0.0
 11
743.632515
 21
-127.978076
 31
0.0
1001
ACAD
1000
RTLwPs
1070
   158
  0
INSERT
  5
45CA
  8
COTATION1
 62
     0
  2
_OPEN30
 10
750.632515
 20
-127.978076
 30
0.0
 41
2.0
 42
2.0
 43
2.0
 50
180.0
1001
ACAD
1000
RTLwPs
1070
   158
  0
INSERT
  5
45CB
  8
COTATION1
 62
     0
  2
_OPEN30
 10
747.632515
 20
-127.978076
 30
0.0
 41
2.0
 42
2.0
 43
2.0
1001
ACAD
1000
RTLwPs
1070
   158
  0
TEXT
  5
45CC
  8
COTATION1
 62
     0
 10
748.180134
 20
-127.378076
 30
0.0
 40
2.0
  1
3
1001
ACAD
1000
MTEXTBEGIN
1070
    73
1070
     1
1070
    44
1040
1.0
1070
    74
1070
     0
1000
MTEXTEND
  0
POINT
  5
45CD
  8
DEFPOINTS
 62
     0
 10
750.632515
 20
-117.728076
 30
0.0
  0
POINT
  5
45CE
  8
DEFPOINTS
 62
     0
 10
747.632515
 20
-117.728076
 30
0.0
  0
POINT
  5
45CF
  8
DEFPOINTS
 62
     0
 10
747.632515
 20
-127.978076
 30
0.0
  0
ENDBLK
  5
44C2
  8
0
  0
BLOCK
  8
0
  2
*D7
 70
     1
 10
0.0
 20
0.0
 30
0.0
  3
*D7
  1

  0
LINE
  5
45F4
  8
COTATION1
 62
     0
 10
747.632515
 20
-118.028076
 30
0.0
 11
747.632515
 21
-138.478076
 31
0.0
1001
ACAD
1000
RTLwPs
1070
   158
  0
LINE
  5
45F5
  8
COTATION1
 62
     0
 10
757.632515
 20
-118.278076
 30
0.0
 11
757.632515
 21
-138.478076
 31
0.0
1001
ACAD
1000
RTLwPs
1070
   158
  0
LINE
  5
45F6
  8
COTATION1
 62
     0
 10
749.632515
 20
-137.978076
 30
0.0
 11
755.632515
 21
-137.978076
 31
0.0
1001
ACAD
1000
RTLwPs
1070
   158
  0
INSERT
  5
45F7
  8
COTATION1
 62
     0
  2
_OPEN30
 10
747.632515
 20
-137.978076
 30
0.0
 41
2.0
 42
2.0
 43
2.0
 50
180.0
1001
ACAD
1000
RTLwPs
1070
   158
  0
INSERT
  5
45F8
  8
COTATION1
 62
     0
  2
_OPEN30
 10
757.632515
 20
-137.978076
 30
0.0
 41
2.0
 42
2.0
 43
2.0
1001
ACAD
1000
RTLwPs
1070
   158
  0
TEXT
  5
45F9
  8
COTATION1
 62
     0
 10
750.584896
 20
-137.378076
 30
0.0
 40
2.0
  1
10
1001
ACAD
1000
MTEXTBEGIN
1070
    73
1070
     1
1070
    44
1040
1.0
1070
    74
1070
     0
1000
MTEXTEND
  0
POINT
  5
45FA
  8
DEFPOINTS
 62
     0
 10
747.632515
 20
-117.728076
 30
0.0
  0
POINT
  5
45FB
  8
DEFPOINTS
 62
     0
 10
757.632515
 20
-117.978076
 30
0.0
  0
POINT
  5
45FC
  8
DEFPOINTS
 62
     0
 10
757.632515
 20
-137.978076
 30
0.0
  0
ENDBLK
  5
44CF
  8
0
  0
BLOCK
  8
0
  2
*D8
 70
     1
 10
0.0
 20
0.0
 30
0.0
  3
*D8
  1

  0
LINE
  5
45AE
  8
COTATION1
 62
     0
 10
757.932515
 20
-114.178076
 30
0.0
 11
762.261273
 21
-114.178076
 31
0.0
1001
ACAD
1000
RTLwPs
1070
   158
  0
LINE
  5
45AF
  8
COTATION1
 62
     0
 10
757.932515
 20
-116.778076
 30
0.0
 11
762.261273
 21
-116.778076
 31
0.0
1001
ACAD
1000
RTLwPs
1070
   158
  0
LINE
  5
45B0
  8
COTATION1
 62
     0
 10
761.761273
 20
-112.178076
 30
0.0
 11
761.761273
 21
-110.178076
 31
0.0
1001
ACAD
1000
RTLwPs
1070
   158
  0
LINE
  5
45B1
  8
COTATION1
 62
     0
 10
761.761273
 20
-118.778076
 30
0.0
 11
761.761273
 21
-128.359029
 31
0.0
1001
ACAD
1000
RTLwPs
1070
   158
  0
INSERT
  5
45B2
  8
COTATION1
 62
     0
  2
_OPEN30
 10
761.761273
 20
-114.178076
 30
0.0
 41
2.0
 42
2.0
 43
2.0
 50
270.0
1001
ACAD
1000
RTLwPs
1070
   158
  0
INSERT
  5
45B3
  8
COTATION1
 62
     0
  2
_OPEN30
 10
761.761273
 20
-116.778076
 30
0.0
 41
2.0
 42
2.0
 43
2.0
 50
90.0
1001
ACAD
1000
RTLwPs
1070
   158
  0
TEXT
  5
45B4
  8
COTATION1
 62
     0
 10
761.161273
 20
-128.139981
 30
0.0
 40
2.0
  1
M2.6
 50
90.0
1001
ACAD
1000
MTEXTBEGIN
1070
    73
1070
     1
1070
    44
1040
1.0
1070
    74
1070
     0
1000
MTEXTEND
  0
POINT
  5
45B5
  8
DEFPOINTS
 62
     0
 10
757.632515
 20
-114.178076
 30
0.0
  0
POINT
  5
45B6
  8
DEFPOINTS
 62
     0
 10
757.632515
 20
-116.778076
 30
0.0
  0
POINT
  5
45B7
  8
DEFPOINTS
 62
     0
 10
761.761273
 20
-116.778076
 30
0.0
  0
ENDBLK
  5
450D
  8
0
  0
ENDSEC
  0
SECTION
  2
ENTITIES
  0
INSERT
  5
32
  8
0
  2
COTE
 10
0.0
 20
0.0
 30
0.0
  0
INSERT
  5
36
  8
0
  2
FOND
 10
0.0
 20
0.0
 30
0.0
  0
INSERT
  5
24AE
  8
ALPHA
  2
SCH_ISO
 10
-66.27012
 20
-238.940658
 30
0.0
  0
TEXT
  5
2C8F
  8
AXE
 10
746.221294
 20
-148.996747
 30
0.0
 40
8.0
  1
Y
 72
     2
 11
752.697484
 21
-148.996747
 31
0.0
  0
LINE
  5
3C69
  8
AXE
 10
754.132515
 20
-148.856577
 30
0.0
 11
754.132515
 21
-107.978076
 31
0.0
  0
TEXT
  5
415C
  8
AXE
 10
766.082896
 20
-114.101094
 30
0.0
 40
8.0
  1
X
 72
     2
 11
772.559087
 21
-114.101094
 31
0.0
  0
LINE
  5
4327
  8
AXE
 10
742.632515
 20
-115.478076
 30
0.0
 11
772.632515
 21
-115.478076
 31
0.0
  0
POLYLINE
  5
4482
  8
ALPHA
 66
     1
 10
0.0
 20
0.0
 30
0.0
 70
     1
  0
VERTEX
  5
4700
  8
ALPHA
 10
750.632515
 20
-117.978076
 30
0.0
  0
VERTEX
  5
4701
  8
ALPHA
 10
757.632515
 20
-117.978076
 30
0.0
  0
VERTEX
  5
4702
  8
ALPHA
 10
757.632515
 20
-112.978076
 30
0.0
  0
VERTEX
  5
4703
  8
ALPHA
 10
750.632515
 20
-112.978076
 30
0.0
  0
SEQEND
  5
4704
  8
ALPHA
  0
POLYLINE
  5
4483
  8
ALPHA
 66
     1
 10
0.0
 20
0.0
 30
0.0
 70
     1
  0
VERTEX
  5
4705
  8
ALPHA
 10
747.632515
 20
-117.728076
 30
0.0
  0
VERTEX
  5
4706
  8
ALPHA
 10
750.632515
 20
-117.728076
 30
0.0
  0
VERTEX
  5
4707
  8
ALPHA
 10
750.632515
 20
-113.228076
 30
0.0
  0
VERTEX
  5
4708
  8
ALPHA
 10
747.632515
 20
-113.228076
 30
0.0
  0
SEQEND
  5
4709
  8
ALPHA
  0
POLYLINE
  5
4484
  8
POINTILLE_COURT2
 66
     1
 10
0.0
 20
0.0
 30
0.0
 70
     1
  0
VERTEX
  5
470A
  8
POINTILLE_COURT2
 10
752.632515
 20
-116.778076
 30
0.0
  0
VERTEX
  5
470B
  8
POINTILLE_COURT2
 10
757.632515
 20
-116.778076
 30
0.0
  0
VERTEX
  5
470C
  8
POINTILLE_COURT2
 10
757.632515
 20
-114.178076
 30
0.0
  0
VERTEX
  5
470D
  8
POINTILLE_COURT2
 10
752.632515
 20
-114.178076
 30
0.0
  0
SEQEND
  5
470E
  8
POINTILLE_COURT2
  0
DIMENSION
  5
4485
  8
COTATION1
  2
*D4
 10
732.632515
 20
-117.978076
 30
0.0
 11
731.032515
 21
-115.478076
 31
0.0
  1
Ø<>
 13
750.632515
 23
-112.978076
 33
0.0
 14
750.632515
 24
-117.978076
 34
0.0
 50
90.0
  0
DIMENSION
  5
449D
  8
COTATION1
  2
*D5
 10
737.632515
 20
-117.728076
 30
0.0
 11
736.032515
 21
-125.470934
 31
0.0
  1
Ø<>
 13
747.632515
 23
-113.228076
 33
0.0
 14
747.632515
 24
-117.728076
 34
0.0
 50
90.0
  0
DIMENSION
  5
44B5
  8
COTATION1
  2
*D6
 10
747.632515
 20
-127.978076
 30
0.0
 11
749.132515
 21
-126.378076
 31
0.0
 13
750.632515
 23
-117.728076
 33
0.0
 14
747.632515
 24
-117.728076
 34
0.0
  0
DIMENSION
  5
44C3
  8
COTATION1
  2
*D7
 10
757.632515
 20
-137.978076
 30
0.0
 11
752.632515
 21
-136.378076
 31
0.0
 13
747.632515
 23
-117.728076
 33
0.0
 14
757.632515
 24
-117.978076
 34
0.0
  0
DIMENSION
  5
4500
  8
COTATION1
  2
*D8
 10
761.761273
 20
-116.778076
 30
0.0
 11
760.161273
 21
-124.568553
 31
0.0
  1
M<>
 13
757.632515
 23
-114.178076
 33
0.0
 14
757.632515
 24
-116.778076
 34
0.0
 50
90.0
  0
LINE
  5
45A2
  8
COTATION1
 10
757.632515
 20
-117.978076
 30
0.0
 11
757.632515
 21
-129.565353
 31
0.0
  0
ENDSEC
  0
EOF
