  0
SECTION
  2
HEADER
  9
$ACADVER
  1
AC1014
  9
$ACADMAINTVER
 70
     0
  9
$DWGCODEPAGE
  3
ANSI_1252
  9
$INSBASE
 10
93.894301
 20
236.06014
 30
0.0
  9
$EXTMIN
 10
0.137334
 20
0.127678
 30
0.0
  9
$EXTMAX
 10
58.381176
 20
57.699319
 30
0.0
  9
$LIMMIN
 10
0.0
 20
0.0
  9
$LIMMAX
 10
210.0
 20
297.0
  9
$ORTHOMODE
 70
     0
  9
$REGENMODE
 70
     1
  9
$FILLMODE
 70
     1
  9
$QTEXTMODE
 70
     0
  9
$MIRRTEXT
 70
     0
  9
$DRAGMODE
 70
     1
  9
$LTSCALE
 40
7.0
  9
$OSMODE
 70
  4095
  9
$ATTMODE
 70
     1
  9
$TEXTSIZE
 40
2.5
  9
$TRACEWID
 40
0.05
  9
$TEXTSTYLE
  7
STANDARD
  9
$CLAYER
  8
COTATION1
  9
$CELTYPE
  6
BYLAYER
  9
$CECOLOR
 62
   256
  9
$CELTSCALE
 40
1.0
  9
$DELOBJ
 70
     1
  9
$DISPSILH
 70
     0
  9
$DIMSCALE
 40
1.0
  9
$DIMASZ
 40
3.0
  9
$DIMEXO
 40
0.0625
  9
$DIMDLI
 40
0.38
  9
$DIMRND
 40
0.01
  9
$DIMDLE
 40
0.0
  9
$DIMEXE
 40
0.18
  9
$DIMTP
 40
0.0
  9
$DIMTM
 40
0.0
  9
$DIMTXT
 40
2.5
  9
$DIMCEN
 40
0.09
  9
$DIMTSZ
 40
0.0
  9
$DIMTOL
 70
     0
  9
$DIMLIM
 70
     0
  9
$DIMTIH
 70
     0
  9
$DIMTOH
 70
     0
  9
$DIMSE1
 70
     0
  9
$DIMSE2
 70
     0
  9
$DIMTAD
 70
     1
  9
$DIMZIN
 70
    12
  9
$DIMBLK
  1

  9
$DIMASO
 70
     1
  9
$DIMSHO
 70
     0
  9
$DIMPOST
  1

  9
$DIMAPOST
  1

  9
$DIMALT
 70
     0
  9
$DIMALTD
 70
     2
  9
$DIMALTF
 40
25.4
  9
$DIMLFAC
 40
1.0
  9
$DIMTOFL
 70
     1
  9
$DIMTVP
 40
0.0
  9
$DIMTIX
 70
     0
  9
$DIMSOXD
 70
     0
  9
$DIMSAH
 70
     0
  9
$DIMBLK1
  1

  9
$DIMBLK2
  1

  9
$DIMSTYLE
  2
SC_STAND
  9
$DIMCLRD
 70
     0
  9
$DIMCLRE
 70
     0
  9
$DIMCLRT
 70
     0
  9
$DIMTFAC
 40
1.0
  9
$DIMGAP
 40
1.0
  9
$DIMJUST
 70
     0
  9
$DIMSD1
 70
     0
  9
$DIMSD2
 70
     0
  9
$DIMTOLJ
 70
     1
  9
$DIMTZIN
 70
    12
  9
$DIMALTZ
 70
    12
  9
$DIMALTTZ
 70
    12
  9
$DIMFIT
 70
     5
  9
$DIMUPT
 70
     0
  9
$DIMUNIT
 70
     2
  9
$DIMDEC
 70
     3
  9
$DIMTDEC
 70
     3
  9
$DIMALTU
 70
     2
  9
$DIMALTTD
 70
     2
  9
$DIMTXSTY
  7
STANDARD
  9
$DIMAUNIT
 70
     0
  9
$LUNITS
 70
     2
  9
$LUPREC
 70
     3
  9
$SKETCHINC
 40
0.1
  9
$FILLETRAD
 40
0.0625
  9
$AUNITS
 70
     0
  9
$AUPREC
 70
     0
  9
$MENU
  1
ACAD
  9
$ELEVATION
 40
0.0
  9
$PELEVATION
 40
0.0
  9
$THICKNESS
 40
0.0
  9
$LIMCHECK
 70
     0
  9
$BLIPMODE
 70
     1
  9
$CHAMFERA
 40
0.0
  9
$CHAMFERB
 40
0.0
  9
$CHAMFERC
 40
0.0
  9
$CHAMFERD
 40
0.0
  9
$SKPOLY
 70
     0
  9
$TDCREATE
 40
2450953.590960648
  9
$TDUPDATE
 40
2453721.502778958
  9
$TDINDWG
 40
0.0126482060
  9
$TDUSRTIMER
 40
0.0126482060
  9
$USRTIMER
 70
     1
  9
$ANGBASE
 50
0.0
  9
$ANGDIR
 70
     0
  9
$PDMODE
 70
     0
  9
$PDSIZE
 40
0.0
  9
$PLINEWID
 40
0.0
  9
$COORDS
 70
     0
  9
$SPLFRAME
 70
     0
  9
$SPLINETYPE
 70
     6
  9
$SPLINESEGS
 70
     8
  9
$ATTDIA
 70
     0
  9
$ATTREQ
 70
     1
  9
$HANDLING
 70
     1
  9
$HANDSEED
  5
238C
  9
$SURFTAB1
 70
     6
  9
$SURFTAB2
 70
     6
  9
$SURFTYPE
 70
     6
  9
$SURFU
 70
     6
  9
$SURFV
 70
     6
  9
$UCSNAME
  2

  9
$UCSORG
 10
0.0
 20
0.0
 30
0.0
  9
$UCSXDIR
 10
1.0
 20
0.0
 30
0.0
  9
$UCSYDIR
 10
0.0
 20
1.0
 30
0.0
  9
$PUCSNAME
  2

  9
$PUCSORG
 10
0.0
 20
0.0
 30
0.0
  9
$PUCSXDIR
 10
1.0
 20
0.0
 30
0.0
  9
$PUCSYDIR
 10
0.0
 20
1.0
 30
0.0
  9
$USERI1
 70
     0
  9
$USERI2
 70
     0
  9
$USERI3
 70
     0
  9
$USERI4
 70
     0
  9
$USERI5
 70
     0
  9
$USERR1
 40
0.0
  9
$USERR2
 40
0.0
  9
$USERR3
 40
0.0
  9
$USERR4
 40
0.0
  9
$USERR5
 40
0.0
  9
$WORLDVIEW
 70
     1
  9
$SHADEDGE
 70
     3
  9
$SHADEDIF
 70
    70
  9
$TILEMODE
 70
     1
  9
$MAXACTVP
 70
    32
  9
$PINSBASE
 10
0.0
 20
0.0
 30
0.0
  9
$PLIMCHECK
 70
     0
  9
$PEXTMIN
 10
-3.174999
 20
-3.175
 30
0.0
  9
$PEXTMAX
 10
203.812116
 20
370.276807
 30
0.0
  9
$PLIMMIN
 10
-3.175
 20
-3.175
  9
$PLIMMAX
 10
203.812115
 20
370.276807
  9
$UNITMODE
 70
     0
  9
$VISRETAIN
 70
     0
  9
$PLINEGEN
 70
     0
  9
$PSLTSCALE
 70
     1
  9
$TREEDEPTH
 70
  3020
  9
$PICKSTYLE
 70
     1
  9
$CMLSTYLE
  2
STANDARD
  9
$CMLJUST
 70
     0
  9
$CMLSCALE
 40
1.0
  9
$PROXYGRAPHICS
 70
     1
  9
$MEASUREMENT
 70
     0
  0
ENDSEC
  0
SECTION
  2
CLASSES
  0
CLASS
  1
DICTIONARYVAR
  2
AcDbDictionaryVar
  3
"AutoCAD"
 90
        0
280
     0
281
     0
  0
CLASS
  1
HATCH
  2
AcDbHatch
  3
"ACAD_SEDONA"
 90
        0
280
     0
281
     1
  0
ENDSEC
  0
SECTION
  2
TABLES
  0
TABLE
  2
VPORT
  5
F4
100
AcDbSymbolTable
 70
     3
  0
VPORT
  5
238B
100
AcDbSymbolTableRecord
100
AcDbViewportTableRecord
  2
*ACTIVE
 70
     0
 10
0.0
 20
0.0
 11
1.0
 21
1.0
 12
29.257279
 22
28.915536
 13
0.0
 23
0.0
 14
1.0
 24
1.0
 15
10.0
 25
10.0
 16
0.0
 26
0.0
 36
1.0
 17
0.0
 27
0.0
 37
0.0
 40
58.027695
 41
1.643603
 42
50.0
 43
0.0
 44
0.0
 50
0.0
 51
0.0
 71
     0
 72
   100
 73
     1
 74
     1
 75
     0
 76
     1
 77
     0
 78
     0
  0
ENDTAB
  0
TABLE
  2
LTYPE
  5
F1
100
AcDbSymbolTable
 70
     5
  0
LTYPE
  5
FD
100
AcDbSymbolTableRecord
100
AcDbLinetypeTableRecord
  2
BYBLOCK
 70
     0
  3

 72
    65
 73
     0
 40
0.0
  0
LTYPE
  5
FE
100
AcDbSymbolTableRecord
100
AcDbLinetypeTableRecord
  2
BYLAYER
 70
     0
  3

 72
    65
 73
     0
 40
0.0
  0
LTYPE
  5
FF
100
AcDbSymbolTableRecord
100
AcDbLinetypeTableRecord
  2
CONTINUOUS
 70
     0
  3
Solid line
 72
    65
 73
     0
 40
0.0
  0
ENDTAB
  0
TABLE
  2
LAYER
  5
EE
100
AcDbSymbolTable
 70
     5
  0
LAYER
  5
FA
100
AcDbSymbolTableRecord
100
AcDbLayerTableRecord
  2
0
 70
     0
 62
     7
  6
CONTINUOUS
  0
LAYER
  5
12C
100
AcDbSymbolTableRecord
100
AcDbLayerTableRecord
  2
ALPHA
 70
     0
 62
   255
  6
CONTINUOUS
  0
LAYER
  5
12F
100
AcDbSymbolTableRecord
100
AcDbLayerTableRecord
  2
COTATION1
 70
     0
 62
     2
  6
CONTINUOUS
  0
LAYER
  5
13B
100
AcDbSymbolTableRecord
100
AcDbLayerTableRecord
  2
ASHADE
 70
     0
 62
     7
  6
CONTINUOUS
  0
LAYER
  5
13E
100
AcDbSymbolTableRecord
100
AcDbLayerTableRecord
  2
DEFPOINTS
 70
     0
 62
     7
  6
CONTINUOUS
  0
ENDTAB
  0
TABLE
  2
STYLE
  5
EF
100
AcDbSymbolTable
 70
     2
  0
STYLE
  5
FB
100
AcDbSymbolTableRecord
100
AcDbTextStyleTableRecord
  2
STANDARD
 70
     0
 40
0.0
 41
1.0
 50
0.0
 71
     0
 42
2.5
  3
txt
  4

  0
ENDTAB
  0
TABLE
  2
VIEW
  5
F2
100
AcDbSymbolTable
 70
     0
  0
ENDTAB
  0
TABLE
  2
UCS
  5
F3
100
AcDbSymbolTable
 70
     0
  0
ENDTAB
  0
TABLE
  2
APPID
  5
F5
100
AcDbSymbolTable
 70
     3
  0
APPID
  5
FC
100
AcDbSymbolTableRecord
100
AcDbRegAppTableRecord
  2
ACAD
 70
     0
  0
APPID
  5
127
100
AcDbSymbolTableRecord
100
AcDbRegAppTableRecord
  2
AVE_RENDER
 70
     0
  0
APPID
  5
128
100
AcDbSymbolTableRecord
100
AcDbRegAppTableRecord
  2
AVE_MATERIAL
 70
     0
  0
ENDTAB
  0
TABLE
  2
DIMSTYLE
  5
F6
100
AcDbSymbolTable
 70
     2
  0
DIMSTYLE
105
129
100
AcDbSymbolTableRecord
100
AcDbDimStyleTableRecord
  2
STANDARD
 70
     0
  3

  4

  5

  6

  7

 40
1.0
 41
0.18
 42
0.0625
 43
0.38
 44
0.18
 45
0.0
 46
0.0
 47
0.0
 48
0.0
140
0.18
141
0.09
142
0.0
143
25.4
144
1.0
145
0.0
146
1.0
147
0.09
 71
     0
 72
     0
 73
     1
 74
     1
 75
     0
 76
     0
 77
     0
 78
     0
170
     0
171
     2
172
     0
173
     0
174
     0
175
     0
176
     0
177
     0
178
     0
270
     2
271
     3
272
     3
273
     2
274
     2
340
FB
275
     0
280
     0
281
     0
282
     0
283
     1
284
    12
285
    12
286
    12
287
     5
288
     0
  0
DIMSTYLE
105
12A
102
{ACAD_REACTORS
330
235A
330
2372
330
237F
102
}
100
AcDbSymbolTableRecord
100
AcDbDimStyleTableRecord
  2
SC_STAND
 70
     0
  3

  4

  5

  6

  7

 40
1.0
 41
3.0
 42
0.0625
 43
0.38
 44
0.18
 45
0.01
 46
0.0
 47
0.0
 48
0.0
140
2.5
141
0.09
142
0.0
143
25.4
144
1.0
145
0.0
146
1.0
147
1.0
 71
     0
 72
     0
 73
     0
 74
     0
 75
     0
 76
     0
 77
     1
 78
    12
170
     0
171
     2
172
     1
173
     0
174
     0
175
     0
176
     0
177
     0
178
     0
270
     2
271
     3
272
     3
273
     2
274
     2
340
FB
275
     0
280
     0
281
     0
282
     0
283
     1
284
    12
285
    12
286
    12
287
     5
288
     0
  0
ENDTAB
  0
TABLE
  2
BLOCK_RECORD
  5
ED
100
AcDbSymbolTable
 70
    10
  0
BLOCK_RECORD
  5
103
100
AcDbSymbolTableRecord
100
AcDbBlockTableRecord
  2
*MODEL_SPACE
  0
BLOCK_RECORD
  5
100
100
AcDbSymbolTableRecord
100
AcDbBlockTableRecord
  2
*PAPER_SPACE
  0
BLOCK_RECORD
  5
108
100
AcDbSymbolTableRecord
100
AcDbBlockTableRecord
  2
AVE_RENDER
  0
BLOCK_RECORD
  5
109
100
AcDbSymbolTableRecord
100
AcDbBlockTableRecord
  2
AVE_GLOBAL
  0
BLOCK_RECORD
  5
10A
100
AcDbSymbolTableRecord
100
AcDbBlockTableRecord
  2
SCH_IS
  0
BLOCK_RECORD
  5
234E
100
AcDbSymbolTableRecord
100
AcDbBlockTableRecord
  2
*D7
  0
BLOCK_RECORD
  5
2366
100
AcDbSymbolTableRecord
100
AcDbBlockTableRecord
  2
*D8
  0
BLOCK_RECORD
  5
2373
100
AcDbSymbolTableRecord
100
AcDbBlockTableRecord
  2
*D9
  0
ENDTAB
  0
ENDSEC
  0
SECTION
  2
BLOCKS
  0
BLOCK
  5
141
100
AcDbEntity
  8
0
100
AcDbBlockBegin
  2
*MODEL_SPACE
 70
     0
 10
0.0
 20
0.0
 30
0.0
  3
*MODEL_SPACE
  1

  0
ENDBLK
  5
142
100
AcDbEntity
  8
0
100
AcDbBlockEnd
  0
BLOCK
  5
13F
100
AcDbEntity
 67
     1
  8
0
100
AcDbBlockBegin
  2
*PAPER_SPACE
 70
     0
 10
0.0
 20
0.0
 30
0.0
  3
*PAPER_SPACE
  1

  0
ENDBLK
  5
140
100
AcDbEntity
 67
     1
  8
0
100
AcDbBlockEnd
  0
BLOCK
  5
8D
100
AcDbEntity
  8
0
100
AcDbBlockBegin
  2
AVE_RENDER
 70
     0
 10
0.0
 20
0.0
 30
0.0
  3
AVE_RENDER
  1
AVE_RENDER
  0
ENDBLK
  5
8E
100
AcDbEntity
  8
0
100
AcDbBlockEnd
  0
BLOCK
  5
90
100
AcDbEntity
  8
0
100
AcDbBlockBegin
  2
AVE_GLOBAL
 70
     0
 10
0.0
 20
0.0
 30
0.0
  3
AVE_GLOBAL
  1
AVE_GLOBAL
  0
ENDBLK
  5
91
100
AcDbEntity
  8
0
100
AcDbBlockEnd
  0
BLOCK
  5
C9
100
AcDbEntity
  8
0
100
AcDbBlockBegin
  2
SCH_IS
 70
     0
 10
0.0
 20
0.0
 30
0.0
  3
SCH_IS
  1

  0
INSERT
  5
C0
100
AcDbEntity
  8
ASHADE
 62
     1
100
AcDbBlockReference
  2
AVE_RENDER
 10
0.0
 20
0.0
 30
0.0
1001
AVE_RENDER
1002
{
1070
     6
1000
Pref
1070
    50
1070
    20
1070
     1
1070
     0
1000

1070
    10
1070
     1
1070
    30
1040
25.4
1070
     1
1040
0.3
1040
0.7
1040
0.0
1040
10.0
1010
-1.0
1020
-1.0
1030
-1.0
1040
0.3
1070
    49
1070
     0
1070
     0
1010
1.0
1020
1.0
1030
1.0
1040
45.0
1070
     1
1070
     0
1000
WCS
1040
0.0
1002
}
  0
INSERT
  5
C1
100
AcDbEntity
  8
ASHADE
 62
     3
100
AcDbBlockReference
  2
AVE_RENDER
 10
0.0
 20
0.0
 30
0.0
1001
AVE_RENDER
1002
{
1070
     0
1000
Full Opt
1070
     0
1070
     1
1070
     1
1070
     1
1070
     0
1070
     0
1070
     0
1070
     1
1070
     1
1040
0.0001
1040
0.0001
1002
}
  0
INSERT
  5
C2
100
AcDbEntity
  8
ASHADE
 62
     4
100
AcDbBlockReference
  2
AVE_RENDER
 10
0.0
 20
0.0
 30
0.0
1001
AVE_RENDER
1002
{
1070
     0
1000
Quick Opt
1070
     0
1070
     1
1070
     1
1070
     1
1070
     0
1070
     0
1070
     1
1002
}
  0
INSERT
  5
C3
100
AcDbEntity
  8
ASHADE
 62
     5
100
AcDbBlockReference
  2
AVE_RENDER
 10
0.0
 20
0.0
 30
0.0
1001
AVE_RENDER
1002
{
1070
     1
1000
Scanl Opt
1070
     2
1070
     0
1070
     2
1040
2.0
1040
4.0
1070
     0
1070
     1
1070
     0
1040
0.03
1002
}
  0
INSERT
  5
C4
100
AcDbEntity
  8
ASHADE
 62
     6
100
AcDbBlockReference
  2
AVE_RENDER
 10
0.0
 20
0.0
 30
0.0
1001
AVE_RENDER
1002
{
1070
     2
1000
Raytr Opt
1070
     2
1070
     0
1070
     2
1040
2.0
1040
4.0
1070
     0
1070
     1
1070
     1
1040
0.03
1070
     3
1040
0.03
1002
}
  0
INSERT
  5
C5
100
AcDbEntity
  8
ASHADE
 62
     7
100
AcDbBlockReference
  2
AVE_RENDER
 10
0.0
 20
0.0
 30
0.0
1001
AVE_RENDER
1002
{
1070
     0
1000
RFile Opt
1070
     5
1070
   640
1070
   480
1070
 10000
1070
     3
1070
    32
1070
    24
1070
     0
1070
     0
1070
     0
1070
     1
1070
     0
1070
     0
1070
     0
1002
}
  0
INSERT
  5
C6
100
AcDbEntity
  8
ASHADE
 62
     8
100
AcDbBlockReference
  2
AVE_RENDER
 10
0.0
 20
0.0
 30
0.0
1001
AVE_RENDER
1002
{
1070
     0
1000
Fog Opt
1070
     0
1070
     0
1040
0.0
1040
1.0
1040
0.0
1040
1.0
1010
0.5
1020
0.5
1030
0.5
1002
}
  0
INSERT
  5
C7
100
AcDbEntity
  8
ASHADE
 62
     9
100
AcDbBlockReference
  2
AVE_RENDER
 10
0.0
 20
0.0
 30
0.0
1001
AVE_RENDER
1002
{
1070
     0
1000
BG Opt
1070
     0
1070
     1
1010
0.0
1020
0.0
1030
0.0
1010
1.0
1020
0.0
1030
0.0
1010
0.0
1020
1.0
1030
0.0
1010
0.0
1020
0.0
1030
1.0
1040
0.5
1040
0.33
1040
0.0
1000

1070
     1
1000

1070
     1
1070
     1
1040
1.0
1040
1.0
1040
0.0
1040
0.0
1070
     0
1002
}
  0
INSERT
  5
C8
100
AcDbEntity
  8
ASHADE
 62
     1
100
AcDbBlockReference
  2
AVE_GLOBAL
 10
0.0
 20
0.0
 30
0.0
1001
AVE_MATERIAL
1002
{
1000
*GLOBAL*
1000
1
1000
Finition globale.
1002
{
1002
}
1002
{
1070
    63
1002
{
1002
{
1010
-1.0
1020
-1.0
1030
-1.0
1002
}
1040
0.1
1000

1040
0.0
1002
{
1002
}
1040
0.0
1002
{
1002
}
1040
0.0
1002
}
1002
{
1002
{
1010
-1.0
1020
-1.0
1030
-1.0
1002
}
1040
0.7
1000

1040
0.0
1002
{
1002
}
1040
0.0
1002
{
1002
}
1040
0.0
1002
}
1002
{
1002
{
1010
-1.0
1020
-1.0
1030
-1.0
1002
}
1040
0.2
1000

1040
0.0
1002
{
1002
}
1040
0.0
1002
{
1002
}
1040
0.0
1002
}
1002
{
1070
     0
1002
{
1070
     1
1002
{
1040
1.0
1040
1.0
1000

1040
0.0
1002
{
1002
}
1040
0.0
1002
{
1002
}
1040
0.0
1002
}
1002
}
1040
1.0
1040
0.0
1040
0.0
1002
}
1002
{
1040
1.0
1040
1.0
1000

1040
0.0
1002
{
1002
}
1040
0.0
1002
{
1002
}
1040
0.0
1002
}
1002
{
1040
0.5
1040
1.0
1000

1040
0.0
1002
{
1002
}
1040
0.0
1002
{
1002
}
1040
0.0
1002
}
1002
{
1070
     0
1040
0.0
1002
{
1002
}
1040
1.0
1002
{
1002
}
1040
0.0
1002
}
1002
{
1040
0.0
1002
{
1002
{
1010
0.0
1020
0.0
1030
0.0
1002
}
1040
1.0
1000

1040
0.0
1002
{
1002
}
1040
0.0
1002
{
1002
}
1040
0.0
1002
}
1002
}
1002
{
1002
{
1070
     1
1002
{
1040
0.0
1040
1.0
1000

1040
0.0
1002
{
1002
}
1040
0.0
1002
{
1002
}
1040
0.0
1002
}
1002
}
1040
0.0
1002
{
1002
}
1010
1.0
1020
0.0
1030
0.0
1010
0.0
1020
1.0
1030
0.0
1010
0.0
1020
0.0
1030
1.0
1070
     0
1002
}
1002
{
1002
{
1040
1.0
1040
1.0
1002
{
1070
     1
1002
{
1040
1.0
1040
1.0
1000

1040
0.0
1002
{
1002
}
1040
0.0
1002
{
1002
}
1040
0.0
1002
}
1002
}
1002
}
1070
     0
1040
0.0
1002
{
1002
}
1002
}
1002
{
1002
}
1002
}
1002
{
1071
        3
1070
     3
1070
     0
1002
{
1070
     2
1070
     0
1070
     0
1040
0.0
1002
}
1070
     0
1070
     2
1002
{
1002
}
1002
}
1002
{
1040
8030.0
1040
190.300003
1040
0.305
1040
228.0
1040
545.0
1040
14.0
1040
17.4
1040
0.456
1002
}
1002
}
  0
ENDBLK
  5
CA
100
AcDbEntity
  8
0
100
AcDbBlockEnd
  0
BLOCK
  5
235B
100
AcDbEntity
  8
0
100
AcDbBlockBegin
  2
*D7
 70
     1
 10
0.0
 20
0.0
 30
0.0
  3
*D7
  1

  0
LINE
  5
235C
100
AcDbEntity
  8
0
  6
BYBLOCK
 62
     0
100
AcDbLine
 10
6.20587
 20
47.531161
 30
0.0
 11
6.20587
 21
54.379319
 31
0.0
  0
LINE
  5
235D
100
AcDbEntity
  8
0
  6
BYBLOCK
 62
     0
100
AcDbLine
 10
36.204728
 20
47.531161
 30
0.0
 11
36.204728
 21
54.379319
 31
0.0
  0
LINE
  5
235E
100
AcDbEntity
  8
0
  6
BYBLOCK
 62
     0
100
AcDbLine
 10
9.20587
 20
54.199319
 30
0.0
 11
33.204728
 21
54.199319
 31
0.0
  0
SOLID
  5
235F
100
AcDbEntity
  8
0
  6
BYBLOCK
 62
     0
100
AcDbTrace
 10
9.20587
 20
54.699319
 30
0.0
 11
9.20587
 21
53.699319
 31
0.0
 12
6.20587
 22
54.199319
 32
0.0
 13
6.20587
 23
54.199319
 33
0.0
  0
SOLID
  5
2360
100
AcDbEntity
  8
0
  6
BYBLOCK
 62
     0
100
AcDbTrace
 10
33.204728
 20
54.699319
 30
0.0
 11
33.204728
 21
53.699319
 31
0.0
 12
36.204728
 22
54.199319
 32
0.0
 13
36.204728
 23
54.199319
 33
0.0
  0
MTEXT
  5
2361
100
AcDbEntity
  8
0
  6
BYBLOCK
 62
     0
100
AcDbMText
 10
21.205299
 20
56.449319
 30
0.0
 40
2.5
 41
0.0
 71
     5
 72
     1
  1
\A1;M30
  0
POINT
  5
2362
100
AcDbEntity
  8
DEFPOINTS
  6
BYBLOCK
 62
     0
100
AcDbPoint
 10
6.20587
 20
47.468661
 30
0.0
  0
POINT
  5
2363
100
AcDbEntity
  8
DEFPOINTS
  6
BYBLOCK
 62
     0
100
AcDbPoint
 10
36.204728
 20
47.468661
 30
0.0
  0
POINT
  5
2364
100
AcDbEntity
  8
DEFPOINTS
  6
BYBLOCK
 62
     0
100
AcDbPoint
 10
36.204728
 20
54.199319
 30
0.0
  0
ENDBLK
  5
2365
100
AcDbEntity
  8
0
100
AcDbBlockEnd
  0
BLOCK
  5
2367
100
AcDbEntity
  8
0
100
AcDbBlockBegin
  2
*D8
 70
     1
 10
0.0
 20
0.0
 30
0.0
  3
*D8
  1

  0
LINE
  5
2368
100
AcDbEntity
  8
0
  6
BYBLOCK
 62
     0
100
AcDbLine
 10
36.267228
 20
47.468661
 30
0.0
 11
49.860867
 21
47.468661
 31
0.0
  0
LINE
  5
2369
100
AcDbEntity
  8
0
  6
BYBLOCK
 62
     0
100
AcDbLine
 10
36.267228
 20
15.468547
 30
0.0
 11
49.860867
 21
15.468547
 31
0.0
  0
LINE
  5
236A
100
AcDbEntity
  8
0
  6
BYBLOCK
 62
     0
100
AcDbLine
 10
49.680867
 20
44.468661
 30
0.0
 11
49.680867
 21
18.468547
 31
0.0
  0
SOLID
  5
236B
100
AcDbEntity
  8
0
  6
BYBLOCK
 62
     0
100
AcDbTrace
 10
49.180867
 20
44.468661
 30
0.0
 11
50.180867
 21
44.468661
 31
0.0
 12
49.680867
 22
47.468661
 32
0.0
 13
49.680867
 23
47.468661
 33
0.0
  0
SOLID
  5
236C
100
AcDbEntity
  8
0
  6
BYBLOCK
 62
     0
100
AcDbTrace
 10
49.180867
 20
18.468547
 30
0.0
 11
50.180867
 21
18.468547
 31
0.0
 12
49.680867
 22
15.468547
 32
0.0
 13
49.680867
 23
15.468547
 33
0.0
  0
MTEXT
  5
236D
100
AcDbEntity
  8
0
  6
BYBLOCK
 62
     0
100
AcDbMText
 10
47.430867
 20
31.468604
 30
0.0
 40
2.5
 41
0.0
 71
     5
 72
     1
  1
\A1;32
 11
0.0
 21
1.0
 31
0.0
  0
POINT
  5
236E
100
AcDbEntity
  8
DEFPOINTS
  6
BYBLOCK
 62
     0
100
AcDbPoint
 10
36.204728
 20
47.468661
 30
0.0
  0
POINT
  5
236F
100
AcDbEntity
  8
DEFPOINTS
  6
BYBLOCK
 62
     0
100
AcDbPoint
 10
36.204728
 20
15.468547
 30
0.0
  0
POINT
  5
2370
100
AcDbEntity
  8
DEFPOINTS
  6
BYBLOCK
 62
     0
100
AcDbPoint
 10
49.680867
 20
15.468547
 30
0.0
  0
ENDBLK
  5
2371
100
AcDbEntity
  8
0
100
AcDbBlockEnd
  0
BLOCK
  5
2374
100
AcDbEntity
  8
0
100
AcDbBlockBegin
  2
*D9
 70
     1
 10
0.0
 20
0.0
 30
0.0
  3
*D9
  1

  0
LINE
  5
2375
100
AcDbEntity
  8
0
  6
BYBLOCK
 62
     0
100
AcDbLine
 10
43.126547
 20
47.468661
 30
0.0
 11
58.061176
 21
47.468661
 31
0.0
  0
LINE
  5
2376
100
AcDbEntity
  8
0
  6
BYBLOCK
 62
     0
100
AcDbLine
 10
35.017347
 20
6.868555
 30
0.0
 11
58.061176
 21
6.868555
 31
0.0
  0
LINE
  5
2377
100
AcDbEntity
  8
0
  6
BYBLOCK
 62
     0
100
AcDbLine
 10
57.881176
 20
44.468661
 30
0.0
 11
57.881176
 21
9.868555
 31
0.0
  0
SOLID
  5
2378
100
AcDbEntity
  8
0
  6
BYBLOCK
 62
     0
100
AcDbTrace
 10
57.381176
 20
44.468661
 30
0.0
 11
58.381176
 21
44.468661
 31
0.0
 12
57.881176
 22
47.468661
 32
0.0
 13
57.881176
 23
47.468661
 33
0.0
  0
SOLID
  5
2379
100
AcDbEntity
  8
0
  6
BYBLOCK
 62
     0
100
AcDbTrace
 10
57.381176
 20
9.868555
 30
0.0
 11
58.381176
 21
9.868555
 31
0.0
 12
57.881176
 22
6.868555
 32
0.0
 13
57.881176
 23
6.868555
 33
0.0
  0
MTEXT
  5
237A
100
AcDbEntity
  8
0
  6
BYBLOCK
 62
     0
100
AcDbMText
 10
55.631176
 20
27.168608
 30
0.0
 40
2.5
 41
0.0
 71
     5
 72
     1
  1
\A1;40.6
 11
0.0
 21
1.0
 31
0.0
  0
POINT
  5
237B
100
AcDbEntity
  8
DEFPOINTS
  6
BYBLOCK
 62
     0
100
AcDbPoint
 10
43.064047
 20
47.468661
 30
0.0
  0
POINT
  5
237C
100
AcDbEntity
  8
DEFPOINTS
  6
BYBLOCK
 62
     0
100
AcDbPoint
 10
34.954847
 20
6.868555
 30
0.0
  0
POINT
  5
237D
100
AcDbEntity
  8
DEFPOINTS
  6
BYBLOCK
 62
     0
100
AcDbPoint
 10
57.881176
 20
6.868555
 30
0.0
  0
ENDBLK
  5
237E
100
AcDbEntity
  8
0
100
AcDbBlockEnd
  0
ENDSEC
  0
SECTION
  2
ENTITIES
  0
INSERT
  5
CC
100
AcDbEntity
  8
0
100
AcDbBlockReference
  2
SCH_IS
 10
-68.718396
 20
-140.042541
 30
0.0
  0
INSERT
  5
EC
100
AcDbEntity
  8
COTATION1
100
AcDbBlockReference
  2
SCH_IS
 10
0.0
 20
0.0
 30
0.0
  0
POLYLINE
  5
21CF
100
AcDbEntity
  8
ALPHA
 62
   255
100
AcDb2dPolyline
 66
     1
 10
0.0
 20
0.0
 30
0.0
  0
VERTEX
  5
21D0
100
AcDbEntity
  8
ALPHA
 62
   255
100
AcDbVertex
100
AcDb2dVertex
 10
26.020336
 20
1.061158
 30
0.0
  0
VERTEX
  5
21D1
100
AcDbEntity
  8
ALPHA
 62
   255
100
AcDbVertex
100
AcDb2dVertex
 10
25.216194
 20
1.543848
 30
0.0
  0
VERTEX
  5
21D2
100
AcDbEntity
  8
ALPHA
 62
   255
100
AcDbVertex
100
AcDb2dVertex
 10
24.87745
 20
1.685453
 30
0.0
  0
VERTEX
  5
21D3
100
AcDbEntity
  8
ALPHA
 62
   255
100
AcDbVertex
100
AcDb2dVertex
 10
24.577912
 20
1.770417
 30
0.0
  0
VERTEX
  5
21D4
100
AcDbEntity
  8
ALPHA
 62
   255
100
AcDbVertex
100
AcDb2dVertex
 10
24.315321
 20
1.806126
 30
0.0
  0
VERTEX
  5
21D5
100
AcDbEntity
  8
ALPHA
 62
   255
100
AcDbVertex
100
AcDb2dVertex
 10
24.087418
 20
1.799969
 30
0.0
  0
VERTEX
  5
21D6
100
AcDbEntity
  8
ALPHA
 62
   255
100
AcDbVertex
100
AcDb2dVertex
 10
23.985768
 20
1.7835
 30
0.0
  0
VERTEX
  5
21D7
100
AcDbEntity
  8
ALPHA
 62
   255
100
AcDbVertex
100
AcDb2dVertex
 10
23.891942
 20
1.759334
 30
0.0
  0
VERTEX
  5
21D8
100
AcDbEntity
  8
ALPHA
 62
   255
100
AcDbVertex
100
AcDb2dVertex
 10
23.805658
 20
1.728397
 30
0.0
  0
VERTEX
  5
21D9
100
AcDbEntity
  8
ALPHA
 62
   255
100
AcDbVertex
100
AcDb2dVertex
 10
23.726635
 20
1.69161
 30
0.0
  0
VERTEX
  5
21DA
100
AcDbEntity
  8
ALPHA
 62
   255
100
AcDbVertex
100
AcDb2dVertex
 10
23.589237
 20
1.604184
 30
0.0
  0
VERTEX
  5
21DB
100
AcDbEntity
  8
ALPHA
 62
   255
100
AcDbVertex
100
AcDb2dVertex
 10
23.477489
 20
1.504444
 30
0.0
  0
VERTEX
  5
21DC
100
AcDbEntity
  8
ALPHA
 62
   255
100
AcDbVertex
100
AcDb2dVertex
 10
23.389132
 20
1.39978
 30
0.0
  0
VERTEX
  5
21DD
100
AcDbEntity
  8
ALPHA
 62
   255
100
AcDbVertex
100
AcDb2dVertex
 10
23.321906
 20
1.297577
 30
0.0
  0
VERTEX
  5
21DE
100
AcDbEntity
  8
ALPHA
 62
   255
100
AcDbVertex
100
AcDb2dVertex
 10
23.241811
 20
1.130113
 30
0.0
  0
VERTEX
  5
21DF
100
AcDbEntity
  8
ALPHA
 62
   255
100
AcDbVertex
100
AcDb2dVertex
 10
23.224423
 20
1.079628
 30
0.0
  0
VERTEX
  5
21E0
100
AcDbEntity
  8
ALPHA
 62
   255
100
AcDbVertex
100
AcDb2dVertex
 10
23.220406
 20
1.065929
 30
0.0
  0
VERTEX
  5
21E1
100
AcDbEntity
  8
ALPHA
 62
   255
100
AcDbVertex
100
AcDb2dVertex
 10
23.219129
 20
1.061158
 30
0.0
  0
SEQEND
  5
21E2
100
AcDbEntity
  8
ALPHA
  0
POLYLINE
  5
21E3
100
AcDbEntity
  8
ALPHA
 62
   255
100
AcDb2dPolyline
 66
     1
 10
0.0
 20
0.0
 30
0.0
  0
VERTEX
  5
21E4
100
AcDbEntity
  8
ALPHA
 62
   255
100
AcDbVertex
100
AcDb2dVertex
 10
7.45575
 20
15.468547
 30
0.0
  0
VERTEX
  5
21E5
100
AcDbEntity
  8
ALPHA
 62
   255
100
AcDbVertex
100
AcDb2dVertex
 10
7.45575
 20
23.377108
 30
0.0
  0
SEQEND
  5
21E6
100
AcDbEntity
  8
ALPHA
  0
POLYLINE
  5
21E7
100
AcDbEntity
  8
ALPHA
 62
   255
100
AcDb2dPolyline
 66
     1
 10
0.0
 20
0.0
 30
0.0
  0
VERTEX
  5
21E8
100
AcDbEntity
  8
ALPHA
 62
   255
100
AcDbVertex
100
AcDb2dVertex
 10
34.954847
 20
15.468547
 30
0.0
  0
VERTEX
  5
21E9
100
AcDbEntity
  8
ALPHA
 62
   255
100
AcDbVertex
100
AcDb2dVertex
 10
34.954847
 20
23.377108
 30
0.0
  0
SEQEND
  5
21EA
100
AcDbEntity
  8
ALPHA
  0
POLYLINE
  5
21EB
100
AcDbEntity
  8
ALPHA
 62
   255
100
AcDb2dPolyline
 66
     1
 10
0.0
 20
0.0
 30
0.0
  0
VERTEX
  5
21EC
100
AcDbEntity
  8
ALPHA
 62
   255
100
AcDbVertex
100
AcDb2dVertex
 10
7.45575
 20
47.468661
 30
0.0
  0
VERTEX
  5
21ED
100
AcDbEntity
  8
ALPHA
 62
   255
100
AcDbVertex
100
AcDb2dVertex
 10
7.45575
 20
42.756115
 30
0.0
  0
SEQEND
  5
21EE
100
AcDbEntity
  8
ALPHA
  0
POLYLINE
  5
21EF
100
AcDbEntity
  8
ALPHA
 62
   255
100
AcDb2dPolyline
 66
     1
 10
0.0
 20
0.0
 30
0.0
  0
VERTEX
  5
21F0
100
AcDbEntity
  8
ALPHA
 62
   255
100
AcDbVertex
100
AcDb2dVertex
 10
34.954847
 20
47.468661
 30
0.0
  0
VERTEX
  5
21F1
100
AcDbEntity
  8
ALPHA
 62
   255
100
AcDbVertex
100
AcDb2dVertex
 10
34.954847
 20
42.756115
 30
0.0
  0
SEQEND
  5
21F2
100
AcDbEntity
  8
ALPHA
  0
POLYLINE
  5
21F3
100
AcDbEntity
  8
ALPHA
 62
   255
100
AcDb2dPolyline
 66
     1
 10
0.0
 20
0.0
 30
0.0
  0
VERTEX
  5
21F4
100
AcDbEntity
  8
ALPHA
 62
   255
100
AcDbVertex
100
AcDb2dVertex
 10
6.20587
 20
34.756259
 30
0.0
  0
VERTEX
  5
21F5
100
AcDbEntity
  8
ALPHA
 62
   255
100
AcDbVertex
100
AcDb2dVertex
 10
6.20587
 20
31.37662
 30
0.0
  0
SEQEND
  5
21F6
100
AcDbEntity
  8
ALPHA
  0
POLYLINE
  5
21F7
100
AcDbEntity
  8
ALPHA
 62
   255
100
AcDb2dPolyline
 66
     1
 10
0.0
 20
0.0
 30
0.0
  0
VERTEX
  5
21F8
100
AcDbEntity
  8
ALPHA
 62
   255
100
AcDbVertex
100
AcDb2dVertex
 10
36.204728
 20
31.37662
 30
0.0
  0
VERTEX
  5
21F9
100
AcDbEntity
  8
ALPHA
 62
   255
100
AcDbVertex
100
AcDb2dVertex
 10
36.204728
 20
34.756259
 30
0.0
  0
SEQEND
  5
21FA
100
AcDbEntity
  8
ALPHA
  0
POLYLINE
  5
21FB
100
AcDbEntity
  8
ALPHA
 62
   255
100
AcDb2dPolyline
 66
     1
 10
0.0
 20
0.0
 30
0.0
  0
VERTEX
  5
21FC
100
AcDbEntity
  8
ALPHA
 62
   255
100
AcDbVertex
100
AcDb2dVertex
 10
7.45575
 20
34.756259
 30
0.0
  0
VERTEX
  5
21FD
100
AcDbEntity
  8
ALPHA
 62
   255
100
AcDbVertex
100
AcDb2dVertex
 10
7.45575
 20
31.37662
 30
0.0
  0
SEQEND
  5
21FE
100
AcDbEntity
  8
ALPHA
  0
POLYLINE
  5
21FF
100
AcDbEntity
  8
ALPHA
 62
   255
100
AcDb2dPolyline
 66
     1
 10
0.0
 20
0.0
 30
0.0
  0
VERTEX
  5
2200
100
AcDbEntity
  8
ALPHA
 62
   255
100
AcDbVertex
100
AcDb2dVertex
 10
34.954847
 20
34.756259
 30
0.0
  0
VERTEX
  5
2201
100
AcDbEntity
  8
ALPHA
 62
   255
100
AcDbVertex
100
AcDb2dVertex
 10
34.954847
 20
31.37662
 30
0.0
  0
SEQEND
  5
2202
100
AcDbEntity
  8
ALPHA
  0
POLYLINE
  5
2203
100
AcDbEntity
  8
ALPHA
 62
   255
100
AcDb2dPolyline
 66
     1
 10
0.0
 20
0.0
 30
0.0
  0
VERTEX
  5
2204
100
AcDbEntity
  8
ALPHA
 62
   255
100
AcDbVertex
100
AcDb2dVertex
 10
10.671402
 20
41.004973
 30
0.0
  0
VERTEX
  5
2205
100
AcDbEntity
  8
ALPHA
 62
   255
100
AcDbVertex
100
AcDb2dVertex
 10
10.671402
 20
36.507056
 30
0.0
  0
SEQEND
  5
2206
100
AcDbEntity
  8
ALPHA
  0
POLYLINE
  5
2207
100
AcDbEntity
  8
ALPHA
 62
   255
100
AcDb2dPolyline
 66
     1
 10
0.0
 20
0.0
 30
0.0
  0
VERTEX
  5
2208
100
AcDbEntity
  8
ALPHA
 62
   255
100
AcDbVertex
100
AcDb2dVertex
 10
31.739195
 20
41.004973
 30
0.0
  0
VERTEX
  5
2209
100
AcDbEntity
  8
ALPHA
 62
   255
100
AcDbVertex
100
AcDb2dVertex
 10
31.739195
 20
36.507056
 30
0.0
  0
SEQEND
  5
220A
100
AcDbEntity
  8
ALPHA
  0
POLYLINE
  5
220B
100
AcDbEntity
  8
ALPHA
 62
   255
100
AcDb3dPolyline
 66
     1
 10
0.0
 20
0.0
 30
0.0
 70
     8
  0
VERTEX
  5
220C
100
AcDbEntity
  8
ALPHA
 62
   255
100
AcDbVertex
100
AcDb3dPolylineVertex
 10
0.137334
 20
36.507056
 30
0.0
 70
    32
  0
VERTEX
  5
220D
100
AcDbEntity
  8
ALPHA
 62
   255
100
AcDbVertex
100
AcDb3dPolylineVertex
 10
0.142648
 20
36.502034
 30
0.0
 70
    32
  0
VERTEX
  5
220E
100
AcDbEntity
  8
ALPHA
 62
   255
100
AcDbVertex
100
AcDb3dPolylineVertex
 10
0.158534
 20
36.487394
 30
0.0
 70
    32
  0
VERTEX
  5
220F
100
AcDbEntity
  8
ALPHA
 62
   255
100
AcDbVertex
100
AcDb3dPolylineVertex
 10
0.221666
 20
36.431826
 30
0.0
 70
    32
  0
VERTEX
  5
2210
100
AcDbEntity
  8
ALPHA
 62
   255
100
AcDbVertex
100
AcDb3dPolylineVertex
 10
0.470927
 20
36.233494
 30
0.0
 70
    32
  0
VERTEX
  5
2211
100
AcDbEntity
  8
ALPHA
 62
   255
100
AcDbVertex
100
AcDb3dPolylineVertex
 10
1.441819
 20
35.631657
 30
0.0
 70
    32
  0
VERTEX
  5
2212
100
AcDbEntity
  8
ALPHA
 62
   255
100
AcDbVertex
100
AcDb3dPolylineVertex
 10
2.152244
 20
35.310222
 30
0.0
 70
    32
  0
VERTEX
  5
2213
100
AcDbEntity
  8
ALPHA
 62
   255
100
AcDbVertex
100
AcDb3dPolylineVertex
 10
3.005182
 20
35.029821
 30
0.0
 70
    32
  0
VERTEX
  5
2214
100
AcDbEntity
  8
ALPHA
 62
   255
100
AcDbVertex
100
AcDb3dPolylineVertex
 10
3.995031
 20
34.831488
 30
0.0
 70
    32
  0
VERTEX
  5
2215
100
AcDbEntity
  8
ALPHA
 62
   255
100
AcDbVertex
100
AcDb3dPolylineVertex
 10
5.116186
 20
34.756259
 30
0.0
 70
    32
  0
VERTEX
  5
2216
100
AcDbEntity
  8
ALPHA
 62
   255
100
AcDbVertex
100
AcDb3dPolylineVertex
 10
5.712481
 20
34.787501
 30
0.0
 70
    32
  0
VERTEX
  5
2217
100
AcDbEntity
  8
ALPHA
 62
   255
100
AcDbVertex
100
AcDb3dPolylineVertex
 10
6.361443
 20
34.879006
 30
0.0
 70
    32
  0
VERTEX
  5
2218
100
AcDbEntity
  8
ALPHA
 62
   255
100
AcDbVertex
100
AcDb3dPolylineVertex
 10
7.768091
 20
35.229485
 30
0.0
 70
    32
  0
VERTEX
  5
2219
100
AcDbEntity
  8
ALPHA
 62
   255
100
AcDbVertex
100
AcDb3dPolylineVertex
 10
9.237591
 20
35.781051
 30
0.0
 70
    32
  0
VERTEX
  5
221A
100
AcDbEntity
  8
ALPHA
 62
   255
100
AcDbVertex
100
AcDb3dPolylineVertex
 10
10.671402
 20
36.507056
 30
0.0
 70
    32
  0
SEQEND
  5
221B
100
AcDbEntity
  8
ALPHA
 62
   255
  0
POLYLINE
  5
221C
100
AcDbEntity
  8
ALPHA
 62
   255
100
AcDb3dPolyline
 66
     1
 10
0.0
 20
0.0
 30
0.0
 70
     8
  0
VERTEX
  5
221D
100
AcDbEntity
  8
ALPHA
 62
   255
100
AcDbVertex
100
AcDb3dPolylineVertex
 10
42.273952
 20
36.507056
 30
0.0
 70
    32
  0
VERTEX
  5
221E
100
AcDbEntity
  8
ALPHA
 62
   255
100
AcDbVertex
100
AcDb3dPolylineVertex
 10
42.268639
 20
36.502034
 30
0.0
 70
    32
  0
VERTEX
  5
221F
100
AcDbEntity
  8
ALPHA
 62
   255
100
AcDbVertex
100
AcDb3dPolylineVertex
 10
42.252756
 20
36.487394
 30
0.0
 70
    32
  0
VERTEX
  5
2220
100
AcDbEntity
  8
ALPHA
 62
   255
100
AcDbVertex
100
AcDb3dPolylineVertex
 10
42.189634
 20
36.431826
 30
0.0
 70
    32
  0
VERTEX
  5
2221
100
AcDbEntity
  8
ALPHA
 62
   255
100
AcDbVertex
100
AcDb3dPolylineVertex
 10
41.940402
 20
36.233494
 30
0.0
 70
    32
  0
VERTEX
  5
2222
100
AcDbEntity
  8
ALPHA
 62
   255
100
AcDbVertex
100
AcDb3dPolylineVertex
 10
40.969553
 20
35.631657
 30
0.0
 70
    32
  0
VERTEX
  5
2223
100
AcDbEntity
  8
ALPHA
 62
   255
100
AcDbVertex
100
AcDb3dPolylineVertex
 10
40.25911
 20
35.310222
 30
0.0
 70
    32
  0
VERTEX
  5
2224
100
AcDbEntity
  8
ALPHA
 62
   255
100
AcDbVertex
100
AcDb3dPolylineVertex
 10
39.406104
 20
35.029821
 30
0.0
 70
    32
  0
VERTEX
  5
2225
100
AcDbEntity
  8
ALPHA
 62
   255
100
AcDbVertex
100
AcDb3dPolylineVertex
 10
38.416124
 20
34.831488
 30
0.0
 70
    32
  0
VERTEX
  5
2226
100
AcDbEntity
  8
ALPHA
 62
   255
100
AcDbVertex
100
AcDb3dPolylineVertex
 10
37.294756
 20
34.756259
 30
0.0
 70
    32
  0
VERTEX
  5
2227
100
AcDbEntity
  8
ALPHA
 62
   255
100
AcDbVertex
100
AcDb3dPolylineVertex
 10
36.698488
 20
34.787501
 30
0.0
 70
    32
  0
VERTEX
  5
2228
100
AcDbEntity
  8
ALPHA
 62
   255
100
AcDbVertex
100
AcDb3dPolylineVertex
 10
36.049591
 20
34.879006
 30
0.0
 70
    32
  0
VERTEX
  5
2229
100
AcDbEntity
  8
ALPHA
 62
   255
100
AcDbVertex
100
AcDb3dPolylineVertex
 10
34.643066
 20
35.229485
 30
0.0
 70
    32
  0
VERTEX
  5
222A
100
AcDbEntity
  8
ALPHA
 62
   255
100
AcDbVertex
100
AcDb3dPolylineVertex
 10
33.173496
 20
35.781051
 30
0.0
 70
    32
  0
VERTEX
  5
222B
100
AcDbEntity
  8
ALPHA
 62
   255
100
AcDbVertex
100
AcDb3dPolylineVertex
 10
31.739195
 20
36.507056
 30
0.0
 70
    32
  0
SEQEND
  5
222C
100
AcDbEntity
  8
ALPHA
 62
   255
  0
POLYLINE
  5
222D
100
AcDbEntity
  8
ALPHA
 62
   255
100
AcDb2dPolyline
 66
     1
 10
0.0
 20
0.0
 30
0.0
  0
VERTEX
  5
222E
100
AcDbEntity
  8
ALPHA
 62
   255
100
AcDbVertex
100
AcDb2dVertex
 10
10.671402
 20
36.507056
 30
0.0
  0
VERTEX
  5
222F
100
AcDbEntity
  8
ALPHA
 62
   255
100
AcDbVertex
100
AcDb2dVertex
 10
16.177698
 20
35.229485
 30
0.0
  0
VERTEX
  5
2230
100
AcDbEntity
  8
ALPHA
 62
   255
100
AcDbVertex
100
AcDb2dVertex
 10
21.205471
 20
34.756259
 30
0.0
  0
VERTEX
  5
2231
100
AcDbEntity
  8
ALPHA
 62
   255
100
AcDbVertex
100
AcDb2dVertex
 10
26.233588
 20
35.229485
 30
0.0
  0
VERTEX
  5
2232
100
AcDbEntity
  8
ALPHA
 62
   255
100
AcDbVertex
100
AcDb2dVertex
 10
31.739195
 20
36.507056
 30
0.0
  0
SEQEND
  5
2233
100
AcDbEntity
  8
ALPHA
  0
POLYLINE
  5
2234
100
AcDbEntity
  8
ALPHA
 62
   255
100
AcDb3dPolyline
 66
     1
 10
0.0
 20
0.0
 30
0.0
 70
     8
  0
VERTEX
  5
2235
100
AcDbEntity
  8
ALPHA
 62
   255
100
AcDbVertex
100
AcDb3dPolylineVertex
 10
0.137334
 20
41.004973
 30
0.0
 70
    32
  0
VERTEX
  5
2236
100
AcDbEntity
  8
ALPHA
 62
   255
100
AcDbVertex
100
AcDb3dPolylineVertex
 10
0.142648
 20
41.009997
 30
0.0
 70
    32
  0
VERTEX
  5
2237
100
AcDbEntity
  8
ALPHA
 62
   255
100
AcDbVertex
100
AcDb3dPolylineVertex
 10
0.158534
 20
41.024643
 30
0.0
 70
    32
  0
VERTEX
  5
2238
100
AcDbEntity
  8
ALPHA
 62
   255
100
AcDbVertex
100
AcDb3dPolylineVertex
 10
0.221666
 20
41.080232
 30
0.0
 70
    32
  0
VERTEX
  5
2239
100
AcDbEntity
  8
ALPHA
 62
   255
100
AcDbVertex
100
AcDb3dPolylineVertex
 10
0.470927
 20
41.278642
 30
0.0
 70
    32
  0
VERTEX
  5
223A
100
AcDbEntity
  8
ALPHA
 62
   255
100
AcDbVertex
100
AcDb3dPolylineVertex
 10
1.441819
 20
41.880716
 30
0.0
 70
    32
  0
VERTEX
  5
223B
100
AcDbEntity
  8
ALPHA
 62
   255
100
AcDbVertex
100
AcDb3dPolylineVertex
 10
2.152244
 20
42.202278
 30
0.0
 70
    32
  0
VERTEX
  5
223C
100
AcDbEntity
  8
ALPHA
 62
   255
100
AcDbVertex
100
AcDb3dPolylineVertex
 10
3.005182
 20
42.482789
 30
0.0
 70
    32
  0
VERTEX
  5
223D
100
AcDbEntity
  8
ALPHA
 62
   255
100
AcDbVertex
100
AcDb3dPolylineVertex
 10
3.995031
 20
42.6812
 30
0.0
 70
    32
  0
VERTEX
  5
223E
100
AcDbEntity
  8
ALPHA
 62
   255
100
AcDbVertex
100
AcDb3dPolylineVertex
 10
5.116186
 20
42.756459
 30
0.0
 70
    32
  0
VERTEX
  5
223F
100
AcDbEntity
  8
ALPHA
 62
   255
100
AcDbVertex
100
AcDb3dPolylineVertex
 10
5.712481
 20
42.725202
 30
0.0
 70
    32
  0
VERTEX
  5
2240
100
AcDbEntity
  8
ALPHA
 62
   255
100
AcDbVertex
100
AcDb3dPolylineVertex
 10
6.361443
 20
42.633652
 30
0.0
 70
    32
  0
VERTEX
  5
2241
100
AcDbEntity
  8
ALPHA
 62
   255
100
AcDbVertex
100
AcDb3dPolylineVertex
 10
7.768091
 20
42.283017
 30
0.0
 70
    32
  0
VERTEX
  5
2242
100
AcDbEntity
  8
ALPHA
 62
   255
100
AcDbVertex
100
AcDb3dPolylineVertex
 10
9.237591
 20
41.731231
 30
0.0
 70
    32
  0
VERTEX
  5
2243
100
AcDbEntity
  8
ALPHA
 62
   255
100
AcDbVertex
100
AcDb3dPolylineVertex
 10
10.671402
 20
41.004973
 30
0.0
 70
    32
  0
SEQEND
  5
2244
100
AcDbEntity
  8
ALPHA
 62
   255
  0
POLYLINE
  5
2245
100
AcDbEntity
  8
ALPHA
 62
   255
100
AcDb3dPolyline
 66
     1
 10
0.0
 20
0.0
 30
0.0
 70
     8
  0
VERTEX
  5
2246
100
AcDbEntity
  8
ALPHA
 62
   255
100
AcDbVertex
100
AcDb3dPolylineVertex
 10
42.273952
 20
41.004973
 30
0.0
 70
    32
  0
VERTEX
  5
2247
100
AcDbEntity
  8
ALPHA
 62
   255
100
AcDbVertex
100
AcDb3dPolylineVertex
 10
42.268639
 20
41.009997
 30
0.0
 70
    32
  0
VERTEX
  5
2248
100
AcDbEntity
  8
ALPHA
 62
   255
100
AcDbVertex
100
AcDb3dPolylineVertex
 10
42.252756
 20
41.024643
 30
0.0
 70
    32
  0
VERTEX
  5
2249
100
AcDbEntity
  8
ALPHA
 62
   255
100
AcDbVertex
100
AcDb3dPolylineVertex
 10
42.189634
 20
41.080232
 30
0.0
 70
    32
  0
VERTEX
  5
224A
100
AcDbEntity
  8
ALPHA
 62
   255
100
AcDbVertex
100
AcDb3dPolylineVertex
 10
41.940402
 20
41.278642
 30
0.0
 70
    32
  0
VERTEX
  5
224B
100
AcDbEntity
  8
ALPHA
 62
   255
100
AcDbVertex
100
AcDb3dPolylineVertex
 10
40.969553
 20
41.880716
 30
0.0
 70
    32
  0
VERTEX
  5
224C
100
AcDbEntity
  8
ALPHA
 62
   255
100
AcDbVertex
100
AcDb3dPolylineVertex
 10
40.25911
 20
42.202278
 30
0.0
 70
    32
  0
VERTEX
  5
224D
100
AcDbEntity
  8
ALPHA
 62
   255
100
AcDbVertex
100
AcDb3dPolylineVertex
 10
39.406104
 20
42.482789
 30
0.0
 70
    32
  0
VERTEX
  5
224E
100
AcDbEntity
  8
ALPHA
 62
   255
100
AcDbVertex
100
AcDb3dPolylineVertex
 10
38.416124
 20
42.6812
 30
0.0
 70
    32
  0
VERTEX
  5
224F
100
AcDbEntity
  8
ALPHA
 62
   255
100
AcDbVertex
100
AcDb3dPolylineVertex
 10
37.294756
 20
42.756459
 30
0.0
 70
    32
  0
VERTEX
  5
2250
100
AcDbEntity
  8
ALPHA
 62
   255
100
AcDbVertex
100
AcDb3dPolylineVertex
 10
36.698488
 20
42.725202
 30
0.0
 70
    32
  0
VERTEX
  5
2251
100
AcDbEntity
  8
ALPHA
 62
   255
100
AcDbVertex
100
AcDb3dPolylineVertex
 10
36.049591
 20
42.633652
 30
0.0
 70
    32
  0
VERTEX
  5
2252
100
AcDbEntity
  8
ALPHA
 62
   255
100
AcDbVertex
100
AcDb3dPolylineVertex
 10
34.643066
 20
42.283017
 30
0.0
 70
    32
  0
VERTEX
  5
2253
100
AcDbEntity
  8
ALPHA
 62
   255
100
AcDbVertex
100
AcDb3dPolylineVertex
 10
33.173496
 20
41.731231
 30
0.0
 70
    32
  0
VERTEX
  5
2254
100
AcDbEntity
  8
ALPHA
 62
   255
100
AcDbVertex
100
AcDb3dPolylineVertex
 10
31.739195
 20
41.004973
 30
0.0
 70
    32
  0
SEQEND
  5
2255
100
AcDbEntity
  8
ALPHA
 62
   255
  0
POLYLINE
  5
2256
100
AcDbEntity
  8
ALPHA
 62
   255
100
AcDb2dPolyline
 66
     1
 10
0.0
 20
0.0
 30
0.0
  0
VERTEX
  5
2257
100
AcDbEntity
  8
ALPHA
 62
   255
100
AcDbVertex
100
AcDb2dVertex
 10
10.671402
 20
41.004973
 30
0.0
  0
VERTEX
  5
2258
100
AcDbEntity
  8
ALPHA
 62
   255
100
AcDbVertex
100
AcDb2dVertex
 10
16.177698
 20
42.283017
 30
0.0
  0
VERTEX
  5
2259
100
AcDbEntity
  8
ALPHA
 62
   255
100
AcDbVertex
100
AcDb2dVertex
 10
21.205471
 20
42.756459
 30
0.0
  0
VERTEX
  5
225A
100
AcDbEntity
  8
ALPHA
 62
   255
100
AcDbVertex
100
AcDb2dVertex
 10
26.233588
 20
42.283017
 30
0.0
  0
VERTEX
  5
225B
100
AcDbEntity
  8
ALPHA
 62
   255
100
AcDbVertex
100
AcDb2dVertex
 10
31.739195
 20
41.004973
 30
0.0
  0
SEQEND
  5
225C
100
AcDbEntity
  8
ALPHA
  0
POLYLINE
  5
225D
100
AcDbEntity
  8
ALPHA
 62
   255
100
AcDb2dPolyline
 66
     1
 10
0.0
 20
0.0
 30
0.0
  0
VERTEX
  5
225E
100
AcDbEntity
  8
ALPHA
 62
   255
100
AcDbVertex
100
AcDb2dVertex
 10
10.671402
 20
29.625133
 30
0.0
  0
VERTEX
  5
225F
100
AcDbEntity
  8
ALPHA
 62
   255
100
AcDbVertex
100
AcDb2dVertex
 10
10.671402
 20
25.127217
 30
0.0
  0
SEQEND
  5
2260
100
AcDbEntity
  8
ALPHA
  0
POLYLINE
  5
2261
100
AcDbEntity
  8
ALPHA
 62
   255
100
AcDb2dPolyline
 66
     1
 10
0.0
 20
0.0
 30
0.0
  0
VERTEX
  5
2262
100
AcDbEntity
  8
ALPHA
 62
   255
100
AcDbVertex
100
AcDb2dVertex
 10
31.739195
 20
29.625133
 30
0.0
  0
VERTEX
  5
2263
100
AcDbEntity
  8
ALPHA
 62
   255
100
AcDbVertex
100
AcDb2dVertex
 10
31.739195
 20
25.127217
 30
0.0
  0
SEQEND
  5
2264
100
AcDbEntity
  8
ALPHA
  0
POLYLINE
  5
2265
100
AcDbEntity
  8
ALPHA
 62
   255
100
AcDb3dPolyline
 66
     1
 10
0.0
 20
0.0
 30
0.0
 70
     8
  0
VERTEX
  5
2266
100
AcDbEntity
  8
ALPHA
 62
   255
100
AcDbVertex
100
AcDb3dPolylineVertex
 10
0.137334
 20
25.127217
 30
0.0
 70
    32
  0
VERTEX
  5
2267
100
AcDbEntity
  8
ALPHA
 62
   255
100
AcDbVertex
100
AcDb3dPolylineVertex
 10
0.142648
 20
25.122195
 30
0.0
 70
    32
  0
VERTEX
  5
2268
100
AcDbEntity
  8
ALPHA
 62
   255
100
AcDbVertex
100
AcDb3dPolylineVertex
 10
0.158534
 20
25.107558
 30
0.0
 70
    32
  0
VERTEX
  5
2269
100
AcDbEntity
  8
ALPHA
 62
   255
100
AcDbVertex
100
AcDb3dPolylineVertex
 10
0.221666
 20
25.052002
 30
0.0
 70
    32
  0
VERTEX
  5
226A
100
AcDbEntity
  8
ALPHA
 62
   255
100
AcDbVertex
100
AcDb3dPolylineVertex
 10
0.470927
 20
24.853708
 30
0.0
 70
    32
  0
VERTEX
  5
226B
100
AcDbEntity
  8
ALPHA
 62
   255
100
AcDbVertex
100
AcDb3dPolylineVertex
 10
1.441819
 20
24.25199
 30
0.0
 70
    32
  0
VERTEX
  5
226C
100
AcDbEntity
  8
ALPHA
 62
   255
100
AcDbVertex
100
AcDb3dPolylineVertex
 10
2.152244
 20
23.930618
 30
0.0
 70
    32
  0
VERTEX
  5
226D
100
AcDbEntity
  8
ALPHA
 62
   255
100
AcDbVertex
100
AcDb3dPolylineVertex
 10
3.005182
 20
23.650272
 30
0.0
 70
    32
  0
VERTEX
  5
226E
100
AcDbEntity
  8
ALPHA
 62
   255
100
AcDbVertex
100
AcDb3dPolylineVertex
 10
3.995031
 20
23.451978
 30
0.0
 70
    32
  0
VERTEX
  5
226F
100
AcDbEntity
  8
ALPHA
 62
   255
100
AcDbVertex
100
AcDb3dPolylineVertex
 10
5.116186
 20
23.376764
 30
0.0
 70
    32
  0
VERTEX
  5
2270
100
AcDbEntity
  8
ALPHA
 62
   255
100
AcDbVertex
100
AcDb3dPolylineVertex
 10
5.712481
 20
23.407977
 30
0.0
 70
    32
  0
VERTEX
  5
2271
100
AcDbEntity
  8
ALPHA
 62
   255
100
AcDbVertex
100
AcDb3dPolylineVertex
 10
6.361443
 20
23.499409
 30
0.0
 70
    32
  0
VERTEX
  5
2272
100
AcDbEntity
  8
ALPHA
 62
   255
100
AcDbVertex
100
AcDb3dPolylineVertex
 10
7.768091
 20
23.849689
 30
0.0
 70
    32
  0
VERTEX
  5
2273
100
AcDbEntity
  8
ALPHA
 62
   255
100
AcDbVertex
100
AcDb3dPolylineVertex
 10
9.237591
 20
24.40112
 30
0.0
 70
    32
  0
VERTEX
  5
2274
100
AcDbEntity
  8
ALPHA
 62
   255
100
AcDbVertex
100
AcDb3dPolylineVertex
 10
10.671402
 20
25.127217
 30
0.0
 70
    32
  0
SEQEND
  5
2275
100
AcDbEntity
  8
ALPHA
 62
   255
  0
POLYLINE
  5
2276
100
AcDbEntity
  8
ALPHA
 62
   255
100
AcDb3dPolyline
 66
     1
 10
0.0
 20
0.0
 30
0.0
 70
     8
  0
VERTEX
  5
2277
100
AcDbEntity
  8
ALPHA
 62
   255
100
AcDbVertex
100
AcDb3dPolylineVertex
 10
42.273952
 20
25.127217
 30
0.0
 70
    32
  0
VERTEX
  5
2278
100
AcDbEntity
  8
ALPHA
 62
   255
100
AcDbVertex
100
AcDb3dPolylineVertex
 10
42.268639
 20
25.122195
 30
0.0
 70
    32
  0
VERTEX
  5
2279
100
AcDbEntity
  8
ALPHA
 62
   255
100
AcDbVertex
100
AcDb3dPolylineVertex
 10
42.252756
 20
25.107558
 30
0.0
 70
    32
  0
VERTEX
  5
227A
100
AcDbEntity
  8
ALPHA
 62
   255
100
AcDbVertex
100
AcDb3dPolylineVertex
 10
42.189634
 20
25.052002
 30
0.0
 70
    32
  0
VERTEX
  5
227B
100
AcDbEntity
  8
ALPHA
 62
   255
100
AcDbVertex
100
AcDb3dPolylineVertex
 10
41.940402
 20
24.853708
 30
0.0
 70
    32
  0
VERTEX
  5
227C
100
AcDbEntity
  8
ALPHA
 62
   255
100
AcDbVertex
100
AcDb3dPolylineVertex
 10
40.969553
 20
24.25199
 30
0.0
 70
    32
  0
VERTEX
  5
227D
100
AcDbEntity
  8
ALPHA
 62
   255
100
AcDbVertex
100
AcDb3dPolylineVertex
 10
40.25911
 20
23.930618
 30
0.0
 70
    32
  0
VERTEX
  5
227E
100
AcDbEntity
  8
ALPHA
 62
   255
100
AcDbVertex
100
AcDb3dPolylineVertex
 10
39.406104
 20
23.650272
 30
0.0
 70
    32
  0
VERTEX
  5
227F
100
AcDbEntity
  8
ALPHA
 62
   255
100
AcDbVertex
100
AcDb3dPolylineVertex
 10
38.416124
 20
23.451978
 30
0.0
 70
    32
  0
VERTEX
  5
2280
100
AcDbEntity
  8
ALPHA
 62
   255
100
AcDbVertex
100
AcDb3dPolylineVertex
 10
37.294756
 20
23.376764
 30
0.0
 70
    32
  0
VERTEX
  5
2281
100
AcDbEntity
  8
ALPHA
 62
   255
100
AcDbVertex
100
AcDb3dPolylineVertex
 10
36.698488
 20
23.407977
 30
0.0
 70
    32
  0
VERTEX
  5
2282
100
AcDbEntity
  8
ALPHA
 62
   255
100
AcDbVertex
100
AcDb3dPolylineVertex
 10
36.049591
 20
23.499409
 30
0.0
 70
    32
  0
VERTEX
  5
2283
100
AcDbEntity
  8
ALPHA
 62
   255
100
AcDbVertex
100
AcDb3dPolylineVertex
 10
34.643066
 20
23.849689
 30
0.0
 70
    32
  0
VERTEX
  5
2284
100
AcDbEntity
  8
ALPHA
 62
   255
100
AcDbVertex
100
AcDb3dPolylineVertex
 10
33.173496
 20
24.40112
 30
0.0
 70
    32
  0
VERTEX
  5
2285
100
AcDbEntity
  8
ALPHA
 62
   255
100
AcDbVertex
100
AcDb3dPolylineVertex
 10
31.739195
 20
25.127217
 30
0.0
 70
    32
  0
SEQEND
  5
2286
100
AcDbEntity
  8
ALPHA
 62
   255
  0
POLYLINE
  5
2287
100
AcDbEntity
  8
ALPHA
 62
   255
100
AcDb2dPolyline
 66
     1
 10
0.0
 20
0.0
 30
0.0
  0
VERTEX
  5
2288
100
AcDbEntity
  8
ALPHA
 62
   255
100
AcDbVertex
100
AcDb2dVertex
 10
10.671402
 20
25.127217
 30
0.0
  0
VERTEX
  5
2289
100
AcDbEntity
  8
ALPHA
 62
   255
100
AcDbVertex
100
AcDb2dVertex
 10
16.177698
 20
23.849689
 30
0.0
  0
VERTEX
  5
228A
100
AcDbEntity
  8
ALPHA
 62
   255
100
AcDbVertex
100
AcDb2dVertex
 10
21.205471
 20
23.376764
 30
0.0
  0
VERTEX
  5
228B
100
AcDbEntity
  8
ALPHA
 62
   255
100
AcDbVertex
100
AcDb2dVertex
 10
26.233588
 20
23.849689
 30
0.0
  0
VERTEX
  5
228C
100
AcDbEntity
  8
ALPHA
 62
   255
100
AcDbVertex
100
AcDb2dVertex
 10
31.739195
 20
25.127217
 30
0.0
  0
SEQEND
  5
228D
100
AcDbEntity
  8
ALPHA
  0
POLYLINE
  5
228E
100
AcDbEntity
  8
ALPHA
 62
   255
100
AcDb3dPolyline
 66
     1
 10
0.0
 20
0.0
 30
0.0
 70
     8
  0
VERTEX
  5
228F
100
AcDbEntity
  8
ALPHA
 62
   255
100
AcDbVertex
100
AcDb3dPolylineVertex
 10
0.137334
 20
29.625133
 30
0.0
 70
    32
  0
VERTEX
  5
2290
100
AcDbEntity
  8
ALPHA
 62
   255
100
AcDbVertex
100
AcDb3dPolylineVertex
 10
0.142648
 20
29.630158
 30
0.0
 70
    32
  0
VERTEX
  5
2291
100
AcDbEntity
  8
ALPHA
 62
   255
100
AcDbVertex
100
AcDb3dPolylineVertex
 10
0.158534
 20
29.644803
 30
0.0
 70
    32
  0
VERTEX
  5
2292
100
AcDbEntity
  8
ALPHA
 62
   255
100
AcDbVertex
100
AcDb3dPolylineVertex
 10
0.221666
 20
29.700392
 30
0.0
 70
    32
  0
VERTEX
  5
2293
100
AcDbEntity
  8
ALPHA
 62
   255
100
AcDbVertex
100
AcDb3dPolylineVertex
 10
0.470927
 20
29.898803
 30
0.0
 70
    32
  0
VERTEX
  5
2294
100
AcDbEntity
  8
ALPHA
 62
   255
100
AcDbVertex
100
AcDb3dPolylineVertex
 10
1.441819
 20
30.500877
 30
0.0
 70
    32
  0
VERTEX
  5
2295
100
AcDbEntity
  8
ALPHA
 62
   255
100
AcDbVertex
100
AcDb3dPolylineVertex
 10
2.152244
 20
30.822439
 30
0.0
 70
    32
  0
VERTEX
  5
2296
100
AcDbEntity
  8
ALPHA
 62
   255
100
AcDbVertex
100
AcDb3dPolylineVertex
 10
3.005182
 20
31.10295
 30
0.0
 70
    32
  0
VERTEX
  5
2297
100
AcDbEntity
  8
ALPHA
 62
   255
100
AcDbVertex
100
AcDb3dPolylineVertex
 10
3.995031
 20
31.301361
 30
0.0
 70
    32
  0
VERTEX
  5
2298
100
AcDbEntity
  8
ALPHA
 62
   255
100
AcDbVertex
100
AcDb3dPolylineVertex
 10
5.116186
 20
31.37662
 30
0.0
 70
    32
  0
VERTEX
  5
2299
100
AcDbEntity
  8
ALPHA
 62
   255
100
AcDbVertex
100
AcDb3dPolylineVertex
 10
5.712481
 20
31.345391
 30
0.0
 70
    32
  0
VERTEX
  5
229A
100
AcDbEntity
  8
ALPHA
 62
   255
100
AcDbVertex
100
AcDb3dPolylineVertex
 10
6.361443
 20
31.25391
 30
0.0
 70
    32
  0
VERTEX
  5
229B
100
AcDbEntity
  8
ALPHA
 62
   255
100
AcDbVertex
100
AcDb3dPolylineVertex
 10
7.768091
 20
30.903436
 30
0.0
 70
    32
  0
VERTEX
  5
229C
100
AcDbEntity
  8
ALPHA
 62
   255
100
AcDbVertex
100
AcDb3dPolylineVertex
 10
9.237591
 20
30.351682
 30
0.0
 70
    32
  0
VERTEX
  5
229D
100
AcDbEntity
  8
ALPHA
 62
   255
100
AcDbVertex
100
AcDb3dPolylineVertex
 10
10.671402
 20
29.625133
 30
0.0
 70
    32
  0
SEQEND
  5
229E
100
AcDbEntity
  8
ALPHA
 62
   255
  0
POLYLINE
  5
229F
100
AcDbEntity
  8
ALPHA
 62
   255
100
AcDb3dPolyline
 66
     1
 10
0.0
 20
0.0
 30
0.0
 70
     8
  0
VERTEX
  5
22A0
100
AcDbEntity
  8
ALPHA
 62
   255
100
AcDbVertex
100
AcDb3dPolylineVertex
 10
42.273952
 20
29.625133
 30
0.0
 70
    32
  0
VERTEX
  5
22A1
100
AcDbEntity
  8
ALPHA
 62
   255
100
AcDbVertex
100
AcDb3dPolylineVertex
 10
42.268639
 20
29.630158
 30
0.0
 70
    32
  0
VERTEX
  5
22A2
100
AcDbEntity
  8
ALPHA
 62
   255
100
AcDbVertex
100
AcDb3dPolylineVertex
 10
42.252756
 20
29.644803
 30
0.0
 70
    32
  0
VERTEX
  5
22A3
100
AcDbEntity
  8
ALPHA
 62
   255
100
AcDbVertex
100
AcDb3dPolylineVertex
 10
42.189634
 20
29.700392
 30
0.0
 70
    32
  0
VERTEX
  5
22A4
100
AcDbEntity
  8
ALPHA
 62
   255
100
AcDbVertex
100
AcDb3dPolylineVertex
 10
41.940402
 20
29.898803
 30
0.0
 70
    32
  0
VERTEX
  5
22A5
100
AcDbEntity
  8
ALPHA
 62
   255
100
AcDbVertex
100
AcDb3dPolylineVertex
 10
40.969553
 20
30.500877
 30
0.0
 70
    32
  0
VERTEX
  5
22A6
100
AcDbEntity
  8
ALPHA
 62
   255
100
AcDbVertex
100
AcDb3dPolylineVertex
 10
40.25911
 20
30.822439
 30
0.0
 70
    32
  0
VERTEX
  5
22A7
100
AcDbEntity
  8
ALPHA
 62
   255
100
AcDbVertex
100
AcDb3dPolylineVertex
 10
39.406104
 20
31.10295
 30
0.0
 70
    32
  0
VERTEX
  5
22A8
100
AcDbEntity
  8
ALPHA
 62
   255
100
AcDbVertex
100
AcDb3dPolylineVertex
 10
38.416124
 20
31.301361
 30
0.0
 70
    32
  0
VERTEX
  5
22A9
100
AcDbEntity
  8
ALPHA
 62
   255
100
AcDbVertex
100
AcDb3dPolylineVertex
 10
37.294756
 20
31.37662
 30
0.0
 70
    32
  0
VERTEX
  5
22AA
100
AcDbEntity
  8
ALPHA
 62
   255
100
AcDbVertex
100
AcDb3dPolylineVertex
 10
36.698488
 20
31.345391
 30
0.0
 70
    32
  0
VERTEX
  5
22AB
100
AcDbEntity
  8
ALPHA
 62
   255
100
AcDbVertex
100
AcDb3dPolylineVertex
 10
36.049591
 20
31.25391
 30
0.0
 70
    32
  0
VERTEX
  5
22AC
100
AcDbEntity
  8
ALPHA
 62
   255
100
AcDbVertex
100
AcDb3dPolylineVertex
 10
34.643066
 20
30.903436
 30
0.0
 70
    32
  0
VERTEX
  5
22AD
100
AcDbEntity
  8
ALPHA
 62
   255
100
AcDbVertex
100
AcDb3dPolylineVertex
 10
33.173496
 20
30.351682
 30
0.0
 70
    32
  0
VERTEX
  5
22AE
100
AcDbEntity
  8
ALPHA
 62
   255
100
AcDbVertex
100
AcDb3dPolylineVertex
 10
31.739195
 20
29.625133
 30
0.0
 70
    32
  0
SEQEND
  5
22AF
100
AcDbEntity
  8
ALPHA
 62
   255
  0
POLYLINE
  5
22B0
100
AcDbEntity
  8
ALPHA
 62
   255
100
AcDb2dPolyline
 66
     1
 10
0.0
 20
0.0
 30
0.0
  0
VERTEX
  5
22B1
100
AcDbEntity
  8
ALPHA
 62
   255
100
AcDbVertex
100
AcDb2dVertex
 10
10.671402
 20
29.625133
 30
0.0
  0
VERTEX
  5
22B2
100
AcDbEntity
  8
ALPHA
 62
   255
100
AcDbVertex
100
AcDb2dVertex
 10
16.177698
 20
30.903436
 30
0.0
  0
VERTEX
  5
22B3
100
AcDbEntity
  8
ALPHA
 62
   255
100
AcDbVertex
100
AcDb2dVertex
 10
21.205471
 20
31.37662
 30
0.0
  0
VERTEX
  5
22B4
100
AcDbEntity
  8
ALPHA
 62
   255
100
AcDbVertex
100
AcDb2dVertex
 10
26.233588
 20
30.903436
 30
0.0
  0
VERTEX
  5
22B5
100
AcDbEntity
  8
ALPHA
 62
   255
100
AcDbVertex
100
AcDb2dVertex
 10
31.739195
 20
29.625133
 30
0.0
  0
SEQEND
  5
22B6
100
AcDbEntity
  8
ALPHA
  0
POLYLINE
  5
22B7
100
AcDbEntity
  8
ALPHA
 62
   255
100
AcDb2dPolyline
 66
     1
 10
0.0
 20
0.0
 30
0.0
  0
VERTEX
  5
22B8
100
AcDbEntity
  8
ALPHA
 62
   255
100
AcDbVertex
100
AcDb2dVertex
 10
36.204728
 20
42.756115
 30
0.0
  0
VERTEX
  5
22B9
100
AcDbEntity
  8
ALPHA
 62
   255
100
AcDbVertex
100
AcDb2dVertex
 10
36.204728
 20
47.468661
 30
0.0
  0
SEQEND
  5
22BA
100
AcDbEntity
  8
ALPHA
  0
POLYLINE
  5
22BB
100
AcDbEntity
  8
ALPHA
 62
   255
100
AcDb2dPolyline
 66
     1
 10
0.0
 20
0.0
 30
0.0
  0
VERTEX
  5
22BC
100
AcDbEntity
  8
ALPHA
 62
   255
100
AcDbVertex
100
AcDb2dVertex
 10
36.204728
 20
47.468661
 30
0.0
  0
VERTEX
  5
22BD
100
AcDbEntity
  8
ALPHA
 62
   255
100
AcDbVertex
100
AcDb2dVertex
 10
6.20587
 20
47.468661
 30
0.0
  0
SEQEND
  5
22BE
100
AcDbEntity
  8
ALPHA
  0
POLYLINE
  5
22BF
100
AcDbEntity
  8
ALPHA
 62
   255
100
AcDb2dPolyline
 66
     1
 10
0.0
 20
0.0
 30
0.0
  0
VERTEX
  5
22C0
100
AcDbEntity
  8
ALPHA
 62
   255
100
AcDbVertex
100
AcDb2dVertex
 10
6.20587
 20
47.468661
 30
0.0
  0
VERTEX
  5
22C1
100
AcDbEntity
  8
ALPHA
 62
   255
100
AcDbVertex
100
AcDb2dVertex
 10
6.20587
 20
42.756115
 30
0.0
  0
SEQEND
  5
22C2
100
AcDbEntity
  8
ALPHA
  0
POLYLINE
  5
22C3
100
AcDbEntity
  8
ALPHA
 62
   255
100
AcDb2dPolyline
 66
     1
 10
0.0
 20
0.0
 30
0.0
  0
VERTEX
  5
22C4
100
AcDbEntity
  8
ALPHA
 62
   255
100
AcDbVertex
100
AcDb2dVertex
 10
34.954847
 20
15.468547
 30
0.0
  0
VERTEX
  5
22C5
100
AcDbEntity
  8
ALPHA
 62
   255
100
AcDbVertex
100
AcDb2dVertex
 10
34.954847
 20
6.868555
 30
0.0
  0
SEQEND
  5
22C6
100
AcDbEntity
  8
ALPHA
  0
POLYLINE
  5
22C7
100
AcDbEntity
  8
ALPHA
 62
   255
100
AcDb2dPolyline
 66
     1
 10
0.0
 20
0.0
 30
0.0
  0
VERTEX
  5
22C8
100
AcDbEntity
  8
ALPHA
 62
   255
100
AcDbVertex
100
AcDb2dVertex
 10
34.954847
 20
6.868555
 30
0.0
  0
VERTEX
  5
22C9
100
AcDbEntity
  8
ALPHA
 62
   255
100
AcDbVertex
100
AcDb2dVertex
 10
7.45575
 20
6.868555
 30
0.0
  0
SEQEND
  5
22CA
100
AcDbEntity
  8
ALPHA
  0
POLYLINE
  5
22CB
100
AcDbEntity
  8
ALPHA
 62
   255
100
AcDb2dPolyline
 66
     1
 10
0.0
 20
0.0
 30
0.0
  0
VERTEX
  5
22CC
100
AcDbEntity
  8
ALPHA
 62
   255
100
AcDbVertex
100
AcDb2dVertex
 10
7.45575
 20
6.868555
 30
0.0
  0
VERTEX
  5
22CD
100
AcDbEntity
  8
ALPHA
 62
   255
100
AcDbVertex
100
AcDb2dVertex
 10
7.45575
 20
15.468547
 30
0.0
  0
SEQEND
  5
22CE
100
AcDbEntity
  8
ALPHA
  0
POLYLINE
  5
22CF
100
AcDbEntity
  8
ALPHA
 62
   255
100
AcDb2dPolyline
 66
     1
 10
0.0
 20
0.0
 30
0.0
  0
VERTEX
  5
22D0
100
AcDbEntity
  8
ALPHA
 62
   255
100
AcDbVertex
100
AcDb2dVertex
 10
36.204728
 20
23.377108
 30
0.0
  0
VERTEX
  5
22D1
100
AcDbEntity
  8
ALPHA
 62
   255
100
AcDbVertex
100
AcDb2dVertex
 10
36.204728
 20
15.468547
 30
0.0
  0
SEQEND
  5
22D2
100
AcDbEntity
  8
ALPHA
  0
POLYLINE
  5
22D3
100
AcDbEntity
  8
ALPHA
 62
   255
100
AcDb2dPolyline
 66
     1
 10
0.0
 20
0.0
 30
0.0
  0
VERTEX
  5
22D4
100
AcDbEntity
  8
ALPHA
 62
   255
100
AcDbVertex
100
AcDb2dVertex
 10
36.204728
 20
15.468547
 30
0.0
  0
VERTEX
  5
22D5
100
AcDbEntity
  8
ALPHA
 62
   255
100
AcDbVertex
100
AcDb2dVertex
 10
6.20587
 20
15.468547
 30
0.0
  0
SEQEND
  5
22D6
100
AcDbEntity
  8
ALPHA
  0
POLYLINE
  5
22D7
100
AcDbEntity
  8
ALPHA
 62
   255
100
AcDb2dPolyline
 66
     1
 10
0.0
 20
0.0
 30
0.0
  0
VERTEX
  5
22D8
100
AcDbEntity
  8
ALPHA
 62
   255
100
AcDbVertex
100
AcDb2dVertex
 10
6.20587
 20
15.468547
 30
0.0
  0
VERTEX
  5
22D9
100
AcDbEntity
  8
ALPHA
 62
   255
100
AcDbVertex
100
AcDb2dVertex
 10
6.20587
 20
23.377108
 30
0.0
  0
SEQEND
  5
22DA
100
AcDbEntity
  8
ALPHA
  0
POLYLINE
  5
22DB
100
AcDbEntity
  8
ALPHA
 62
   255
100
AcDb2dPolyline
 66
     1
 10
0.0
 20
0.0
 30
0.0
  0
VERTEX
  5
22DC
100
AcDbEntity
  8
ALPHA
 62
   255
100
AcDbVertex
100
AcDb2dVertex
 10
23.219129
 20
6.868555
 30
0.0
  0
VERTEX
  5
22DD
100
AcDbEntity
  8
ALPHA
 62
   255
100
AcDbVertex
100
AcDb2dVertex
 10
23.219129
 20
1.061158
 30
0.0
  0
SEQEND
  5
22DE
100
AcDbEntity
  8
ALPHA
  0
POLYLINE
  5
22DF
100
AcDbEntity
  8
ALPHA
 62
   255
100
AcDb2dPolyline
 66
     1
 10
0.0
 20
0.0
 30
0.0
  0
VERTEX
  5
22E0
100
AcDbEntity
  8
ALPHA
 62
   255
100
AcDbVertex
100
AcDb2dVertex
 10
23.219129
 20
1.061158
 30
0.0
  0
VERTEX
  5
22E1
100
AcDbEntity
  8
ALPHA
 62
   255
100
AcDbVertex
100
AcDb2dVertex
 10
23.22001
 20
1.055192
 30
0.0
  0
VERTEX
  5
22E2
100
AcDbEntity
  8
ALPHA
 62
   255
100
AcDbVertex
100
AcDb2dVertex
 10
23.22289
 20
1.038066
 30
0.0
  0
VERTEX
  5
22E3
100
AcDbEntity
  8
ALPHA
 62
   255
100
AcDbVertex
100
AcDb2dVertex
 10
23.236088
 20
0.974949
 30
0.0
  0
VERTEX
  5
22E4
100
AcDbEntity
  8
ALPHA
 62
   255
100
AcDbVertex
100
AcDb2dVertex
 10
23.302285
 20
0.765585
 30
0.0
  0
VERTEX
  5
22E5
100
AcDbEntity
  8
ALPHA
 62
   255
100
AcDbVertex
100
AcDb2dVertex
 10
23.361029
 20
0.637811
 30
0.0
  0
VERTEX
  5
22E6
100
AcDbEntity
  8
ALPHA
 62
   255
100
AcDbVertex
100
AcDb2dVertex
 10
23.4407
 20
0.506958
 30
0.0
  0
VERTEX
  5
22E7
100
AcDbEntity
  8
ALPHA
 62
   255
100
AcDbVertex
100
AcDb2dVertex
 10
23.54417
 20
0.382263
 30
0.0
  0
VERTEX
  5
22E8
100
AcDbEntity
  8
ALPHA
 62
   255
100
AcDbVertex
100
AcDb2dVertex
 10
23.605728
 20
0.325111
 30
0.0
  0
VERTEX
  5
22E9
100
AcDbEntity
  8
ALPHA
 62
   255
100
AcDbVertex
100
AcDb2dVertex
 10
23.674312
 20
0.272963
 30
0.0
  0
VERTEX
  5
22EA
100
AcDbEntity
  8
ALPHA
 62
   255
100
AcDbVertex
100
AcDb2dVertex
 10
23.750283
 20
0.226972
 30
0.0
  0
VERTEX
  5
22EB
100
AcDbEntity
  8
ALPHA
 62
   255
100
AcDbVertex
100
AcDb2dVertex
 10
23.833999
 20
0.188293
 30
0.0
  0
VERTEX
  5
22EC
100
AcDbEntity
  8
ALPHA
 62
   255
100
AcDbVertex
100
AcDb2dVertex
 10
23.925819
 20
0.158082
 30
0.0
  0
VERTEX
  5
22ED
100
AcDbEntity
  8
ALPHA
 62
   255
100
AcDbVertex
100
AcDb2dVertex
 10
24.026102
 20
0.137492
 30
0.0
  0
VERTEX
  5
22EE
100
AcDbEntity
  8
ALPHA
 62
   255
100
AcDbVertex
100
AcDb2dVertex
 10
24.135208
 20
0.127678
 30
0.0
  0
VERTEX
  5
22EF
100
AcDbEntity
  8
ALPHA
 62
   255
100
AcDbVertex
100
AcDb2dVertex
 10
24.253495
 20
0.129795
 30
0.0
  0
VERTEX
  5
22F0
100
AcDbEntity
  8
ALPHA
 62
   255
100
AcDbVertex
100
AcDb2dVertex
 10
24.381323
 20
0.144997
 30
0.0
  0
VERTEX
  5
22F1
100
AcDbEntity
  8
ALPHA
 62
   255
100
AcDbVertex
100
AcDb2dVertex
 10
24.51905
 20
0.174438
 30
0.0
  0
VERTEX
  5
22F2
100
AcDbEntity
  8
ALPHA
 62
   255
100
AcDbVertex
100
AcDb2dVertex
 10
24.825639
 20
0.28066
 30
0.0
  0
VERTEX
  5
22F3
100
AcDbEntity
  8
ALPHA
 62
   255
100
AcDbVertex
100
AcDb2dVertex
 10
25.176134
 20
0.457696
 30
0.0
  0
VERTEX
  5
22F4
100
AcDbEntity
  8
ALPHA
 62
   255
100
AcDbVertex
100
AcDb2dVertex
 10
26.020336
 20
1.061158
 30
0.0
  0
SEQEND
  5
22F5
100
AcDbEntity
  8
ALPHA
  0
POLYLINE
  5
22F6
100
AcDbEntity
  8
ALPHA
 62
   255
100
AcDb2dPolyline
 66
     1
 10
0.0
 20
0.0
 30
0.0
  0
VERTEX
  5
22F7
100
AcDbEntity
  8
ALPHA
 62
   255
100
AcDbVertex
100
AcDb2dVertex
 10
26.020336
 20
1.061158
 30
0.0
  0
VERTEX
  5
22F8
100
AcDbEntity
  8
ALPHA
 62
   255
100
AcDbVertex
100
AcDb2dVertex
 10
26.824835
 20
0.57827
 30
0.0
  0
VERTEX
  5
22F9
100
AcDbEntity
  8
ALPHA
 62
   255
100
AcDbVertex
100
AcDb2dVertex
 10
27.163733
 20
0.436606
 30
0.0
  0
VERTEX
  5
22FA
100
AcDbEntity
  8
ALPHA
 62
   255
100
AcDbVertex
100
AcDb2dVertex
 10
27.463411
 20
0.351608
 30
0.0
  0
VERTEX
  5
22FB
100
AcDbEntity
  8
ALPHA
 62
   255
100
AcDbVertex
100
AcDb2dVertex
 10
27.726129
 20
0.315884
 30
0.0
  0
VERTEX
  5
22FC
100
AcDbEntity
  8
ALPHA
 62
   255
100
AcDbVertex
100
AcDb2dVertex
 10
27.954145
 20
0.322043
 30
0.0
  0
VERTEX
  5
22FD
100
AcDbEntity
  8
ALPHA
 62
   255
100
AcDbVertex
100
AcDb2dVertex
 10
28.055847
 20
0.338519
 30
0.0
  0
VERTEX
  5
22FE
100
AcDbEntity
  8
ALPHA
 62
   255
100
AcDbVertex
100
AcDb2dVertex
 10
28.14972
 20
0.362695
 30
0.0
  0
VERTEX
  5
22FF
100
AcDbEntity
  8
ALPHA
 62
   255
100
AcDbVertex
100
AcDb2dVertex
 10
28.236049
 20
0.393645
 30
0.0
  0
VERTEX
  5
2300
100
AcDbEntity
  8
ALPHA
 62
   255
100
AcDbVertex
100
AcDb2dVertex
 10
28.315114
 20
0.430447
 30
0.0
  0
VERTEX
  5
2301
100
AcDbEntity
  8
ALPHA
 62
   255
100
AcDbVertex
100
AcDb2dVertex
 10
28.452587
 20
0.517909
 30
0.0
  0
VERTEX
  5
2302
100
AcDbEntity
  8
ALPHA
 62
   255
100
AcDbVertex
100
AcDb2dVertex
 10
28.564398
 20
0.617689
 30
0.0
  0
VERTEX
  5
2303
100
AcDbEntity
  8
ALPHA
 62
   255
100
AcDbVertex
100
AcDb2dVertex
 10
28.652807
 20
0.722397
 30
0.0
  0
VERTEX
  5
2304
100
AcDbEntity
  8
ALPHA
 62
   255
100
AcDbVertex
100
AcDb2dVertex
 10
28.720075
 20
0.824641
 30
0.0
  0
VERTEX
  5
2305
100
AcDbEntity
  8
ALPHA
 62
   255
100
AcDbVertex
100
AcDb2dVertex
 10
28.800223
 20
0.992174
 30
0.0
  0
VERTEX
  5
2306
100
AcDbEntity
  8
ALPHA
 62
   255
100
AcDbVertex
100
AcDb2dVertex
 10
28.817623
 20
1.04268
 30
0.0
  0
VERTEX
  5
2307
100
AcDbEntity
  8
ALPHA
 62
   255
100
AcDbVertex
100
AcDb2dVertex
 10
28.821644
 20
1.056384
 30
0.0
  0
VERTEX
  5
2308
100
AcDbEntity
  8
ALPHA
 62
   255
100
AcDbVertex
100
AcDb2dVertex
 10
28.822921
 20
1.061158
 30
0.0
  0
SEQEND
  5
2309
100
AcDbEntity
  8
ALPHA
  0
POLYLINE
  5
230A
100
AcDbEntity
  8
ALPHA
 62
   255
100
AcDb2dPolyline
 66
     1
 10
0.0
 20
0.0
 30
0.0
  0
VERTEX
  5
230B
100
AcDbEntity
  8
ALPHA
 62
   255
100
AcDbVertex
100
AcDb2dVertex
 10
28.822921
 20
1.061158
 30
0.0
  0
VERTEX
  5
230C
100
AcDbEntity
  8
ALPHA
 62
   255
100
AcDbVertex
100
AcDb2dVertex
 10
28.822921
 20
6.868555
 30
0.0
  0
SEQEND
  5
230D
100
AcDbEntity
  8
ALPHA
  0
POLYLINE
  5
230E
100
AcDbEntity
  8
ALPHA
 62
   255
100
AcDb2dPolyline
 66
     1
 10
0.0
 20
0.0
 30
0.0
  0
VERTEX
  5
230F
100
AcDbEntity
  8
ALPHA
 62
   255
100
AcDbVertex
100
AcDb2dVertex
 10
42.273952
 20
29.573112
 30
0.0
  0
VERTEX
  5
2310
100
AcDbEntity
  8
ALPHA
 62
   255
100
AcDbVertex
100
AcDb2dVertex
 10
40.455286
 20
31.37662
 30
0.0
  0
SEQEND
  5
2311
100
AcDbEntity
  8
ALPHA
  0
POLYLINE
  5
2312
100
AcDbEntity
  8
ALPHA
 62
   255
100
AcDb2dPolyline
 66
     1
 10
0.0
 20
0.0
 30
0.0
  0
VERTEX
  5
2313
100
AcDbEntity
  8
ALPHA
 62
   255
100
AcDbVertex
100
AcDb2dVertex
 10
40.455286
 20
31.37662
 30
0.0
  0
VERTEX
  5
2314
100
AcDbEntity
  8
ALPHA
 62
   255
100
AcDbVertex
100
AcDb2dVertex
 10
1.956344
 20
31.37662
 30
0.0
  0
SEQEND
  5
2315
100
AcDbEntity
  8
ALPHA
  0
POLYLINE
  5
2316
100
AcDbEntity
  8
ALPHA
 62
   255
100
AcDb2dPolyline
 66
     1
 10
0.0
 20
0.0
 30
0.0
  0
VERTEX
  5
2317
100
AcDbEntity
  8
ALPHA
 62
   255
100
AcDbVertex
100
AcDb2dVertex
 10
1.956344
 20
31.37662
 30
0.0
  0
VERTEX
  5
2318
100
AcDbEntity
  8
ALPHA
 62
   255
100
AcDbVertex
100
AcDb2dVertex
 10
0.137334
 20
29.573112
 30
0.0
  0
SEQEND
  5
2319
100
AcDbEntity
  8
ALPHA
  0
POLYLINE
  5
231A
100
AcDbEntity
  8
ALPHA
 62
   255
100
AcDb2dPolyline
 66
     1
 10
0.0
 20
0.0
 30
0.0
  0
VERTEX
  5
231B
100
AcDbEntity
  8
ALPHA
 62
   255
100
AcDbVertex
100
AcDb2dVertex
 10
0.137334
 20
29.573112
 30
0.0
  0
VERTEX
  5
231C
100
AcDbEntity
  8
ALPHA
 62
   255
100
AcDbVertex
100
AcDb2dVertex
 10
0.137334
 20
25.180271
 30
0.0
  0
SEQEND
  5
231D
100
AcDbEntity
  8
ALPHA
  0
POLYLINE
  5
231E
100
AcDbEntity
  8
ALPHA
 62
   255
100
AcDb2dPolyline
 66
     1
 10
0.0
 20
0.0
 30
0.0
  0
VERTEX
  5
231F
100
AcDbEntity
  8
ALPHA
 62
   255
100
AcDbVertex
100
AcDb2dVertex
 10
0.137334
 20
25.180271
 30
0.0
  0
VERTEX
  5
2320
100
AcDbEntity
  8
ALPHA
 62
   255
100
AcDbVertex
100
AcDb2dVertex
 10
1.956344
 20
23.376764
 30
0.0
  0
SEQEND
  5
2321
100
AcDbEntity
  8
ALPHA
  0
POLYLINE
  5
2322
100
AcDbEntity
  8
ALPHA
 62
   255
100
AcDb2dPolyline
 66
     1
 10
0.0
 20
0.0
 30
0.0
  0
VERTEX
  5
2323
100
AcDbEntity
  8
ALPHA
 62
   255
100
AcDbVertex
100
AcDb2dVertex
 10
1.956344
 20
23.376764
 30
0.0
  0
VERTEX
  5
2324
100
AcDbEntity
  8
ALPHA
 62
   255
100
AcDbVertex
100
AcDb2dVertex
 10
40.455286
 20
23.376764
 30
0.0
  0
SEQEND
  5
2325
100
AcDbEntity
  8
ALPHA
  0
POLYLINE
  5
2326
100
AcDbEntity
  8
ALPHA
 62
   255
100
AcDb2dPolyline
 66
     1
 10
0.0
 20
0.0
 30
0.0
  0
VERTEX
  5
2327
100
AcDbEntity
  8
ALPHA
 62
   255
100
AcDbVertex
100
AcDb2dVertex
 10
40.455286
 20
23.376764
 30
0.0
  0
VERTEX
  5
2328
100
AcDbEntity
  8
ALPHA
 62
   255
100
AcDbVertex
100
AcDb2dVertex
 10
42.273952
 20
25.180271
 30
0.0
  0
SEQEND
  5
2329
100
AcDbEntity
  8
ALPHA
  0
POLYLINE
  5
232A
100
AcDbEntity
  8
ALPHA
 62
   255
100
AcDb2dPolyline
 66
     1
 10
0.0
 20
0.0
 30
0.0
  0
VERTEX
  5
232B
100
AcDbEntity
  8
ALPHA
 62
   255
100
AcDbVertex
100
AcDb2dVertex
 10
42.273952
 20
25.180271
 30
0.0
  0
VERTEX
  5
232C
100
AcDbEntity
  8
ALPHA
 62
   255
100
AcDbVertex
100
AcDb2dVertex
 10
42.273952
 20
29.573112
 30
0.0
  0
SEQEND
  5
232D
100
AcDbEntity
  8
ALPHA
  0
POLYLINE
  5
232E
100
AcDbEntity
  8
ALPHA
 62
   255
100
AcDb2dPolyline
 66
     1
 10
0.0
 20
0.0
 30
0.0
  0
VERTEX
  5
232F
100
AcDbEntity
  8
ALPHA
 62
   255
100
AcDbVertex
100
AcDb2dVertex
 10
42.273952
 20
40.952952
 30
0.0
  0
VERTEX
  5
2330
100
AcDbEntity
  8
ALPHA
 62
   255
100
AcDbVertex
100
AcDb2dVertex
 10
40.455286
 20
42.756459
 30
0.0
  0
SEQEND
  5
2331
100
AcDbEntity
  8
ALPHA
  0
POLYLINE
  5
2332
100
AcDbEntity
  8
ALPHA
 62
   255
100
AcDb2dPolyline
 66
     1
 10
0.0
 20
0.0
 30
0.0
  0
VERTEX
  5
2333
100
AcDbEntity
  8
ALPHA
 62
   255
100
AcDbVertex
100
AcDb2dVertex
 10
40.455286
 20
42.756459
 30
0.0
  0
VERTEX
  5
2334
100
AcDbEntity
  8
ALPHA
 62
   255
100
AcDbVertex
100
AcDb2dVertex
 10
1.956344
 20
42.756459
 30
0.0
  0
SEQEND
  5
2335
100
AcDbEntity
  8
ALPHA
  0
POLYLINE
  5
2336
100
AcDbEntity
  8
ALPHA
 62
   255
100
AcDb2dPolyline
 66
     1
 10
0.0
 20
0.0
 30
0.0
  0
VERTEX
  5
2337
100
AcDbEntity
  8
ALPHA
 62
   255
100
AcDbVertex
100
AcDb2dVertex
 10
1.956344
 20
42.756459
 30
0.0
  0
VERTEX
  5
2338
100
AcDbEntity
  8
ALPHA
 62
   255
100
AcDbVertex
100
AcDb2dVertex
 10
0.137334
 20
40.952952
 30
0.0
  0
SEQEND
  5
2339
100
AcDbEntity
  8
ALPHA
  0
POLYLINE
  5
233A
100
AcDbEntity
  8
ALPHA
 62
   255
100
AcDb2dPolyline
 66
     1
 10
0.0
 20
0.0
 30
0.0
  0
VERTEX
  5
233B
100
AcDbEntity
  8
ALPHA
 62
   255
100
AcDbVertex
100
AcDb2dVertex
 10
0.137334
 20
40.952952
 30
0.0
  0
VERTEX
  5
233C
100
AcDbEntity
  8
ALPHA
 62
   255
100
AcDbVertex
100
AcDb2dVertex
 10
0.137334
 20
36.560111
 30
0.0
  0
SEQEND
  5
233D
100
AcDbEntity
  8
ALPHA
  0
POLYLINE
  5
233E
100
AcDbEntity
  8
ALPHA
 62
   255
100
AcDb2dPolyline
 66
     1
 10
0.0
 20
0.0
 30
0.0
  0
VERTEX
  5
233F
100
AcDbEntity
  8
ALPHA
 62
   255
100
AcDbVertex
100
AcDb2dVertex
 10
0.137334
 20
36.560111
 30
0.0
  0
VERTEX
  5
2340
100
AcDbEntity
  8
ALPHA
 62
   255
100
AcDbVertex
100
AcDb2dVertex
 10
1.956344
 20
34.756259
 30
0.0
  0
SEQEND
  5
2341
100
AcDbEntity
  8
ALPHA
  0
POLYLINE
  5
2342
100
AcDbEntity
  8
ALPHA
 62
   255
100
AcDb2dPolyline
 66
     1
 10
0.0
 20
0.0
 30
0.0
  0
VERTEX
  5
2343
100
AcDbEntity
  8
ALPHA
 62
   255
100
AcDbVertex
100
AcDb2dVertex
 10
1.956344
 20
34.756259
 30
0.0
  0
VERTEX
  5
2344
100
AcDbEntity
  8
ALPHA
 62
   255
100
AcDbVertex
100
AcDb2dVertex
 10
40.455286
 20
34.756259
 30
0.0
  0
SEQEND
  5
2345
100
AcDbEntity
  8
ALPHA
  0
POLYLINE
  5
2346
100
AcDbEntity
  8
ALPHA
 62
   255
100
AcDb2dPolyline
 66
     1
 10
0.0
 20
0.0
 30
0.0
  0
VERTEX
  5
2347
100
AcDbEntity
  8
ALPHA
 62
   255
100
AcDbVertex
100
AcDb2dVertex
 10
40.455286
 20
34.756259
 30
0.0
  0
VERTEX
  5
2348
100
AcDbEntity
  8
ALPHA
 62
   255
100
AcDbVertex
100
AcDb2dVertex
 10
42.273952
 20
36.560111
 30
0.0
  0
SEQEND
  5
2349
100
AcDbEntity
  8
ALPHA
  0
POLYLINE
  5
234A
100
AcDbEntity
  8
ALPHA
 62
   255
100
AcDb2dPolyline
 66
     1
 10
0.0
 20
0.0
 30
0.0
  0
VERTEX
  5
234B
100
AcDbEntity
  8
ALPHA
 62
   255
100
AcDbVertex
100
AcDb2dVertex
 10
42.273952
 20
36.560111
 30
0.0
  0
VERTEX
  5
234C
100
AcDbEntity
  8
ALPHA
 62
   255
100
AcDbVertex
100
AcDb2dVertex
 10
42.273952
 20
40.952952
 30
0.0
  0
SEQEND
  5
234D
100
AcDbEntity
  8
ALPHA
  0
DIMENSION
  5
235A
100
AcDbEntity
  8
COTATION1
100
AcDbDimension
  2
*D7
 10
36.204728
 20
54.199319
 30
0.0
 11
21.205299
 21
56.449319
 31
0.0
 70
    32
  1
M<>
  3
SC_STAND
100
AcDbAlignedDimension
 13
6.20587
 23
47.468661
 33
0.0
 14
36.204728
 24
47.468661
 34
0.0
100
AcDbRotatedDimension
  0
DIMENSION
  5
2372
100
AcDbEntity
  8
COTATION1
100
AcDbDimension
  2
*D8
 10
49.680867
 20
15.468547
 30
0.0
 11
47.430867
 21
31.468604
 31
0.0
 70
    32
  3
SC_STAND
100
AcDbAlignedDimension
 13
36.204728
 23
47.468661
 33
0.0
 14
36.204728
 24
15.468547
 34
0.0
 50
90.0
100
AcDbRotatedDimension
  0
DIMENSION
  5
237F
100
AcDbEntity
  8
COTATION1
100
AcDbDimension
  2
*D9
 10
57.881176
 20
6.868555
 30
0.0
 11
55.631176
 21
27.168608
 31
0.0
 70
    32
  3
SC_STAND
100
AcDbAlignedDimension
 13
43.064047
 23
47.468661
 33
0.0
 14
34.954847
 24
6.868555
 34
0.0
 50
90.0
100
AcDbRotatedDimension
  0
ENDSEC
  0
SECTION
  2
OBJECTS
  0
DICTIONARY
  5
F8
100
AcDbDictionary
  3
ACAD_GROUP
350
F9
  3
ACAD_MLINESTYLE
350
106
  3
ACDBVARIABLEDICTIONARY
350
143
  0
DICTIONARY
  5
F9
102
{ACAD_REACTORS
330
F8
102
}
100
AcDbDictionary
  0
DICTIONARY
  5
106
102
{ACAD_REACTORS
330
F8
102
}
100
AcDbDictionary
  3
STANDARD
350
107
  0
DICTIONARY
  5
143
102
{ACAD_REACTORS
330
F8
102
}
100
AcDbDictionary
  3
DIMADEC
350
144
  0
MLINESTYLE
  5
107
102
{ACAD_REACTORS
330
106
102
}
100
AcDbMlineStyle
  2
STANDARD
 70
     0
  3

 62
   256
 51
90.0
 52
90.0
 71
     2
 49
0.5
 62
   256
  6
BYLAYER
 49
-0.5
 62
   256
  6
BYLAYER
  0
DICTIONARYVAR
  5
144
102
{ACAD_REACTORS
330
143
102
}
100
DictionaryVariables
280
     0
  1
0
  0
ENDSEC
  0
EOF
