  0
SECTION
  2
HEADER
  9
$ACADVER
  1
AC1014
  9
$ACADMAINTVER
 70
     9
  9
$DWGCODEPAGE
  3
ANSI_1252
  9
$INSBASE
 10
0.0
 20
0.0
 30
0.0
  9
$EXTMIN
 10
0.0
 20
0.0
 30
0.0
  9
$EXTMAX
 10
16.40000099999999
 20
10.25
 30
0.0
  9
$LIMMIN
 10
0.0
 20
0.0
  9
$LIMMAX
 10
32.80000199999999
 20
20.5
  9
$ORTHOMODE
 70
     0
  9
$REGENMODE
 70
     1
  9
$FILLMODE
 70
     1
  9
$QTEXTMODE
 70
     0
  9
$MIRRTEXT
 70
     1
  9
$DRAGMODE
 70
     2
  9
$LTSCALE
 40
1.0
  9
$OSMODE
 70
   255
  9
$ATTMODE
 70
     1
  9
$TEXTSIZE
 40
0.2
  9
$TRACEWID
 40
0.05
  9
$TEXTSTYLE
  7
ROMANS
  9
$CLAYER
  8
0
  9
$CELTYPE
  6
BYLAYER
  9
$CECOLOR
 62
   256
  9
$CELTSCALE
 40
1.0
  9
$DELOBJ
 70
     1
  9
$DISPSILH
 70
     0
  9
$DIMSCALE
 40
0.0
  9
$DIMASZ
 40
0.07
  9
$DIMEXO
 40
0.0625
  9
$DIMDLI
 40
0.38
  9
$DIMRND
 40
0.001
  9
$DIMDLE
 40
0.0
  9
$DIMEXE
 40
0.0625
  9
$DIMTP
 40
0.0
  9
$DIMTM
 40
0.0
  9
$DIMTXT
 40
0.1
  9
$DIMCEN
 40
0.09
  9
$DIMTSZ
 40
0.0
  9
$DIMTOL
 70
     0
  9
$DIMLIM
 70
     0
  9
$DIMTIH
 70
     1
  9
$DIMTOH
 70
     1
  9
$DIMSE1
 70
     0
  9
$DIMSE2
 70
     0
  9
$DIMTAD
 70
     0
  9
$DIMZIN
 70
     4
  9
$DIMBLK
  1
SEARROW
  9
$DIMASO
 70
     1
  9
$DIMSHO
 70
     1
  9
$DIMPOST
  1

  9
$DIMAPOST
  1

  9
$DIMALT
 70
     0
  9
$DIMALTD
 70
     1
  9
$DIMALTF
 40
25.4
  9
$DIMLFAC
 40
1.0
  9
$DIMTOFL
 70
     0
  9
$DIMTVP
 40
0.0
  9
$DIMTIX
 70
     0
  9
$DIMSOXD
 70
     0
  9
$DIMSAH
 70
     0
  9
$DIMBLK1
  1

  9
$DIMBLK2
  1

  9
$DIMSTYLE
  2
SCHNEIDERELECTRIC
  9
$DIMCLRD
 70
   256
  9
$DIMCLRE
 70
   256
  9
$DIMCLRT
 70
   256
  9
$DIMTFAC
 40
1.0
  9
$DIMGAP
 40
0.04
  9
$DIMJUST
 70
     0
  9
$DIMSD1
 70
     0
  9
$DIMSD2
 70
     0
  9
$DIMTOLJ
 70
     1
  9
$DIMTZIN
 70
     0
  9
$DIMALTZ
 70
     0
  9
$DIMALTTZ
 70
     0
  9
$DIMFIT
 70
     3
  9
$DIMUPT
 70
     0
  9
$DIMUNIT
 70
     2
  9
$DIMDEC
 70
     2
  9
$DIMTDEC
 70
     2
  9
$DIMALTU
 70
     2
  9
$DIMALTTD
 70
     1
  9
$DIMTXSTY
  7
ROMANS
  9
$DIMAUNIT
 70
     0
  9
$LUNITS
 70
     2
  9
$LUPREC
 70
     4
  9
$SKETCHINC
 40
0.1
  9
$FILLETRAD
 40
0.0
  9
$AUNITS
 70
     0
  9
$AUPREC
 70
     0
  9
$MENU
  1
.
  9
$ELEVATION
 40
0.0
  9
$PELEVATION
 40
0.0
  9
$THICKNESS
 40
0.0
  9
$LIMCHECK
 70
     0
  9
$BLIPMODE
 70
     0
  9
$CHAMFERA
 40
0.5
  9
$CHAMFERB
 40
0.5
  9
$CHAMFERC
 40
0.125
  9
$CHAMFERD
 40
0.7853981633974483
  9
$SKPOLY
 70
     0
  9
$TDCREATE
 40
2451764.576708576
  9
$TDUPDATE
 40
2452062.402920648
  9
$TDINDWG
 40
1.7313577315
  9
$TDUSRTIMER
 40
1.7313575000
  9
$USRTIMER
 70
     1
  9
$ANGBASE
 50
0.0
  9
$ANGDIR
 70
     0
  9
$PDMODE
 70
     0
  9
$PDSIZE
 40
0.0
  9
$PLINEWID
 40
0.0
  9
$COORDS
 70
     2
  9
$SPLFRAME
 70
     0
  9
$SPLINETYPE
 70
     6
  9
$SPLINESEGS
 70
     8
  9
$ATTDIA
 70
     0
  9
$ATTREQ
 70
     1
  9
$HANDLING
 70
 12289
  9
$HANDSEED
  5
85A9
  9
$SURFTAB1
 70
     6
  9
$SURFTAB2
 70
     6
  9
$SURFTYPE
 70
     6
  9
$SURFU
 70
     6
  9
$SURFV
 70
     6
  9
$UCSNAME
  2

  9
$UCSORG
 10
0.0
 20
0.0
 30
0.0
  9
$UCSXDIR
 10
1.0
 20
0.0
 30
0.0
  9
$UCSYDIR
 10
0.0
 20
1.0
 30
0.0
  9
$PUCSNAME
  2

  9
$PUCSORG
 10
0.0
 20
0.0
 30
0.0
  9
$PUCSXDIR
 10
1.0
 20
0.0
 30
0.0
  9
$PUCSYDIR
 10
0.0
 20
1.0
 30
0.0
  9
$USERI1
 70
     0
  9
$USERI2
 70
     0
  9
$USERI3
 70
     0
  9
$USERI4
 70
     0
  9
$USERI5
 70
     0
  9
$USERR1
 40
0.0
  9
$USERR2
 40
0.0
  9
$USERR3
 40
0.0
  9
$USERR4
 40
0.0
  9
$USERR5
 40
0.0
  9
$WORLDVIEW
 70
     1
  9
$SHADEDGE
 70
     3
  9
$SHADEDIF
 70
    70
  9
$TILEMODE
 70
     0
  9
$MAXACTVP
 70
    48
  9
$PINSBASE
 10
0.0
 20
0.0
 30
0.0
  9
$PLIMCHECK
 70
     0
  9
$PEXTMIN
 10
0.0
 20
-0.1507193079929352
 30
0.0
  9
$PEXTMAX
 10
16.40000099999999
 20
10.25
 30
0.0
  9
$PLIMMIN
 10
-0.3022988315385811
 20
-0.4421500682141223
  9
$PLIMMAX
 10
16.69770068786963
 20
10.55784969148998
  9
$UNITMODE
 70
     0
  9
$VISRETAIN
 70
     1
  9
$PLINEGEN
 70
     0
  9
$PSLTSCALE
 70
     1
  9
$TREEDEPTH
 70
  3020
  9
$PICKSTYLE
 70
     1
  9
$CMLSTYLE
  2
STANDARD
  9
$CMLJUST
 70
     0
  9
$CMLSCALE
 40
1.0
  9
$PROXYGRAPHICS
 70
     1
  9
$MEASUREMENT
 70
     0
  0
ENDSEC
  0
SECTION
  2
CLASSES
  0
CLASS
  1
ACDBDICTIONARYWDFLT
  2
AcDbDictionaryWithDefault
  3
AutoCAD 2000
 90
        0
280
     0
281
     0
  0
CLASS
  1
ACDBPLACEHOLDER
  2
AcDbPlaceHolder
  3
AutoCAD 2000
 90
        0
280
     0
281
     0
  0
CLASS
  1
LAYOUT
  2
AcDbLayout
  3
AutoCAD 2000
 90
        0
280
     0
281
     0
  0
CLASS
  1
LONG_TRANSACTION
  2
AcDbLongTransaction
  3
AutoCAD 2000
 90
        0
280
     0
281
     0
  0
CLASS
  1
LWPOLYLINE
  2
AcDbPolyline
  3
AutoCAD 2000
 90
        0
280
     0
281
     1
  0
CLASS
  1
HATCH
  2
AcDbHatch
  3
AutoCAD 2000
 90
        0
280
     0
281
     1
  0
CLASS
  1
XRECORD
  2
AcDbXrecord
  3
AutoCAD 2000
 90
        0
280
     0
281
     0
  0
CLASS
  1
LONG_TRANSACTION
  2
AcDbLongTransaction
  3
AutoCAD 2000
 90
        0
280
     0
281
     0
  0
CLASS
  1
LWPOLYLINE
  2
AcDbPolyline
  3
AutoCAD 2000
 90
        0
280
     0
281
     1
  0
CLASS
  1
HATCH
  2
AcDbHatch
  3
AutoCAD 2000
 90
        0
280
     0
281
     1
  0
CLASS
  1
XRECORD
  2
AcDbXrecord
  3
AutoCAD 2000
 90
        0
280
     0
281
     0
  0
CLASS
  1
LONG_TRANSACTION
  2
AcDbLongTransaction
  3
AutoCAD 2000
 90
        0
280
     0
281
     0
  0
CLASS
  1
LWPOLYLINE
  2
AcDbPolyline
  3
AutoCAD 2000
 90
        0
280
     0
281
     1
  0
CLASS
  1
HATCH
  2
AcDbHatch
  3
AutoCAD 2000
 90
        0
280
     0
281
     1
  0
CLASS
  1
XRECORD
  2
AcDbXrecord
  3
AutoCAD 2000
 90
        0
280
     0
281
     0
  0
CLASS
  1
PLOTSETTINGS
  2
AcDbPlotSettings
  3
AutoCAD 2000
 90
        0
280
     0
281
     0
  0
CLASS
  1
ACME_DOCUMENT
  2
AcMeDbDoc
  3
AcMeServices
 90
        0
280
     0
281
     0
  0
CLASS
  1
AMGSETTINGSOBJ
  2
AmgSettingsObj
  3
"AcadM|Product Description: AutoCAD Mechanical 2000|Company: Autodesk"
 90
        0
280
     0
281
     0
  0
CLASS
  1
ACMESCOPE
  2
AcMeScope
  3
AcMeServices
 90
        0
280
     0
281
     0
  0
CLASS
  1
ACMECOMMANDHISTORY
  2
AcMeCommandHistory
  3
AcMeServices
 90
        0
280
     0
281
     0
  0
CLASS
  1
DICTIONARYVAR
  2
AcDbDictionaryVar
  3
AutoCAD 2000
 90
        0
280
     0
281
     0
  0
CLASS
  1
ACIMSYSVARMAN
  2
AcImSysVarManager
  3
AcMeServices
 90
        0
280
     0
281
     0
  0
CLASS
  1
ACIMREALSYSVAR
  2
AcImRealSysVar
  3
AcMeServices
 90
        0
280
     0
281
     0
  0
CLASS
  1
ACIMINTSYSVAR
  2
AcImIntSysVar
  3
AcMeServices
 90
        0
280
     0
281
     0
  0
CLASS
  1
ACMEDRAWINGMAN
  2
AcMeDrawingMan
  3
AcMeServices
 90
        0
280
     0
281
     0
  0
CLASS
  1
ACMEVIEW
  2
AcMeView
  3
AcMeServices
 90
        0
280
     0
281
     0
  0
CLASS
  1
ACDBENTITYCACHE
  2
AcMeEntityCache
  3
AcMeServices
 90
        0
280
     0
281
     0
  0
CLASS
  1
GSMANAGER
  2
AcMeGSManager
  3
AcMeServices
 90
        0
280
     0
281
     0
  0
CLASS
  1
AmdtInternalReactor
  2
AmdtInternalReactor
  3
AcMeServices
 90
        0
280
     0
281
     0
  0
CLASS
  1
ACMESTATEMGR
  2
AcMeStateMgr
  3
AcMeServices
 90
        0
280
     0
281
     0
  0
CLASS
  1
ACME_DATABASE
  2
AcMeDbDatabase
  3
AcMeServices
 90
        0
280
     0
281
     0
  0
CLASS
  1
ACRFINSADJUSTERMGR
  2
AcRfInsAdjusterMgr
  3
AcMeServices
 90
        0
280
     0
281
     0
  0
CLASS
  1
ACMDATADICTIONARY
  2
AcmDataDictionary
  3
"AcmSymBB|Product Description: AutoCAD Mechanical 2000|Company: Autodesk"
 90
        0
280
     0
281
     0
  0
CLASS
  1
ACMDATAENTRYBLOCK
  2
AcmDataEntryBlock
  3
"AcmSymBB|Product Description: AutoCAD Mechanical 2000|Company: Autodesk"
 90
        0
280
     0
281
     0
  0
CLASS
  1
AMGOBJPROPCFG
  2
AmgObjPropCfg
  3
"AmgLay|Product Description: AutoCAD Mechanical 2000|Company: Autodesk"
 90
        1
280
     0
281
     0
  0
CLASS
  1
ACAMGFILTERDAT
  2
AcAmgFilterDat
  3
"AcadM|Product Description: AutoCAD Mechanical 2000|Company: Autodesk"
 90
        0
280
     0
281
     0
  0
CLASS
  1
LAYER_INDEX
  2
AcDbLayerIndex
  3
AutoCAD 2000
 90
        0
280
     0
281
     0
  0
CLASS
  1
IDBUFFER
  2
AcDbIdBuffer
  3
AutoCAD 2000
 90
        0
280
     0
281
     0
  0
CLASS
  1
LONG_TRANSACTION
  2
AcDbLongTransaction
  3
AutoCAD 2000
 90
        0
280
     0
281
     0
  0
CLASS
  1
LWPOLYLINE
  2
AcDbPolyline
  3
AutoCAD 2000
 90
        0
280
     0
281
     1
  0
CLASS
  1
HATCH
  2
AcDbHatch
  3
AutoCAD 2000
 90
        0
280
     0
281
     1
  0
CLASS
  1
XRECORD
  2
AcDbXrecord
  3
AutoCAD 2000
 90
        0
280
     0
281
     0
  0
CLASS
  1
LONG_TRANSACTION
  2
AcDbLongTransaction
  3
AutoCAD 2000
 90
        0
280
     0
281
     0
  0
CLASS
  1
LWPOLYLINE
  2
AcDbPolyline
  3
AutoCAD 2000
 90
        0
280
     0
281
     1
  0
CLASS
  1
HATCH
  2
AcDbHatch
  3
AutoCAD 2000
 90
        0
280
     0
281
     1
  0
CLASS
  1
XRECORD
  2
AcDbXrecord
  3
AutoCAD 2000
 90
        0
280
     0
281
     0
  0
CLASS
  1
LONG_TRANSACTION
  2
AcDbLongTransaction
  3
AutoCAD 2000
 90
        0
280
     0
281
     0
  0
CLASS
  1
LWPOLYLINE
  2
AcDbPolyline
  3
AutoCAD 2000
 90
        0
280
     0
281
     1
  0
CLASS
  1
HATCH
  2
AcDbHatch
  3
AutoCAD 2000
 90
        0
280
     0
281
     1
  0
CLASS
  1
XRECORD
  2
AcDbXrecord
  3
AutoCAD 2000
 90
        0
280
     0
281
     0
  0
CLASS
  1
LONG_TRANSACTION
  2
AcDbLongTransaction
  3
AutoCAD 2000
 90
        0
280
     0
281
     0
  0
CLASS
  1
LWPOLYLINE
  2
AcDbPolyline
  3
AutoCAD 2000
 90
        0
280
     0
281
     1
  0
CLASS
  1
HATCH
  2
AcDbHatch
  3
AutoCAD 2000
 90
        0
280
     0
281
     1
  0
CLASS
  1
XRECORD
  2
AcDbXrecord
  3
AutoCAD 2000
 90
        0
280
     0
281
     0
  0
CLASS
  1
LONG_TRANSACTION
  2
AcDbLongTransaction
  3
AutoCAD 2000
 90
        0
280
     0
281
     0
  0
CLASS
  1
LWPOLYLINE
  2
AcDbPolyline
  3
AutoCAD 2000
 90
        0
280
     0
281
     1
  0
CLASS
  1
HATCH
  2
AcDbHatch
  3
AutoCAD 2000
 90
        0
280
     0
281
     1
  0
CLASS
  1
XRECORD
  2
AcDbXrecord
  3
AutoCAD 2000
 90
        0
280
     0
281
     0
  0
CLASS
  1
LONG_TRANSACTION
  2
AcDbLongTransaction
  3
AutoCAD 2000
 90
        0
280
     0
281
     0
  0
CLASS
  1
LWPOLYLINE
  2
AcDbPolyline
  3
AutoCAD 2000
 90
        0
280
     0
281
     1
  0
CLASS
  1
HATCH
  2
AcDbHatch
  3
AutoCAD 2000
 90
        0
280
     0
281
     1
  0
CLASS
  1
XRECORD
  2
AcDbXrecord
  3
AutoCAD 2000
 90
        0
280
     0
281
     0
  0
CLASS
  1
LONG_TRANSACTION
  2
AcDbLongTransaction
  3
AutoCAD 2000
 90
        0
280
     0
281
     0
  0
CLASS
  1
LWPOLYLINE
  2
AcDbPolyline
  3
AutoCAD 2000
 90
        0
280
     0
281
     1
  0
CLASS
  1
HATCH
  2
AcDbHatch
  3
AutoCAD 2000
 90
        0
280
     0
281
     1
  0
CLASS
  1
XRECORD
  2
AcDbXrecord
  3
AutoCAD 2000
 90
        0
280
     0
281
     0
  0
CLASS
  1
LONG_TRANSACTION
  2
AcDbLongTransaction
  3
AutoCAD 2000
 90
        0
280
     0
281
     0
  0
CLASS
  1
LWPOLYLINE
  2
AcDbPolyline
  3
AutoCAD 2000
 90
        0
280
     0
281
     1
  0
CLASS
  1
HATCH
  2
AcDbHatch
  3
AutoCAD 2000
 90
        0
280
     0
281
     1
  0
CLASS
  1
XRECORD
  2
AcDbXrecord
  3
AutoCAD 2000
 90
        0
280
     0
281
     0
  0
CLASS
  1
LONG_TRANSACTION
  2
AcDbLongTransaction
  3
AutoCAD 2000
 90
        0
280
     0
281
     0
  0
CLASS
  1
LWPOLYLINE
  2
AcDbPolyline
  3
AutoCAD 2000
 90
        0
280
     0
281
     1
  0
CLASS
  1
HATCH
  2
AcDbHatch
  3
AutoCAD 2000
 90
        0
280
     0
281
     1
  0
CLASS
  1
XRECORD
  2
AcDbXrecord
  3
AutoCAD 2000
 90
        0
280
     0
281
     0
  0
CLASS
  1
LONG_TRANSACTION
  2
AcDbLongTransaction
  3
AutoCAD 2000
 90
        0
280
     0
281
     0
  0
CLASS
  1
LWPOLYLINE
  2
AcDbPolyline
  3
AutoCAD 2000
 90
        0
280
     0
281
     1
  0
CLASS
  1
HATCH
  2
AcDbHatch
  3
AutoCAD 2000
 90
        0
280
     0
281
     1
  0
CLASS
  1
XRECORD
  2
AcDbXrecord
  3
AutoCAD 2000
 90
        0
280
     0
281
     0
  0
CLASS
  1
LONG_TRANSACTION
  2
AcDbLongTransaction
  3
AutoCAD 2000
 90
        0
280
     0
281
     0
  0
CLASS
  1
LWPOLYLINE
  2
AcDbPolyline
  3
AutoCAD 2000
 90
        0
280
     0
281
     1
  0
CLASS
  1
HATCH
  2
AcDbHatch
  3
AutoCAD 2000
 90
        0
280
     0
281
     1
  0
CLASS
  1
XRECORD
  2
AcDbXrecord
  3
AutoCAD 2000
 90
        0
280
     0
281
     0
  0
CLASS
  1
LONG_TRANSACTION
  2
AcDbLongTransaction
  3
AutoCAD 2000
 90
        0
280
     0
281
     0
  0
CLASS
  1
LWPOLYLINE
  2
AcDbPolyline
  3
AutoCAD 2000
 90
        0
280
     0
281
     1
  0
CLASS
  1
HATCH
  2
AcDbHatch
  3
AutoCAD 2000
 90
        0
280
     0
281
     1
  0
CLASS
  1
XRECORD
  2
AcDbXrecord
  3
AutoCAD 2000
 90
        0
280
     0
281
     0
  0
CLASS
  1
LONG_TRANSACTION
  2
AcDbLongTransaction
  3
AutoCAD 2000
 90
        0
280
     0
281
     0
  0
CLASS
  1
LWPOLYLINE
  2
AcDbPolyline
  3
AutoCAD 2000
 90
        0
280
     0
281
     1
  0
CLASS
  1
HATCH
  2
AcDbHatch
  3
AutoCAD 2000
 90
        0
280
     0
281
     1
  0
CLASS
  1
XRECORD
  2
AcDbXrecord
  3
AutoCAD 2000
 90
        0
280
     0
281
     0
  0
CLASS
  1
LONG_TRANSACTION
  2
AcDbLongTransaction
  3
AutoCAD 2000
 90
        0
280
     0
281
     0
  0
CLASS
  1
LWPOLYLINE
  2
AcDbPolyline
  3
AutoCAD 2000
 90
        0
280
     0
281
     1
  0
CLASS
  1
HATCH
  2
AcDbHatch
  3
AutoCAD 2000
 90
        0
280
     0
281
     1
  0
CLASS
  1
XRECORD
  2
AcDbXrecord
  3
AutoCAD 2000
 90
        0
280
     0
281
     0
  0
CLASS
  1
LONG_TRANSACTION
  2
AcDbLongTransaction
  3
AutoCAD 2000
 90
        0
280
     0
281
     0
  0
CLASS
  1
LWPOLYLINE
  2
AcDbPolyline
  3
AutoCAD 2000
 90
        0
280
     0
281
     1
  0
CLASS
  1
HATCH
  2
AcDbHatch
  3
AutoCAD 2000
 90
        0
280
     0
281
     1
  0
CLASS
  1
XRECORD
  2
AcDbXrecord
  3
AutoCAD 2000
 90
        0
280
     0
281
     0
  0
CLASS
  1
LONG_TRANSACTION
  2
AcDbLongTransaction
  3
AutoCAD 2000
 90
        0
280
     0
281
     0
  0
CLASS
  1
LWPOLYLINE
  2
AcDbPolyline
  3
AutoCAD 2000
 90
        0
280
     0
281
     1
  0
CLASS
  1
HATCH
  2
AcDbHatch
  3
AutoCAD 2000
 90
        0
280
     0
281
     1
  0
CLASS
  1
XRECORD
  2
AcDbXrecord
  3
AutoCAD 2000
 90
        0
280
     0
281
     0
  0
CLASS
  1
LONG_TRANSACTION
  2
AcDbLongTransaction
  3
AutoCAD 2000
 90
        0
280
     0
281
     0
  0
CLASS
  1
LWPOLYLINE
  2
AcDbPolyline
  3
AutoCAD 2000
 90
        0
280
     0
281
     1
  0
CLASS
  1
HATCH
  2
AcDbHatch
  3
AutoCAD 2000
 90
        0
280
     0
281
     1
  0
CLASS
  1
XRECORD
  2
AcDbXrecord
  3
AutoCAD 2000
 90
        0
280
     0
281
     0
  0
ENDSEC
  0
SECTION
  2
TABLES
  0
TABLE
  2
VPORT
  5
8
330
0
100
AcDbSymbolTable
 70
     1
  0
VPORT
  5
84EB
330
8
100
AcDbSymbolTableRecord
100
AcDbViewportTableRecord
  2
*ACTIVE
 70
     0
 10
0.0
 20
0.0
 11
1.0
 21
1.0
 12
8.231621785262621
 22
5.12468723658785
 13
0.0
 23
0.0
 14
0.5
 24
0.5
 15
0.5
 25
0.5
 16
0.0
 26
0.0
 36
1.0
 17
0.0
 27
0.0
 37
0.0
 40
10.33307030832658
 41
1.684069611780455
 42
50.0
 43
0.0
 44
0.0
 50
0.0
 51
0.0
 71
     0
 72
   100
 73
     1
 74
     2
 75
     0
 76
     0
 77
     0
 78
     0
  0
ENDTAB
  0
TABLE
  2
LTYPE
  5
5
330
0
100
AcDbSymbolTable
 70
     6
  0
LTYPE
  5
14
330
5
100
AcDbSymbolTableRecord
100
AcDbLinetypeTableRecord
  2
BYBLOCK
 70
     0
  3

 72
    65
 73
     0
 40
0.0
  0
LTYPE
  5
15
330
5
100
AcDbSymbolTableRecord
100
AcDbLinetypeTableRecord
  2
BYLAYER
 70
     0
  3

 72
    65
 73
     0
 40
0.0
  0
LTYPE
  5
16
330
5
100
AcDbSymbolTableRecord
100
AcDbLinetypeTableRecord
  2
CONTINUOUS
 70
     0
  3
Solid line
 72
    65
 73
     0
 40
0.0
  0
LTYPE
  5
3D
330
5
100
AcDbSymbolTableRecord
100
AcDbLinetypeTableRecord
  2
CENTER2
 70
     0
  3
Center (.5x) ___ _ ___ _ ___ _ ___ _ ___ _ ___
 72
    65
 73
     4
 40
1.125
 49
0.75
 74
     0
 49
-0.125
 74
     0
 49
0.125
 74
     0
 49
-0.125
 74
     0
  0
LTYPE
  5
3E
330
5
100
AcDbSymbolTableRecord
100
AcDbLinetypeTableRecord
  2
DASHDOT2
 70
     0
  3
Dash dot (.5x) _._._._._._._._._._._._._._._.
 72
    65
 73
     4
 40
0.5
 49
0.25
 74
     0
 49
-0.125
 74
     0
 49
0.0
 74
     0
 49
-0.125
 74
     0
  0
LTYPE
  5
3F
330
5
100
AcDbSymbolTableRecord
100
AcDbLinetypeTableRecord
  2
DASHED2
 70
     0
  3
Dashed (.5x) _ _ _ _ _ _ _ _ _ _ _ _ _ _ _ _ _
 72
    65
 73
     2
 40
0.375
 49
0.25
 74
     0
 49
-0.125
 74
     0
  0
LTYPE
  5
40
330
5
100
AcDbSymbolTableRecord
100
AcDbLinetypeTableRecord
  2
HIDDEN2
 70
     0
  3
Hidden (.5x) _ _ _ _ _ _ _ _ _ _ _ _ _ _ _ _ _
 72
    65
 73
     2
 40
0.1875
 49
0.125
 74
     0
 49
-0.0625
 74
     0
  0
LTYPE
  5
41
330
5
100
AcDbSymbolTableRecord
100
AcDbLinetypeTableRecord
  2
PHANTOM2
 70
     0
  3
Phantom (.5x) ___ _ _ ___ _ _ ___ _ _ ___ _ _
 72
    65
 73
     6
 40
1.25
 49
0.625
 74
     0
 49
-0.125
 74
     0
 49
0.125
 74
     0
 49
-0.125
 74
     0
 49
0.125
 74
     0
 49
-0.125
 74
     0
  0
ENDTAB
  0
TABLE
  2
LAYER
  5
2
330
0
100
AcDbSymbolTable
 70
    25
  0
LAYER
  5
10
330
2
100
AcDbSymbolTableRecord
100
AcDbLayerTableRecord
  2
0
 70
     0
 62
     7
  6
CONTINUOUS
  0
LAYER
  5
42
330
2
100
AcDbSymbolTableRecord
100
AcDbLayerTableRecord
  2
BLOCKS
 70
     0
 62
     7
  6
CONTINUOUS
  0
LAYER
  5
43
330
2
100
AcDbSymbolTableRecord
100
AcDbLayerTableRecord
  2
CENTER1
 70
     0
 62
     2
  6
CENTER2
  0
LAYER
  5
44
330
2
100
AcDbSymbolTableRecord
100
AcDbLayerTableRecord
  2
CENTER2
 70
     0
 62
    50
  6
CENTER2
  0
LAYER
  5
45
330
2
100
AcDbSymbolTableRecord
100
AcDbLayerTableRecord
  2
CENTER3
 70
     0
 62
    51
  6
CENTER2
  0
LAYER
  5
46
330
2
100
AcDbSymbolTableRecord
100
AcDbLayerTableRecord
  2
CONSTRUCTION
 70
     0
 62
   241
  6
DASHED2
  0
LAYER
  5
47
330
2
100
AcDbSymbolTableRecord
100
AcDbLayerTableRecord
  2
CONTINUOUS1
 70
     0
 62
     7
  6
CONTINUOUS
  0
LAYER
  5
48
330
2
100
AcDbSymbolTableRecord
100
AcDbLayerTableRecord
  2
CONTINUOUS2
 70
     0
 62
   254
  6
CONTINUOUS
  0
LAYER
  5
49
330
2
100
AcDbSymbolTableRecord
100
AcDbLayerTableRecord
  2
CONTINUOUS3
 70
     0
 62
   253
  6
CONTINUOUS
  0
LAYER
  5
4A
330
2
100
AcDbSymbolTableRecord
100
AcDbLayerTableRecord
  2
DASHDOT1
 70
     0
 62
     1
  6
DASHDOT2
  0
LAYER
  5
4B
330
2
100
AcDbSymbolTableRecord
100
AcDbLayerTableRecord
  2
DASHDOT2
 70
     0
 62
    10
  6
DASHDOT2
  0
LAYER
  5
4C
330
2
100
AcDbSymbolTableRecord
100
AcDbLayerTableRecord
  2
DASHDOT3
 70
     0
 62
    12
  6
DASHDOT2
  0
LAYER
  5
4D
330
2
100
AcDbSymbolTableRecord
100
AcDbLayerTableRecord
  2
DIM
 70
     0
 62
     2
  6
CONTINUOUS
  0
LAYER
  5
4E
330
2
100
AcDbSymbolTableRecord
100
AcDbLayerTableRecord
  2
HIDDEN1
 70
     0
 62
     5
  6
HIDDEN2
  0
LAYER
  5
4F
330
2
100
AcDbSymbolTableRecord
100
AcDbLayerTableRecord
  2
HIDDEN2
 70
     0
 62
   160
  6
HIDDEN2
  0
LAYER
  5
50
330
2
100
AcDbSymbolTableRecord
100
AcDbLayerTableRecord
  2
HIDDEN3
 70
     0
 62
   162
  6
HIDDEN2
  0
LAYER
  5
52
330
2
100
AcDbSymbolTableRecord
100
AcDbLayerTableRecord
  2
PHANTOM1
 70
     0
 62
     6
  6
PHANTOM2
  0
LAYER
  5
53
330
2
100
AcDbSymbolTableRecord
100
AcDbLayerTableRecord
  2
PHANTOM2
 70
     0
 62
   210
  6
PHANTOM2
  0
LAYER
  5
54
330
2
100
AcDbSymbolTableRecord
100
AcDbLayerTableRecord
  2
PHANTOM3
 70
     0
 62
   212
  6
PHANTOM2
  0
LAYER
  5
55
330
2
100
AcDbSymbolTableRecord
100
AcDbLayerTableRecord
  2
TEXT1
 70
     0
 62
     3
  6
CONTINUOUS
  0
LAYER
  5
56
330
2
100
AcDbSymbolTableRecord
100
AcDbLayerTableRecord
  2
TEXT2
 70
     0
 62
    80
  6
CONTINUOUS
  0
LAYER
  5
57
330
2
100
AcDbSymbolTableRecord
100
AcDbLayerTableRecord
  2
TEXT3
 70
     0
 62
    82
  6
CONTINUOUS
  0
LAYER
  5
58
330
2
100
AcDbSymbolTableRecord
100
AcDbLayerTableRecord
  2
TITLEBLOCK
 70
     0
 62
     9
  6
CONTINUOUS
  0
LAYER
  5
59
330
2
100
AcDbSymbolTableRecord
100
AcDbLayerTableRecord
  2
VIEWPORT
 70
     0
 62
     9
  6
CONTINUOUS
  0
LAYER
  5
20D2
330
2
100
AcDbSymbolTableRecord
100
AcDbLayerTableRecord
  2
DEFPOINTS
 70
     0
 62
     7
  6
CONTINUOUS
  0
ENDTAB
  0
TABLE
  2
STYLE
  5
3
330
0
100
AcDbSymbolTable
 70
     4
  0
STYLE
  5
11
330
3
100
AcDbSymbolTableRecord
100
AcDbTextStyleTableRecord
  2
STANDARD
 70
     0
 40
0.0
 41
1.0
 50
0.0
 71
     0
 42
0.2
  3
txt
  4

  0
STYLE
  5
36
330
3
100
AcDbSymbolTableRecord
100
AcDbTextStyleTableRecord
  2
ROMANS
 70
     0
 40
0.0
 41
1.0
 50
0.0
 71
     0
 42
0.2
  3
romans.shx
  4

  0
STYLE
  5
6CC
330
3
100
AcDbSymbolTableRecord
100
AcDbTextStyleTableRecord
  2
M_STANDARD
 70
     0
 40
0.0
 41
0.8
 50
0.0
 71
     0
 42
0.0
  3
MEDUSA.SHX
  4

  0
STYLE
  5
E4A
330
3
100
AcDbSymbolTableRecord
100
AcDbTextStyleTableRecord
  2
SIMPLEX
 70
     0
 40
0.0
 41
1.0
 50
0.0
 71
     0
 42
0.25
  3
SIMPLEX.shx
  4

  0
ENDTAB
  0
TABLE
  2
VIEW
  5
6
330
0
100
AcDbSymbolTable
 70
     0
  0
ENDTAB
  0
TABLE
  2
UCS
  5
7
330
0
100
AcDbSymbolTable
 70
     0
  0
ENDTAB
  0
TABLE
  2
APPID
  5
9
330
0
100
AcDbSymbolTable
 70
    11
  0
APPID
  5
12
330
9
100
AcDbSymbolTableRecord
100
AcDbRegAppTableRecord
  2
ACAD
 70
     0
  0
APPID
  5
6B
330
9
100
AcDbSymbolTableRecord
100
AcDbRegAppTableRecord
  2
DCO15
 70
     0
  0
APPID
  5
370
330
9
100
AcDbSymbolTableRecord
100
AcDbRegAppTableRecord
  2
MCAD_NO_VIS
 70
     0
  0
APPID
  5
371
330
9
100
AcDbSymbolTableRecord
100
AcDbRegAppTableRecord
  2
ACAD_TEMP_GRAPHIC
 70
     0
  0
APPID
  5
387
330
9
100
AcDbSymbolTableRecord
100
AcDbRegAppTableRecord
  2
GENIUS_GENSCREG_15
 70
     0
  0
APPID
  5
389
330
9
100
AcDbSymbolTableRecord
100
AcDbRegAppTableRecord
  2
GENIUS_GENODEF_13
 70
     0
  0
APPID
  5
38A
330
9
100
AcDbSymbolTableRecord
100
AcDbRegAppTableRecord
  2
GENIUS_GENOBJ-N-SDF_13
 70
     0
  0
APPID
  5
38B
330
9
100
AcDbSymbolTableRecord
100
AcDbRegAppTableRecord
  2
GENIUS_GENOENT_13
 70
     0
  0
APPID
  5
38C
330
9
100
AcDbSymbolTableRecord
100
AcDbRegAppTableRecord
  2
GENIUS_GENOREF_13
 70
     0
  0
APPID
  5
38D
330
9
100
AcDbSymbolTableRecord
100
AcDbRegAppTableRecord
  2
GENIUS_GENOLIS_13
 70
     0
  0
APPID
  5
6CE
330
9
100
AcDbSymbolTableRecord
100
AcDbRegAppTableRecord
  2
MED_PRIMTYPE
 70
     0
  0
ENDTAB
  0
TABLE
  2
DIMSTYLE
  5
A
330
0
100
AcDbSymbolTable
 70
     1
  0
DIMSTYLE
105
2FDC
102
{ACAD_REACTORS
330
74F8
330
779F
330
7783
330
77E7
330
7838
330
7A6F
330
7A8B
330
7A7D
330
7D50
330
7D7C
330
7D8A
330
7E95
330
7850
330
7FC9
330
7B5A
102
}
330
A
100
AcDbSymbolTableRecord
100
AcDbDimStyleTableRecord
  2
SCHNEIDERELECTRIC
 70
     0
  3

  4

  5
SEARROW
  6

  7

 40
0.0
 41
0.07
 42
0.0625
 43
0.38
 44
0.0625
 45
0.001
 46
0.0
 47
0.0
 48
0.0
140
0.1
141
0.09
142
0.0
143
25.4
144
1.0
145
0.0
146
1.0
147
0.04
 71
     0
 72
     0
 73
     1
 74
     1
 75
     0
 76
     0
 77
     0
 78
     4
170
     0
171
     1
172
     0
173
     0
174
     0
175
     0
176
   256
177
   256
178
   256
270
     2
271
     2
272
     2
273
     2
274
     1
340
36
275
     0
280
     0
281
     0
282
     0
283
     1
284
     0
285
     0
286
     0
287
     3
288
     0
  0
ENDTAB
  0
TABLE
  2
BLOCK_RECORD
  5
1
330
0
100
AcDbSymbolTable
 70
    18
  0
BLOCK_RECORD
  5
1F
102
{ACAD_XDICTIONARY
360
73
102
}
330
1
100
AcDbSymbolTableRecord
100
AcDbBlockTableRecord
  2
*MODEL_SPACE
  0
BLOCK_RECORD
  5
1B
102
{ACAD_XDICTIONARY
360
75
102
}
330
1
100
AcDbSymbolTableRecord
100
AcDbBlockTableRecord
  2
*PAPER_SPACE
  0
BLOCK_RECORD
  5
783
330
1
100
AcDbSymbolTableRecord
100
AcDbBlockTableRecord
  2
NEWLAYERS
1001
ACAD
1000
DesignCenter Data
1002
{
1070
     1
1070
     1
1002
}
  0
BLOCK_RECORD
  5
841
330
1
100
AcDbSymbolTableRecord
100
AcDbBlockTableRecord
  2
LOGO-PAD
1001
ACAD
1000
DesignCenter Data
1002
{
1070
     1
1070
     1
1002
}
  0
BLOCK_RECORD
  5
AE5
330
1
100
AcDbSymbolTableRecord
100
AcDbBlockTableRecord
  2
TITLE-PAD
1001
ACAD
1000
DesignCenter Data
1002
{
1070
     1
1070
     1
1002
}
  0
BLOCK_RECORD
  5
1DBB
330
1
100
AcDbSymbolTableRecord
100
AcDbBlockTableRecord
  2
OEM-NOTES
1001
ACAD
1000
DesignCenter Data
1002
{
1070
     1
1070
     1
1002
}
  0
BLOCK_RECORD
  5
2FD7
330
1
100
AcDbSymbolTableRecord
100
AcDbBlockTableRecord
  2
SEARROW
1001
ACAD
1000
DesignCenter Data
1002
{
1070
     1
1070
     1
1002
}
  0
BLOCK_RECORD
  5
74F9
330
1
100
AcDbSymbolTableRecord
100
AcDbBlockTableRecord
  2
*D5
  0
BLOCK_RECORD
  5
7784
330
1
100
AcDbSymbolTableRecord
100
AcDbBlockTableRecord
  2
*D6
  0
BLOCK_RECORD
  5
77A0
330
1
100
AcDbSymbolTableRecord
100
AcDbBlockTableRecord
  2
*D7
  0
BLOCK_RECORD
  5
77E8
330
1
100
AcDbSymbolTableRecord
100
AcDbBlockTableRecord
  2
*D8
  0
BLOCK_RECORD
  5
7851
330
1
100
AcDbSymbolTableRecord
100
AcDbBlockTableRecord
  2
*D9
  0
BLOCK_RECORD
  5
7A7E
330
1
100
AcDbSymbolTableRecord
100
AcDbBlockTableRecord
  2
*D10
  0
BLOCK_RECORD
  5
7A8C
330
1
100
AcDbSymbolTableRecord
100
AcDbBlockTableRecord
  2
*D11
  0
BLOCK_RECORD
  5
7B5B
330
1
100
AcDbSymbolTableRecord
100
AcDbBlockTableRecord
  2
*D12
  0
BLOCK_RECORD
  5
7D51
330
1
100
AcDbSymbolTableRecord
100
AcDbBlockTableRecord
  2
*D13
  0
BLOCK_RECORD
  5
7D7D
330
1
100
AcDbSymbolTableRecord
100
AcDbBlockTableRecord
  2
*D14
  0
BLOCK_RECORD
  5
7D8B
330
1
100
AcDbSymbolTableRecord
100
AcDbBlockTableRecord
  2
*D15
  0
BLOCK_RECORD
  5
7E96
330
1
100
AcDbSymbolTableRecord
100
AcDbBlockTableRecord
  2
*D16
  0
BLOCK_RECORD
  5
7FCA
330
1
100
AcDbSymbolTableRecord
100
AcDbBlockTableRecord
  2
*D17
  0
ENDTAB
  0
ENDSEC
  0
SECTION
  2
BLOCKS
  0
BLOCK
  5
20
330
1F
100
AcDbEntity
  8
0
100
AcDbBlockBegin
  2
*MODEL_SPACE
 70
     0
 10
0.0
 20
0.0
 30
0.0
  3
*MODEL_SPACE
  1

  0
ENDBLK
  5
21
330
1F
100
AcDbEntity
  8
0
100
AcDbBlockEnd
  0
BLOCK
  5
1C
330
1B
100
AcDbEntity
 67
     1
  8
0
100
AcDbBlockBegin
  2
*PAPER_SPACE
 70
     0
 10
0.0
 20
0.0
 30
0.0
  3
*PAPER_SPACE
  1

  0
ENDBLK
  5
1D
330
1B
100
AcDbEntity
 67
     1
  8
0
100
AcDbBlockEnd
  0
BLOCK
  5
79C
330
783
100
AcDbEntity
  8
0
100
AcDbBlockBegin
  2
NEWLAYERS
 70
     0
 10
0.0
 20
0.0
 30
0.0
  3
NEWLAYERS
  1

  0
LINE
  5
784
330
783
100
AcDbEntity
  8
PHANTOM1
100
AcDbLine
 10
0.264152010466205
 20
0.3394492053544127
 30
0.0
 11
0.264152010466205
 21
0.1923545555598593
 31
0.0
  0
LINE
  5
785
330
783
100
AcDbEntity
  8
PHANTOM2
100
AcDbLine
 10
0.3018880119612959
 20
0.3394492053544127
 30
0.0
 11
0.3018880119612959
 21
0.1923545555598593
 31
0.0
  0
LINE
  5
786
330
783
100
AcDbEntity
  8
PHANTOM3
100
AcDbLine
 10
0.3396240134565005
 20
0.3394492053544127
 30
0.0
 11
0.3396240134565005
 21
0.1923545555598593
 31
0.0
  0
LINE
  5
787
330
783
100
AcDbEntity
  8
DASHDOT2
100
AcDbLine
 10
0.0
 20
0.3394492053544127
 30
0.0
 11
0.0
 21
0.1923545555598593
 31
0.0
  0
LINE
  5
788
330
783
100
AcDbEntity
  8
DASHDOT3
100
AcDbLine
 10
0.0377360014952046
 20
0.3394492053544127
 30
0.0
 11
0.0377360014952046
 21
0.1923545555598593
 31
0.0
  0
LINE
  5
789
330
783
100
AcDbEntity
  8
DIM
100
AcDbLine
 10
0.0754720029902956
 20
0.3394492053544127
 30
0.0
 11
0.0754720029902956
 21
0.1923545555598593
 31
0.0
  0
LINE
  5
78A
330
783
100
AcDbEntity
  8
HIDDEN1
100
AcDbLine
 10
0.1132080044855002
 20
0.3394492053544127
 30
0.0
 11
0.1132080044855002
 21
0.1923545555598593
 31
0.0
  0
LINE
  5
78B
330
783
100
AcDbEntity
  8
HIDDEN2
100
AcDbLine
 10
0.1509440059807048
 20
0.3394492053544127
 30
0.0
 11
0.1509440059807048
 21
0.1923545555598593
 31
0.0
  0
LINE
  5
78C
330
783
100
AcDbEntity
  8
HIDDEN3
100
AcDbLine
 10
0.1886800074757957
 20
0.3394492053544127
 30
0.0
 11
0.1886800074757957
 21
0.1923545555598593
 31
0.0
  0
LINE
  5
78D
330
783
100
AcDbEntity
  8
TEXT1
100
AcDbLine
 10
0.0
 20
0.1470946497945533
 30
0.0
 11
0.0
 21
0.0
 31
0.0
  0
LINE
  5
78E
330
783
100
AcDbEntity
  8
TEXT2
100
AcDbLine
 10
0.0377360014952046
 20
0.1470946497945533
 30
0.0
 11
0.0377360014952046
 21
0.0
 31
0.0
  0
LINE
  5
78F
330
783
100
AcDbEntity
  8
TEXT3
100
AcDbLine
 10
0.0754720029902956
 20
0.1470946497945533
 30
0.0
 11
0.0754720029902956
 21
0.0
 31
0.0
  0
LINE
  5
790
330
783
100
AcDbEntity
  8
TITLEBLOCK
100
AcDbLine
 10
0.1132080044855002
 20
0.1470946497945533
 30
0.0
 11
0.1132080044855002
 21
0.0
 31
0.0
  0
LINE
  5
791
330
783
100
AcDbEntity
  8
VIEWPORT
100
AcDbLine
 10
0.1509440059807048
 20
0.1470946497945533
 30
0.0
 11
0.1509440059807048
 21
0.0
 31
0.0
  0
LINE
  5
792
330
783
100
AcDbEntity
  8
BLOCKS
100
AcDbLine
 10
0.0377360014952046
 20
0.5318037609142721
 30
0.0
 11
0.0377360014952046
 21
0.3847091111197187
 31
0.0
  0
LINE
  5
793
330
783
100
AcDbEntity
  8
0
100
AcDbLine
 10
0.0
 20
0.5318037609142721
 30
0.0
 11
0.0
 21
0.3847091111197187
 31
0.0
  0
LINE
  5
794
330
783
100
AcDbEntity
  8
CENTER1
100
AcDbLine
 10
0.0754720029902956
 20
0.5318037609142721
 30
0.0
 11
0.0754720029902956
 21
0.3847091111197187
 31
0.0
  0
LINE
  5
795
330
783
100
AcDbEntity
  8
CENTER2
100
AcDbLine
 10
0.1132080044855002
 20
0.5318037609142721
 30
0.0
 11
0.1132080044855002
 21
0.3847091111197187
 31
0.0
  0
LINE
  5
796
330
783
100
AcDbEntity
  8
CENTER3
100
AcDbLine
 10
0.1509440059807048
 20
0.5318037609142721
 30
0.0
 11
0.1509440059807048
 21
0.3847091111197187
 31
0.0
  0
LINE
  5
797
330
783
100
AcDbEntity
  8
CONSTRUCTION
100
AcDbLine
 10
0.1886800074757957
 20
0.5318037609142721
 30
0.0
 11
0.1886800074757957
 21
0.3847091111197187
 31
0.0
  0
LINE
  5
798
330
783
100
AcDbEntity
  8
CONTINUOUS1
100
AcDbLine
 10
0.2264160089710003
 20
0.5318037609142721
 30
0.0
 11
0.2264160089710003
 21
0.3847091111197187
 31
0.0
  0
LINE
  5
799
330
783
100
AcDbEntity
  8
CONTINUOUS2
100
AcDbLine
 10
0.264152010466205
 20
0.5318037609142721
 30
0.0
 11
0.264152010466205
 21
0.3847091111197187
 31
0.0
  0
LINE
  5
79A
330
783
100
AcDbEntity
  8
CONTINUOUS3
100
AcDbLine
 10
0.3018880119612959
 20
0.5318037609142721
 30
0.0
 11
0.3018880119612959
 21
0.3847091111197187
 31
0.0
  0
LINE
  5
79B
330
783
100
AcDbEntity
  8
DASHDOT1
100
AcDbLine
 10
0.3396240134565005
 20
0.5318037609142721
 30
0.0
 11
0.3396240134565005
 21
0.3847091111197187
 31
0.0
  0
ENDBLK
  5
79D
330
783
100
AcDbEntity
  8
0
100
AcDbBlockEnd
  0
BLOCK
  5
852
330
841
100
AcDbEntity
  8
0
100
AcDbBlockBegin
  2
LOGO-PAD
 70
     0
 10
0.0
 20
0.0
 30
0.0
  3
LOGO-PAD
  1

  0
HATCH
  5
842
330
841
100
AcDbEntity
  8
TITLEBLOCK
 62
     0
100
AcDbHatch
 10
0.0
 20
0.0
 30
0.0
210
0.0
220
0.0
230
1.0
  2
SOLID
 70
     1
 71
     0
 91
        2
 92
        1
 93
       11
 72
     2
 10
1.203771209334867
 20
0.3650136751459491
 40
0.021562648149145
 50
90.00000747299615
 51
179.9997683268519
 73
     1
 72
     1
 10
1.182208561185898
 20
0.3650137623336376
 11
1.182208392435807
 21
0.2795138227272444
 72
     2
 10
1.203771079023129
 20
0.2795136821032751
 40
0.0215626865877801
 50
179.9996263378447
 51
269.9998903896797
 73
     1
 72
     1
 10
1.203771037772394
 20
0.2579509955155343
 11
1.330521045577125
 21
0.2579511736405264
 72
     2
 10
1.330521265257171
 20
0.2795136382789064
 40
0.021562464639499
 50
269.9994162661957
 51
311.7040125634689
 73
     1
 72
     1
 10
1.344866398698837
 20
0.2634152834601535
 11
1.352083334663557
 21
0.2579511736405264
 72
     1
 10
1.352083334663557
 20
0.2579511736405264
 11
1.365099386916806
 21
0.2751416404960081
 72
     1
 10
1.365099386916806
 20
0.2751416404960081
 11
1.352083522163621
 21
0.284997066934386
 72
     1
 10
1.352083522163621
 20
0.284997066934386
 11
1.352083690913712
 21
0.3650136723335662
 72
     2
 10
1.330521042764654
 20
0.3650136751460369
 40
0.0215626481490576
 50
359.9999925267666
 51
449.9999925267678
 73
     1
 72
     1
 10
1.330521045577125
 20
0.3865763232950938
 11
1.203771206522485
 21
0.3865763232950938
 97
        0
 92
       16
 93
       10
 72
     2
 10
1.21455271481628
 20
0.3542325202904111
 40
0.0107811520434708
 50
90.00043844291294
 51
179.9999701074038
 73
     1
 72
     1
 10
1.203771562772811
 20
0.3542325259151993
 11
1.203771562772811
 21
0.2902950591455122
 72
     2
 10
1.214552849813946
 20
0.2902948416431456
 40
0.0107812870433294
 50
179.9988441113203
 51
269.9988441346395
 73
     1
 72
     1
 10
1.214552632315967
 20
0.2795135546020104
 11
1.323606134809704
 21
0.2795135546020104
 72
     1
 10
1.323606134809704
 20
0.2795135546020104
 11
1.280867956889135
 21
0.311873265117333
 72
     1
 10
1.280867956889135
 20
0.311873265117333
 11
1.293884009142384
 21
0.3290635557226322
 72
     1
 10
1.293884009142384
 20
0.3290635557226322
 11
1.330521045577125
 21
0.3013240413506308
 72
     1
 10
1.330521045577125
 20
0.3013240413506308
 11
1.330521045577125
 21
0.3542324377902786
 72
     2
 10
1.319739809158772
 20
0.3542324359152127
 40
0.0107812364183532
 50
0.0000099648460607
 51
90.00000996484372
 73
     1
 72
     1
 10
1.319739807283706
 20
0.3650136723335662
 11
1.214552632315967
 21
0.3650136723335662
 97
        0
 75
     0
 76
     1
 98
        1
 10
-7.279586802153931
 20
-0.4081141432880261
  0
HATCH
  5
843
330
841
100
AcDbEntity
  8
TITLEBLOCK
 62
     0
100
AcDbHatch
 10
0.0
 20
0.0
 30
0.0
210
0.0
220
0.0
230
1.0
  2
SOLID
 70
     1
 71
     0
 91
        1
 92
        1
 93
        4
 72
     1
 10
3.703333445713536
 20
0.1990762889281312
 11
1.018147379006204
 21
0.1990762889281312
 72
     1
 10
1.018147379006204
 20
0.1990762889281312
 11
1.018147379006204
 21
0.220706173683743
 72
     1
 10
1.018147379006204
 20
0.220706173683743
 11
3.703333445713536
 21
0.220706173683743
 72
     1
 10
3.703333445713536
 20
0.220706173683743
 11
3.703333445713536
 21
0.1990762889281312
 97
        0
 75
     0
 76
     1
 98
        1
 10
-7.279586802153931
 20
-0.4081141432880261
  0
HATCH
  5
844
330
841
100
AcDbEntity
  8
TITLEBLOCK
 62
     0
100
AcDbHatch
 10
0.0
 20
0.0
 30
0.0
210
0.0
220
0.0
230
1.0
  2
SOLID
 70
     1
 71
     0
 91
        4
 92
        1
 93
        4
 72
     1
 10
0.8306472632318495
 20
0.4814782717956759
 11
0.4556470182475714
 21
0.4814782717956759
 72
     1
 10
0.4556470182475714
 20
0.4814782717956759
 11
0.4556470182475714
 21
0.1064783844396073
 72
     1
 10
0.4556470182475714
 20
0.1064783844396073
 11
0.8306472632318495
 21
0.1064783844396073
 72
     1
 10
0.8306472632318495
 20
0.1064783844396073
 11
0.8306472632318495
 21
0.4814782717956759
 97
        0
 92
        0
 93
       10
 72
     1
 10
0.7368972019857374
 20
0.4177282462416896
 11
0.5193971779121789
 21
0.4177282462416896
 72
     1
 10
0.5193971779121789
 20
0.4177282462416896
 11
0.5193971779121789
 21
0.37460312508514
 72
     1
 10
0.5193971779121789
 20
0.37460312508514
 11
0.5531473465883146
 21
0.37460312508514
 72
     1
 10
0.5531473465883146
 20
0.37460312508514
 11
0.5531473465883146
 21
0.2133535311501431
 72
     1
 10
0.5531473465883146
 20
0.2133535311501431
 11
0.5193971779121789
 21
0.2133535311501431
 72
     1
 10
0.5193971779121789
 20
0.2133535311501431
 11
0.5193971779121789
 21
0.1702282758831428
 72
     1
 10
0.5193971779121789
 20
0.1702282758831428
 11
0.7368972019857374
 21
0.1702282758831428
 72
     1
 10
0.7368972019857374
 20
0.1702282758831428
 11
0.7668970141602749
 21
0.2002283115750982
 72
     1
 10
0.7668970141602749
 20
0.2002283115750982
 11
0.7668970141602749
 21
0.3877281658462506
 72
     1
 10
0.7668970141602749
 20
0.3877281658462506
 11
0.7368972019857374
 21
0.4177282462416896
 97
        0
 92
       16
 93
        4
 72
     1
 10
0.7987720492890098
 20
0.4496031025563197
 11
0.4875220533764768
 21
0.4496031025563197
 72
     1
 10
0.4875220533764768
 20
0.4496031025563197
 11
0.4875220533764768
 21
0.1383533301613751
 72
     1
 10
0.4875220533764768
 20
0.1383533301613751
 11
0.7987720492890098
 21
0.1383533301613751
 72
     1
 10
0.7987720492890098
 20
0.1383533301613751
 11
0.7987720492890098
 21
0.4496031025563197
 97
        0
 92
        0
 93
        4
 72
     1
 10
0.5962724677448641
 20
0.37460312508514
 11
0.5962724677448641
 21
0.2133535311501431
 72
     1
 10
0.5962724677448641
 20
0.2133535311501431
 11
0.7237719824106926
 21
0.2133535311501431
 72
     1
 10
0.7237719824106926
 20
0.2133535311501431
 11
0.7237719824106926
 21
0.37460312508514
 72
     1
 10
0.7237719824106926
 20
0.37460312508514
 11
0.5962724677448641
 21
0.37460312508514
 97
        0
 75
     0
 76
     1
 98
        1
 10
-7.279586802153931
 20
-0.313212194787444
  0
HATCH
  5
845
330
841
100
AcDbEntity
  8
TITLEBLOCK
 62
     0
100
AcDbHatch
 10
0.0
 20
0.0
 30
0.0
210
0.0
220
0.0
230
1.0
  2
SOLID
 70
     1
 71
     0
 91
        1
 92
        1
 93
       26
 72
     1
 10
1.050490193885575
 20
0.3650136723335662
 11
1.138990457951802
 21
0.3650136723335662
 72
     2
 10
1.138990281703138
 20
0.3542326140418093
 40
0.0107810582931976
 50
270.0009366709926
 51
360.0009366862294
 73
     0
 72
     1
 10
1.149771339994895
 20
0.3542324377902786
 11
1.171333797831589
 21
0.3542324377902786
 72
     1
 10
1.171333797831589
 20
0.3542324377902786
 11
1.171333797831589
 21
0.3650136723335662
 72
     2
 10
1.149771243432702
 20
0.365013768896207
 40
0.0215625543991033
 50
359.9997434148255
 51
449.9997434160159
 73
     1
 72
     1
 10
1.149771339994895
 20
0.3865763232950938
 11
1.039708786842066
 21
0.3865763232950938
 72
     2
 10
1.039709408398413
 20
0.3650142939052909
 40
0.0215620293987615
 50
90.00165163282177
 51
180.0014125206716
 73
     1
 72
     1
 10
1.018147379006204
 20
0.3650137623336376
 11
1.018147379006204
 21
0.3334199129435318
 72
     2
 10
1.039709363397143
 20
0.3334193363730153
 40
0.0215619843986475
 50
179.9984679027414
 51
269.9984679437668
 73
     1
 72
     1
 10
1.039708786842066
 20
0.3118573519820755
 11
1.138990457951802
 21
0.311857620107139
 72
     2
 10
1.138990280765661
 20
0.3010765608779043
 40
0.0107810592306907
 50
270.0009416531222
 51
360.0009416684906
 73
     0
 72
     1
 10
1.149771339994895
 20
0.3010763836888712
 11
1.149771508744986
 21
0.2902949691454408
 72
     2
 10
1.138990231076649
 20
0.2902948322713164
 40
0.0107812776692067
 50
359.9992725992319
 51
449.9997907459082
 73
     0
 72
     1
 10
1.138990270451738
 20
0.279513554602181
 11
1.050490193885575
 21
0.2795135546020104
 72
     2
 10
1.05049014888543
 20
0.2902951041454384
 40
0.0107815495435218
 50
89.99976085826782
 51
179.9997608594354
 73
     0
 72
     1
 10
1.039708599342002
 20
0.2902950591455122
 11
1.018147379006204
 21
0.2902950591455122
 72
     1
 10
1.018147379006204
 20
0.2902950591455122
 11
1.018147379006204
 21
0.2795138227272444
 72
     2
 10
1.039709273392517
 20
0.2795130680345569
 40
0.0215618943995203
 50
179.9979945776083
 51
269.9987071039827
 73
     1
 72
     1
 10
1.039708786842066
 20
0.2579511736405264
 11
1.149771339994895
 21
0.2579511736405264
 72
     2
 10
1.149771378432784
 20
0.2795135930396681
 40
0.0215624193991759
 50
269.9998978626289
 51
359.9996636967671
 73
     1
 72
     1
 10
1.171333797831589
 20
0.2795134664769192
 11
1.171333797831589
 21
0.3114825579869829
 72
     2
 10
1.149771333432362
 20
0.3114825645494808
 40
0.0215624643992288
 50
359.9999825621309
 51
449.9999825620359
 73
     1
 72
     1
 10
1.149771339994895
 20
0.3330450289487088
 11
1.050490193885575
 21
0.3330447608234748
 72
     2
 10
1.050490103885701
 20
0.3438262653667981
 40
0.0107815045436989
 50
89.99952171675776
 51
179.9999900368059
 73
     0
 72
     1
 10
1.039708599342002
 20
0.3438262634919964
 11
1.039708786842066
 21
0.3542325259151993
 72
     2
 10
1.050490107634269
 20
0.3542323515402983
 40
0.0107813207936133
 50
180.0009266903443
 51
270.0004583701697
 73
     0
 97
        0
 75
     0
 76
     1
 98
        1
 10
-7.279586802153931
 20
-0.4081141432880261
  0
HATCH
  5
846
330
841
100
AcDbEntity
  8
TITLEBLOCK
 62
     0
100
AcDbHatch
 10
0.0
 20
0.0
 30
0.0
210
0.0
220
0.0
230
1.0
  2
SOLID
 70
     1
 71
     0
 91
        1
 92
        1
 93
       18
 72
     2
 10
2.471082802883087
 20
0.3650137595211706
 40
0.021562563774099
 50
180.0000074732525
 51
269.9997683261728
 73
     0
 72
     1
 10
2.471082715695484
 20
0.3865763232950938
 11
2.586957622645552
 21
0.3865763232950938
 72
     2
 10
2.586957713583391
 20
0.3650135813961111
 40
0.0215627418991744
 50
269.9997583630888
 51
359.999758364108
 73
     0
 72
     1
 10
2.608520455482373
 20
0.3650136723335662
 11
2.608520455482373
 21
0.3542324377902786
 72
     1
 10
2.608520455482373
 20
0.3542324377902786
 11
2.586957622645552
 21
0.3542324377902786
 72
     2
 10
2.576176208103625
 20
0.3542322577916381
 40
0.0107814145434302
 50
0.0009565685814303
 51
90.00095658455173
 73
     1
 72
     1
 10
2.576176028101979
 20
0.3650136723335662
 11
2.481864141488966
 21
0.3650136723335662
 72
     2
 10
2.481864045863444
 20
0.3542323421656055
 40
0.0107813301683848
 50
89.99949181235312
 51
179.9994918168631
 73
     1
 72
     1
 10
2.471082715695484
 20
0.3542324377902786
 11
2.471082715695484
 21
0.2902950591455122
 72
     2
 10
2.481864090863785
 20
0.2902951097704553
 40
0.0107813751684203
 50
180.0002690376259
 51
270.0002690388874
 73
     1
 72
     1
 10
2.481864141488966
 20
0.2795137346021532
 11
2.576176028101979
 21
0.2795135546020104
 72
     2
 10
2.576176073102679
 20
0.2902951041456356
 40
0.010781549543719
 50
269.9997608553225
 51
359.9992825760937
 73
     1
 72
     1
 10
2.586957622645552
 20
0.2902949691454408
 11
2.608520455482373
 21
0.2902950591455122
 72
     1
 10
2.608520455482373
 20
0.2902950591455122
 11
2.608520099232048
 21
0.2795134664769192
 72
     2
 10
2.586957670458414
 20
0.2795136024145366
 40
0.0215624287740632
 50
0.0003612140281018
 51
90.00012704854281
 73
     0
 72
     1
 10
2.586957622645552
 20
0.2579511736405264
 11
2.471082715695484
 21
0.2579511736405264
 72
     2
 10
2.471082667882924
 20
0.2795136024144634
 40
0.02156242877399
 50
89.99987295225965
 51
179.9998729525419
 73
     0
 72
     1
 10
2.449520239108988
 20
0.2795135546020104
 11
2.449520239108988
 21
0.3650137623336376
 97
        0
 75
     0
 76
     1
 98
        1
 10
-7.279586802153931
 20
-0.4081141432880261
  0
HATCH
  5
847
330
841
100
AcDbEntity
  8
TITLEBLOCK
 62
     0
100
AcDbHatch
 10
0.0
 20
0.0
 30
0.0
210
0.0
220
0.0
230
1.0
  2
SOLID
 70
     1
 71
     0
 91
        1
 92
        1
 93
       12
 72
     1
 10
2.026708344139745
 20
0.3865765014202565
 11
1.890208311215626
 21
0.3865765014202565
 72
     1
 10
1.890208311215626
 20
0.3865765014202565
 11
1.890208311215626
 21
0.2579511736405264
 72
     1
 10
1.890208311215626
 20
0.2579511736405264
 11
2.026708344139745
 21
0.2579511736405264
 72
     1
 10
2.026708344139745
 20
0.2579511736405264
 11
2.026708344139745
 21
0.2795135546020104
 72
     1
 10
2.026708344139745
 20
0.2795135546020104
 11
1.911770600302059
 21
0.2795135546020104
 72
     1
 10
1.911770600302059
 20
0.2795135546020104
 11
1.911770600302059
 21
0.3114825579869829
 72
     1
 10
1.911770600302059
 20
0.3114825579869829
 11
2.026708344139745
 21
0.3114825579869829
 72
     1
 10
2.026708344139745
 20
0.3114825579869829
 11
2.026708344139745
 21
0.333044848948566
 72
     1
 10
2.026708344139745
 20
0.333044848948566
 11
1.911770600302059
 21
0.333044848948566
 72
     1
 10
1.911770600302059
 20
0.333044848948566
 11
1.911770600302059
 21
0.3650136723335662
 72
     1
 10
1.911770600302059
 20
0.3650136723335662
 11
2.026708344139745
 21
0.3650136723335662
 72
     1
 10
2.026708344139745
 20
0.3650136723335662
 11
2.026708344139745
 21
0.3865765014202565
 97
        0
 75
     0
 76
     1
 98
        1
 10
-7.279586802153931
 20
-0.4081141432880261
  0
HATCH
  5
848
330
841
100
AcDbEntity
  8
TITLEBLOCK
 62
     0
100
AcDbHatch
 10
0.0
 20
0.0
 30
0.0
210
0.0
220
0.0
230
1.0
  2
SOLID
 70
     1
 71
     0
 91
        2
 92
        1
 93
        8
 72
     1
 10
1.614830743814064
 20
0.3865765014202565
 11
1.531145595393223
 21
0.2579509955155343
 72
     1
 10
1.531145595393223
 20
0.2579509955155343
 11
1.556870855949323
 21
0.2579511736405264
 72
     1
 10
1.556870855949323
 20
0.2579511736405264
 11
1.570898996363819
 21
0.2795135546020104
 72
     1
 10
1.570898996363819
 20
0.2795135546020104
 11
1.673830432358027
 21
0.2795135546020104
 72
     1
 10
1.673830432358027
 20
0.2795135546020104
 11
1.687858760272586
 21
0.2579514417655899
 72
     1
 10
1.687858760272586
 20
0.2579514417655899
 11
1.713583120827973
 21
0.2579514417655899
 72
     1
 10
1.713583120827973
 20
0.2579514417655899
 11
1.629898141157394
 21
0.3865765014202565
 72
     1
 10
1.629898141157394
 20
0.3865765014202565
 11
1.614830743814064
 21
0.3865765014202565
 97
        0
 92
       16
 93
        3
 72
     1
 10
1.622364536235675
 20
0.3586169575295115
 11
1.659801223192726
 21
0.3010763836888712
 72
     1
 10
1.659801223192726
 20
0.3010763836888712
 11
1.584928205528949
 21
0.3010762055637086
 72
     1
 10
1.584928205528949
 20
0.3010762055637086
 11
1.622364348735612
 21
0.3586165994043766
 97
        0
 75
     0
 76
     1
 98
        1
 10
-7.279586802153931
 20
-0.4081141432880261
  0
HATCH
  5
849
330
841
100
AcDbEntity
  8
TITLEBLOCK
 62
     0
100
AcDbHatch
 10
0.0
 20
0.0
 30
0.0
210
0.0
220
0.0
230
1.0
  2
SOLID
 70
     1
 71
     0
 91
        1
 92
        1
 93
       12
 72
     1
 10
1.392021104504447
 20
0.3865765014202565
 11
1.370458815418015
 21
0.3865765014202565
 72
     1
 10
1.370458815418015
 20
0.3865765014202565
 11
1.370458627917951
 21
0.2795138227272444
 72
     2
 10
1.39202114575308
 20
0.2795135133528436
 40
0.0215625178373483
 50
179.999177932392
 51
269.9998903944058
 73
     1
 72
     1
 10
1.392021104504447
 20
0.2579509955155343
 11
1.509583287556818
 21
0.2579511736405264
 72
     2
 10
1.509583335369764
 20
0.2795136024146219
 40
0.0215624287741484
 50
269.9998729512306
 51
359.9996387857453
 73
     1
 72
     1
 10
1.531145764143484
 20
0.2795134664769192
 11
1.531146120393639
 21
0.3865765014202565
 72
     1
 10
1.531146120393639
 20
0.3865765014202565
 11
1.509583287556818
 21
0.3865765014202565
 72
     1
 10
1.509583287556818
 20
0.3865765014202565
 11
1.509583287556818
 21
0.2902950591455122
 72
     2
 10
1.498801916139266
 20
0.290294926019563
 40
0.0107813714183743
 50
359.9992925246018
 51
449.9992925333428
 73
     0
 72
     1
 10
1.49880204926357
 20
0.2795135546020104
 11
1.402802342797695
 21
0.2795135546020104
 72
     2
 10
1.402802382172719
 20
0.2902950197703451
 40
0.0107814651684066
 50
90.00020925010334
 51
180.0002092508632
 73
     0
 72
     1
 10
1.392020917004384
 20
0.2902950591455122
 11
1.392021104504447
 21
0.3865765014202565
 97
        0
 75
     0
 76
     1
 98
        1
 10
-7.279586802153931
 20
-0.4081141432880261
  0
HATCH
  5
84A
330
841
100
AcDbEntity
  8
TITLEBLOCK
 62
     0
100
AcDbHatch
 10
0.0
 20
0.0
 30
0.0
210
0.0
220
0.0
230
1.0
  2
SOLID
 70
     1
 71
     0
 91
        2
 92
        1
 93
       13
 72
     2
 10
1.851958289039648
 20
0.2899198104641797
 40
0.0215625675244637
 50
0.0002565813902296
 51
90.00070498518821
 73
     1
 72
     2
 10
1.851958289040149
 20
0.3330449455099156
 40
0.0215625675245372
 50
269.9992950134807
 51
359.9995092535441
 73
     1
 72
     1
 10
1.873520856563896
 20
0.3330447608234748
 11
1.873520856563896
 21
0.3650136657708798
 72
     2
 10
1.851957894958188
 20
0.3650135398162329
 40
0.0215629616060761
 50
0.0003346789653151
 51
89.99920945081219
 73
     1
 72
     1
 10
1.851958192477166
 20
0.3865765014202565
 11
1.720333350237904
 21
0.3865765014202565
 72
     1
 10
1.720333350237904
 20
0.3865765014202565
 11
1.720333350237904
 21
0.2579511736405264
 72
     1
 10
1.720333350237904
 20
0.2579511736405264
 11
1.741896183074725
 21
0.2579511736405264
 72
     1
 10
1.741896183074725
 20
0.2579511736405264
 11
1.741896183074725
 21
0.3007013215688856
 72
     1
 10
1.741896183074725
 20
0.3007013215688856
 11
1.841176785433827
 21
0.3007013215688856
 72
     2
 10
1.841176693559081
 20
0.2899201789011263
 40
0.0107811426681508
 50
270.0004882631974
 51
360.0004882673548
 73
     0
 72
     1
 10
1.851957836226841
 20
0.289920087025598
 11
1.851958192477166
 21
0.2579511736405264
 72
     1
 10
1.851958192477166
 20
0.2579511736405264
 11
1.873520856563896
 21
0.2579511736405264
 72
     1
 10
1.873520856563896
 20
0.2579511736405264
 11
1.873520856563896
 21
0.2899199070254552
 97
        0
 92
       16
 93
        6
 72
     2
 10
1.841176693559081
 20
0.3542325296658069
 40
0.0107811426681508
 50
270.0004882631974
 51
360.0004882673548
 73
     0
 72
     1
 10
1.851957836226841
 20
0.3542324377902786
 11
1.851958192477166
 21
0.333044848948566
 72
     2
 10
1.841176871684197
 20
0.333044935198247
 40
0.0107813207933138
 50
0.0004583615308307
 51
90.00045836519477
 73
     0
 72
     1
 10
1.841176785433827
 20
0.3222636144052784
 11
1.741896183074725
 21
0.3222638825303419
 72
     1
 10
1.741896183074725
 20
0.3222638825303419
 11
1.741896183074725
 21
0.3650136723335662
 72
     1
 10
1.741896183074725
 20
0.3650136723335662
 11
1.841176785433827
 21
0.3650136723335662
 97
        0
 75
     0
 76
     1
 98
        1
 10
-7.279586802153931
 20
-0.4081141432880261
  0
HATCH
  5
84B
330
841
100
AcDbEntity
  8
TITLEBLOCK
 62
     0
100
AcDbHatch
 10
0.0
 20
0.0
 30
0.0
210
0.0
220
0.0
230
1.0
  2
SOLID
 70
     1
 71
     0
 91
        2
 92
        1
 93
       10
 72
     1
 10
2.168832611988261
 20
0.3650136723335662
 11
2.168832611988261
 21
0.2795135546021492
 72
     1
 10
2.168832611988261
 20
0.2795135546021492
 11
2.148020079641632
 21
0.2795135546021492
 72
     1
 10
2.148020079641632
 20
0.2795135546021492
 11
2.148020079641632
 21
0.2579511736406499
 72
     1
 10
2.148020079641632
 20
0.2579511736406499
 11
2.314895263659607
 21
0.2579511736406499
 72
     2
 10
2.314895311472477
 20
0.2795136024147182
 40
0.0215624287741214
 50
269.9998729514336
 51
359.9996387859474
 73
     1
 72
     1
 10
2.336457740246171
 20
0.2795134664770916
 11
2.336457740246171
 21
0.3650136723335662
 72
     2
 10
2.314895087410214
 20
0.3650138485844006
 40
0.0215626528366775
 50
359.9995316703829
 51
449.999531674211
 73
     1
 72
     1
 10
2.314895263659607
 20
0.386576501420358
 11
2.148020079641632
 21
0.386576501420358
 72
     1
 10
2.148020079641632
 20
0.386576501420358
 11
2.148020079641632
 21
0.3650136723335662
 72
     1
 10
2.148020079641632
 20
0.3650136723335662
 11
2.168832611988261
 21
0.3650136723335662
 97
        0
 92
       16
 93
        6
 72
     1
 10
2.190395257324933
 20
0.3650136723335662
 11
2.304113856616218
 21
0.3650136723335662
 72
     2
 10
2.304113942866619
 20
0.3542323515405775
 40
0.0107813207933337
 50
269.9995416346447
 51
359.9995416383139
 73
     0
 72
     1
 10
2.314895263659607
 20
0.3542324377902877
 11
2.314895263659607
 21
0.2902949691455452
 72
     2
 10
2.304113807866077
 20
0.2902950103956483
 40
0.0107814557936096
 50
0.0002192149982456
 51
89.99974092762393
 73
     0
 72
     1
 10
2.304113856616218
 20
0.2795135546021492
 11
2.190395257324933
 21
0.2795135546021492
 72
     1
 10
2.190395257324933
 20
0.2795135546021492
 11
2.190395257324933
 21
0.3650136723335662
 97
        0
 75
     0
 76
     1
 98
        1
 10
-7.279586802153931
 20
-0.4081141432880261
  0
HATCH
  5
84C
330
841
100
AcDbEntity
  8
TITLEBLOCK
 62
     0
100
AcDbHatch
 10
0.0
 20
0.0
 30
0.0
210
0.0
220
0.0
230
1.0
  2
SOLID
 70
     1
 71
     0
 91
        2
 92
        1
 93
        8
 72
     1
 10
3.241392303571654
 20
0.3865765014202565
 11
3.157707226761072
 21
0.2579509955155343
 72
     1
 10
3.157707226761072
 20
0.2579509955155343
 11
3.183432299816939
 21
0.2579511736405264
 72
     1
 10
3.183432299816939
 20
0.2579511736405264
 11
3.197460983981823
 21
0.2795133764768478
 72
     1
 10
3.197460983981823
 20
0.2795133764768478
 11
3.30039082622498
 21
0.2795135546020104
 72
     1
 10
3.30039082622498
 20
0.2795135546020104
 11
3.314419679139785
 21
0.2579514417655899
 72
     1
 10
3.314419679139785
 20
0.2579514417655899
 11
3.340144583445731
 21
0.2579511736405264
 72
     1
 10
3.340144583445731
 20
0.2579511736405264
 11
3.256459603774981
 21
0.3865765014202565
 72
     1
 10
3.256459603774981
 20
0.3865765014202565
 11
3.241392303571654
 21
0.3865765014202565
 97
        0
 92
       16
 93
        3
 72
     1
 10
3.248925740352245
 20
0.358616778466603
 11
3.211489480646473
 21
0.3010762055637086
 72
     1
 10
3.211489480646473
 20
0.3010762055637086
 11
3.28636178580994
 21
0.3010763836888712
 72
     1
 10
3.28636178580994
 20
0.3010763836888712
 11
3.248925740352245
 21
0.358616778466603
 97
        0
 75
     0
 76
     1
 98
        1
 10
-7.279586802153931
 20
-0.4081141432880261
  0
HATCH
  5
84D
330
841
100
AcDbEntity
  8
TITLEBLOCK
 62
     0
100
AcDbHatch
 10
0.0
 20
0.0
 30
0.0
210
0.0
220
0.0
230
1.0
  2
SOLID
 70
     1
 71
     0
 91
        1
 92
        1
 93
       13
 72
     1
 10
2.838488736968525
 20
0.3865765014202565
 11
2.806145209588674
 21
0.3865765014202565
 72
     1
 10
2.806145209588674
 20
0.3865765014202565
 11
2.806145209588674
 21
0.2579511736405264
 72
     1
 10
2.806145209588674
 20
0.2579511736405264
 11
2.827707667425368
 21
0.2579511736405264
 72
     1
 10
2.827707667425368
 20
0.2579511736405264
 11
2.827707667425368
 21
0.3640633654626753
 72
     1
 10
2.827707667425368
 20
0.3640633654626753
 11
2.899718420719221
 21
0.2579514417655899
 72
     1
 10
2.899718420719221
 20
0.2579514417655899
 11
2.922570860648686
 21
0.2579511736405264
 72
     1
 10
2.922570860648686
 20
0.2579511736405264
 11
2.994582138942956
 21
0.3640642598382782
 72
     1
 10
2.994582138942956
 20
0.3640642598382782
 11
2.994582138942956
 21
0.2579511736405264
 72
     1
 10
2.994582138942956
 20
0.2579511736405264
 11
3.016144596779479
 21
0.2579511736405264
 72
     1
 10
3.016144596779479
 20
0.2579511736405264
 11
3.016144596779479
 21
0.3865765014202565
 72
     1
 10
3.016144596779479
 20
0.3865765014202565
 11
2.983801425649954
 21
0.3865765014202565
 72
     1
 10
2.983801425649954
 20
0.3865765014202565
 11
2.911144640683954
 21
0.2795135546020104
 72
     1
 10
2.911144640683954
 20
0.2795135546020104
 11
2.838488380718199
 21
0.3865765014202565
 97
        0
 75
     0
 76
     1
 98
        1
 10
-7.279586802153931
 20
-0.4081141432880261
  0
HATCH
  5
84E
330
841
100
AcDbEntity
  8
TITLEBLOCK
 62
     0
100
AcDbHatch
 10
0.0
 20
0.0
 30
0.0
210
0.0
220
0.0
230
1.0
  2
SOLID
 70
     1
 71
     0
 91
        2
 92
        1
 93
        8
 72
     1
 10
2.79358243888161
 20
0.2795134664769192
 11
2.793582795131936
 21
0.3650136723335662
 72
     2
 10
2.772020240733041
 20
0.3650137688961994
 40
0.0215625543991104
 50
359.9997434148459
 51
449.999743415997
 73
     1
 72
     1
 10
2.772020337295241
 20
0.3865763232950938
 11
2.640957676673206
 21
0.3865763232950938
 72
     2
 10
2.640957763860811
 20
0.3650137595211699
 40
0.0215625637741002
 50
90.00023167383188
 51
179.9999925267453
 73
     1
 72
     1
 10
2.61939520008671
 20
0.3650137623336376
 11
2.61939520008671
 21
0.2795135546020104
 72
     2
 10
2.640957628860649
 20
0.2795136024144641
 40
0.0215624287739915
 50
180.0001270474597
 51
270.0001270477355
 73
     1
 72
     1
 10
2.640957676673206
 20
0.2579511736405264
 11
2.772020337295241
 21
0.2579511736405264
 72
     2
 10
2.772020197607671
 20
0.2795134149140743
 40
0.0215622412740004
 50
270.000371181646
 51
360.000137014207
 73
     1
 97
        0
 92
       16
 93
        8
 72
     2
 10
2.651738913091431
 20
0.3542324359149649
 40
0.0107812364186015
 50
89.9999900344766
 51
179.999521702949
 73
     1
 72
     1
 10
2.640957676673206
 20
0.3542325259151993
 11
2.640957676673206
 21
0.2902950591455122
 72
     2
 10
2.651738958091508
 20
0.2902950160204556
 40
0.010781281418388
 50
179.9997708172488
 51
269.9997708181704
 73
     1
 72
     1
 10
2.651738914966625
 20
0.2795137346021532
 11
2.761238742751839
 21
0.2795135546020104
 72
     2
 10
2.761238956501978
 20
0.2902951041442614
 40
0.0107815495443698
 50
269.9988640797126
 51
359.9992825833961
 73
     1
 72
     1
 10
2.772020506045503
 20
0.2902949691454408
 11
2.772020337295241
 21
0.3542324377902786
 72
     2
 10
2.761239007127366
 20
0.3542323421656908
 40
0.0107813301682991
 50
0.0005081826837109
 51
90.00050818719378
 73
     1
 72
     1
 10
2.76123891150193
 20
0.3650136723335662
 11
2.651738914966625
 21
0.3650136723335662
 97
        0
 75
     0
 76
     1
 98
        1
 10
-7.279586802153931
 20
-0.4081141432880261
  0
HATCH
  5
84F
330
841
100
AcDbEntity
  8
TITLEBLOCK
 62
     0
100
AcDbHatch
 10
0.0
 20
0.0
 30
0.0
210
0.0
220
0.0
230
1.0
  2
SOLID
 70
     1
 71
     0
 91
        2
 92
        1
 93
        8
 72
     2
 10
3.162769048174736
 20
0.3650134554401196
 40
0.0215630459811904
 50
270.0005663490367
 51
359.9994236862867
 73
     0
 72
     1
 10
3.184332094154836
 20
0.3650136723335662
 11
3.184332094154836
 21
0.3222638825303419
 72
     2
 10
3.162769397256125
 20
0.3222640184675962
 40
0.0215626968991391
 50
0.0003612085718475
 51
90.00036121084693
 73
     0
 72
     1
 10
3.162769261318015
 20
0.3007013215688856
 11
3.052707420665665
 21
0.3007013215688856
 72
     1
 10
3.052707420665665
 20
0.3007013215688856
 11
3.052707420665665
 21
0.2579511736405264
 72
     1
 10
3.052707420665665
 20
0.2579511736405264
 11
3.031144250328662
 21
0.2579511736405264
 72
     1
 10
3.031144250328662
 20
0.2579511736405264
 11
3.031144250328662
 21
0.3865765014202565
 72
     1
 10
3.031144250328662
 20
0.3865765014202565
 11
3.162769261318015
 21
0.3865765014202565
 97
        0
 92
       16
 93
        6
 72
     2
 10
3.151988118650169
 20
0.3542325296657216
 40
0.0107811426682361
 50
270.0004882627443
 51
360.0004882669015
 73
     0
 72
     1
 10
3.162769261318015
 20
0.3542324377902786
 11
3.162769261318015
 21
0.333044848948566
 72
     2
 10
3.151988118650169
 20
0.333044757073123
 40
0.0107811426682367
 50
359.9995117330984
 51
449.9995117372556
 73
     0
 72
     1
 10
3.15198821052483
 20
0.3222636144052784
 11
3.052707420665665
 21
0.3222638825303419
 72
     1
 10
3.052707420665665
 20
0.3222638825303419
 11
3.052707420665665
 21
0.3650136723335662
 72
     1
 10
3.052707420665665
 20
0.3650136723335662
 11
3.15198821052483
 21
0.3650136723335662
 97
        0
 75
     0
 76
     1
 98
        1
 10
-7.279586802153931
 20
-0.4081141432880261
  0
HATCH
  5
850
330
841
100
AcDbEntity
  8
TITLEBLOCK
 62
     0
100
AcDbHatch
 10
0.0
 20
0.0
 30
0.0
210
0.0
220
0.0
230
1.0
  2
SOLID
 70
     1
 71
     0
 91
        1
 92
        1
 93
        9
 72
     1
 10
3.556847887515953
 20
0.3865763232950938
 11
3.525206566844968
 21
0.3865765014202565
 72
     1
 10
3.525206566844968
 20
0.3865765014202565
 11
3.60348814923547
 21
0.3136817019238036
 72
     1
 10
3.60348814923547
 20
0.3136817019238036
 11
3.603486349234383
 21
0.2579511736405264
 72
     1
 10
3.603486349234383
 20
0.2579511736405264
 11
3.625050607072164
 21
0.2579511736405264
 72
     1
 10
3.625050607072164
 20
0.2579511736405264
 11
3.625050607072164
 21
0.3136813437984982
 72
     1
 10
3.625050607072164
 20
0.3136813437984982
 11
3.703331833212512
 21
0.3865766795454191
 72
     1
 10
3.703331833212512
 20
0.3865766795454191
 11
3.671691225042007
 21
0.3865765014202565
 72
     1
 10
3.671691225042007
 20
0.3865765014202565
 11
3.61426955627898
 21
0.3331056458632473
 72
     1
 10
3.61426955627898
 20
0.3331056458632473
 11
3.556847887515953
 21
0.3865763232950938
 97
        0
 75
     0
 76
     1
 98
        1
 10
-7.279586802153931
 20
-0.4081141432880261
  0
HATCH
  5
851
330
841
100
AcDbEntity
  8
TITLEBLOCK
 62
     0
100
AcDbHatch
 10
0.0
 20
0.0
 30
0.0
210
0.0
220
0.0
230
1.0
  2
SOLID
 70
     1
 71
     0
 91
        1
 92
        1
 93
       10
 72
     1
 10
3.376247484495632
 20
0.3865765014202565
 11
3.345207161752892
 21
0.3865765014202565
 72
     1
 10
3.345207161752892
 20
0.3865765014202565
 11
3.345207161752892
 21
0.2579511736405264
 72
     1
 10
3.345207161752892
 20
0.2579511736405264
 11
3.366769638339558
 21
0.2579511736405264
 72
     1
 10
3.366769638339558
 20
0.2579511736405264
 11
3.366769638339558
 21
0.3659393041881229
 72
     1
 10
3.366769638339558
 20
0.3659393041881229
 11
3.48273627034943
 21
0.2579509955155343
 72
     1
 10
3.48273627034943
 20
0.2579509955155343
 11
3.515082122730785
 21
0.2579511736405264
 72
     1
 10
3.515082122730785
 20
0.2579511736405264
 11
3.515082122730785
 21
0.3865765014202565
 72
     1
 10
3.515082122730785
 20
0.3865765014202565
 11
3.49351767739277
 21
0.3865765014202565
 72
     1
 10
3.49351767739277
 20
0.3865765014202565
 11
3.49351767739277
 21
0.277374671329744
 72
     1
 10
3.49351767739277
 20
0.277374671329744
 11
3.376247484495632
 21
0.3865765014202565
 97
        0
 75
     0
 76
     1
 98
        1
 10
-7.279586802153931
 20
-0.4081141432880261
  0
ENDBLK
  5
853
330
841
100
AcDbEntity
  8
0
100
AcDbBlockEnd
  0
BLOCK
  5
AF5
330
AE5
100
AcDbEntity
  8
0
100
AcDbBlockBegin
  2
TITLE-PAD
 70
     2
 10
0.0
 20
0.0
 30
0.0
  3
TITLE-PAD
  1

  0
LWPOLYLINE
  5
B1D
330
AE5
100
AcDbEntity
  8
CONTINUOUS2
 62
     0
100
AcDbPolyline
 90
        7
 70
     1
 43
0.0
 10
16.40000099999999
 20
0.0
 10
16.40000099999999
 20
0.0
 10
16.40000099999999
 20
0.0
 10
8.002461
 20
0.0
 10
8.002461
 20
0.9120019999999993
 10
16.40000099999999
 20
0.9120019999999993
 10
16.40000099999999
 20
0.0
  0
INSERT
  5
B1E
330
AE5
100
AcDbEntity
  8
TITLEBLOCK
 62
     0
100
AcDbBlockReference
  2
LOGO-PAD
 10
12.245701
 20
0.3040000000000003
 30
0.0
  0
LINE
  5
B1F
330
AE5
100
AcDbEntity
  8
CONTINUOUS2
 62
     0
100
AcDbLine
 10
16.40000099999999
 20
0.3040000000000003
 30
0.0
 11
12.245701
 21
0.3040000000000003
 31
0.0
  0
LINE
  5
B20
330
AE5
100
AcDbEntity
  8
CONTINUOUS2
 62
     0
100
AcDbLine
 10
12.245701
 20
0.9120019999999993
 30
0.0
 11
12.245701
 21
0.0
 31
0.0
  0
TEXT
  5
B21
330
AE5
100
AcDbEntity
  8
TEXT1
  6
CONTINUOUS
 62
     0
100
AcDbText
 10
12.36897712113656
 20
0.0611566731182909
 30
0.0
 40
0.0699999951940822
  1
NO.
  7
ROMANS
 11
12.36897712113656
 21
0.096156670715332
 31
0.0
100
AcDbText
 73
     2
  0
TEXT
  5
B22
330
AE5
100
AcDbEntity
  8
TEXT1
  6
CONTINUOUS
 62
     0
100
AcDbText
 10
12.36897712113656
 20
0.1661566731182908
 30
0.0
 40
0.0699999951940822
  1
DWG#
  7
ROMANS
 11
12.36897712113656
 21
0.2011566707153319
 31
0.0
100
AcDbText
 73
     2
  0
ATTDEF
  5
B23
330
AE5
100
AcDbEntity
  8
TEXT1
 62
     0
100
AcDbText
 10
10.10183834893798
 20
0.7474460884590166
 30
0.0
 40
0.1
  1

  7
ROMANS
 72
     4
 11
10.10183834893798
 21
0.7474460884590166
 31
0.0
100
AcDbAttributeDefinition
  3
DESCRIPTION 1
  2
DESCRIPTION 1
 70
     0
  0
ATTDEF
  5
B24
330
AE5
100
AcDbEntity
  8
TEXT1
 62
     0
100
AcDbText
 10
10.10183834893798
 20
0.6017231711406717
 30
0.0
 40
0.1
  1

  7
ROMANS
 72
     4
 11
10.10183834893798
 21
0.6017231711406717
 31
0.0
100
AcDbAttributeDefinition
  3
DESCRIPTION 2
  2
DESCRIPTION 2
 70
     0
  0
ATTDEF
  5
B25
330
AE5
100
AcDbEntity
  8
TEXT1
 62
     0
100
AcDbText
 10
10.10183834893798
 20
0.4560002538223267
 30
0.0
 40
0.08
  1

  7
ROMANS
 72
     4
 11
10.10183834893798
 21
0.4560002538223267
 31
0.0
100
AcDbAttributeDefinition
  3
DESCRIPTION 3
  2
DESCRIPTION 3
 70
     0
  0
ATTDEF
  5
B26
330
AE5
100
AcDbEntity
  8
TEXT1
 62
     0
100
AcDbText
 10
10.10183834893798
 20
0.3202773365039833
 30
0.0
 40
0.08
  1

  7
ROMANS
 72
     4
 11
10.10183834893798
 21
0.3202773365039833
 31
0.0
100
AcDbAttributeDefinition
  3
DESCRIPTION 4
  2
DESCRIPTION 4
 70
     0
  0
ATTDEF
  5
B27
330
AE5
100
AcDbEntity
  8
TEXT1
 62
     0
100
AcDbText
 10
10.10183834893798
 20
0.1845544191856399
 30
0.0
 40
0.08
  1

  7
ROMANS
 72
     4
 11
10.10183834893798
 21
0.1845544191856399
 31
0.0
100
AcDbAttributeDefinition
  3
DESCRIPTION 5
  2
DESCRIPTION 5
 70
     0
  0
ATTDEF
  5
B28
330
AE5
100
AcDbEntity
  8
TEXT1
 62
     0
100
AcDbText
 10
12.74772367103195
 20
0.096540546036505
 30
0.0
 40
0.12
  1

 41
0.9512024731840066
  7
M_STANDARD
 11
12.74772367103195
 21
0.156540546036505
 31
0.0
100
AcDbAttributeDefinition
  3
DRAWING NUMBER
  2
DWGNO
 70
     0
 74
     2
  0
ATTDEF
  5
B29
330
AE5
100
AcDbEntity
  8
TEXT1
 62
     0
100
AcDbText
 10
16.35506454949325
 20
-0.1507193079929352
 30
0.0
 40
0.08
  1

  7
ROMANS
 72
     2
 11
16.35506454949325
 21
-0.1107193079929352
 31
0.0
100
AcDbAttributeDefinition
  3
REF DWG #
  2
REF
 70
     0
 74
     2
  0
ATTDEF
  5
B2A
330
AE5
100
AcDbEntity
  8
TEXT1
 62
     0
100
AcDbText
 10
0.0266402374038712
 20
-0.1507193079929352
 30
0.0
 40
0.08
  1

  7
ROMANS
 11
0.0266402374038712
 21
-0.1107193079929352
 31
0.0
100
AcDbAttributeDefinition
  3
DATE MODIFIED
  2
DATE
 70
     0
 74
     2
  0
LWPOLYLINE
  5
B2B
330
AE5
100
AcDbEntity
  8
CONTINUOUS3
 62
     0
100
AcDbPolyline
 90
        4
 70
   129
 43
0.0
 10
0.0
 20
0.0
 10
16.40000099999999
 20
0.0
 10
16.40000099999999
 20
10.25
 10
0.0
 20
10.25
  0
ENDBLK
  5
AF6
330
AE5
100
AcDbEntity
  8
0
100
AcDbBlockEnd
  0
BLOCK
  5
1DED
330
1DBB
100
AcDbEntity
  8
0
100
AcDbBlockBegin
  2
OEM-NOTES
 70
     0
 10
0.0
 20
0.0
 30
0.0
  3
OEM-NOTES
  1

  0
LWPOLYLINE
  5
1DBC
330
1DBB
100
AcDbEntity
  8
TITLEBLOCK
100
AcDbPolyline
 90
        2
 70
     0
 43
0.0128
 10
8.625
 20
1.599999999999996
 10
0.0
 20
1.6
  0
TEXT
  5
1DC0
330
1DBB
100
AcDbEntity
  8
TITLEBLOCK
100
AcDbText
 10
0.3131249999999959
 20
0.7406249999999998
 30
0.0
 40
0.13125
  1
BE USED ONLY IN CONFORMANCE WITH INSTRUCTIONS ISSUED BY SQUARE D COMPANY.
 41
0.9
  7
SIMPLEX
 72
     4
 11
4.3125
 21
0.7999999999999999
 31
0.0
100
AcDbText
  0
TEXT
  5
1DC1
330
1DBB
100
AcDbEntity
  8
TITLEBLOCK
100
AcDbText
 10
0.2540625000000007
 20
1.045625000000001
 30
0.0
 40
0.13125
  1
HEREON. THIS INFORMATION REMAINS THE PROPERTY OF SQUARE D COMPANY AND MAY
 41
0.9
  7
SIMPLEX
 72
     4
 11
4.3125
 21
1.105000000000001
 31
0.0
100
AcDbText
  0
TEXT
  5
1DC2
330
1DBB
100
AcDbEntity
  8
TITLEBLOCK
100
AcDbText
 10
0.3046875
 20
1.338124999999997
 30
0.0
 40
0.13125
  1
"THE SQUARE D COMPANY HAS PROPRIETARY RIGHTS TO THE INFORMATION CONTAINED
 41
0.9
  7
SIMPLEX
 72
     4
 11
4.3125
 21
1.409999999999997
 31
0.0
100
AcDbText
  0
TEXT
  5
1DC3
330
1DBB
100
AcDbEntity
  8
TITLEBLOCK
100
AcDbText
 10
0.6309374999999977
 20
0.4387499999999984
 30
0.0
 40
0.13125
  1
USER SHOULD VERIFY DRAWINGS ARE TO THE LATEST/CURRENT REVISION PRIOR
 41
0.9
  7
SIMPLEX
 72
     4
 11
4.3125
 21
0.4949999999999984
 31
0.0
100
AcDbText
  0
TEXT
  5
1DC4
330
1DBB
100
AcDbEntity
  8
TITLEBLOCK
100
AcDbText
 10
2.5490625
 20
0.1368749999999972
 30
0.0
 40
0.13125
  1
TO INCORPORATING IN A DESIGN FILE."
 41
0.9
  7
SIMPLEX
 72
     4
 11
4.3125
 21
0.2149999999999972
 31
0.0
100
AcDbText
  0
TEXT
  5
1DC5
330
1DBB
100
AcDbEntity
  8
TITLEBLOCK
100
AcDbText
 10
9.046378855339687
 20
0.2629426489623099
 30
0.0
 40
0.112
  1
UNLESS OTHERWISE SPECIFIED DIMENSIONS ARE IN INCHES
 41
0.8
  7
SIMPLEX
 72
     4
 11
11.06451218867302
 21
0.3189426489623099
 31
0.0
100
AcDbText
  0
LWPOLYLINE
  5
1DC6
330
1DBB
100
AcDbEntity
  8
TITLEBLOCK
100
AcDbPolyline
 90
        2
 70
     0
 43
0.0128
 10
8.625
 20
0.9599999999999964
 10
16.00492200000007
 20
0.9599999999999964
  0
TEXT
  5
1DCA
330
1DBB
100
AcDbEntity
  8
TITLEBLOCK
100
AcDbText
 10
8.7837120071254
 20
0.5472199999999967
 30
0.0
 40
0.2433162500000002
  1
%%uDO NOT SCALE DRAWING
  7
SIMPLEX
 72
     1
 11
11.06451218867302
 21
0.5472199999999967
 31
0.0
100
AcDbText
  0
LWPOLYLINE
  5
1DCB
330
1DBB
100
AcDbEntity
  8
TITLEBLOCK
100
AcDbPolyline
 90
        2
 70
     0
 43
0.0128
 10
8.625
 20
0.9599999999999964
 10
8.625
 20
0.0000000000000009
  0
LWPOLYLINE
  5
1DCF
330
1DBB
100
AcDbEntity
  8
TITLEBLOCK
100
AcDbPolyline
 90
        2
 70
     0
 43
0.0128
 10
8.625
 20
0.0000000000000009
 10
8.625
 20
1.6
  0
LWPOLYLINE
  5
1DD3
330
1DBB
100
AcDbEntity
  8
TITLEBLOCK
100
AcDbPolyline
 90
        2
 70
     0
 43
0.0128
 10
13.49242200000007
 20
1.599999999999995
 10
13.49242200000007
 20
0.0000000000000009
  0
TEXT
  5
1DD7
330
1DBB
100
AcDbEntity
  8
TITLEBLOCK
100
AcDbText
 10
13.77242200000007
 20
0.2099999999999964
 30
0.0
 40
0.1
  1
2 PLACE DECIMALS
  7
SIMPLEX
100
AcDbText
  0
TEXT
  5
1DD8
330
1DBB
100
AcDbEntity
  8
TITLEBLOCK
100
AcDbText
 10
13.62242200000007
 20
0.4474999999999972
 30
0.0
 40
0.1
  1
UNLESS OTHERWISE SPECIFIED
  7
SIMPLEX
100
AcDbText
  0
TEXT
  5
1DD9
330
1DBB
100
AcDbEntity
  8
TITLEBLOCK
100
AcDbText
 10
15.57242200000007
 20
0.2099999999999964
 30
0.0
 40
0.1
  1
.01
  7
SIMPLEX
100
AcDbText
  0
LINE
  5
1DDA
330
1DBB
100
AcDbEntity
  8
TITLEBLOCK
100
AcDbLine
 10
15.35492200000008
 20
0.2187499999999973
 30
0.0
 11
15.45492200000008
 21
0.2187499999999973
 31
0.0
  0
TEXT
  5
1DDB
330
1DBB
100
AcDbEntity
  8
TITLEBLOCK
100
AcDbText
 10
15.35992200000007
 20
0.2474999999999961
 30
0.0
 40
0.1
  1
+
  7
SIMPLEX
100
AcDbText
  0
LWPOLYLINE
  5
1DDC
330
1DBB
100
AcDbEntity
  8
TITLEBLOCK
100
AcDbPolyline
 90
        2
 70
     0
 43
0.0128
 10
16.00492200000007
 20
1.599999999999995
 10
13.49242200000007
 20
1.599999999999995
  0
TEXT
  5
1DE0
330
1DBB
100
AcDbEntity
  8
TITLEBLOCK
100
AcDbText
 10
13.62242200000007
 20
1.147499999999996
 30
0.0
 40
0.1
  1
PROJECTION
  7
SIMPLEX
100
AcDbText
  0
TEXT
  5
1DE1
330
1DBB
100
AcDbEntity
  8
TITLEBLOCK
100
AcDbText
 10
13.55992200000007
 20
1.347499999999997
 30
0.0
 40
0.1
  1
THIRD ANGLE
  7
SIMPLEX
100
AcDbText
  0
LINE
  5
1DE2
330
1DBB
100
AcDbEntity
  8
TITLEBLOCK
100
AcDbLine
 10
14.69692486880008
 20
1.300351715199997
 30
0.0
 11
15.91292523520008
 21
1.300351715199997
 31
0.0
  0
TEXT
  5
1DE3
330
1DBB
100
AcDbEntity
  8
TITLEBLOCK
100
AcDbText
 10
14.04742200000008
 20
0.6974999999999972
 30
0.0
 40
0.15
  1
%%uTOLERANCES
  7
SIMPLEX
100
AcDbText
  0
LINE
  5
1DE4
330
1DBB
100
AcDbEntity
  8
TITLEBLOCK
100
AcDbLine
 10
14.95292615040008
 20
1.396354294399999
 30
0.0
 11
14.95292615040008
 21
1.524354553599997
 31
0.0
  0
CIRCLE
  5
1DE5
330
1DBB
100
AcDbEntity
  8
TITLEBLOCK
100
AcDbCircle
 10
14.95292615040008
 20
1.300352668799996
 30
0.0
 40
0.1279999615999998
  0
CIRCLE
  5
1DE6
330
1DBB
100
AcDbEntity
  8
TITLEBLOCK
100
AcDbCircle
 10
14.95292615040008
 20
1.300352668799996
 30
0.0
 40
0.064000004799999
  0
LINE
  5
1DE7
330
1DBB
100
AcDbEntity
  8
TITLEBLOCK
100
AcDbLine
 10
14.95292615040008
 20
1.332351302399996
 30
0.0
 11
14.95292615040008
 21
1.268351172799996
 31
0.0
  0
LINE
  5
1DE8
330
1DBB
100
AcDbEntity
  8
TITLEBLOCK
100
AcDbLine
 10
14.95292615040008
 20
1.204351996799997
 30
0.0
 11
14.95292615040008
 21
1.076351737599998
 31
0.0
  0
LINE
  5
1DE9
330
1DBB
100
AcDbEntity
  8
TITLEBLOCK
100
AcDbLine
 10
15.78492230560007
 20
1.172351455999998
 30
0.0
 11
15.33692425760007
 21
1.236351585599996
 31
0.0
  0
LINE
  5
1DEA
330
1DBB
100
AcDbEntity
  8
TITLEBLOCK
100
AcDbLine
 10
15.33692425760007
 20
1.364351844799998
 30
0.0
 11
15.78492230560007
 21
1.428351020799996
 31
0.0
  0
LINE
  5
1DEB
330
1DBB
100
AcDbEntity
  8
TITLEBLOCK
100
AcDbLine
 10
15.33692425760007
 20
1.236351585599996
 30
0.0
 11
15.33692425760007
 21
1.364351844799998
 31
0.0
  0
LINE
  5
1DEC
330
1DBB
100
AcDbEntity
  8
TITLEBLOCK
100
AcDbLine
 10
15.78492230560007
 20
1.428351020799996
 30
0.0
 11
15.78492230560007
 21
1.172351455999998
 31
0.0
  0
ENDBLK
  5
1DEE
330
1DBB
100
AcDbEntity
  8
0
100
AcDbBlockEnd
  0
BLOCK
  5
2FD9
330
2FD7
100
AcDbEntity
  8
0
100
AcDbBlockBegin
  2
SEARROW
 70
     0
 10
0.0
 20
0.0
 30
0.0
  3
SEARROW
  1

  0
LWPOLYLINE
  5
2FD8
330
2FD7
100
AcDbEntity
  8
0
  6
BYBLOCK
100
AcDbPolyline
 90
        2
 70
     0
 10
0.0
 20
0.0
 40
0.0
 41
0.5000000001500001
 10
-1.000000000300019
 20
0.0
 40
0.5000000001500001
 41
0.5000000001500001
  0
ENDBLK
  5
2FDA
330
2FD7
100
AcDbEntity
  8
0
100
AcDbBlockEnd
  0
BLOCK
  5
7504
330
74F9
100
AcDbEntity
  8
0
100
AcDbBlockBegin
  2
*D5
 70
     1
 10
0.0
 20
0.0
 30
0.0
  3
*D5
  1

  0
LINE
  5
84EC
330
74F9
100
AcDbEntity
  8
DIM
100
AcDbLine
 10
14.47132664112493
 20
7.276877586788257
 30
0.0
 11
14.808579792444
 21
7.276877586788257
 31
0.0
  0
LINE
  5
84ED
330
74F9
100
AcDbEntity
  8
DIM
100
AcDbLine
 10
14.47132664112493
 20
5.586877586788258
 30
0.0
 11
14.808579792444
 21
5.586877586788258
 31
0.0
  0
LINE
  5
84EE
330
74F9
100
AcDbEntity
  8
DIM
100
AcDbLine
 10
14.746079792444
 20
7.206877586788257
 30
0.0
 11
14.746079792444
 21
6.446877586788256
 31
0.0
  0
LINE
  5
84EF
330
74F9
100
AcDbEntity
  8
DIM
100
AcDbLine
 10
14.746079792444
 20
5.656877586788258
 30
0.0
 11
14.746079792444
 21
6.266877586788257
 31
0.0
  0
INSERT
  5
84F0
330
74F9
100
AcDbEntity
  8
DIM
100
AcDbBlockReference
  2
SEARROW
 10
14.746079792444
 20
7.276877586788257
 30
0.0
 41
0.07
 42
0.07
 43
0.07
 50
90.0
  0
INSERT
  5
84F1
330
74F9
100
AcDbEntity
  8
DIM
100
AcDbBlockReference
  2
SEARROW
 10
14.746079792444
 20
5.586877586788258
 30
0.0
 41
0.07
 42
0.07
 43
0.07
 50
270.0
  0
MTEXT
  5
84F2
330
74F9
100
AcDbEntity
  8
DIM
100
AcDbMText
 10
14.746079792444
 20
6.356877586788259
 30
0.0
 40
0.1
 41
0.0
 71
     5
 72
     1
  1
\A1;1.69
  7
ROMANS
1001
ACAD
1000
MTEXTBEGIN
1070
    73
1070
     1
1070
    44
1040
1.0
1070
    74
1070
     0
1000
MTEXTEND
  0
POINT
  5
84F3
330
74F9
100
AcDbEntity
  8
DEFPOINTS
 62
     0
100
AcDbPoint
 10
14.40882664112493
 20
7.276877586788257
 30
0.0
  0
POINT
  5
84F4
330
74F9
100
AcDbEntity
  8
DEFPOINTS
 62
     0
100
AcDbPoint
 10
14.40882664112493
 20
5.586877586788258
 30
0.0
  0
POINT
  5
84F5
330
74F9
100
AcDbEntity
  8
DEFPOINTS
 62
     0
100
AcDbPoint
 10
14.746079792444
 20
5.586877586788258
 30
0.0
  0
ENDBLK
  5
7505
330
74F9
100
AcDbEntity
  8
0
100
AcDbBlockEnd
  0
BLOCK
  5
778F
330
7784
100
AcDbEntity
  8
0
100
AcDbBlockBegin
  2
*D6
 70
     1
 10
0.0
 20
0.0
 30
0.0
  3
*D6
  1

  0
LINE
  5
84F6
330
7784
100
AcDbEntity
  8
DIM
100
AcDbLine
 10
9.398857300988989
 20
3.606877586788258
 30
0.0
 11
9.740685701542396
 21
3.606877586788258
 31
0.0
  0
LINE
  5
84F7
330
7784
100
AcDbEntity
  8
DIM
100
AcDbLine
 10
9.398857300988989
 20
7.276877586788257
 30
0.0
 11
9.740685701542398
 21
7.276877586788257
 31
0.0
  0
LINE
  5
84F8
330
7784
100
AcDbEntity
  8
DIM
100
AcDbLine
 10
9.678185701542396
 20
3.676877586788258
 30
0.0
 11
9.678185701542398
 21
5.351877586788257
 31
0.0
  0
LINE
  5
84F9
330
7784
100
AcDbEntity
  8
DIM
100
AcDbLine
 10
9.678185701542398
 20
7.206877586788257
 30
0.0
 11
9.678185701542398
 21
5.531877586788257
 31
0.0
  0
INSERT
  5
84FA
330
7784
100
AcDbEntity
  8
DIM
100
AcDbBlockReference
  2
SEARROW
 10
9.678185701542396
 20
3.606877586788258
 30
0.0
 41
0.07
 42
0.07
 43
0.07
 50
270.0
  0
INSERT
  5
84FB
330
7784
100
AcDbEntity
  8
DIM
100
AcDbBlockReference
  2
SEARROW
 10
9.678185701542398
 20
7.276877586788257
 30
0.0
 41
0.07
 42
0.07
 43
0.07
 50
90.0
  0
MTEXT
  5
84FC
330
7784
100
AcDbEntity
  8
DIM
100
AcDbMText
 10
9.678185701542396
 20
5.441877586788258
 30
0.0
 40
0.1
 41
0.0
 71
     5
 72
     1
  1
\A1;3.67
  7
ROMANS
1001
ACAD
1000
MTEXTBEGIN
1070
    73
1070
     1
1070
    44
1040
1.0
1070
    74
1070
     0
1000
MTEXTEND
  0
POINT
  5
84FD
330
7784
100
AcDbEntity
  8
DEFPOINTS
 62
     0
100
AcDbPoint
 10
9.336357300988989
 20
3.606877586788258
 30
0.0
  0
POINT
  5
84FE
330
7784
100
AcDbEntity
  8
DEFPOINTS
 62
     0
100
AcDbPoint
 10
9.336357300988989
 20
7.276877586788257
 30
0.0
  0
POINT
  5
84FF
330
7784
100
AcDbEntity
  8
DEFPOINTS
 62
     0
100
AcDbPoint
 10
9.678185701542398
 20
7.276877586788257
 30
0.0
  0
ENDBLK
  5
7790
330
7784
100
AcDbEntity
  8
0
100
AcDbBlockEnd
  0
BLOCK
  5
77AB
330
77A0
100
AcDbEntity
  8
0
100
AcDbBlockBegin
  2
*D7
 70
     1
 10
0.0
 20
0.0
 30
0.0
  3
*D7
  1

  0
LINE
  5
8595
330
77A0
100
AcDbEntity
  8
DIM
100
AcDbLine
 10
9.05635730098899
 20
7.339377586788257
 30
0.0
 11
9.05635730098899
 21
7.528998212414816
 31
0.0
  0
LINE
  5
8596
330
77A0
100
AcDbEntity
  8
DIM
100
AcDbLine
 10
9.336357300988989
 20
7.339377586788257
 30
0.0
 11
9.336357300988989
 21
7.528998212414816
 31
0.0
  0
LINE
  5
8597
330
77A0
100
AcDbEntity
  8
DIM
100
AcDbLine
 10
8.98635730098899
 20
7.466498212414816
 30
0.0
 11
8.916357300988989
 21
7.466498212414816
 31
0.0
  0
LINE
  5
8598
330
77A0
100
AcDbEntity
  8
DIM
100
AcDbLine
 10
9.40635730098899
 20
7.466498212414816
 30
0.0
 11
9.47635730098899
 21
7.466498212414816
 31
0.0
  0
INSERT
  5
8599
330
77A0
100
AcDbEntity
  8
DIM
100
AcDbBlockReference
  2
SEARROW
 10
9.05635730098899
 20
7.466498212414816
 30
0.0
 41
0.07
 42
0.07
 43
0.07
  0
INSERT
  5
859A
330
77A0
100
AcDbEntity
  8
DIM
100
AcDbBlockReference
  2
SEARROW
 10
9.336357300988989
 20
7.466498212414816
 30
0.0
 41
0.07
 42
0.07
 43
0.07
 50
180.0
  0
MTEXT
  5
859B
330
77A0
100
AcDbEntity
  8
DIM
100
AcDbMText
 10
9.618738253369942
 20
7.466498212414816
 30
0.0
 40
0.1
 41
0.0
 71
     5
 72
     1
  1
\A1;.28
  7
ROMANS
  0
POINT
  5
859C
330
77A0
100
AcDbEntity
  8
DEFPOINTS
 62
     0
100
AcDbPoint
 10
9.05635730098899
 20
7.276877586788257
 30
0.0
  0
POINT
  5
859D
330
77A0
100
AcDbEntity
  8
DEFPOINTS
 62
     0
100
AcDbPoint
 10
9.336357300988989
 20
7.276877586788257
 30
0.0
  0
POINT
  5
859E
330
77A0
100
AcDbEntity
  8
DEFPOINTS
 62
     0
100
AcDbPoint
 10
9.336357300988989
 20
7.466498212414816
 30
0.0
  0
ENDBLK
  5
77AC
330
77A0
100
AcDbEntity
  8
0
100
AcDbBlockEnd
  0
BLOCK
  5
77F3
330
77E8
100
AcDbEntity
  8
0
100
AcDbBlockBegin
  2
*D8
 70
     1
 10
0.0
 20
0.0
 30
0.0
  3
*D8
  1

  0
LINE
  5
850A
330
77E8
100
AcDbEntity
  8
DIM
100
AcDbLine
 10
8.036357300988989
 20
3.644377586788257
 30
0.0
 11
8.036357300988989
 21
3.086891753664129
 31
0.0
  0
LINE
  5
850B
330
77E8
100
AcDbEntity
  8
DIM
100
AcDbLine
 10
9.336357300988989
 20
3.534377586788258
 30
0.0
 11
9.336357300988989
 21
3.086891753664129
 31
0.0
  0
LINE
  5
850C
330
77E8
100
AcDbEntity
  8
DIM
100
AcDbLine
 10
8.106357300988989
 20
3.149391753664129
 30
0.0
 11
8.501119205750894
 21
3.149391753664129
 31
0.0
  0
LINE
  5
850D
330
77E8
100
AcDbEntity
  8
DIM
100
AcDbLine
 10
9.266357300988989
 20
3.149391753664129
 30
0.0
 11
8.871595396227084
 21
3.149391753664129
 31
0.0
  0
INSERT
  5
850E
330
77E8
100
AcDbEntity
  8
DIM
100
AcDbBlockReference
  2
SEARROW
 10
8.036357300988989
 20
3.149391753664129
 30
0.0
 41
0.07
 42
0.07
 43
0.07
 50
180.0
  0
INSERT
  5
850F
330
77E8
100
AcDbEntity
  8
DIM
100
AcDbBlockReference
  2
SEARROW
 10
9.336357300988989
 20
3.149391753664129
 30
0.0
 41
0.07
 42
0.07
 43
0.07
  0
MTEXT
  5
8510
330
77E8
100
AcDbEntity
  8
DIM
100
AcDbMText
 10
8.686357300988989
 20
3.149391753664129
 30
0.0
 40
0.1
 41
0.0
 71
     5
 72
     1
  1
\A1;1.30
  7
ROMANS
1001
ACAD
1000
MTEXTBEGIN
1070
    73
1070
     1
1070
    44
1040
1.0
1070
    74
1070
     0
1000
MTEXTEND
  0
POINT
  5
8511
330
77E8
100
AcDbEntity
  8
DEFPOINTS
 62
     0
100
AcDbPoint
 10
8.036357300988989
 20
3.706877586788257
 30
0.0
  0
POINT
  5
8512
330
77E8
100
AcDbEntity
  8
DEFPOINTS
 62
     0
100
AcDbPoint
 10
9.336357300988989
 20
3.596877586788258
 30
0.0
  0
POINT
  5
8513
330
77E8
100
AcDbEntity
  8
DEFPOINTS
 62
     0
100
AcDbPoint
 10
9.336357300988989
 20
3.149391753664129
 30
0.0
  0
ENDBLK
  5
77F4
330
77E8
100
AcDbEntity
  8
0
100
AcDbBlockEnd
  0
BLOCK
  5
785C
330
7851
100
AcDbEntity
  8
0
100
AcDbBlockBegin
  2
*D9
 70
     1
 10
0.0
 20
0.0
 30
0.0
  3
*D9
  1

  0
LINE
  5
8514
330
7851
100
AcDbEntity
  8
DIM
100
AcDbLine
 10
7.973857300988989
 20
5.586877586788258
 30
0.0
 11
7.689088072649297
 21
5.586877586788258
 31
0.0
  0
LINE
  5
8515
330
7851
100
AcDbEntity
  8
DIM
100
AcDbLine
 10
7.713818328394737
 20
7.076877586788258
 30
0.0
 11
7.689088072649298
 21
7.076877586788258
 31
0.0
  0
LINE
  5
8516
330
7851
100
AcDbEntity
  8
DIM
100
AcDbLine
 10
7.751588072649297
 20
5.656877586788258
 30
0.0
 11
7.751588072649298
 21
6.241877586788258
 31
0.0
  0
LINE
  5
8517
330
7851
100
AcDbEntity
  8
DIM
100
AcDbLine
 10
7.751588072649298
 20
7.006877586788258
 30
0.0
 11
7.751588072649298
 21
6.421877586788258
 31
0.0
  0
INSERT
  5
8518
330
7851
100
AcDbEntity
  8
DIM
100
AcDbBlockReference
  2
SEARROW
 10
7.751588072649297
 20
5.586877586788258
 30
0.0
 41
0.07
 42
0.07
 43
0.07
 50
270.0
  0
INSERT
  5
8519
330
7851
100
AcDbEntity
  8
DIM
100
AcDbBlockReference
  2
SEARROW
 10
7.751588072649298
 20
7.076877586788258
 30
0.0
 41
0.07
 42
0.07
 43
0.07
 50
90.0
  0
MTEXT
  5
851A
330
7851
100
AcDbEntity
  8
DIM
100
AcDbMText
 10
7.751588072649296
 20
6.331877586788259
 30
0.0
 40
0.1
 41
0.0
 71
     5
 72
     1
  1
\A1;1.49
  7
ROMANS
1001
ACAD
1000
MTEXTBEGIN
1070
    73
1070
     1
1070
    44
1040
1.0
1070
    74
1070
     0
1000
MTEXTEND
  0
POINT
  5
851B
330
7851
100
AcDbEntity
  8
DEFPOINTS
 62
     0
100
AcDbPoint
 10
8.03635730098899
 20
5.586877586788258
 30
0.0
  0
POINT
  5
851C
330
7851
100
AcDbEntity
  8
DEFPOINTS
 62
     0
100
AcDbPoint
 10
7.776318328394737
 20
7.076877586788258
 30
0.0
  0
POINT
  5
851D
330
7851
100
AcDbEntity
  8
DEFPOINTS
 62
     0
100
AcDbPoint
 10
7.751588072649298
 20
7.076877586788258
 30
0.0
  0
ENDBLK
  5
785D
330
7851
100
AcDbEntity
  8
0
100
AcDbBlockEnd
  0
BLOCK
  5
7A89
330
7A7E
100
AcDbEntity
  8
0
100
AcDbBlockBegin
  2
*D10
 70
     1
 10
0.0
 20
0.0
 30
0.0
  3
*D10
  1

  0
LINE
  5
851E
330
7A7E
100
AcDbEntity
  8
DIM
100
AcDbLine
 10
13.38382664112493
 20
5.44437758678826
 30
0.0
 11
13.38382664112493
 21
3.096891753664129
 31
0.0
  0
LINE
  5
851F
330
7A7E
100
AcDbEntity
  8
DIM
100
AcDbLine
 10
14.25382664112493
 20
5.44437758678826
 30
0.0
 11
14.25382664112493
 21
3.096891753664129
 31
0.0
  0
LINE
  5
8520
330
7A7E
100
AcDbEntity
  8
DIM
100
AcDbLine
 10
13.45382664112493
 20
3.159391753664129
 30
0.0
 11
13.67644568874398
 21
3.159391753664129
 31
0.0
  0
LINE
  5
8521
330
7A7E
100
AcDbEntity
  8
DIM
100
AcDbLine
 10
14.18382664112493
 20
3.159391753664129
 30
0.0
 11
13.96120759350588
 21
3.159391753664129
 31
0.0
  0
INSERT
  5
8522
330
7A7E
100
AcDbEntity
  8
DIM
100
AcDbBlockReference
  2
SEARROW
 10
13.38382664112493
 20
3.159391753664129
 30
0.0
 41
0.07
 42
0.07
 43
0.07
 50
180.0
  0
INSERT
  5
8523
330
7A7E
100
AcDbEntity
  8
DIM
100
AcDbBlockReference
  2
SEARROW
 10
14.25382664112493
 20
3.159391753664129
 30
0.0
 41
0.07
 42
0.07
 43
0.07
  0
MTEXT
  5
8524
330
7A7E
100
AcDbEntity
  8
DIM
100
AcDbMText
 10
13.81882664112493
 20
3.159391753664129
 30
0.0
 40
0.1
 41
0.0
 71
     5
 72
     1
  1
\A1;.87
  7
ROMANS
1001
ACAD
1000
MTEXTBEGIN
1070
    73
1070
     1
1070
    44
1040
1.0
1070
    74
1070
     0
1000
MTEXTEND
  0
POINT
  5
8525
330
7A7E
100
AcDbEntity
  8
DEFPOINTS
 62
     0
100
AcDbPoint
 10
13.38382664112493
 20
5.50687758678826
 30
0.0
  0
POINT
  5
8526
330
7A7E
100
AcDbEntity
  8
DEFPOINTS
 62
     0
100
AcDbPoint
 10
14.25382664112493
 20
5.50687758678826
 30
0.0
  0
POINT
  5
8527
330
7A7E
100
AcDbEntity
  8
DEFPOINTS
 62
     0
100
AcDbPoint
 10
14.25382664112493
 20
3.159391753664129
 30
0.0
  0
ENDBLK
  5
7A8A
330
7A7E
100
AcDbEntity
  8
0
100
AcDbBlockEnd
  0
BLOCK
  5
7A97
330
7A8C
100
AcDbEntity
  8
0
100
AcDbBlockBegin
  2
*D11
 70
     1
 10
0.0
 20
0.0
 30
0.0
  3
*D11
  1

  0
LINE
  5
8528
330
7A8C
100
AcDbEntity
  8
DIM
100
AcDbLine
 10
13.42382664112493
 20
5.524377586788258
 30
0.0
 11
13.42382664112493
 21
3.326318402743851
 31
0.0
  0
LINE
  5
8529
330
7A8C
100
AcDbEntity
  8
DIM
100
AcDbLine
 10
14.21382664112493
 20
5.524377586788258
 30
0.0
 11
14.21382664112493
 21
3.326318402743851
 31
0.0
  0
LINE
  5
852A
330
7A8C
100
AcDbEntity
  8
DIM
100
AcDbLine
 10
13.49382664112493
 20
3.388818402743851
 30
0.0
 11
13.67882664112493
 21
3.388818402743851
 31
0.0
  0
LINE
  5
852B
330
7A8C
100
AcDbEntity
  8
DIM
100
AcDbLine
 10
14.14382664112492
 20
3.388818402743851
 30
0.0
 11
13.95882664112493
 21
3.388818402743851
 31
0.0
  0
INSERT
  5
852C
330
7A8C
100
AcDbEntity
  8
DIM
100
AcDbBlockReference
  2
SEARROW
 10
13.42382664112493
 20
3.388818402743851
 30
0.0
 41
0.07
 42
0.07
 43
0.07
 50
180.0
  0
INSERT
  5
852D
330
7A8C
100
AcDbEntity
  8
DIM
100
AcDbBlockReference
  2
SEARROW
 10
14.21382664112493
 20
3.388818402743851
 30
0.0
 41
0.07
 42
0.07
 43
0.07
  0
MTEXT
  5
852E
330
7A8C
100
AcDbEntity
  8
DIM
100
AcDbMText
 10
13.81882664112493
 20
3.388818402743851
 30
0.0
 40
0.1
 41
0.0
 71
     5
 72
     1
  1
\A1;.79
  7
ROMANS
1001
ACAD
1000
MTEXTBEGIN
1070
    73
1070
     1
1070
    44
1040
1.0
1070
    74
1070
     0
1000
MTEXTEND
  0
POINT
  5
852F
330
7A8C
100
AcDbEntity
  8
DEFPOINTS
 62
     0
100
AcDbPoint
 10
13.42382664112493
 20
5.586877586788258
 30
0.0
  0
POINT
  5
8530
330
7A8C
100
AcDbEntity
  8
DEFPOINTS
 62
     0
100
AcDbPoint
 10
14.21382664112493
 20
5.586877586788258
 30
0.0
  0
POINT
  5
8531
330
7A8C
100
AcDbEntity
  8
DEFPOINTS
 62
     0
100
AcDbPoint
 10
14.21382664112493
 20
3.388818402743851
 30
0.0
  0
ENDBLK
  5
7A98
330
7A8C
100
AcDbEntity
  8
0
100
AcDbBlockEnd
  0
BLOCK
  5
7B66
330
7B5B
100
AcDbEntity
  8
0
100
AcDbBlockBegin
  2
*D12
 70
     1
 10
0.0
 20
0.0
 30
0.0
  3
*D12
  1

  0
LINE
  5
8532
330
7B5B
100
AcDbEntity
  8
DIM
100
AcDbLine
 10
8.766357300988989
 20
3.544377586788258
 30
0.0
 11
8.766357300988989
 21
3.316318402743852
 31
0.0
  0
LINE
  5
8533
330
7B5B
100
AcDbEntity
  8
DIM
100
AcDbLine
 10
9.336357300988989
 20
3.534377586788258
 30
0.0
 11
9.336357300988989
 21
3.316318402743852
 31
0.0
  0
LINE
  5
8534
330
7B5B
100
AcDbEntity
  8
DIM
100
AcDbLine
 10
8.836357300988989
 20
3.378818402743852
 30
0.0
 11
8.908976348608037
 21
3.378818402743852
 31
0.0
  0
LINE
  5
8535
330
7B5B
100
AcDbEntity
  8
DIM
100
AcDbLine
 10
9.266357300988989
 20
3.378818402743852
 30
0.0
 11
9.193738253369941
 21
3.378818402743852
 31
0.0
  0
INSERT
  5
8536
330
7B5B
100
AcDbEntity
  8
DIM
100
AcDbBlockReference
  2
SEARROW
 10
8.766357300988989
 20
3.378818402743852
 30
0.0
 41
0.07
 42
0.07
 43
0.07
 50
180.0
  0
INSERT
  5
8537
330
7B5B
100
AcDbEntity
  8
DIM
100
AcDbBlockReference
  2
SEARROW
 10
9.336357300988989
 20
3.378818402743852
 30
0.0
 41
0.07
 42
0.07
 43
0.07
  0
MTEXT
  5
8538
330
7B5B
100
AcDbEntity
  8
DIM
100
AcDbMText
 10
9.051357300988989
 20
3.378818402743852
 30
0.0
 40
0.1
 41
0.0
 71
     5
 72
     1
  1
\A1;.57
  7
ROMANS
1001
ACAD
1000
MTEXTBEGIN
1070
    73
1070
     1
1070
    44
1040
1.0
1070
    74
1070
     0
1000
MTEXTEND
  0
POINT
  5
8539
330
7B5B
100
AcDbEntity
  8
DEFPOINTS
 62
     0
100
AcDbPoint
 10
8.766357300988989
 20
3.606877586788258
 30
0.0
  0
POINT
  5
853A
330
7B5B
100
AcDbEntity
  8
DEFPOINTS
 62
     0
100
AcDbPoint
 10
9.336357300988989
 20
3.596877586788258
 30
0.0
  0
POINT
  5
853B
330
7B5B
100
AcDbEntity
  8
DEFPOINTS
 62
     0
100
AcDbPoint
 10
9.336357300988989
 20
3.378818402743852
 30
0.0
  0
ENDBLK
  5
7B67
330
7B5B
100
AcDbEntity
  8
0
100
AcDbBlockEnd
  0
BLOCK
  5
7D5C
330
7D51
100
AcDbEntity
  8
0
100
AcDbBlockBegin
  2
*D13
 70
     1
 10
0.0
 20
0.0
 30
0.0
  3
*D13
  1

  0
LINE
  5
853C
330
7D51
100
AcDbEntity
  8
DIM
100
AcDbLine
 10
14.25382664112493
 20
5.44437758678826
 30
0.0
 11
14.25382664112493
 21
3.096891753664129
 31
0.0
  0
LINE
  5
853D
330
7D51
100
AcDbEntity
  8
DIM
100
AcDbLine
 10
14.40882664112493
 20
3.544377586788257
 30
0.0
 11
14.40882664112493
 21
3.096891753664129
 31
0.0
  0
LINE
  5
853E
330
7D51
100
AcDbEntity
  8
DIM
100
AcDbLine
 10
14.18382664112493
 20
3.159391753664129
 30
0.0
 11
14.11382664112493
 21
3.159391753664129
 31
0.0
  0
LINE
  5
853F
330
7D51
100
AcDbEntity
  8
DIM
100
AcDbLine
 10
14.47882664112493
 20
3.159391753664129
 30
0.0
 11
14.54882664112493
 21
3.159391753664129
 31
0.0
  0
INSERT
  5
8540
330
7D51
100
AcDbEntity
  8
DIM
100
AcDbBlockReference
  2
SEARROW
 10
14.25382664112493
 20
3.159391753664129
 30
0.0
 41
0.07
 42
0.07
 43
0.07
  0
INSERT
  5
8541
330
7D51
100
AcDbEntity
  8
DIM
100
AcDbBlockReference
  2
SEARROW
 10
14.40882664112493
 20
3.159391753664129
 30
0.0
 41
0.07
 42
0.07
 43
0.07
 50
180.0
  0
MTEXT
  5
8542
330
7D51
100
AcDbEntity
  8
DIM
100
AcDbMText
 10
14.69120759350588
 20
3.159391753664129
 30
0.0
 40
0.1
 41
0.0
 71
     5
 72
     1
  1
\A1;.16
  7
ROMANS
1001
ACAD
1000
MTEXTBEGIN
1070
    73
1070
     1
1070
    44
1040
1.0
1070
    74
1070
     0
1000
MTEXTEND
  0
POINT
  5
8543
330
7D51
100
AcDbEntity
  8
DEFPOINTS
 62
     0
100
AcDbPoint
 10
14.25382664112493
 20
5.50687758678826
 30
0.0
  0
POINT
  5
8544
330
7D51
100
AcDbEntity
  8
DEFPOINTS
 62
     0
100
AcDbPoint
 10
14.40882664112493
 20
3.606877586788257
 30
0.0
  0
POINT
  5
8545
330
7D51
100
AcDbEntity
  8
DEFPOINTS
 62
     0
100
AcDbPoint
 10
14.40882664112493
 20
3.159391753664129
 30
0.0
  0
ENDBLK
  5
7D5D
330
7D51
100
AcDbEntity
  8
0
100
AcDbBlockEnd
  0
BLOCK
  5
7D88
330
7D7D
100
AcDbEntity
  8
0
100
AcDbBlockBegin
  2
*D14
 70
     1
 10
0.0
 20
0.0
 30
0.0
  3
*D14
  1

  0
LINE
  5
8546
330
7D7D
100
AcDbEntity
  8
DIM
100
AcDbLine
 10
12.83882664112493
 20
3.544377586788257
 30
0.0
 11
12.83882664112493
 21
2.871518246036239
 31
0.0
  0
LINE
  5
8547
330
7D7D
100
AcDbEntity
  8
DIM
100
AcDbLine
 10
14.40882664112493
 20
3.544377586788257
 30
0.0
 11
14.40882664112493
 21
2.871518246036239
 31
0.0
  0
LINE
  5
8548
330
7D7D
100
AcDbEntity
  8
DIM
100
AcDbLine
 10
12.90882664112493
 20
2.934018246036239
 30
0.0
 11
13.43858854588684
 21
2.934018246036239
 31
0.0
  0
LINE
  5
8549
330
7D7D
100
AcDbEntity
  8
DIM
100
AcDbLine
 10
14.33882664112493
 20
2.934018246036239
 30
0.0
 11
13.80906473636303
 21
2.934018246036239
 31
0.0
  0
INSERT
  5
854A
330
7D7D
100
AcDbEntity
  8
DIM
100
AcDbBlockReference
  2
SEARROW
 10
12.83882664112493
 20
2.934018246036239
 30
0.0
 41
0.07
 42
0.07
 43
0.07
 50
180.0
  0
INSERT
  5
854B
330
7D7D
100
AcDbEntity
  8
DIM
100
AcDbBlockReference
  2
SEARROW
 10
14.40882664112493
 20
2.934018246036239
 30
0.0
 41
0.07
 42
0.07
 43
0.07
  0
MTEXT
  5
854C
330
7D7D
100
AcDbEntity
  8
DIM
100
AcDbMText
 10
13.62382664112493
 20
2.934018246036239
 30
0.0
 40
0.1
 41
0.0
 71
     5
 72
     1
  1
\A1;1.57
  7
ROMANS
1001
ACAD
1000
MTEXTBEGIN
1070
    73
1070
     1
1070
    44
1040
1.0
1070
    74
1070
     0
1000
MTEXTEND
  0
POINT
  5
854D
330
7D7D
100
AcDbEntity
  8
DEFPOINTS
 62
     0
100
AcDbPoint
 10
12.83882664112493
 20
3.606877586788257
 30
0.0
  0
POINT
  5
854E
330
7D7D
100
AcDbEntity
  8
DEFPOINTS
 62
     0
100
AcDbPoint
 10
14.40882664112493
 20
3.606877586788257
 30
0.0
  0
POINT
  5
854F
330
7D7D
100
AcDbEntity
  8
DEFPOINTS
 62
     0
100
AcDbPoint
 10
14.40882664112493
 20
2.934018246036239
 30
0.0
  0
ENDBLK
  5
7D89
330
7D7D
100
AcDbEntity
  8
0
100
AcDbBlockEnd
  0
BLOCK
  5
7D96
330
7D8B
100
AcDbEntity
  8
0
100
AcDbBlockBegin
  2
*D15
 70
     1
 10
0.0
 20
0.0
 30
0.0
  3
*D15
  1

  0
LINE
  5
8550
330
7D8B
100
AcDbEntity
  8
DIM
100
AcDbLine
 10
10.08882664112493
 20
3.544377586788257
 30
0.0
 11
10.08882664112493
 21
2.670992100867275
 31
0.0
  0
LINE
  5
8551
330
7D8B
100
AcDbEntity
  8
DIM
100
AcDbLine
 10
14.40882664112493
 20
3.544377586788257
 30
0.0
 11
14.40882664112493
 21
2.670992100867275
 31
0.0
  0
LINE
  5
8552
330
7D8B
100
AcDbEntity
  8
DIM
100
AcDbLine
 10
10.15882664112493
 20
2.733492100867275
 30
0.0
 11
12.05644568874398
 21
2.733492100867275
 31
0.0
  0
LINE
  5
8553
330
7D8B
100
AcDbEntity
  8
DIM
100
AcDbLine
 10
14.33882664112493
 20
2.733492100867275
 30
0.0
 11
12.44120759350588
 21
2.733492100867275
 31
0.0
  0
INSERT
  5
8554
330
7D8B
100
AcDbEntity
  8
DIM
100
AcDbBlockReference
  2
SEARROW
 10
10.08882664112493
 20
2.733492100867275
 30
0.0
 41
0.07
 42
0.07
 43
0.07
 50
180.0
  0
INSERT
  5
8555
330
7D8B
100
AcDbEntity
  8
DIM
100
AcDbBlockReference
  2
SEARROW
 10
14.40882664112493
 20
2.733492100867275
 30
0.0
 41
0.07
 42
0.07
 43
0.07
  0
MTEXT
  5
8556
330
7D8B
100
AcDbEntity
  8
DIM
100
AcDbMText
 10
12.24882664112493
 20
2.733492100867275
 30
0.0
 40
0.1
 41
0.0
 71
     5
 72
     1
  1
\A1;4.32
  7
ROMANS
1001
ACAD
1000
MTEXTBEGIN
1070
    73
1070
     1
1070
    44
1040
1.0
1070
    74
1070
     0
1000
MTEXTEND
  0
POINT
  5
8557
330
7D8B
100
AcDbEntity
  8
DEFPOINTS
 62
     0
100
AcDbPoint
 10
10.08882664112493
 20
3.606877586788257
 30
0.0
  0
POINT
  5
8558
330
7D8B
100
AcDbEntity
  8
DEFPOINTS
 62
     0
100
AcDbPoint
 10
14.40882664112493
 20
3.606877586788257
 30
0.0
  0
POINT
  5
8559
330
7D8B
100
AcDbEntity
  8
DEFPOINTS
 62
     0
100
AcDbPoint
 10
14.40882664112493
 20
2.733492100867275
 30
0.0
  0
ENDBLK
  5
7D97
330
7D8B
100
AcDbEntity
  8
0
100
AcDbBlockEnd
  0
BLOCK
  5
7EA1
330
7E96
100
AcDbEntity
  8
0
100
AcDbBlockBegin
  2
*D16
 70
     1
 10
0.0
 20
0.0
 30
0.0
  3
*D16
  1

  0
LINE
  5
855A
330
7E96
100
AcDbEntity
  8
DIM
100
AcDbLine
 10
13.81882664112493
 20
7.632109185520068
 30
0.0
 11
13.81882664112493
 21
7.643351765621218
 31
0.0
  0
LINE
  5
855B
330
7E96
100
AcDbEntity
  8
DIM
100
AcDbLine
 10
14.40882664112493
 20
7.339377586788257
 30
0.0
 11
14.40882664112493
 21
7.643351765621218
 31
0.0
  0
LINE
  5
855C
330
7E96
100
AcDbEntity
  8
DIM
100
AcDbLine
 10
13.88882664112493
 20
7.580851765621218
 30
0.0
 11
13.97382664112493
 21
7.580851765621218
 31
0.0
  0
LINE
  5
855D
330
7E96
100
AcDbEntity
  8
DIM
100
AcDbLine
 10
14.33882664112493
 20
7.580851765621218
 30
0.0
 11
14.25382664112493
 21
7.580851765621218
 31
0.0
  0
INSERT
  5
855E
330
7E96
100
AcDbEntity
  8
DIM
100
AcDbBlockReference
  2
SEARROW
 10
13.81882664112493
 20
7.580851765621218
 30
0.0
 41
0.07
 42
0.07
 43
0.07
 50
180.0
  0
INSERT
  5
855F
330
7E96
100
AcDbEntity
  8
DIM
100
AcDbBlockReference
  2
SEARROW
 10
14.40882664112493
 20
7.580851765621218
 30
0.0
 41
0.07
 42
0.07
 43
0.07
  0
MTEXT
  5
8560
330
7E96
100
AcDbEntity
  8
DIM
100
AcDbMText
 10
14.11382664112493
 20
7.580851765621218
 30
0.0
 40
0.1
 41
0.0
 71
     5
 72
     1
  1
\A1;.59
  7
ROMANS
1001
ACAD
1000
MTEXTBEGIN
1070
    73
1070
     1
1070
    44
1040
1.0
1070
    74
1070
     0
1000
MTEXTEND
  0
POINT
  5
8561
330
7E96
100
AcDbEntity
  8
DEFPOINTS
 62
     0
100
AcDbPoint
 10
13.81882664112493
 20
7.569609185520068
 30
0.0
  0
POINT
  5
8562
330
7E96
100
AcDbEntity
  8
DEFPOINTS
 62
     0
100
AcDbPoint
 10
14.40882664112493
 20
7.276877586788257
 30
0.0
  0
POINT
  5
8563
330
7E96
100
AcDbEntity
  8
DEFPOINTS
 62
     0
100
AcDbPoint
 10
14.40882664112493
 20
7.580851765621218
 30
0.0
  0
ENDBLK
  5
7EA2
330
7E96
100
AcDbEntity
  8
0
100
AcDbBlockEnd
  0
BLOCK
  5
7FD5
330
7FCA
100
AcDbEntity
  8
0
100
AcDbBlockBegin
  2
*D17
 70
     1
 10
0.0
 20
0.0
 30
0.0
  3
*D17
  1

  0
LINE
  5
859F
330
7FCA
100
AcDbEntity
  8
DIM
100
AcDbLine
 10
8.15635730098899
 20
7.339377586788257
 30
0.0
 11
8.15635730098899
 21
7.839061732178954
 31
0.0
  0
LINE
  5
85A0
330
7FCA
100
AcDbEntity
  8
DIM
100
AcDbLine
 10
9.336357300988989
 20
7.339377586788257
 30
0.0
 11
9.336357300988989
 21
7.839061732178954
 31
0.0
  0
LINE
  5
85A1
330
7FCA
100
AcDbEntity
  8
DIM
100
AcDbLine
 10
8.22635730098899
 20
7.776561732178954
 30
0.0
 11
8.561119205750895
 21
7.776561732178954
 31
0.0
  0
LINE
  5
85A2
330
7FCA
100
AcDbEntity
  8
DIM
100
AcDbLine
 10
9.266357300988989
 20
7.776561732178954
 30
0.0
 11
8.931595396227084
 21
7.776561732178954
 31
0.0
  0
INSERT
  5
85A3
330
7FCA
100
AcDbEntity
  8
DIM
100
AcDbBlockReference
  2
SEARROW
 10
8.15635730098899
 20
7.776561732178954
 30
0.0
 41
0.07
 42
0.07
 43
0.07
 50
180.0
  0
INSERT
  5
85A4
330
7FCA
100
AcDbEntity
  8
DIM
100
AcDbBlockReference
  2
SEARROW
 10
9.336357300988989
 20
7.776561732178954
 30
0.0
 41
0.07
 42
0.07
 43
0.07
  0
MTEXT
  5
85A5
330
7FCA
100
AcDbEntity
  8
DIM
100
AcDbMText
 10
8.746357300988989
 20
7.776561732178954
 30
0.0
 40
0.1
 41
0.0
 71
     5
 72
     1
  1
\A1;1.18
  7
ROMANS
  0
POINT
  5
85A6
330
7FCA
100
AcDbEntity
  8
DEFPOINTS
 62
     0
100
AcDbPoint
 10
8.15635730098899
 20
7.276877586788257
 30
0.0
  0
POINT
  5
85A7
330
7FCA
100
AcDbEntity
  8
DEFPOINTS
 62
     0
100
AcDbPoint
 10
9.336357300988989
 20
7.276877586788257
 30
0.0
  0
POINT
  5
85A8
330
7FCA
100
AcDbEntity
  8
DEFPOINTS
 62
     0
100
AcDbPoint
 10
9.336357300988989
 20
7.776561732178954
 30
0.0
  0
ENDBLK
  5
7FD6
330
7FCA
100
AcDbEntity
  8
0
100
AcDbBlockEnd
  0
ENDSEC
  0
SECTION
  2
ENTITIES
  0
INSERT
  5
79E
330
1F
100
AcDbEntity
  8
0
100
AcDbBlockReference
  2
NEWLAYERS
 10
0.0
 20
0.0
 30
0.0
 41
0.005
 42
0.005
 43
0.005
  0
LWPOLYLINE
  5
BF7
330
1F
100
AcDbEntity
  8
VIEWPORT
100
AcDbPolyline
 90
        6
 70
     1
 43
0.0
 10
16.40000099999999
 20
10.25
 10
16.40000099999999
 20
0.9120019999999993
 10
8.002461
 20
0.9120019999999993
 10
8.002461
 20
0.0
 10
0.0
 20
0.0
 10
0.0
 20
10.25
1001
GENIUS_GENOREF_13
1005
0
1005
0
1005
0
1005
0
1005
0
1005
0
1005
0
1005
0
1005
0
1005
0
1005
0
1005
0
1005
0
1005
0
1005
0
  0
VIEWPORT
  5
BF8
330
1F
100
AcDbEntity
  8
VIEWPORT
100
AcDbViewport
 10
8.200000499999999
 20
5.125
 30
0.0
 40
16.40000099999999
 41
10.25
 69
     0
1001
ACAD
1000
MVIEW
1002
{
1070
    16
1010
0.0
1020
0.0
1030
0.0
1010
0.0
1020
0.0
1030
1.0
1040
0.0
1040
10.25
1040
8.193386135163111
1040
5.146330469914577
1040
50.0
1040
0.0
1040
0.0
1070
     0
1070
   100
1070
     1
1070
     2
1070
     0
1070
     0
1070
     0
1070
     0
1040
0.0
1040
0.0
1040
0.0
1040
0.5
1040
0.5
1040
0.5
1040
0.5
1070
     0
1002
{
1002
}
1002
}
1001
GENIUS_GENOREF_13
1005
0
1005
0
1005
0
1005
0
1005
0
1005
0
1005
0
1005
0
1005
0
1005
0
1005
0
1005
0
1005
0
1005
0
1005
0
1001
GENIUS_GENSCREG_15
1000
PF
1040
0.0
1000
DF
1040
0.0
1000
MIN
1011
0.0
1021
0.0
1031
0.0
1000
MAX
1011
16.40000099999999
1021
10.25
1031
0.0
1000
FLAGS
1070
     2
  0
MTEXT
  5
2517
330
1F
100
AcDbEntity
  8
0
100
AcDbMText
 10
22.11248634229724
 20
14.94238675539585
 30
0.0
 40
0.2
 41
0.0
 71
     1
 72
     1
  1

  7
ROMANS
1001
ACAD
1000
MTEXTBEGIN
1070
    73
1070
     1
1070
    44
1040
1.0
1070
    74
1070
     0
1000
MTEXTEND
1000
MTEXTBEGIN
1070
    73
1070
     1
1070
    44
1040
1.0
1070
    74
1070
     0
1000
MTEXTEND
1000
MTEXTBEGIN
1070
    73
1070
     1
1070
    44
1040
1.0
1070
    74
1070
     0
1000
MTEXTEND
1000
MTEXTBEGIN
1070
    73
1070
     1
1070
    44
1040
1.0
1070
    74
1070
     0
1000
MTEXTEND
1000
MTEXTBEGIN
1070
    73
1070
     1
1070
    44
1040
1.0
1070
    74
1070
     0
1000
MTEXTEND
  0
MTEXT
  5
2C37
330
1F
100
AcDbEntity
  8
0
100
AcDbMText
 10
21.60475124642927
 20
14.6078052277492
 30
0.0
 40
0.2
 41
0.0
 71
     1
 72
     1
  1

  7
ROMANS
1001
ACAD
1000
MTEXTBEGIN
1070
    73
1070
     1
1070
    44
1040
1.0
1070
    74
1070
     0
1000
MTEXTEND
1000
MTEXTBEGIN
1070
    73
1070
     1
1070
    44
1040
1.0
1070
    74
1070
     0
1000
MTEXTEND
1000
MTEXTBEGIN
1070
    73
1070
     1
1070
    44
1040
1.0
1070
    74
1070
     0
1000
MTEXTEND
1000
MTEXTBEGIN
1070
    73
1070
     1
1070
    44
1040
1.0
1070
    74
1070
     0
1000
MTEXTEND
  0
LINE
  5
747E
330
1F
100
AcDbEntity
  8
CENTER1
100
AcDbLine
 10
14.40882664112493
 20
5.586877586788258
 30
0.0
 11
13.22882664112493
 21
5.586877586788257
 31
0.0
  0
CIRCLE
  5
7497
330
1F
100
AcDbEntity
  8
CONTINUOUS1
100
AcDbCircle
 10
13.81882664112493
 20
5.586877586788258
 30
0.0
 40
0.1
  0
LINE
  5
7498
330
1F
100
AcDbEntity
  8
CONTINUOUS1
100
AcDbLine
 10
13.88953731924359
 20
5.657588264906916
 30
0.0
 11
13.74811596300628
 21
5.516166908669607
 31
0.0
  0
LWPOLYLINE
  5
74A9
330
1F
100
AcDbEntity
  8
CONTINUOUS1
100
AcDbPolyline
 90
        4
 70
     1
 43
0.0
 10
14.33882664112493
 20
5.50687758678826
 10
14.33882664112493
 20
5.666877586788256
 42
1.046253208341194
 10
14.16917372162395
 20
5.659204046538746
 42
0.5578467498369153
 10
14.16917372162395
 20
5.514551127037769
 42
1.046253208341194
  0
LWPOLYLINE
  5
74AA
330
1F
100
AcDbEntity
  8
CONTINUOUS1
100
AcDbPolyline
 90
        4
 70
     1
 43
0.0
 10
13.29882664112493
 20
5.50687758678826
 10
13.29882664112493
 20
5.666877586788256
 42
-1.046253208341194
 10
13.46847956062591
 20
5.659204046538746
 42
-0.5578467498369153
 10
13.46847956062591
 20
5.514551127037769
 42
-1.046253208341194
  0
LINE
  5
74B7
330
1F
100
AcDbEntity
  8
CONTINUOUS1
100
AcDbLine
 10
13.35382664112493
 20
7.176877586788258
 30
0.0
 11
13.22882664112493
 21
7.176877586788258
 31
0.0
  0
LINE
  5
74BA
330
1F
100
AcDbEntity
  8
CONTINUOUS1
100
AcDbLine
 10
13.35382664112493
 20
7.276877586788257
 30
0.0
 11
13.35382664112493
 21
7.176877586788258
 31
0.0
  0
LINE
  5
74BC
330
1F
100
AcDbEntity
  8
CONTINUOUS1
100
AcDbLine
 10
13.35382664112493
 20
7.206877586788257
 30
0.0
 11
13.22882664112493
 21
7.206877586788257
 31
0.0
  0
ARC
  5
74BD
330
1F
100
AcDbEntity
  8
CONTINUOUS1
100
AcDbCircle
 10
13.29132664112493
 20
7.187646327587959
 30
0.0
 40
0.0653918292329329
100
AcDbArc
 50
17.10313929190604
 51
81.20356749448211
  0
LINE
  5
74BF
330
1F
100
AcDbEntity
  8
CONTINUOUS1
100
AcDbLine
 10
13.28132664112493
 20
7.253038156820892
 30
0.0
 11
13.28132664112493
 21
7.223038156820893
 31
0.0
  0
LINE
  5
74C0
330
1F
100
AcDbEntity
  8
CONTINUOUS1
100
AcDbLine
 10
13.30132664112493
 20
7.253038156820892
 30
0.0
 11
13.30132664112493
 21
7.223038156820893
 31
0.0
  0
LINE
  5
74C1
330
1F
100
AcDbEntity
  8
CONTINUOUS1
100
AcDbLine
 10
13.28132664112493
 20
7.223038156820893
 30
0.0
 11
13.30132664112493
 21
7.223038156820893
 31
0.0
  0
ARC
  5
74C2
330
1F
100
AcDbEntity
  8
CONTINUOUS1
100
AcDbCircle
 10
13.29132664112493
 20
7.187646327587959
 30
0.0
 40
0.0653918292329329
100
AcDbArc
 50
98.7964325055179
 51
162.8968607080939
  0
ARC
  5
74C6
330
1F
100
AcDbEntity
  8
CONTINUOUS1
100
AcDbCircle
 10
14.34632664112493
 20
7.187646327587959
 30
0.0
 40
0.0653918292329329
100
AcDbArc
 50
17.10313929190605
 51
81.20356749448211
  0
LINE
  5
74C7
330
1F
100
AcDbEntity
  8
CONTINUOUS1
100
AcDbLine
 10
14.28382664112493
 20
7.206877586788257
 30
0.0
 11
14.40882664112493
 21
7.206877586788257
 31
0.0
  0
LINE
  5
74C8
330
1F
100
AcDbEntity
  8
CONTINUOUS1
100
AcDbLine
 10
14.28382664112493
 20
7.176877586788258
 30
0.0
 11
14.40882664112493
 21
7.176877586788258
 31
0.0
  0
ARC
  5
74C9
330
1F
100
AcDbEntity
  8
CONTINUOUS1
100
AcDbCircle
 10
14.34632664112493
 20
7.187646327587959
 30
0.0
 40
0.0653918292329329
100
AcDbArc
 50
98.7964325055179
 51
162.8968607080939
  0
LINE
  5
74CA
330
1F
100
AcDbEntity
  8
CONTINUOUS1
100
AcDbLine
 10
14.35632664112493
 20
7.223038156820893
 30
0.0
 11
14.33632664112493
 21
7.223038156820893
 31
0.0
  0
LINE
  5
74CB
330
1F
100
AcDbEntity
  8
CONTINUOUS1
100
AcDbLine
 10
14.33632664112493
 20
7.253038156820892
 30
0.0
 11
14.33632664112493
 21
7.223038156820893
 31
0.0
  0
LINE
  5
74CC
330
1F
100
AcDbEntity
  8
CONTINUOUS1
100
AcDbLine
 10
14.35632664112493
 20
7.253038156820892
 30
0.0
 11
14.35632664112493
 21
7.223038156820893
 31
0.0
  0
LINE
  5
74CD
330
1F
100
AcDbEntity
  8
CONTINUOUS1
100
AcDbLine
 10
14.28382664112493
 20
7.276877586788257
 30
0.0
 11
14.28382664112493
 21
7.176877586788258
 31
0.0
  0
DIMENSION
  5
74F8
330
1F
100
AcDbEntity
  8
DIM
100
AcDbDimension
  2
*D5
 10
14.746079792444
 20
5.586877586788258
 30
0.0
 11
14.746079792444
 21
6.356877586788259
 31
0.0
 70
   160
  3
SCHNEIDERELECTRIC
100
AcDbAlignedDimension
 13
14.40882664112493
 23
7.276877586788257
 33
0.0
 14
14.40882664112493
 24
5.586877586788258
 34
0.0
 50
90.0
100
AcDbRotatedDimension
1001
ACAD
1000
DSTYLE
1002
{
1070
    40
1040
1.0
1002
}
  0
LWPOLYLINE
  5
7721
330
1F
100
AcDbEntity
  8
CONTINUOUS1
100
AcDbPolyline
 90
        4
 70
     1
 43
0.0
 10
13.66382664112493
 20
8.665082039286255
 10
13.97382664112493
 20
8.665082039286255
 10
13.97382664112493
 20
8.165082039286255
 10
13.66382664112493
 20
8.165082039286255
  0
LWPOLYLINE
  5
7776
330
1F
100
AcDbEntity
  8
CONTINUOUS1
100
AcDbPolyline
 90
        6
 70
     0
 43
0.0
 10
13.38598617288222
 20
9.081276938868073
 10
13.749751028434
 20
9.291296676142614
 10
13.83528877946538
 20
9.143140945391088
 10
13.83528877946538
 20
9.461848538866567
 10
13.91916528784125
 20
9.377972030490695
 10
14.19691590137726
 20
9.538331421983295
  0
LWPOLYLINE
  5
7778
330
1F
100
AcDbEntity
  8
CONTINUOUS1
100
AcDbPolyline
 90
        4
 70
     1
 43
0.0
 10
14.23382664112492
 20
7.226877586788253
 10
14.23382664112493
 20
7.026877586788254
 10
13.40382664112492
 20
7.026877586788254
 10
13.40382664112492
 20
7.226877586788253
  0
LWPOLYLINE
  5
7779
330
1F
100
AcDbEntity
  8
CONTINUOUS1
100
AcDbPolyline
 90
        4
 70
     1
 43
0.0
 10
14.01882664112493
 20
6.086877586788258
 10
14.01882664112492
 20
6.186877586788257
 10
13.61882664112493
 20
6.186877586788257
 10
13.61882664112493
 20
6.086877586788258
  0
LINE
  5
777B
330
1F
100
AcDbEntity
  8
CONTINUOUS1
100
AcDbLine
 10
9.106357300988991
 20
7.985082039286256
 30
0.0
 11
9.006357300988987
 21
7.985082039286255
 31
0.0
  0
LWPOLYLINE
  5
777D
330
1F
100
AcDbEntity
  8
CONTINUOUS1
100
AcDbPolyline
 90
       14
 70
     0
 43
0.0
 10
13.58382664112493
 20
9.195500186464601
 10
13.58382664112493
 20
9.005082039286259
 10
13.56382664112493
 20
8.945082039286271
 10
13.56382664112493
 20
8.115082039286258
 10
13.63888217611958
 20
7.985082039286259
 10
13.73382664112493
 20
7.985082039286259
 10
13.73382664112493
 20
8.065082039286258
 10
13.90382664112493
 20
8.065082039286258
 10
13.90382664112493
 20
7.985082039286259
 10
13.99877110613028
 20
7.985082039286256
 10
14.07382664112493
 20
8.115082039286255
 10
14.07382664112494
 20
8.945082039286257
 10
14.05382664112493
 20
9.005082039286259
 10
14.05382664112493
 20
9.455718799058471
  0
LINE
  5
777E
330
1F
100
AcDbEntity
  8
CENTER1
100
AcDbLine
 10
9.05635730098899
 20
8.24128844680003
 30
0.0
 11
9.05635730098899
 21
7.112843750416093
 31
0.0
  0
LINE
  5
777F
330
1F
100
AcDbEntity
  8
CONTINUOUS1
100
AcDbLine
 10
9.106357300988991
 20
9.204053782189284
 30
0.0
 11
9.106357300988991
 21
7.985082039286256
 31
0.0
  0
LINE
  5
7780
330
1F
100
AcDbEntity
  8
CONTINUOUS1
100
AcDbLine
 10
9.006357300988987
 20
9.26264261387476
 30
0.0
 11
9.006357300988989
 21
7.985082039286256
 31
0.0
  0
LWPOLYLINE
  5
7782
330
1F
100
AcDbEntity
  8
CONTINUOUS1
100
AcDbPolyline
 90
        6
 70
     0
 43
0.0
 10
8.692222737128378
 20
9.081276938868073
 10
9.055987592680153
 20
9.291296676142614
 10
9.141525343711533
 20
9.143140945391088
 10
9.141525343711533
 20
9.461848538866567
 10
9.225401852087403
 20
9.377972030490695
 10
9.503152465623413
 20
9.538331421983295
  0
DIMENSION
  5
7783
330
1F
100
AcDbEntity
  8
DIM
100
AcDbDimension
  2
*D6
 10
9.678185701542398
 20
7.276877586788257
 30
0.0
 11
9.678185701542396
 21
5.441877586788258
 31
0.0
 70
   160
  3
SCHNEIDERELECTRIC
100
AcDbAlignedDimension
 13
9.336357300988989
 23
3.606877586788258
 33
0.0
 14
9.336357300988989
 24
7.276877586788257
 34
0.0
 50
270.0
100
AcDbRotatedDimension
1001
ACAD
1000
DSTYLE
1002
{
1070
    40
1040
1.0
1002
}
  0
DIMENSION
  5
779F
330
1F
100
AcDbEntity
  8
DIM
100
AcDbDimension
  2
*D7
 10
9.336357300988989
 20
7.466498212414816
 30
0.0
 11
9.618738253369942
 21
7.466498212414816
 31
0.0
 70
    32
  3
SCHNEIDERELECTRIC
100
AcDbAlignedDimension
 13
9.05635730098899
 23
7.276877586788257
 33
0.0
 14
9.336357300988989
 24
7.276877586788257
 34
0.0
100
AcDbRotatedDimension
1001
ACAD
1000
DSTYLE
1002
{
1070
   287
1070
     0
1070
   289
1070
     0
1070
    40
1040
1.0
1002
}
  0
DIMENSION
  5
77E7
330
1F
100
AcDbEntity
  8
DIM
100
AcDbDimension
  2
*D8
 10
9.336357300988989
 20
3.149391753664129
 30
0.0
 11
8.686357300988989
 21
3.149391753664129
 31
0.0
 70
    32
  3
SCHNEIDERELECTRIC
100
AcDbAlignedDimension
 13
8.036357300988989
 23
3.706877586788257
 33
0.0
 14
9.336357300988989
 24
3.596877586788258
 34
0.0
100
AcDbRotatedDimension
1001
ACAD
1000
DSTYLE
1002
{
1070
    40
1040
1.0
1002
}
  0
LINE
  5
7835
330
1F
100
AcDbEntity
  8
CENTER1
100
AcDbLine
 10
7.522257944945238
 20
7.076877586788258
 30
0.0
 11
8.482491134771805
 21
7.076877586788258
 31
0.0
  0
LEADER
  5
7838
330
1F
100
AcDbEntity
  8
TEXT1
100
AcDbLeader
  3
SCHNEIDERELECTRIC
 40
0.3047619047619048
 41
3.790476190476187
 76
     3
 10
12.83882664112493
 20
3.606877586788257
 30
0.0
 10
12.69837057171252
 20
3.220326912595076
 30
0.0
 10
12.5579145023001
 20
3.220326912595076
 30
0.0
213
0.0
223
0.1
233
0.0
1001
ACAD
1000
DSTYLE
1002
{
1070
     5
1000
SEARROW
1070
    40
1040
1.0
1002
}
  0
TEXT
  5
783A
330
1F
100
AcDbEntity
  8
TEXT1
100
AcDbText
 10
10.19369241015776
 20
3.170326912595077
 30
0.0
 40
0.1
  1
CONDUIT ENTRY, TAPPED n%%d11
  7
ROMANS
 72
     2
 11
12.46035907682442
 21
3.220326912595076
 31
0.0
100
AcDbText
 73
     2
  0
LINE
  5
783D
330
1F
100
AcDbEntity
  8
CONTINUOUS1
100
AcDbLine
 10
8.28135730098899
 20
7.206877586788257
 30
0.0
 11
8.15635730098899
 21
7.206877586788257
 31
0.0
  0
LINE
  5
783E
330
1F
100
AcDbEntity
  8
CONTINUOUS1
100
AcDbLine
 10
8.28135730098899
 20
7.176877586788258
 30
0.0
 11
8.15635730098899
 21
7.176877586788258
 31
0.0
  0
LINE
  5
783F
330
1F
100
AcDbEntity
  8
CONTINUOUS1
100
AcDbLine
 10
8.208857300988988
 20
7.223038156820893
 30
0.0
 11
8.228857300988991
 21
7.223038156820893
 31
0.0
  0
ARC
  5
7840
330
1F
100
AcDbEntity
  8
CONTINUOUS1
100
AcDbCircle
 10
8.21885730098899
 20
7.187646327587959
 30
0.0
 40
0.0653918292329329
100
AcDbArc
 50
98.7964325055179
 51
162.8968607080939
  0
ARC
  5
7841
330
1F
100
AcDbEntity
  8
CONTINUOUS1
100
AcDbCircle
 10
8.21885730098899
 20
7.187646327587959
 30
0.0
 40
0.0653918292329329
100
AcDbArc
 50
17.10313929190604
 51
81.20356749448211
  0
LINE
  5
7842
330
1F
100
AcDbEntity
  8
CONTINUOUS1
100
AcDbLine
 10
8.228857300988991
 20
7.253038156820892
 30
0.0
 11
8.228857300988991
 21
7.223038156820893
 31
0.0
  0
LINE
  5
7843
330
1F
100
AcDbEntity
  8
CONTINUOUS1
100
AcDbLine
 10
8.208857300988988
 20
7.253038156820892
 30
0.0
 11
8.208857300988988
 21
7.223038156820893
 31
0.0
  0
LINE
  5
7844
330
1F
100
AcDbEntity
  8
CONTINUOUS1
100
AcDbLine
 10
8.28135730098899
 20
7.276877586788257
 30
0.0
 11
8.28135730098899
 21
7.176877586788258
 31
0.0
  0
DIMENSION
  5
7850
330
1F
100
AcDbEntity
  8
DIM
100
AcDbDimension
  2
*D9
 10
7.751588072649298
 20
7.076877586788258
 30
0.0
 11
7.751588072649296
 21
6.331877586788259
 31
0.0
 70
   160
  3
SCHNEIDERELECTRIC
100
AcDbAlignedDimension
 13
8.03635730098899
 23
5.586877586788258
 33
0.0
 14
7.776318328394737
 24
7.076877586788258
 34
0.0
 50
270.0
100
AcDbRotatedDimension
1001
ACAD
1000
DSTYLE
1002
{
1070
    40
1040
1.0
1002
}
  0
LINE
  5
7886
330
1F
100
AcDbEntity
  8
CONTINUOUS1
100
AcDbLine
 10
7.659687949936952
 20
7.126877586788258
 30
0.0
 11
7.659687949936955
 21
7.026877586788258
 31
0.0
  0
LINE
  5
7887
330
1F
100
AcDbEntity
  8
CONTINUOUS1
100
AcDbLine
 10
7.659687949936955
 20
7.026877586788258
 30
0.0
 11
7.096248333386448
 21
7.026877586788258
 31
0.0
  0
LINE
  5
7889
330
1F
100
AcDbEntity
  8
CONTINUOUS1
100
AcDbLine
 10
7.096248333386451
 20
7.126877586788258
 30
0.0
 11
7.659687949936952
 21
7.126877586788258
 31
0.0
  0
LINE
  5
7893
330
1F
100
AcDbEntity
  8
CONTINUOUS1
100
AcDbLine
 10
7.559687949936952
 20
7.126877586788254
 30
0.0
 11
7.559687949936956
 21
7.026877586788255
 31
0.0
  0
MTEXT
  5
78BD
330
1F
100
AcDbEntity
  8
DIM
100
AcDbMText
 10
15.42906558225757
 20
5.271612560357993
 30
0.0
 40
0.1
 41
0.0
 71
     5
 72
     1
  1
\P\P\P\U+2205.17X.33 SLOTS ON\P.87 CENTERS\P%%c.17 HOLES ON\P .79 CENTERS
  7
ROMANS
1001
ACAD
1000
MTEXTBEGIN
1070
    73
1070
     1
1070
    44
1040
1.0
1070
    74
1070
     0
1000
MTEXTEND
  0
TEXT
  5
7934
330
1F
100
AcDbEntity
  8
TEXT1
100
AcDbText
 10
0.3087619047619048
 20
9.629333333333329
 30
0.0
 40
0.1
  1

  7
ROMANS
 11
0.3087619047619048
 21
9.67933333333333
 31
0.0
100
AcDbText
 73
     2
  0
LINE
  5
7A4C
330
1F
100
AcDbEntity
  8
CENTER1
100
AcDbLine
 10
14.40882664112493
 20
5.586877586788258
 30
0.0
 11
13.22882664112493
 21
5.586877586788257
 31
0.0
  0
LEADER
  5
7A6F
330
1F
100
AcDbEntity
  8
DIM
100
AcDbLeader
  3
SCHNEIDERELECTRIC
 76
     3
 10
14.32544327051846
 20
5.461094856481843
 30
0.0
 10
14.51737900376579
 20
5.273976871585583
 30
0.0
 10
14.61505972013965
 20
5.273976871585583
 30
0.0
1001
ACAD
1000
DSTYLE
1002
{
1070
     5
1000
SEARROW
1070
    40
1040
1.0
1002
}
  0
DIMENSION
  5
7A7D
330
1F
100
AcDbEntity
  8
DIM
100
AcDbDimension
  2
*D10
 10
14.25382664112493
 20
3.159391753664129
 30
0.0
 11
13.81882664112493
 21
3.159391753664129
 31
0.0
 70
    32
  3
SCHNEIDERELECTRIC
100
AcDbAlignedDimension
 13
13.38382664112493
 23
5.50687758678826
 33
0.0
 14
14.25382664112493
 24
5.50687758678826
 34
0.0
100
AcDbRotatedDimension
1001
ACAD
1000
DSTYLE
1002
{
1070
    40
1040
1.0
1002
}
  0
DIMENSION
  5
7A8B
330
1F
100
AcDbEntity
  8
DIM
100
AcDbDimension
  2
*D11
 10
14.21382664112493
 20
3.388818402743851
 30
0.0
 11
13.81882664112493
 21
3.388818402743851
 31
0.0
 70
    32
  3
SCHNEIDERELECTRIC
100
AcDbAlignedDimension
 13
13.42382664112493
 23
5.586877586788258
 33
0.0
 14
14.21382664112493
 24
5.586877586788258
 34
0.0
100
AcDbRotatedDimension
1001
ACAD
1000
DSTYLE
1002
{
1070
    40
1040
1.0
1002
}
  0
LWPOLYLINE
  5
7ACF
330
1F
100
AcDbEntity
  8
CONTINUOUS1
100
AcDbPolyline
 90
        4
 70
     1
 43
0.0
 10
14.18382664112492
 20
7.176877586788253
 10
14.18382664112493
 20
7.076877586788254
 10
13.45382664112492
 20
7.076877586788254
 10
13.45382664112493
 20
7.176877586788253
  0
LINE
  5
7AD0
330
1F
100
AcDbEntity
  8
0
100
AcDbLine
 10
13.45382664112493
 20
7.176877586788253
 30
0.0
 11
13.40382664112492
 21
7.226877586788253
 31
0.0
  0
LINE
  5
7AD1
330
1F
100
AcDbEntity
  8
0
100
AcDbLine
 10
13.45382664112492
 20
7.076877586788254
 30
0.0
 11
13.40382664112492
 21
7.026877586788254
 31
0.0
  0
LINE
  5
7AD2
330
1F
100
AcDbEntity
  8
0
100
AcDbLine
 10
14.18382664112493
 20
7.076877586788254
 30
0.0
 11
14.23382664112493
 21
7.026877586788254
 31
0.0
  0
LINE
  5
7AD3
330
1F
100
AcDbEntity
  8
0
100
AcDbLine
 10
14.18382664112492
 20
7.176877586788253
 30
0.0
 11
14.23382664112492
 21
7.226877586788253
 31
0.0
  0
LINE
  5
7AD4
330
1F
100
AcDbEntity
  8
CONTINUOUS1
100
AcDbLine
 10
8.28135730098899
 20
3.606877586788257
 30
0.0
 11
8.28135730098899
 21
6.59687758678826
 31
0.0
  0
TEXT
  5
7B25
330
1F
100
AcDbEntity
  8
TEXT1
100
AcDbText
 10
10.60321621968156
 20
2.990259992726876
 30
0.0
 40
0.1
  1
FOR 1/2" NPT ADAPTER
  7
ROMANS
 72
     2
 11
12.46035907682442
 21
3.040259992726876
 31
0.0
100
AcDbText
 73
     2
  0
LINE
  5
7B59
330
1F
100
AcDbEntity
  8
CENTER1
100
AcDbLine
 10
8.766357300988989
 20
3.851877586788258
 30
0.0
 11
8.766357300988989
 21
3.361877586788258
 31
0.0
  0
DIMENSION
  5
7B5A
330
1F
100
AcDbEntity
  8
DIM
100
AcDbDimension
  2
*D12
 10
9.336357300988989
 20
3.378818402743852
 30
0.0
 11
9.051357300988989
 21
3.378818402743852
 31
0.0
 70
    32
  3
SCHNEIDERELECTRIC
100
AcDbAlignedDimension
 13
8.766357300988989
 23
3.606877586788258
 33
0.0
 14
9.336357300988989
 24
3.596877586788258
 34
0.0
100
AcDbRotatedDimension
1001
ACAD
1000
DSTYLE
1002
{
1070
    40
1040
1.0
1002
}
  0
DIMENSION
  5
7D50
330
1F
100
AcDbEntity
  8
DIM
100
AcDbDimension
  2
*D13
 10
14.40882664112493
 20
3.159391753664129
 30
0.0
 11
14.69120759350588
 21
3.159391753664129
 31
0.0
 70
    32
  3
SCHNEIDERELECTRIC
100
AcDbAlignedDimension
 13
14.25382664112493
 23
5.50687758678826
 33
0.0
 14
14.40882664112493
 24
3.606877586788257
 34
0.0
100
AcDbRotatedDimension
1001
ACAD
1000
DSTYLE
1002
{
1070
    40
1040
1.0
1002
}
  0
DIMENSION
  5
7D7C
330
1F
100
AcDbEntity
  8
DIM
100
AcDbDimension
  2
*D14
 10
14.40882664112493
 20
2.934018246036239
 30
0.0
 11
13.62382664112493
 21
2.934018246036239
 31
0.0
 70
   160
  3
SCHNEIDERELECTRIC
100
AcDbAlignedDimension
 13
12.83882664112493
 23
3.606877586788257
 33
0.0
 14
14.40882664112493
 24
3.606877586788257
 34
0.0
100
AcDbRotatedDimension
1001
ACAD
1000
DSTYLE
1002
{
1070
    40
1040
1.0
1002
}
  0
DIMENSION
  5
7D8A
330
1F
100
AcDbEntity
  8
DIM
100
AcDbDimension
  2
*D15
 10
14.40882664112493
 20
2.733492100867275
 30
0.0
 11
12.24882664112493
 21
2.733492100867275
 31
0.0
 70
    32
  3
SCHNEIDERELECTRIC
100
AcDbAlignedDimension
 13
10.08882664112493
 23
3.606877586788257
 33
0.0
 14
14.40882664112493
 24
3.606877586788257
 34
0.0
100
AcDbRotatedDimension
1001
ACAD
1000
DSTYLE
1002
{
1070
    40
1040
1.0
1002
}
  0
LINE
  5
7DD6
330
1F
100
AcDbEntity
  8
CENTER1
100
AcDbLine
 10
13.81882664112493
 20
8.415082039286255
 30
0.0
 11
13.81882664112493
 21
7.176877586788253
 31
0.0
  0
CIRCLE
  5
7DE2
330
1F
100
AcDbEntity
  8
CONTINUOUS1
100
AcDbCircle
 10
10.19489265830291
 20
3.712943603966239
 30
0.0
 40
0.1
  0
LINE
  5
7DE3
330
1F
100
AcDbEntity
  8
CONTINUOUS1
100
AcDbLine
 10
10.26560333642157
 20
3.783654282084897
 30
0.0
 11
10.12418198018426
 21
3.642232925847588
 31
0.0
  0
LINE
  5
7DE4
330
1F
100
AcDbEntity
  8
0
100
AcDbLine
 10
10.23024799736224
 20
3.684659332718782
 30
0.0
 11
10.16660838705546
 21
3.74829894302557
 31
0.0
  0
LINE
  5
7DE5
330
1F
100
AcDbEntity
  8
0
100
AcDbLine
 10
10.22317692955038
 20
3.677588264906917
 30
0.0
 11
10.15953731924359
 21
3.741227875213706
 31
0.0
  0
LINE
  5
7DE6
330
1F
100
AcDbEntity
  8
CONTINUOUS1
100
AcDbLine
 10
10.23024799736224
 20
3.684659332718782
 30
0.0
 11
10.22317692955038
 21
3.677588264906917
 31
0.0
  0
LINE
  5
7DE7
330
1F
100
AcDbEntity
  8
CONTINUOUS1
100
AcDbLine
 10
10.16660838705546
 20
3.748298943025572
 30
0.0
 11
10.15953731924359
 21
3.741227875213704
 31
0.0
  0
LINE
  5
7DEB
330
1F
100
AcDbEntity
  8
CONTINUOUS1
100
AcDbLine
 10
14.23204994582829
 20
3.783654282084897
 30
0.0
 11
14.3734713020656
 21
3.642232925847588
 31
0.0
  0
LINE
  5
7DEC
330
1F
100
AcDbEntity
  8
0
100
AcDbLine
 10
14.26740528488762
 20
3.684659332718782
 30
0.0
 11
14.33104489519441
 21
3.74829894302557
 31
0.0
  0
LINE
  5
7DED
330
1F
100
AcDbEntity
  8
0
100
AcDbLine
 10
14.27447635269949
 20
3.677588264906917
 30
0.0
 11
14.33811596300627
 21
3.741227875213706
 31
0.0
  0
CIRCLE
  5
7DEE
330
1F
100
AcDbEntity
  8
CONTINUOUS1
100
AcDbCircle
 10
14.30276062394695
 20
3.712943603966239
 30
0.0
 40
0.1
  0
LINE
  5
7DEF
330
1F
100
AcDbEntity
  8
CONTINUOUS1
100
AcDbLine
 10
14.33104489519441
 20
3.748298943025572
 30
0.0
 11
14.33811596300627
 21
3.741227875213704
 31
0.0
  0
LINE
  5
7DF1
330
1F
100
AcDbEntity
  8
CONTINUOUS1
100
AcDbLine
 10
14.26740528488762
 20
3.684659332718782
 30
0.0
 11
14.27447635269949
 21
3.677588264906917
 31
0.0
  0
LINE
  5
7DF2
330
1F
100
AcDbEntity
  8
CONTINUOUS1
100
AcDbLine
 10
12.27711091237239
 20
3.748298943025572
 30
0.0
 11
12.28418198018426
 21
3.741227875213704
 31
0.0
  0
CIRCLE
  5
7DF3
330
1F
100
AcDbEntity
  8
CONTINUOUS1
100
AcDbCircle
 10
12.24882664112493
 20
3.712943603966239
 30
0.0
 40
0.1
  0
LINE
  5
7DF4
330
1F
100
AcDbEntity
  8
0
100
AcDbLine
 10
12.22054236987747
 20
3.677588264906917
 30
0.0
 11
12.28418198018425
 21
3.741227875213706
 31
0.0
  0
LINE
  5
7DF5
330
1F
100
AcDbEntity
  8
CONTINUOUS1
100
AcDbLine
 10
12.17811596300627
 20
3.783654282084897
 30
0.0
 11
12.31953731924358
 21
3.642232925847588
 31
0.0
  0
LINE
  5
7DF6
330
1F
100
AcDbEntity
  8
CONTINUOUS1
100
AcDbLine
 10
12.2134713020656
 20
3.684659332718782
 30
0.0
 11
12.22054236987747
 21
3.677588264906917
 31
0.0
  0
LINE
  5
7DF8
330
1F
100
AcDbEntity
  8
0
100
AcDbLine
 10
12.2134713020656
 20
3.684659332718782
 30
0.0
 11
12.27711091237239
 21
3.74829894302557
 31
0.0
  0
LINE
  5
7DFA
330
1F
100
AcDbEntity
  8
CONTINUOUS1
100
AcDbLine
 10
10.26560333642157
 20
6.232600891491616
 30
0.0
 11
10.12418198018426
 21
6.374022247728925
 31
0.0
  0
LINE
  5
7DFB
330
1F
100
AcDbEntity
  8
0
100
AcDbLine
 10
10.23024799736224
 20
6.331595840857731
 30
0.0
 11
10.16660838705546
 21
6.267956230550943
 31
0.0
  0
LINE
  5
7DFC
330
1F
100
AcDbEntity
  8
0
100
AcDbLine
 10
10.22317692955038
 20
6.338666908669596
 30
0.0
 11
10.15953731924359
 21
6.275027298362807
 31
0.0
  0
CIRCLE
  5
7DFD
330
1F
100
AcDbEntity
  8
CONTINUOUS1
100
AcDbCircle
 10
10.19489265830291
 20
6.303311569610274
 30
0.0
 40
0.1
  0
LINE
  5
7DFE
330
1F
100
AcDbEntity
  8
CONTINUOUS1
100
AcDbLine
 10
10.16660838705546
 20
6.267956230550941
 30
0.0
 11
10.15953731924359
 21
6.275027298362809
 31
0.0
  0
LINE
  5
7E00
330
1F
100
AcDbEntity
  8
CONTINUOUS1
100
AcDbLine
 10
10.23024799736224
 20
6.331595840857731
 30
0.0
 11
10.22317692955038
 21
6.338666908669596
 31
0.0
  0
LINE
  5
7E01
330
1F
100
AcDbEntity
  8
CONTINUOUS1
100
AcDbLine
 10
12.76104489519441
 20
6.455456230550943
 30
0.0
 11
12.76811596300628
 21
6.462527298362811
 31
0.0
  0
CIRCLE
  5
7E02
330
1F
100
AcDbEntity
  8
CONTINUOUS1
100
AcDbCircle
 10
12.73276062394695
 20
6.490811569610276
 30
0.0
 40
0.1
  0
LINE
  5
7E03
330
1F
100
AcDbEntity
  8
0
100
AcDbLine
 10
12.70447635269949
 20
6.526166908669598
 30
0.0
 11
12.76811596300627
 21
6.462527298362809
 31
0.0
  0
LINE
  5
7E04
330
1F
100
AcDbEntity
  8
CONTINUOUS1
100
AcDbLine
 10
12.66204994582829
 20
6.420100891491618
 30
0.0
 11
12.8034713020656
 21
6.561522247728927
 31
0.0
  0
LINE
  5
7E05
330
1F
100
AcDbEntity
  8
CONTINUOUS1
100
AcDbLine
 10
12.69740528488762
 20
6.519095840857733
 30
0.0
 11
12.70447635269949
 21
6.526166908669598
 31
0.0
  0
LINE
  5
7E07
330
1F
100
AcDbEntity
  8
0
100
AcDbLine
 10
12.69740528488762
 20
6.519095840857733
 30
0.0
 11
12.76104489519441
 21
6.455456230550945
 31
0.0
  0
LINE
  5
7E0B
330
1F
100
AcDbEntity
  8
0
100
AcDbLine
 10
12.83882664112493
 20
6.036877586788256
 30
0.0
 11
12.73882664112493
 21
5.936877586788257
 31
0.0
  0
LINE
  5
7E0D
330
1F
100
AcDbEntity
  8
0
100
AcDbLine
 10
12.73882664112493
 20
6.29090358218709
 30
0.0
 11
12.83882664112493
 21
6.39090358218709
 31
0.0
  0
LINE
  5
7E0E
330
1F
100
AcDbEntity
  8
0
100
AcDbLine
 10
12.53294383123014
 20
6.499370152925696
 30
0.0
 11
12.63276946745781
 21
6.599195789153371
 31
0.0
  0
LINE
  5
7E0F
330
1F
100
AcDbEntity
  8
0
100
AcDbLine
 10
10.3888562454483
 20
6.352077611706151
 30
0.0
 11
10.30021989918788
 21
6.440713957966575
 31
0.0
  0
LINE
  5
7E11
330
1F
100
AcDbEntity
  8
0
100
AcDbLine
 10
10.18882664112493
 20
6.103403582187053
 30
0.0
 11
10.08882664112493
 21
6.203403582187054
 31
0.0
  0
LINE
  5
7E12
330
1F
100
AcDbEntity
  8
0
100
AcDbLine
 10
10.18882664112493
 20
3.912851591389445
 30
0.0
 11
10.08882664112493
 21
3.812851591389445
 31
0.0
  0
LINE
  5
7E13
330
1F
100
AcDbEntity
  8
0
100
AcDbLine
 10
10.39480064572612
 20
3.706877586788257
 30
0.0
 11
10.29480064572612
 21
3.606877586788257
 31
0.0
  0
LINE
  5
7E15
330
1F
100
AcDbEntity
  8
0
100
AcDbLine
 10
12.04891865370172
 20
3.706877586788257
 30
0.0
 11
12.14891865370172
 21
3.606877586788257
 31
0.0
  0
LINE
  5
7E16
330
1F
100
AcDbEntity
  8
0
100
AcDbLine
 10
12.44873462854814
 20
3.706877586788257
 30
0.0
 11
12.34873462854814
 21
3.606877586788257
 31
0.0
  0
LINE
  5
7E17
330
1F
100
AcDbEntity
  8
0
100
AcDbLine
 10
12.34873462854814
 20
3.606877586788257
 30
0.0
 11
12.34873462854814
 21
3.708654775566262
 31
0.0
  0
LINE
  5
7E18
330
1F
100
AcDbEntity
  8
0
100
AcDbLine
 10
12.14891865370172
 20
3.606877586788257
 30
0.0
 11
12.14891865370172
 21
3.717232432366218
 31
0.0
  0
LINE
  5
7E19
330
1F
100
AcDbEntity
  8
0
100
AcDbLine
 10
14.10285263652374
 20
3.706877586788257
 30
0.0
 11
14.20285263652374
 21
3.606877586788257
 31
0.0
  0
LINE
  5
7E1A
330
1F
100
AcDbEntity
  8
0
100
AcDbLine
 10
14.30882664112493
 20
3.912851591389445
 30
0.0
 11
14.40882664112493
 21
3.812851591389445
 31
0.0
  0
LINE
  5
7E25
330
1F
100
AcDbEntity
  8
0
100
AcDbLine
 10
13.96882664112492
 20
5.886877586788257
 30
0.0
 11
14.06882664112492
 21
5.986877586788256
 31
0.0
  0
LINE
  5
7E26
330
1F
100
AcDbEntity
  8
0
100
AcDbLine
 10
13.66882664112493
 20
5.886877586788257
 30
0.0
 11
13.56882664112493
 21
5.986877586788256
 31
0.0
  0
LINE
  5
7E27
330
1F
100
AcDbEntity
  8
CONTINUOUS1
100
AcDbLine
 10
14.30882664112493
 20
5.226877586788257
 30
0.0
 11
14.26882664112493
 21
5.226877586788257
 31
0.0
  0
LINE
  5
7E3C
330
1F
100
AcDbEntity
  8
0
100
AcDbLine
 10
14.30882664112493
 20
5.226877586788257
 30
0.0
 11
14.40882664112493
 21
5.326877586788256
 31
0.0
  0
LWPOLYLINE
  5
7E3F
330
1F
100
AcDbEntity
  8
0
100
AcDbPolyline
 90
       15
 70
     0
 43
0.0
 10
14.40882664112493
 20
6.036877586788256
 10
12.83882664112493
 20
6.036877586788256
 10
12.83882664112493
 20
6.596877586788258
 42
0.0428900449371107
 10
10.08882664112493
 20
6.409377586788258
 10
10.08882664112493
 20
3.606877586788257
 10
14.40882664112493
 20
3.606877586788257
 10
14.40882664112493
 20
7.276877586788257
 10
13.22882664112493
 20
7.276877586788257
 10
13.22882664112493
 20
5.496877586788257
 42
0.9999999999999998
 10
13.56882664112494
 20
5.496877586788257
 10
13.56882664112493
 20
5.986877586788256
 10
14.06882664112492
 20
5.986877586788256
 10
14.06882664112492
 20
5.526877586788256
 42
0.4142135623730951
 10
14.26882664112493
 20
5.326877586788256
 10
14.40882664112493
 20
5.326877586788256
  0
LWPOLYLINE
  5
7E40
330
1F
100
AcDbEntity
  8
CONTINUOUS1
100
AcDbPolyline
 90
       19
 70
     0
 43
0.0
 10
14.30882664112493
 20
5.226877586788257
 10
14.30882664112493
 20
3.912851591389445
 42
0.4320969648656475
 10
14.10285263652374
 20
3.706877586788257
 10
12.44873462854814
 20
3.706877586788257
 42
1.030804320698506
 10
12.04891865370172
 20
3.706877586788257
 10
10.39480064572612
 20
3.706877586788257
 42
0.4320969648656475
 10
10.18882664112493
 20
3.912851591389445
 10
10.18882664112493
 20
6.103403582187069
 42
0.4977688478383027
 10
10.38885624544829
 20
6.352077611706151
 42
-0.0336264282107032
 10
12.53294383123014
 20
6.499370152925695
 42
0.435801900520813
 10
12.73882664112493
 20
6.290903582187071
 10
12.73882664112493
 20
5.936877586788257
 10
13.12882664112493
 20
5.936877586788257
 10
13.12882664112493
 20
5.496877586788259
 42
0.9999999999999998
 10
13.66882664112494
 20
5.496877586788257
 10
13.66882664112493
 20
5.886877586788257
 10
13.96882664112492
 20
5.886877586788257
 10
13.96882664112493
 20
5.526877586788256
 42
0.4142135623730951
 10
14.26882664112493
 20
5.226877586788257
  0
DIMENSION
  5
7E95
330
1F
100
AcDbEntity
  8
DIM
100
AcDbDimension
  2
*D16
 10
14.40882664112493
 20
7.580851765621218
 30
0.0
 11
14.11382664112493
 21
7.580851765621218
 31
0.0
 70
   160
  3
SCHNEIDERELECTRIC
100
AcDbAlignedDimension
 13
13.81882664112493
 23
7.569609185520068
 33
0.0
 14
14.40882664112493
 24
7.276877586788257
 34
0.0
100
AcDbRotatedDimension
1001
ACAD
1000
DSTYLE
1002
{
1070
    40
1040
1.0
1002
}
  0
LINE
  5
7F6A
330
1F
100
AcDbEntity
  8
CONTINUOUS1
100
AcDbLine
 10
9.211357300988989
 20
7.276877586788257
 30
0.0
 11
9.211357300988989
 21
7.176877586788258
 31
0.0
  0
LINE
  5
7F6B
330
1F
100
AcDbEntity
  8
CONTINUOUS1
100
AcDbLine
 10
9.283857300988991
 20
7.253038156820892
 30
0.0
 11
9.283857300988991
 21
7.223038156820893
 31
0.0
  0
LINE
  5
7F6C
330
1F
100
AcDbEntity
  8
CONTINUOUS1
100
AcDbLine
 10
9.263857300988988
 20
7.253038156820892
 30
0.0
 11
9.263857300988988
 21
7.223038156820893
 31
0.0
  0
ARC
  5
7F6D
330
1F
100
AcDbEntity
  8
CONTINUOUS1
100
AcDbCircle
 10
9.273857300988989
 20
7.187646327587959
 30
0.0
 40
0.0653918292329329
100
AcDbArc
 50
98.7964325055179
 51
162.8968607080939
  0
ARC
  5
7F6E
330
1F
100
AcDbEntity
  8
CONTINUOUS1
100
AcDbCircle
 10
9.273857300988989
 20
7.187646327587959
 30
0.0
 40
0.0653918292329329
100
AcDbArc
 50
17.10313929190605
 51
81.20356749448211
  0
LINE
  5
7F6F
330
1F
100
AcDbEntity
  8
CONTINUOUS1
100
AcDbLine
 10
9.283857300988991
 20
7.223038156820893
 30
0.0
 11
9.263857300988988
 21
7.223038156820893
 31
0.0
  0
LINE
  5
7F70
330
1F
100
AcDbEntity
  8
CONTINUOUS1
100
AcDbLine
 10
9.211357300988989
 20
7.176877586788258
 30
0.0
 11
9.336357300988989
 21
7.176877586788258
 31
0.0
  0
LINE
  5
7F71
330
1F
100
AcDbEntity
  8
CONTINUOUS1
100
AcDbLine
 10
9.211357300988989
 20
7.206877586788257
 30
0.0
 11
9.336357300988989
 21
7.206877586788257
 31
0.0
  0
LINE
  5
7F73
330
1F
100
AcDbEntity
  8
0
100
AcDbLine
 10
9.336357300988989
 20
6.596877586788259
 30
0.0
 11
8.15635730098899
 21
6.59687758678826
 31
0.0
  0
LINE
  5
7F74
330
1F
100
AcDbEntity
  8
0
100
AcDbLine
 10
9.336357300988989
 20
6.409377586788258
 30
0.0
 11
8.113932667076969
 21
6.409377586788258
 31
0.0
  0
LINE
  5
7F8A
330
1F
100
AcDbEntity
  8
0
100
AcDbLine
 10
8.15635730098899
 20
6.203311569610275
 30
0.0
 11
8.131357300988989
 21
6.203311569610275
 31
0.0
  0
LINE
  5
7F8B
330
1F
100
AcDbEntity
  8
0
100
AcDbLine
 10
8.15635730098899
 20
6.403311569610274
 30
0.0
 11
8.131357300988989
 21
6.403311569610274
 31
0.0
  0
LINE
  5
7F97
330
1F
100
AcDbEntity
  8
0
100
AcDbLine
 10
8.15635730098899
 20
3.606877586788257
 30
0.0
 11
8.149078080375412
 21
3.612943603966239
 31
0.0
  0
LINE
  5
7FA4
330
1F
100
AcDbEntity
  8
CONTINUOUS1
100
AcDbLine
 10
8.131357300988989
 20
6.403311569610274
 30
0.0
 11
8.131357300988989
 21
6.203311569610275
 31
0.0
  0
ARC
  5
7FA6
330
1F
100
AcDbEntity
  8
0
100
AcDbCircle
 10
8.206273723569989
 20
6.303311569610276
 30
0.0
 40
0.1249498714378481
100
AcDbArc
 50
126.8392380954522
 51
174.2585192920407
  0
LINE
  5
7FA7
330
1F
100
AcDbEntity
  8
0
100
AcDbLine
 10
8.081323852132141
 20
6.315811569610275
 30
0.0
 11
8.111323852132141
 21
6.315811569610275
 31
0.0
  0
LINE
  5
7FA8
330
1F
100
AcDbEntity
  8
0
100
AcDbLine
 10
8.081323852132141
 20
6.290811569610275
 30
0.0
 11
8.111323852132141
 21
6.290811569610275
 31
0.0
  0
LINE
  5
7FA9
330
1F
100
AcDbEntity
  8
0
100
AcDbLine
 10
8.111323852132141
 20
6.315811569610275
 30
0.0
 11
8.111323852132141
 21
6.290811569610275
 31
0.0
  0
LINE
  5
7FAC
330
1F
100
AcDbEntity
  8
0
100
AcDbLine
 10
8.036357300988989
 20
6.103403582187054
 30
0.0
 11
8.15635730098899
 21
6.203311569610275
 31
0.0
  0
LINE
  5
7FAF
330
1F
100
AcDbEntity
  8
0
100
AcDbLine
 10
8.15635730098899
 20
6.440713957966571
 30
0.0
 11
8.03635730098899
 21
6.352077611706151
 31
0.0
  0
LINE
  5
7FB4
330
1F
100
AcDbEntity
  8
CONTINUOUS1
100
AcDbLine
 10
8.131357300988991
 20
3.812943603966239
 30
0.0
 11
8.131357300988991
 21
3.61294360396624
 31
0.0
  0
ARC
  5
7FB5
330
1F
100
AcDbEntity
  8
0
100
AcDbCircle
 10
8.20627372356999
 20
3.712943603966239
 30
0.0
 40
0.1249498714378481
100
AcDbArc
 50
126.8392380954522
 51
174.2585192920405
  0
LINE
  5
7FB6
330
1F
100
AcDbEntity
  8
0
100
AcDbLine
 10
8.111323852132143
 20
3.725443603966239
 30
0.0
 11
8.111323852132143
 21
3.700443603966238
 31
0.0
  0
LINE
  5
7FB7
330
1F
100
AcDbEntity
  8
0
100
AcDbLine
 10
8.15635730098899
 20
3.61294360396624
 30
0.0
 11
8.131357300988991
 21
3.61294360396624
 31
0.0
  0
LINE
  5
7FB8
330
1F
100
AcDbEntity
  8
0
100
AcDbLine
 10
8.081950675134333
 20
3.725443603966239
 30
0.0
 11
8.111323852132143
 21
3.725443603966239
 31
0.0
  0
LINE
  5
7FB9
330
1F
100
AcDbEntity
  8
0
100
AcDbLine
 10
8.081950675134333
 20
3.700443603966239
 30
0.0
 11
8.111323852132143
 21
3.700443603966238
 31
0.0
  0
LINE
  5
7FBA
330
1F
100
AcDbEntity
  8
0
100
AcDbLine
 10
8.15635730098899
 20
3.812943603966239
 30
0.0
 11
8.131357300988991
 21
3.812943603966239
 31
0.0
  0
LINE
  5
7FBB
330
1F
100
AcDbEntity
  8
0
100
AcDbLine
 10
8.15635730098899
 20
3.812943603966239
 30
0.0
 11
8.036357300988989
 21
3.912851591389445
 31
0.0
  0
ARC
  5
7FC7
330
1F
100
AcDbEntity
  8
0
100
AcDbCircle
 10
8.20627372356999
 20
3.712943603966239
 30
0.0
 40
0.1249498714378481
100
AcDbArc
 50
185.7414807079598
 51
233.1607619045484
  0
ARC
  5
7FC8
330
1F
100
AcDbEntity
  8
0
100
AcDbCircle
 10
8.206273723569989
 20
6.303311569610276
 30
0.0
 40
0.1249498714378481
100
AcDbArc
 50
185.74148070796
 51
233.1607619045484
  0
DIMENSION
  5
7FC9
330
1F
100
AcDbEntity
  8
DIM
100
AcDbDimension
  2
*D17
 10
9.336357300988989
 20
7.776561732178954
 30
0.0
 11
8.746357300988989
 21
7.776561732178954
 31
0.0
 70
    32
  3
SCHNEIDERELECTRIC
100
AcDbAlignedDimension
 13
8.15635730098899
 23
7.276877586788257
 33
0.0
 14
9.336357300988989
 24
7.276877586788257
 34
0.0
100
AcDbRotatedDimension
1001
ACAD
1000
DSTYLE
1002
{
1070
   287
1070
     0
1070
    40
1040
1.0
1070
   289
1070
     0
1002
}
  0
LWPOLYLINE
  5
8031
330
1F
100
AcDbEntity
  8
CONTINUOUS1
100
AcDbPolyline
 90
        4
 70
     1
 43
0.0
 10
8.15635730098899
 20
7.276877586788257
 10
8.15635730098899
 20
3.606877586788258
 10
9.336357300988989
 20
3.606877586788258
 10
9.336357300988989
 20
7.276877586788257
  0
LWPOLYLINE
  5
8032
330
1F
100
AcDbEntity
  8
CONTINUOUS1
100
AcDbPolyline
 90
        4
 70
     0
 43
0.0
 10
8.093408347593509
 20
3.659335047951157
 10
8.036357300988989
 20
3.706877586788257
 10
8.03635730098899
 20
6.499370152925696
 10
8.15635730098899
 20
6.59687758678826
  0
TEXT
  5
80F7
330
1F
100
AcDbEntity
  8
TEXT1
100
AcDbText
 10
0.343285714285714
 20
6.810773855302684
 30
0.0
 40
0.1
  1
Weight (oz.)
  7
ROMANS
 11
0.343285714285714
 21
6.860773855302684
 31
0.0
100
AcDbText
 73
     2
  0
LINE
  5
80F8
330
1F
100
AcDbEntity
  8
CONTINUOUS1
100
AcDbLine
 10
0.3039999999999994
 20
6.710773855302682
 30
0.0
 11
6.829000000000001
 21
6.710773855302682
 31
0.0
1001
GENIUS_GENOREF_13
1005
0
1005
0
1005
0
1005
0
1005
0
1005
0
1005
0
1005
0
1005
0
1005
0
1005
0
1005
0
1005
0
1005
0
1005
0
  0
LINE
  5
80F9
330
1F
100
AcDbEntity
  8
CONTINUOUS1
100
AcDbLine
 10
0.3040000000000003
 20
7.010773855302686
 30
0.0
 11
6.829000000000001
 21
7.010773855302687
 31
0.0
1001
GENIUS_GENOREF_13
1005
0
1005
0
1005
0
1005
0
1005
0
1005
0
1005
0
1005
0
1005
0
1005
0
1005
0
1005
0
1005
0
1005
0
1005
0
  0
TEXT
  5
80FA
330
1F
100
AcDbEntity
  8
TEXT1
100
AcDbText
 10
0.3432857142857149
 20
7.210773855302688
 30
0.0
 40
0.1
  1
slow break
  7
ROMANS
 11
0.3432857142857149
 21
7.260773855302688
 31
0.0
100
AcDbText
 73
     2
  0
TEXT
  5
80FB
330
1F
100
AcDbEntity
  8
TEXT1
100
AcDbText
 10
0.3432857142857149
 20
7.410773855302688
 30
0.0
 40
0.1
  1
N.C.+N.C.
  7
ROMANS
 11
0.3432857142857149
 21
7.460773855302687
 31
0.0
100
AcDbText
 73
     2
  0
LINE
  5
80FC
330
1F
100
AcDbEntity
  8
CONTINUOUS1
100
AcDbLine
 10
0.3040000000000003
 20
7.710773855302687
 30
0.0
 11
6.829000000000001
 21
7.710773855302686
 31
0.0
1001
GENIUS_GENOREF_13
1005
0
1005
0
1005
0
1005
0
1005
0
1005
0
1005
0
1005
0
1005
0
1005
0
1005
0
1005
0
1005
0
1005
0
1005
0
  0
TEXT
  5
80FD
330
1F
100
AcDbEntity
  8
TEXT1
100
AcDbText
 10
0.343285714285714
 20
8.210773855302686
 30
0.0
 40
0.1
  1
N.O.+N.C.
  7
ROMANS
 11
0.343285714285714
 21
8.260773855302687
 31
0.0
100
AcDbText
 73
     2
  0
TEXT
  5
80FE
330
1F
100
AcDbEntity
  8
TEXT1
100
AcDbText
 10
0.343285714285714
 20
8.010773855302687
 30
0.0
 40
0.1
  1
break before make,
  7
ROMANS
 11
0.343285714285714
 21
8.060773855302688
 31
0.0
100
AcDbText
 73
     2
  0
TEXT
  5
80FF
330
1F
100
AcDbEntity
  8
TEXT1
100
AcDbText
 10
0.343285714285714
 20
7.81077385530269
 30
0.0
 40
0.1
  1
slow break
  7
ROMANS
 11
0.343285714285714
 21
7.86077385530269
 31
0.0
100
AcDbText
 73
     2
  0
LINE
  5
8100
330
1F
100
AcDbEntity
  8
CONTINUOUS1
100
AcDbLine
 10
0.3040000000000003
 20
8.410773855302689
 30
0.0
 11
6.829000000000001
 21
8.410773855302689
 31
0.0
1001
GENIUS_GENOREF_13
1005
0
1005
0
1005
0
1005
0
1005
0
1005
0
1005
0
1005
0
1005
0
1005
0
1005
0
1005
0
1005
0
1005
0
1005
0
  0
TEXT
  5
8101
330
1F
100
AcDbEntity
  8
TEXT1
100
AcDbText
 10
0.343285714285714
 20
8.510773855302691
 30
0.0
 40
0.1
  1
slow break
  7
ROMANS
 11
0.343285714285714
 21
8.560773855302691
 31
0.0
100
AcDbText
 73
     2
  0
TEXT
  5
8102
330
1F
100
AcDbEntity
  8
TEXT1
100
AcDbText
 10
0.343285714285714
 20
8.71077385530269
 30
0.0
 40
0.1
  1
break before make,
  7
ROMANS
 11
0.343285714285714
 21
8.760773855302691
 31
0.0
100
AcDbText
 73
     2
  0
TEXT
  5
8103
330
1F
100
AcDbEntity
  8
TEXT1
100
AcDbText
 10
0.343285714285714
 20
8.910773855302689
 30
0.0
 40
0.1
  1
N.C.+N.O.
  7
ROMANS
 11
0.343285714285714
 21
8.96077385530269
 31
0.0
100
AcDbText
 73
     2
  0
LINE
  5
8104
330
1F
100
AcDbEntity
  8
CONTINUOUS1
100
AcDbLine
 10
0.3040000000000003
 20
9.710773855302697
 30
0.0
 11
6.829000000000001
 21
9.710773855302708
 31
0.0
1001
GENIUS_GENOREF_13
1005
0
1005
0
1005
0
1005
0
1005
0
1005
0
1005
0
1005
0
1005
0
1005
0
1005
0
1005
0
1005
0
1005
0
1005
0
  0
LINE
  5
8105
330
1F
100
AcDbEntity
  8
CONTINUOUS1
100
AcDbLine
 10
0.3040000000000003
 20
9.410773855302693
 30
0.0
 11
6.829000000000001
 21
9.410773855302693
 31
0.0
1001
GENIUS_GENOREF_13
1005
0
1005
0
1005
0
1005
0
1005
0
1005
0
1005
0
1005
0
1005
0
1005
0
1005
0
1005
0
1005
0
1005
0
1005
0
  0
TEXT
  5
8106
330
1F
100
AcDbEntity
  8
TEXT1
100
AcDbText
 10
0.343285714285714
 20
9.510773855302694
 30
0.0
 40
0.1
  1
Type of switch
  7
ROMANS
 11
0.343285714285714
 21
9.560773855302695
 31
0.0
100
AcDbText
 73
     2
  0
TEXT
  5
8107
330
1F
100
AcDbEntity
  8
TEXT2
100
AcDbText
 10
0.3039999999999999
 20
9.795999999999995
 30
0.0
 40
0.1
  1
Plastic, double, turret head , type XCSTE, locking without power, 1/2" NPT conduit
  7
ROMANS
 11
0.3039999999999999
 21
9.845999999999996
 31
0.0
100
AcDbText
 73
     2
  0
LINE
  5
8108
330
1F
100
AcDbEntity
  8
CONTINUOUS1
100
AcDbLine
 10
0.3040000000000003
 20
6.710773855302681
 30
0.0
 11
0.3040000000000003
 21
9.710773855302697
 31
0.0
1001
GENIUS_GENOREF_13
1005
0
1005
0
1005
0
1005
0
1005
0
1005
0
1005
0
1005
0
1005
0
1005
0
1005
0
1005
0
1005
0
1005
0
1005
0
  0
LWPOLYLINE
  5
8110
330
1F
100
AcDbEntity
  8
CONTINUOUS1
100
AcDbPolyline
 90
        3
 70
     0
 43
0.0
 10
2.402739920725005
 20
7.630761810054027
 10
2.402739920725005
 20
7.430761810054026
 10
2.472739920725006
 20
7.430761810054026
  0
CIRCLE
  5
8111
330
1F
100
AcDbEntity
  8
CONTINUOUS1
100
AcDbCircle
 10
3.938867589275091
 20
7.360773855302688
 30
0.0
 40
0.15
  0
LWPOLYLINE
  5
8112
330
1F
100
AcDbEntity
  8
CONTINUOUS1
100
AcDbPolyline
 90
        3
 70
     0
 43
0.0
 10
2.62415008223878
 20
7.630761810054027
 10
2.62415008223878
 20
7.430761810054026
 10
2.69415008223878
 20
7.430761810054026
  0
LINE
  5
8113
330
1F
100
AcDbEntity
  8
CONTINUOUS1
100
AcDbLine
 10
5.479
 20
6.710773855302682
 30
0.0
 11
5.479
 21
9.410773855302693
 31
0.0
1001
GENIUS_GENOREF_13
1005
0
1005
0
1005
0
1005
0
1005
0
1005
0
1005
0
1005
0
1005
0
1005
0
1005
0
1005
0
1005
0
1005
0
1005
0
  0
LINE
  5
8114
330
1F
100
AcDbEntity
  8
CONTINUOUS1
100
AcDbLine
 10
2.879000000000001
 20
6.710773855302682
 30
0.0
 11
2.879
 21
9.710773855302697
 31
0.0
1001
GENIUS_GENOREF_13
1005
0
1005
0
1005
0
1005
0
1005
0
1005
0
1005
0
1005
0
1005
0
1005
0
1005
0
1005
0
1005
0
1005
0
1005
0
  0
TEXT
  5
8115
330
1F
100
AcDbEntity
  8
TEXT1
100
AcDbText
 10
2.919
 20
6.810773855302684
 30
0.0
 40
0.1
  1
13 (0.360kg)
  7
ROMANS
 11
2.919
 21
6.860773855302684
 31
0.0
100
AcDbText
 73
     2
  0
TEXT
  5
8116
330
1F
100
AcDbEntity
  8
TEXT1
100
AcDbText
 10
2.919
 20
7.310773855302688
 30
0.0
 40
0.1
  1
XCSTE7313
 41
0.95
  7
ROMANS
 11
2.919
 21
7.360773855302688
 31
0.0
100
AcDbText
 73
     2
  0
LINE
  5
8117
330
1F
100
AcDbEntity
  8
CONTINUOUS1
100
AcDbLine
 10
1.210931559137319
 20
7.248273855302689
 30
0.0
 11
1.260931559137319
 21
7.248273855302689
 31
0.0
  0
LINE
  5
8118
330
1F
100
AcDbEntity
  8
CONTINUOUS1
100
AcDbLine
 10
1.23593155913732
 20
7.233273855302688
 30
0.0
 11
1.23593155913732
 21
7.288273855302688
 31
0.0
  0
LINE
  5
8119
330
1F
100
AcDbEntity
  8
CONTINUOUS1
100
AcDbLine
 10
1.210931559137319
 20
7.273273855302687
 30
0.0
 11
1.260931559137319
 21
7.273273855302687
 31
0.0
  0
LWPOLYLINE
  5
811A
330
1F
100
AcDbEntity
  8
CONTINUOUS1
100
AcDbPolyline
 90
        3
 70
     0
 43
0.0
 10
2.402739920725005
 20
7.082556729297139
 10
2.402739920725005
 20
7.25755672929714
 10
2.454503729745511
 20
7.450741894554954
  0
TEXT
  5
811B
330
1F
100
AcDbEntity
  8
TEXT1
100
AcDbText
 10
2.61415008223878
 20
7.082556729297139
 30
0.0
 40
0.08
  1
22
 50
90.0
  7
ROMANS
 11
2.57415008223878
 21
7.082556729297139
 31
0.0
100
AcDbText
 73
     2
  0
LWPOLYLINE
  5
811C
330
1F
100
AcDbEntity
  8
CONTINUOUS1
100
AcDbPolyline
 90
        3
 70
     0
 43
0.0
 10
2.62415008223878
 20
7.082556729297139
 10
2.62415008223878
 20
7.25755672929714
 10
2.675913891259285
 20
7.450741894554954
  0
LINE
  5
811D
330
1F
100
AcDbEntity
  8
HIDDEN1
100
AcDbLine
 10
2.425945001481894
 20
7.344159269675583
 30
0.0
 11
2.647355162995668
 21
7.344159269675583
 31
0.0
  0
TEXT
  5
811E
330
1F
100
AcDbEntity
  8
TEXT1
100
AcDbText
 10
2.392739920725005
 20
7.082556729297139
 30
0.0
 40
0.08
  1
12
 50
90.0
  7
ROMANS
 11
2.352739920725005
 21
7.082556729297139
 31
0.0
100
AcDbText
 73
     2
  0
LEADER
  5
811F
330
1F
100
AcDbEntity
  8
CONTINUOUS1
100
AcDbLeader
  3
SCHNEIDERELECTRIC
 76
     2
 10
4.088867589275091
 20
7.360773855302688
 30
0.0
 10
3.78886758927509
 20
7.360773855302688
 30
0.0
1001
ACAD
1000
DSTYLE
1002
{
1070
     5
1000
SEARROW
1070
    40
1040
1.0
1002
}
  0
TEXT
  5
8120
330
1F
100
AcDbEntity
  8
TEXT1
100
AcDbText
 10
2.919
 20
8.010773855302687
 30
0.0
 40
0.1
  1
XCSTE6313
 41
0.95
  7
ROMANS
 11
2.919
 21
8.060773855302688
 31
0.0
100
AcDbText
 73
     2
  0
TEXT
  5
8121
330
1F
100
AcDbEntity
  8
TEXT1
100
AcDbText
 10
2.919
 20
8.71077385530269
 30
0.0
 40
0.1
  1
XCSTE5313
 41
0.95
  7
ROMANS
 11
2.919
 21
8.760773855302691
 31
0.0
100
AcDbText
 73
     2
  0
TEXT
  5
8122
330
1F
100
AcDbEntity
  8
TEXT1
100
AcDbText
 10
2.919
 20
9.510773855302694
 30
0.0
 40
0.1
  1
With interlocking, locking by electromagnet
  7
ROMANS
 11
2.919
 21
9.560773855302695
 31
0.0
100
AcDbText
 73
     2
  0
LINE
  5
8123
330
1F
100
AcDbEntity
  8
CONTINUOUS1
100
AcDbLine
 10
1.210931559137319
 20
7.84827385530269
 30
0.0
 11
1.260931559137319
 21
7.84827385530269
 31
0.0
  0
LINE
  5
8124
330
1F
100
AcDbEntity
  8
CONTINUOUS1
100
AcDbLine
 10
1.235931559137319
 20
7.83327385530269
 30
0.0
 11
1.235931559137319
 21
7.888273855302689
 31
0.0
  0
LINE
  5
8125
330
1F
100
AcDbEntity
  8
CONTINUOUS1
100
AcDbLine
 10
1.210931559137319
 20
7.873273855302689
 30
0.0
 11
1.260931559137319
 21
7.873273855302689
 31
0.0
  0
LWPOLYLINE
  5
8126
102
{ACAD_REACTORS
330
8127
102
}
330
1F
100
AcDbEntity
  8
CONTINUOUS1
100
AcDbPolyline
 90
       10
 70
     1
 43
0.0
 10
1.30035449725136
 20
8.576224705021438
 10
1.332070430667902
 20
8.555628137035391
 10
1.318518060451494
 20
8.520323005583943
 10
1.347907323066118
 20
8.544121961196641
 10
1.377296585680741
 20
8.520323005583943
 10
1.363744215464333
 20
8.555628137035391
 10
1.395460148880875
 20
8.576224705021438
 10
1.35769506084439
 20
8.574245520623019
 10
1.347907323066118
 20
8.610773855302692
 10
1.338119585287846
 20
8.574245520623019
  0
HATCH
  5
8127
330
1F
100
AcDbEntity
  8
CONTINUOUS1
100
AcDbHatch
 10
0.0
 20
0.0
 30
0.0
210
0.0
220
0.0
230
1.0
  2
SOLID
 70
     1
 71
     1
 91
        1
 92
        1
 93
       10
 72
     1
 10
1.30035449725136
 20
8.576224705021438
 11
1.332070430667902
 21
8.555628137035391
 72
     1
 10
1.332070430667902
 20
8.555628137035391
 11
1.318518060451494
 21
8.520323005583943
 72
     1
 10
1.318518060451494
 20
8.520323005583943
 11
1.347907323066118
 21
8.544121961196641
 72
     1
 10
1.347907323066118
 20
8.544121961196641
 11
1.377296585680741
 21
8.520323005583943
 72
     1
 10
1.377296585680741
 20
8.520323005583943
 11
1.363744215464333
 21
8.555628137035391
 72
     1
 10
1.363744215464333
 20
8.555628137035391
 11
1.395460148880875
 21
8.576224705021438
 72
     1
 10
1.395460148880875
 20
8.576224705021438
 11
1.35769506084439
 21
8.574245520623019
 72
     1
 10
1.35769506084439
 20
8.574245520623019
 11
1.347907323066118
 21
8.610773855302692
 72
     1
 10
1.347907323066118
 20
8.610773855302692
 11
1.338119585287846
 21
8.574245520623019
 72
     1
 10
1.338119585287846
 20
8.574245520623019
 11
1.30035449725136
 21
8.576224705021438
 97
        1
330
8126
 75
     0
 76
     1
 98
        1
 10
0.9477168468756421
 20
2.128107188636036
  0
LINE
  5
8128
330
1F
100
AcDbEntity
  8
CONTINUOUS1
100
AcDbLine
 10
1.210931559137319
 20
8.573273855302691
 30
0.0
 11
1.260931559137319
 21
8.573273855302691
 31
0.0
  0
LINE
  5
8129
330
1F
100
AcDbEntity
  8
CONTINUOUS1
100
AcDbLine
 10
1.235931559137319
 20
8.533273855302692
 30
0.0
 11
1.235931559137319
 21
8.588273855302691
 31
0.0
  0
LINE
  5
812A
330
1F
100
AcDbEntity
  8
CONTINUOUS1
100
AcDbLine
 10
1.210931559137319
 20
8.548273855302692
 30
0.0
 11
1.260931559137319
 21
8.548273855302692
 31
0.0
  0
TEXT
  5
812B
330
1F
100
AcDbEntity
  8
TEXT1
100
AcDbText
 10
2.660560243752555
 20
8.164809429101648
 30
0.0
 40
0.08
  1
13
 50
90.0
  7
ROMANS
 72
     2
 11
2.620560243752555
 21
8.305761810054029
 31
0.0
100
AcDbText
 73
     2
  0
LINE
  5
812C
330
1F
100
AcDbEntity
  8
CONTINUOUS1
100
AcDbLine
 10
2.670560243752555
 20
8.150741894554954
 30
0.0
 11
2.670560243752555
 21
8.330761810054028
 31
0.0
  0
TEXT
  5
812D
330
1F
100
AcDbEntity
  8
TEXT1
100
AcDbText
 10
2.392739920725004
 20
8.187666571958791
 30
0.0
 40
0.08
  1
21
 50
90.0
  7
ROMANS
 72
     2
 11
2.352739920725004
 21
8.305761810054029
 31
0.0
100
AcDbText
 73
     2
  0
LWPOLYLINE
  5
812E
330
1F
100
AcDbEntity
  8
CONTINUOUS1
100
AcDbPolyline
 90
        3
 70
     0
 43
0.0
 10
2.402739920725005
 20
8.330761810054028
 10
2.402739920725005
 20
8.130761810054028
 10
2.472739920725005
 20
8.130761810054028
  0
TEXT
  5
812F
330
1F
100
AcDbEntity
  8
TEXT1
100
AcDbText
 10
2.660560243752555
 20
7.78255672929714
 30
0.0
 40
0.08
  1
14
 50
90.0
  7
ROMANS
 11
2.620560243752555
 21
7.78255672929714
 31
0.0
100
AcDbText
 73
     2
  0
TEXT
  5
8130
330
1F
100
AcDbEntity
  8
TEXT1
100
AcDbText
 10
2.392739920725005
 20
7.78255672929714
 30
0.0
 40
0.08
  1
22
 50
90.0
  7
ROMANS
 11
2.352739920725005
 21
7.78255672929714
 31
0.0
100
AcDbText
 73
     2
  0
LWPOLYLINE
  5
8131
330
1F
100
AcDbEntity
  8
CONTINUOUS1
100
AcDbPolyline
 90
        4
 70
     0
 43
0.0
 10
2.670560243752555
 20
7.78255672929714
 10
2.670560243752555
 20
7.957556729297141
 10
2.61879643473205
 20
8.150741894554954
 10
2.570500143417597
 20
8.137800942299829
  0
LWPOLYLINE
  5
8132
330
1F
100
AcDbEntity
  8
CONTINUOUS1
100
AcDbPolyline
 90
        3
 70
     0
 43
0.0
 10
2.402739920725005
 20
7.78255672929714
 10
2.402739920725005
 20
7.957556729297141
 10
2.45450372974551
 20
8.150741894554954
  0
TEXT
  5
8133
330
1F
100
AcDbEntity
  8
TEXT1
100
AcDbText
 10
2.392739920725005
 20
7.487666571958791
 30
0.0
 40
0.08
  1
11
 50
90.0
  7
ROMANS
 72
     2
 11
2.352739920725005
 21
7.605761810054029
 31
0.0
100
AcDbText
 73
     2
  0
TEXT
  5
8134
330
1F
100
AcDbEntity
  8
TEXT1
100
AcDbText
 10
2.614150082238778
 20
7.487666571958791
 30
0.0
 40
0.08
  1
21
 50
90.0
  7
ROMANS
 72
     2
 11
2.574150082238778
 21
7.605761810054029
 31
0.0
100
AcDbText
 73
     2
  0
LINE
  5
8135
330
1F
100
AcDbEntity
  8
HIDDEN1
100
AcDbLine
 10
2.425945001481894
 20
8.044159269675585
 30
0.0
 11
2.647355162995667
 21
8.044159269675585
 31
0.0
  0
LWPOLYLINE
  5
8136
330
1F
100
AcDbEntity
  8
CONTINUOUS1
100
AcDbPolyline
 90
        3
 70
     0
 43
0.0
 10
2.624150082238779
 20
8.48255672929714
 10
2.624150082238779
 20
8.657556729297141
 10
2.675913891259285
 20
8.850741894554957
  0
LWPOLYLINE
  5
8137
330
1F
100
AcDbEntity
  8
CONTINUOUS1
100
AcDbPolyline
 90
        4
 70
     0
 43
0.0
 10
2.449150082238781
 20
8.48255672929714
 10
2.449150082238781
 20
8.657556729297141
 10
2.397386273218276
 20
8.850741894554957
 10
2.349089981903823
 20
8.837800942299828
  0
TEXT
  5
8138
330
1F
100
AcDbEntity
  8
TEXT1
100
AcDbText
 10
2.614150082238779
 20
8.48255672929714
 30
0.0
 40
0.08
  1
22
 50
90.0
  7
ROMANS
 11
2.574150082238779
 21
8.48255672929714
 31
0.0
100
AcDbText
 73
     2
  0
TEXT
  5
8139
330
1F
100
AcDbEntity
  8
TEXT1
100
AcDbText
 10
2.439150082238781
 20
8.48255672929714
 30
0.0
 40
0.08
  1
14
 50
90.0
  7
ROMANS
 11
2.399150082238781
 21
8.48255672929714
 31
0.0
100
AcDbText
 73
     2
  0
LWPOLYLINE
  5
813A
330
1F
100
AcDbEntity
  8
CONTINUOUS1
100
AcDbPolyline
 90
        3
 70
     0
 43
0.0
 10
2.624150082238779
 20
9.030761810054031
 10
2.624150082238779
 20
8.830761810054028
 10
2.69415008223878
 20
8.830761810054028
  0
LINE
  5
813B
330
1F
100
AcDbEntity
  8
HIDDEN1
100
AcDbLine
 10
2.425945001481894
 20
8.744159269675584
 30
0.0
 11
2.647355162995667
 21
8.744159269675584
 31
0.0
  0
TEXT
  5
813C
330
1F
100
AcDbEntity
  8
TEXT1
100
AcDbText
 10
2.614150082238778
 20
8.887666571958794
 30
0.0
 40
0.08
  1
21
 50
90.0
  7
ROMANS
 72
     2
 11
2.574150082238778
 21
9.005761810054032
 31
0.0
100
AcDbText
 73
     2
  0
TEXT
  5
813D
330
1F
100
AcDbEntity
  8
TEXT1
100
AcDbText
 10
2.43915008223878
 20
8.864809429101651
 30
0.0
 40
0.08
  1
13
 50
90.0
  7
ROMANS
 72
     2
 11
2.39915008223878
 21
9.005761810054032
 31
0.0
100
AcDbText
 73
     2
  0
LINE
  5
813E
330
1F
100
AcDbEntity
  8
CONTINUOUS1
100
AcDbLine
 10
2.44915008223878
 20
8.850741894554957
 30
0.0
 11
2.449150082238782
 21
9.030761810054031
 31
0.0
  0
LWPOLYLINE
  5
813F
102
{ACAD_REACTORS
330
8140
102
}
330
1F
100
AcDbEntity
  8
CONTINUOUS1
100
AcDbPolyline
 90
        4
 70
     1
 43
0.0
 10
2.493343359323357
 20
9.872516504294491
 10
2.493343359323357
 20
9.819483495705501
 10
2.546376367912349
 20
9.819483495705501
 10
2.546376367912349
 20
9.872516504294491
  0
HATCH
  5
8140
330
1F
100
AcDbEntity
  8
CONTINUOUS1
100
AcDbHatch
 10
0.0
 20
0.0
 30
0.0
210
0.0
220
0.0
230
1.0
  2
SOLID
 70
     1
 71
     1
 91
        1
 92
        1
 93
        4
 72
     1
 10
2.493343359323357
 20
9.872516504294491
 11
2.493343359323357
 21
9.819483495705501
 72
     1
 10
2.493343359323357
 20
9.819483495705501
 11
2.546376367912349
 21
9.819483495705501
 72
     1
 10
2.546376367912349
 20
9.819483495705501
 11
2.546376367912349
 21
9.872516504294491
 72
     1
 10
2.546376367912349
 20
9.872516504294491
 11
2.493343359323357
 21
9.872516504294491
 97
        1
330
813F
 75
     0
 76
     1
 98
        1
 10
2.171574149332138
 20
3.013333333333342
  0
CIRCLE
  5
8141
330
1F
100
AcDbEntity
  8
CONTINUOUS1
100
AcDbCircle
 10
3.938867589275091
 20
8.060773855302688
 30
0.0
 40
0.15
  0
LEADER
  5
8142
330
1F
100
AcDbEntity
  8
CONTINUOUS1
100
AcDbLeader
  3
SCHNEIDERELECTRIC
 76
     2
 10
4.088867589275091
 20
8.060773855302688
 30
0.0
 10
3.78886758927509
 20
8.060773855302688
 30
0.0
1001
ACAD
1000
DSTYLE
1002
{
1070
     5
1000
SEARROW
1070
    40
1040
1.0
1002
}
  0
LEADER
  5
8143
330
1F
100
AcDbEntity
  8
CONTINUOUS1
100
AcDbLeader
  3
SCHNEIDERELECTRIC
 76
     2
 10
4.088867589275091
 20
8.760773855302691
 30
0.0
 10
3.78886758927509
 20
8.760773855302691
 30
0.0
1001
ACAD
1000
DSTYLE
1002
{
1070
     5
1000
SEARROW
1070
    40
1040
1.0
1002
}
  0
CIRCLE
  5
8144
330
1F
100
AcDbEntity
  8
CONTINUOUS1
100
AcDbCircle
 10
3.938867589275091
 20
8.760773855302691
 30
0.0
 40
0.15
  0
TEXT
  5
8145
330
1F
100
AcDbEntity
  8
TEXT1
100
AcDbText
 10
0.343285714285714
 20
9.21077385530269
 30
0.0
 40
0.1
  1
Supply voltage of electromagnet
 41
0.95
  7
ROMANS
 11
0.343285714285714
 21
9.260773855302691
 31
0.0
100
AcDbText
 73
     2
  0
LINE
  5
8146
330
1F
100
AcDbEntity
  8
CONTINUOUS1
100
AcDbLine
 10
0.3040000000000003
 20
9.110773855302689
 30
0.0
 11
6.829000000000001
 21
9.110773855302689
 31
0.0
1001
GENIUS_GENOREF_13
1005
0
1005
0
1005
0
1005
0
1005
0
1005
0
1005
0
1005
0
1005
0
1005
0
1005
0
1005
0
1005
0
1005
0
1005
0
  0
TEXT
  5
8147
330
1F
100
AcDbEntity
  8
TEXT1
100
AcDbText
 10
2.919
 20
9.21077385530269
 30
0.0
 40
0.1
  1
24 Vac or Vdc
 41
0.95
  7
ROMANS
 11
2.919
 21
9.260773855302691
 31
0.0
100
AcDbText
 73
     2
  0
TEXT
  5
8148
330
1F
100
AcDbEntity
  8
TEXT1
100
AcDbText
 10
4.169
 20
6.810773855302684
 30
0.0
 40
0.1
  1
13 (0.360 kg)
  7
ROMANS
 11
4.169
 21
6.860773855302684
 31
0.0
100
AcDbText
 73
     2
  0
TEXT
  5
8149
330
1F
100
AcDbEntity
  8
TEXT1
100
AcDbText
 10
4.169
 20
7.310773855302688
 30
0.0
 40
0.1
  1
XCSTE7333
 41
0.95
  7
ROMANS
 11
4.169
 21
7.360773855302688
 31
0.0
100
AcDbText
 73
     2
  0
CIRCLE
  5
814A
330
1F
100
AcDbEntity
  8
CONTINUOUS1
100
AcDbCircle
 10
5.188867589275091
 20
7.360773855302688
 30
0.0
 40
0.15
  0
LEADER
  5
814B
330
1F
100
AcDbEntity
  8
CONTINUOUS1
100
AcDbLeader
  3
SCHNEIDERELECTRIC
 76
     2
 10
5.338867589275091
 20
7.360773855302688
 30
0.0
 10
5.03886758927509
 20
7.360773855302688
 30
0.0
1001
ACAD
1000
DSTYLE
1002
{
1070
     5
1000
SEARROW
1070
    40
1040
1.0
1002
}
  0
TEXT
  5
814C
330
1F
100
AcDbEntity
  8
TEXT1
100
AcDbText
 10
4.169
 20
9.21077385530269
 30
0.0
 40
0.1
  1
120 Vac or Vdc
 41
0.95
  7
ROMANS
 11
4.169
 21
9.260773855302691
 31
0.0
100
AcDbText
 73
     2
  0
TEXT
  5
814D
330
1F
100
AcDbEntity
  8
TEXT1
100
AcDbText
 10
4.169
 20
8.010773855302687
 30
0.0
 40
0.1
  1
XCSTE6333
 41
0.95
  7
ROMANS
 11
4.169
 21
8.060773855302688
 31
0.0
100
AcDbText
 73
     2
  0
TEXT
  5
814E
330
1F
100
AcDbEntity
  8
TEXT1
100
AcDbText
 10
4.169
 20
8.71077385530269
 30
0.0
 40
0.1
  1
XCSTE5333
 41
0.95
  7
ROMANS
 11
4.169
 21
8.760773855302691
 31
0.0
100
AcDbText
 73
     2
  0
CIRCLE
  5
814F
330
1F
100
AcDbEntity
  8
CONTINUOUS1
100
AcDbCircle
 10
5.188867589275091
 20
8.060773855302688
 30
0.0
 40
0.15
  0
LEADER
  5
8150
330
1F
100
AcDbEntity
  8
CONTINUOUS1
100
AcDbLeader
  3
SCHNEIDERELECTRIC
 76
     2
 10
5.338867589275091
 20
8.060773855302688
 30
0.0
 10
5.03886758927509
 20
8.060773855302688
 30
0.0
1001
ACAD
1000
DSTYLE
1002
{
1070
     5
1000
SEARROW
1070
    40
1040
1.0
1002
}
  0
LEADER
  5
8151
330
1F
100
AcDbEntity
  8
CONTINUOUS1
100
AcDbLeader
  3
SCHNEIDERELECTRIC
 76
     2
 10
5.338867589275091
 20
8.760773855302691
 30
0.0
 10
5.03886758927509
 20
8.760773855302691
 30
0.0
1001
ACAD
1000
DSTYLE
1002
{
1070
     5
1000
SEARROW
1070
    40
1040
1.0
1002
}
  0
CIRCLE
  5
8152
330
1F
100
AcDbEntity
  8
CONTINUOUS1
100
AcDbCircle
 10
5.188867589275091
 20
8.760773855302691
 30
0.0
 40
0.15
  0
LINE
  5
8153
330
1F
100
AcDbEntity
  8
CONTINUOUS1
100
AcDbLine
 10
4.129000000000001
 20
6.710773855302682
 30
0.0
 11
4.129
 21
9.410773855302693
 31
0.0
1001
GENIUS_GENOREF_13
1005
0
1005
0
1005
0
1005
0
1005
0
1005
0
1005
0
1005
0
1005
0
1005
0
1005
0
1005
0
1005
0
1005
0
1005
0
  0
LINE
  5
8154
330
1F
100
AcDbEntity
  8
CONTINUOUS1
100
AcDbLine
 10
5.479
 20
6.710773855302682
 30
0.0
 11
5.479
 21
9.410773855302693
 31
0.0
1001
GENIUS_GENOREF_13
1005
0
1005
0
1005
0
1005
0
1005
0
1005
0
1005
0
1005
0
1005
0
1005
0
1005
0
1005
0
1005
0
1005
0
1005
0
  0
LINE
  5
8155
330
1F
100
AcDbEntity
  8
CONTINUOUS1
100
AcDbLine
 10
6.829000000000001
 20
6.710773855302682
 30
0.0
 11
6.829000000000001
 21
9.710773855302708
 31
0.0
1001
GENIUS_GENOREF_13
1005
0
1005
0
1005
0
1005
0
1005
0
1005
0
1005
0
1005
0
1005
0
1005
0
1005
0
1005
0
1005
0
1005
0
1005
0
  0
TEXT
  5
8156
330
1F
100
AcDbEntity
  8
TEXT1
100
AcDbText
 10
5.519
 20
7.310773855302688
 30
0.0
 40
0.1
  1
XCSTE7343
 41
0.95
  7
ROMANS
 11
5.519
 21
7.360773855302688
 31
0.0
100
AcDbText
 73
     2
  0
TEXT
  5
8157
330
1F
100
AcDbEntity
  8
TEXT1
100
AcDbText
 10
5.519
 20
6.810773855302684
 30
0.0
 40
0.1
  1
13 (0.360 kg)
  7
ROMANS
 11
5.519
 21
6.860773855302684
 31
0.0
100
AcDbText
 73
     2
  0
CIRCLE
  5
8158
330
1F
100
AcDbEntity
  8
CONTINUOUS1
100
AcDbCircle
 10
6.53886758927509
 20
7.360773855302688
 30
0.0
 40
0.15
  0
LEADER
  5
8159
330
1F
100
AcDbEntity
  8
CONTINUOUS1
100
AcDbLeader
  3
SCHNEIDERELECTRIC
 76
     2
 10
6.688867589275091
 20
7.360773855302688
 30
0.0
 10
6.38886758927509
 20
7.360773855302688
 30
0.0
1001
ACAD
1000
DSTYLE
1002
{
1070
     5
1000
SEARROW
1070
    40
1040
1.0
1002
}
  0
TEXT
  5
815A
330
1F
100
AcDbEntity
  8
TEXT1
100
AcDbText
 10
5.519
 20
8.010773855302687
 30
0.0
 40
0.1
  1
XCSTE6343
 41
0.95
  7
ROMANS
 11
5.519
 21
8.060773855302688
 31
0.0
100
AcDbText
 73
     2
  0
TEXT
  5
815B
330
1F
100
AcDbEntity
  8
TEXT1
100
AcDbText
 10
5.519
 20
8.71077385530269
 30
0.0
 40
0.1
  1
XCSTE5343
 41
0.95
  7
ROMANS
 11
5.519
 21
8.760773855302691
 31
0.0
100
AcDbText
 73
     2
  0
TEXT
  5
815C
330
1F
100
AcDbEntity
  8
TEXT1
100
AcDbText
 10
5.519
 20
9.21077385530269
 30
0.0
 40
0.1
  1
230 Vac or Vdc
 41
0.95
  7
ROMANS
 11
5.519
 21
9.260773855302691
 31
0.0
100
AcDbText
 73
     2
  0
CIRCLE
  5
815D
330
1F
100
AcDbEntity
  8
CONTINUOUS1
100
AcDbCircle
 10
6.53886758927509
 20
8.060773855302688
 30
0.0
 40
0.15
  0
LEADER
  5
815E
330
1F
100
AcDbEntity
  8
CONTINUOUS1
100
AcDbLeader
  3
SCHNEIDERELECTRIC
 76
     2
 10
6.688867589275091
 20
8.060773855302688
 30
0.0
 10
6.38886758927509
 20
8.060773855302688
 30
0.0
1001
ACAD
1000
DSTYLE
1002
{
1070
     5
1000
SEARROW
1070
    40
1040
1.0
1002
}
  0
LEADER
  5
815F
330
1F
100
AcDbEntity
  8
CONTINUOUS1
100
AcDbLeader
  3
SCHNEIDERELECTRIC
 76
     2
 10
6.688867589275091
 20
8.760773855302691
 30
0.0
 10
6.38886758927509
 20
8.760773855302691
 30
0.0
1001
ACAD
1000
DSTYLE
1002
{
1070
     5
1000
SEARROW
1070
    40
1040
1.0
1002
}
  0
CIRCLE
  5
8160
330
1F
100
AcDbEntity
  8
CONTINUOUS1
100
AcDbCircle
 10
6.53886758927509
 20
8.760773855302691
 30
0.0
 40
0.15
  0
HATCH
  5
82A8
330
1F
100
AcDbEntity
  8
0
100
AcDbHatch
 10
0.0
 20
0.0
 30
0.0
210
0.0
220
0.0
230
1.0
  2
SOLID
 70
     1
 71
     1
 91
        1
 92
        1
 93
        3
 72
     1
 10
6.389916417798682
 20
9.591068399922438
 11
6.355275401647304
 21
9.531068399922439
 72
     1
 10
6.355275401647304
 20
9.531068399922439
 11
6.424557433950059
 21
9.531068399922439
 72
     1
 10
6.424557433950059
 20
9.531068399922439
 11
6.389916417798682
 21
9.591068399922438
 97
        1
330
82A9
 75
     0
 76
     1
 98
        1
 10
5.989725941608206
 20
4.435068399922457
  0
LWPOLYLINE
  5
82A9
102
{ACAD_REACTORS
330
82A8
102
}
330
1F
100
AcDbEntity
  8
0
100
AcDbPolyline
 90
        3
 70
     1
 43
0.0
 10
6.389916417798682
 20
9.591068399922438
 10
6.355275401647304
 20
9.531068399922439
 10
6.424557433950059
 20
9.531068399922439
  0
LWPOLYLINE
  5
82AA
102
{ACAD_REACTORS
330
82AB
102
}
330
1F
100
AcDbEntity
  8
0
100
AcDbPolyline
 90
        3
 70
     1
 43
0.0
 10
6.389916417798681
 20
6.291068399922418
 10
6.355275401647303
 20
6.23106839992242
 10
6.424557433950059
 20
6.23106839992242
  0
HATCH
  5
82AB
330
1F
100
AcDbEntity
  8
0
100
AcDbHatch
 10
0.0
 20
0.0
 30
0.0
210
0.0
220
0.0
230
1.0
  2
SOLID
 70
     1
 71
     1
 91
        1
 92
        1
 93
        3
 72
     1
 10
6.389916417798681
 20
6.291068399922418
 11
6.355275401647303
 21
6.23106839992242
 72
     1
 10
6.355275401647303
 20
6.23106839992242
 11
6.424557433950059
 21
6.23106839992242
 72
     1
 10
6.424557433950059
 20
6.23106839992242
 11
6.389916417798681
 21
6.291068399922418
 97
        1
330
82AA
 75
     0
 76
     1
 98
        1
 10
5.989725941608205
 20
1.135068399922437
  0
TEXT
  5
82AC
330
1F
100
AcDbEntity
  8
TEXT1
100
AcDbText
 10
0.4001904761904749
 20
2.524107188635996
 30
0.0
 40
0.08
  1
A special tool included with the switch enables the forced opening of the interlocking device. 
  7
ROMANS
 11
0.4001904761904749
 21
2.564107188635996
 31
0.0
100
AcDbText
 73
     2
  0
TEXT
  5
82AD
330
1F
100
AcDbEntity
  8
TEXT1
100
AcDbText
 10
5.518999999999999
 20
4.010773855302669
 30
0.0
 40
0.1
  1
XCSTE7543
 41
0.95
  7
ROMANS
 11
5.518999999999999
 21
4.060773855302668
 31
0.0
100
AcDbText
 73
     2
  0
TEXT
  5
82AE
330
1F
100
AcDbEntity
  8
TEXT1
100
AcDbText
 10
5.518999999999999
 20
4.71077385530267
 30
0.0
 40
0.1
  1
XCSTE6543
 41
0.95
  7
ROMANS
 11
5.518999999999999
 21
4.760773855302669
 31
0.0
100
AcDbText
 73
     2
  0
TEXT
  5
82AF
330
1F
100
AcDbEntity
  8
TEXT1
100
AcDbText
 10
5.518999999999999
 20
5.410773855302672
 30
0.0
 40
0.1
  1
XCSTE5543
 41
0.95
  7
ROMANS
 11
5.518999999999999
 21
5.460773855302671
 31
0.0
100
AcDbText
 73
     2
  0
TEXT
  5
82B0
330
1F
100
AcDbEntity
  8
TEXT1
100
AcDbText
 10
5.518999999999999
 20
5.910773855302672
 30
0.0
 40
0.1
  1
230 Vac or Vdc
 41
0.95
  7
ROMANS
 11
5.518999999999999
 21
5.960773855302671
 31
0.0
100
AcDbText
 73
     2
  0
LINE
  5
82B1
330
1F
100
AcDbEntity
  8
CONTINUOUS1
100
AcDbLine
 10
0.3039999999999994
 20
3.710773855302667
 30
0.0
 11
6.829
 21
3.710773855302668
 31
0.0
1001
GENIUS_GENOREF_13
1005
0
1005
0
1005
0
1005
0
1005
0
1005
0
1005
0
1005
0
1005
0
1005
0
1005
0
1005
0
1005
0
1005
0
1005
0
  0
LINE
  5
82B2
330
1F
100
AcDbEntity
  8
CONTINUOUS1
100
AcDbLine
 10
0.3039999999999994
 20
4.410773855302668
 30
0.0
 11
6.829
 21
4.410773855302667
 31
0.0
1001
GENIUS_GENOREF_13
1005
0
1005
0
1005
0
1005
0
1005
0
1005
0
1005
0
1005
0
1005
0
1005
0
1005
0
1005
0
1005
0
1005
0
1005
0
  0
LINE
  5
82B3
330
1F
100
AcDbEntity
  8
CONTINUOUS1
100
AcDbLine
 10
0.3039999999999994
 20
5.110773855302669
 30
0.0
 11
6.829
 21
5.110773855302669
 31
0.0
1001
GENIUS_GENOREF_13
1005
0
1005
0
1005
0
1005
0
1005
0
1005
0
1005
0
1005
0
1005
0
1005
0
1005
0
1005
0
1005
0
1005
0
1005
0
  0
LINE
  5
82B4
330
1F
100
AcDbEntity
  8
CONTINUOUS1
100
AcDbLine
 10
0.3039999999999994
 20
6.110773855302674
 30
0.0
 11
6.829
 21
6.110773855302674
 31
0.0
1001
GENIUS_GENOREF_13
1005
0
1005
0
1005
0
1005
0
1005
0
1005
0
1005
0
1005
0
1005
0
1005
0
1005
0
1005
0
1005
0
1005
0
1005
0
  0
LINE
  5
82B5
330
1F
100
AcDbEntity
  8
CONTINUOUS1
100
AcDbLine
 10
0.3039999999999994
 20
5.810773855302669
 30
0.0
 11
6.829
 21
5.810773855302669
 31
0.0
1001
GENIUS_GENOREF_13
1005
0
1005
0
1005
0
1005
0
1005
0
1005
0
1005
0
1005
0
1005
0
1005
0
1005
0
1005
0
1005
0
1005
0
1005
0
  0
LINE
  5
82B6
330
1F
100
AcDbEntity
  8
CONTINUOUS1
100
AcDbLine
 10
0.3039999999999985
 20
3.410773855302663
 30
0.0
 11
6.829
 21
3.410773855302663
 31
0.0
1001
GENIUS_GENOREF_13
1005
0
1005
0
1005
0
1005
0
1005
0
1005
0
1005
0
1005
0
1005
0
1005
0
1005
0
1005
0
1005
0
1005
0
1005
0
  0
TEXT
  5
82B8
330
1F
100
AcDbEntity
  8
TEXT1
100
AcDbText
 10
5.518999999999999
 20
3.510773855302665
 30
0.0
 40
0.1
  1
13 (0.360 kg)
  7
ROMANS
 11
5.518999999999999
 21
3.560773855302665
 31
0.0
100
AcDbText
 73
     2
  0
TEXT
  5
82B9
330
1F
100
AcDbEntity
  8
TEXT1
100
AcDbText
 10
0.4078095238095223
 20
2.390773855302662
 30
0.0
 40
0.08
  1
This allows the N.C. safely contacts to be opened and the actuating key withdrawn.
  7
ROMANS
 11
0.4078095238095223
 21
2.430773855302662
 31
0.0
100
AcDbText
 73
     2
  0
TEXT
  5
82BA
330
1F
100
AcDbEntity
  8
TEXT1
100
AcDbText
 10
0.3432857142857131
 20
4.910773855302669
 30
0.0
 40
0.1
  1
N.O.+N.C.
  7
ROMANS
 11
0.3432857142857131
 21
4.960773855302669
 31
0.0
100
AcDbText
 73
     2
  0
TEXT
  5
82BB
330
1F
100
AcDbEntity
  8
TEXT1
100
AcDbText
 10
0.343285714285714
 20
4.110773855302668
 30
0.0
 40
0.1
  1
N.C.+N.C.
  7
ROMANS
 11
0.343285714285714
 21
4.160773855302668
 31
0.0
100
AcDbText
 73
     2
  0
TEXT
  5
82BC
330
1F
100
AcDbEntity
  8
TEXT1
100
AcDbText
 10
0.3432857142857131
 20
5.910773855302672
 30
0.0
 40
0.1
  1
Supply voltage of electromagnet
 41
0.95
  7
ROMANS
 11
0.3432857142857131
 21
5.960773855302671
 31
0.0
100
AcDbText
 73
     2
  0
TEXT
  5
82BD
330
1F
100
AcDbEntity
  8
TEXT1
100
AcDbText
 10
0.4078095238095223
 20
2.657440521969329
 30
0.0
 40
0.08
  1
simultaneously.
  7
ROMANS
 11
0.4078095238095223
 21
2.697440521969329
 31
0.0
100
AcDbText
 73
     2
  0
TEXT
  5
82BE
330
1F
100
AcDbEntity
  8
TEXT1
100
AcDbText
 10
0.4001904761904749
 20
2.790773855302663
 30
0.0
 40
0.08
  1
The N.O. contacts will close after the N.C. contacts open. They do not change state
  7
ROMANS
 11
0.4001904761904749
 21
2.830773855302663
 31
0.0
100
AcDbText
 73
     2
  0
TEXT
  5
82BF
330
1F
100
AcDbEntity
  8
TEXT1
100
AcDbText
 10
0.3925714285714274
 20
2.924107188635996
 30
0.0
 40
0.08
  1
is fully inserted and engaged in the head of the switch.
  7
ROMANS
 11
0.3925714285714274
 21
2.964107188635996
 31
0.0
100
AcDbText
 73
     2
  0
TEXT
  5
82C0
330
1F
100
AcDbEntity
  8
TEXT1
100
AcDbText
 10
0.3925714285714274
 20
3.05744052196933
 30
0.0
 40
0.08
  1
Schematic diagrams shown represent the contact states while in the actuating key 
  7
ROMANS
 11
0.3925714285714274
 21
3.09744052196933
 31
0.0
100
AcDbText
 73
     2
  0
TEXT
  5
82C1
330
1F
100
AcDbEntity
  8
TEXT1
100
AcDbText
 10
0.3925714285714274
 20
3.190773855302663
 30
0.0
 40
0.08
  1
90° increments throughout 360°
  7
ROMANS
 11
0.3925714285714274
 21
3.230773855302663
 31
0.0
100
AcDbText
 73
     2
  0
TEXT
  5
82C2
330
1F
100
AcDbEntity
  8
TEXT1
100
AcDbText
 10
0.3432857142857131
 20
3.510773855302665
 30
0.0
 40
0.1
  1
Weight (oz.)
  7
ROMANS
 11
0.3432857142857131
 21
3.560773855302665
 31
0.0
100
AcDbText
 73
     2
  0
TEXT
  5
82C3
330
1F
100
AcDbEntity
  8
TEXT1
100
AcDbText
 10
0.343285714285714
 20
3.910773855302669
 30
0.0
 40
0.1
  1
slow break
  7
ROMANS
 11
0.343285714285714
 21
3.960773855302669
 31
0.0
100
AcDbText
 73
     2
  0
TEXT
  5
82C4
330
1F
100
AcDbEntity
  8
TEXT1
100
AcDbText
 10
0.3432857142857131
 20
4.71077385530267
 30
0.0
 40
0.1
  1
break before make,
  7
ROMANS
 11
0.3432857142857131
 21
4.760773855302669
 31
0.0
100
AcDbText
 73
     2
  0
TEXT
  5
82C5
330
1F
100
AcDbEntity
  8
TEXT1
100
AcDbText
 10
0.3432857142857131
 20
4.51077385530267
 30
0.0
 40
0.1
  1
slow break
  7
ROMANS
 11
0.3432857142857131
 21
4.56077385530267
 31
0.0
100
AcDbText
 73
     2
  0
TEXT
  5
82C6
330
1F
100
AcDbEntity
  8
TEXT1
100
AcDbText
 10
0.3432857142857131
 20
5.210773855302672
 30
0.0
 40
0.1
  1
slow break
  7
ROMANS
 11
0.3432857142857131
 21
5.260773855302672
 31
0.0
100
AcDbText
 73
     2
  0
TEXT
  5
82C7
330
1F
100
AcDbEntity
  8
TEXT1
100
AcDbText
 10
0.3432857142857131
 20
5.410773855302672
 30
0.0
 40
0.1
  1
break before make,
  7
ROMANS
 11
0.3432857142857131
 21
5.460773855302671
 31
0.0
100
AcDbText
 73
     2
  0
TEXT
  5
82C8
330
1F
100
AcDbEntity
  8
TEXT1
100
AcDbText
 10
0.3432857142857131
 20
5.610773855302671
 30
0.0
 40
0.1
  1
N.C.+N.O.
  7
ROMANS
 11
0.3432857142857131
 21
5.660773855302671
 31
0.0
100
AcDbText
 73
     2
  0
TEXT
  5
82C9
330
1F
100
AcDbEntity
  8
TEXT1
100
AcDbText
 10
0.3432857142857131
 20
6.210773855302676
 30
0.0
 40
0.1
  1
Type of switch
  7
ROMANS
 11
0.3432857142857131
 21
6.260773855302676
 31
0.0
100
AcDbText
 73
     2
  0
LINE
  5
82CA
330
1F
100
AcDbEntity
  8
CONTINUOUS1
100
AcDbLine
 10
0.3039999999999994
 20
3.410773855302662
 30
0.0
 11
0.3039999999999994
 21
6.410773855302678
 31
0.0
1001
GENIUS_GENOREF_13
1005
0
1005
0
1005
0
1005
0
1005
0
1005
0
1005
0
1005
0
1005
0
1005
0
1005
0
1005
0
1005
0
1005
0
1005
0
  0
HATCH
  5
82CB
330
1F
100
AcDbEntity
  8
0
100
AcDbHatch
 10
0.0
 20
0.0
 30
0.0
210
0.0
220
0.0
230
1.0
  2
SOLID
 70
     1
 71
     1
 91
        1
 92
        1
 93
        3
 72
     1
 10
0.363599250948367
 20
2.594302599382308
 11
0.3289582347969894
 21
2.534302599382308
 72
     1
 10
0.3289582347969894
 20
2.534302599382308
 11
0.3982402670997445
 21
2.534302599382308
 72
     1
 10
0.3982402670997445
 20
2.534302599382308
 11
0.363599250948367
 21
2.594302599382308
 97
        1
330
82CC
 75
     0
 76
     1
 98
        1
 10
-0.0365912252421088
 20
-2.561697400617673
  0
LWPOLYLINE
  5
82CC
102
{ACAD_REACTORS
330
82CB
102
}
330
1F
100
AcDbEntity
  8
0
100
AcDbPolyline
 90
        3
 70
     1
 43
0.0
 10
0.363599250948367
 20
2.594302599382308
 10
0.3289582347969894
 20
2.534302599382308
 10
0.3982402670997445
 20
2.534302599382308
  0
HATCH
  5
82CD
330
1F
100
AcDbEntity
  8
CONTINUOUS1
100
AcDbHatch
 10
0.0
 20
0.0
 30
0.0
210
0.0
220
0.0
230
1.0
  2
SOLID
 70
     1
 71
     1
 91
        1
 92
        1
 93
       10
 72
     1
 10
0.3007328884709559
 20
2.84622470502141
 11
0.3324488218874976
 21
2.825628137035361
 72
     1
 10
0.3324488218874976
 20
2.825628137035361
 11
0.3188964516710899
 21
2.790323005583915
 72
     1
 10
0.3188964516710899
 20
2.790323005583915
 11
0.3482857142857135
 21
2.814121961196613
 72
     1
 10
0.3482857142857135
 20
2.814121961196613
 11
0.3776749769003371
 21
2.790323005583915
 72
     1
 10
0.3776749769003371
 20
2.790323005583915
 11
0.3641226066839294
 21
2.825628137035361
 72
     1
 10
0.3641226066839294
 20
2.825628137035361
 11
0.3958385401004711
 21
2.84622470502141
 72
     1
 10
0.3958385401004711
 20
2.84622470502141
 11
0.3580734520639856
 21
2.84424552062299
 72
     1
 10
0.3580734520639856
 20
2.84424552062299
 11
0.3482857142857134
 21
2.880773855302662
 72
     1
 10
0.3482857142857134
 20
2.880773855302662
 11
0.3384979765074414
 21
2.84424552062299
 72
     1
 10
0.3384979765074414
 20
2.84424552062299
 11
0.3007328884709559
 21
2.84622470502141
 97
        1
330
82CE
 75
     0
 76
     1
 98
        1
 10
-0.0519047619047624
 20
-3.601892811363989
  0
LWPOLYLINE
  5
82CE
102
{ACAD_REACTORS
330
82CD
102
}
330
1F
100
AcDbEntity
  8
CONTINUOUS1
100
AcDbPolyline
 90
       10
 70
     1
 43
0.0
 10
0.3007328884709559
 20
2.84622470502141
 10
0.3324488218874976
 20
2.825628137035361
 10
0.3188964516710899
 20
2.790323005583915
 10
0.3482857142857135
 20
2.814121961196613
 10
0.3776749769003371
 20
2.790323005583915
 10
0.3641226066839294
 20
2.825628137035361
 10
0.3958385401004711
 20
2.84622470502141
 10
0.3580734520639856
 20
2.84424552062299
 10
0.3482857142857134
 20
2.880773855302662
 10
0.3384979765074414
 20
2.84424552062299
  0
HATCH
  5
82CF
330
1F
100
AcDbEntity
  8
CONTINUOUS1
100
AcDbHatch
 10
0.0
 20
0.0
 30
0.0
210
0.0
220
0.0
230
1.0
  2
SOLID
 70
     1
 71
     1
 91
        1
 92
        1
 93
        4
 72
     1
 10
0.321769209991218
 20
3.257290359597158
 11
0.321769209991218
 21
3.204257351008168
 72
     1
 10
0.321769209991218
 20
3.204257351008168
 11
0.3748022185802091
 21
3.204257351008168
 72
     1
 10
0.3748022185802091
 20
3.204257351008168
 11
0.3748022185802091
 21
3.257290359597158
 72
     1
 10
0.3748022185802091
 20
3.257290359597158
 11
0.321769209991218
 21
3.257290359597158
 97
        1
330
82D3
 75
     0
 76
     1
 98
        1
 10
-0.0000000000000009
 20
-3.601892811363989
  0
LINE
  5
82D0
330
1F
100
AcDbEntity
  8
CONTINUOUS1
100
AcDbLine
 10
0.3232857142857135
 20
3.109940521969329
 30
0.0
 11
0.3732857142857133
 21
3.109940521969329
 31
0.0
  0
LINE
  5
82D1
330
1F
100
AcDbEntity
  8
CONTINUOUS1
100
AcDbLine
 10
0.3482857142857139
 20
3.06994052196933
 30
0.0
 11
0.3482857142857139
 21
3.12494052196933
 31
0.0
  0
LINE
  5
82D2
330
1F
100
AcDbEntity
  8
CONTINUOUS1
100
AcDbLine
 10
0.3232857142857135
 20
3.084940521969331
 30
0.0
 11
0.3732857142857133
 21
3.084940521969331
 31
0.0
  0
LWPOLYLINE
  5
82D3
102
{ACAD_REACTORS
330
82CF
102
}
330
1F
100
AcDbEntity
  8
CONTINUOUS1
100
AcDbPolyline
 90
        4
 70
     1
 43
0.0
 10
0.321769209991218
 20
3.257290359597158
 10
0.321769209991218
 20
3.204257351008168
 10
0.3748022185802091
 20
3.204257351008168
 10
0.3748022185802091
 20
3.257290359597158
  0
LINE
  5
82D4
330
1F
100
AcDbEntity
  8
CONTINUOUS1
100
AcDbLine
 10
5.479
 20
3.410773855302663
 30
0.0
 11
5.478999999999999
 21
6.110773855302674
 31
0.0
1001
GENIUS_GENOREF_13
1005
0
1005
0
1005
0
1005
0
1005
0
1005
0
1005
0
1005
0
1005
0
1005
0
1005
0
1005
0
1005
0
1005
0
1005
0
  0
LINE
  5
82D5
330
1F
100
AcDbEntity
  8
CONTINUOUS1
100
AcDbLine
 10
4.129
 20
3.410773855302663
 30
0.0
 11
4.128999999999999
 21
6.110773855302674
 31
0.0
1001
GENIUS_GENOREF_13
1005
0
1005
0
1005
0
1005
0
1005
0
1005
0
1005
0
1005
0
1005
0
1005
0
1005
0
1005
0
1005
0
1005
0
1005
0
  0
LINE
  5
82D6
330
1F
100
AcDbEntity
  8
CONTINUOUS1
100
AcDbLine
 10
5.479
 20
3.410773855302663
 30
0.0
 11
5.479
 21
6.110773855302674
 31
0.0
1001
GENIUS_GENOREF_13
1005
0
1005
0
1005
0
1005
0
1005
0
1005
0
1005
0
1005
0
1005
0
1005
0
1005
0
1005
0
1005
0
1005
0
1005
0
  0
LINE
  5
82D7
330
1F
100
AcDbEntity
  8
CONTINUOUS1
100
AcDbLine
 10
2.879000000000001
 20
3.410773855302663
 30
0.0
 11
2.878999999999999
 21
6.410773855302678
 31
0.0
1001
GENIUS_GENOREF_13
1005
0
1005
0
1005
0
1005
0
1005
0
1005
0
1005
0
1005
0
1005
0
1005
0
1005
0
1005
0
1005
0
1005
0
1005
0
  0
TEXT
  5
82D8
330
1F
100
AcDbEntity
  8
TEXT1
100
AcDbText
 10
2.392739920725004
 20
4.482556729297121
 30
0.0
 40
0.08
  1
22
 50
90.0
  7
ROMANS
 11
2.352739920725004
 21
4.482556729297121
 31
0.0
100
AcDbText
 73
     2
  0
LWPOLYLINE
  5
82D9
330
1F
100
AcDbEntity
  8
CONTINUOUS1
100
AcDbPolyline
 90
        4
 70
     0
 43
0.0
 10
2.670560243752555
 20
4.482556729297121
 10
2.670560243752555
 20
4.657556729297121
 10
2.61879643473205
 20
4.850741894554936
 10
2.570500143417596
 20
4.837800942299809
  0
LWPOLYLINE
  5
82DA
330
1F
100
AcDbEntity
  8
CONTINUOUS1
100
AcDbPolyline
 90
        3
 70
     0
 43
0.0
 10
2.402739920725004
 20
4.482556729297121
 10
2.402739920725004
 20
4.657556729297121
 10
2.454503729745509
 20
4.850741894554936
  0
TEXT
  5
82DB
330
1F
100
AcDbEntity
  8
TEXT1
100
AcDbText
 10
2.919
 20
4.010773855302669
 30
0.0
 40
0.1
  1
XCSTE7513
 41
0.95
  7
ROMANS
 11
2.919
 21
4.060773855302668
 31
0.0
100
AcDbText
 73
     2
  0
TEXT
  5
82DC
330
1F
100
AcDbEntity
  8
TEXT1
100
AcDbText
 10
2.918999999999998
 20
3.510773855302665
 30
0.0
 40
0.1
  1
13 (0.360kg)
  7
ROMANS
 11
2.918999999999998
 21
3.560773855302665
 31
0.0
100
AcDbText
 73
     2
  0
LINE
  5
82DD
330
1F
100
AcDbEntity
  8
CONTINUOUS1
100
AcDbLine
 10
1.210931559137319
 20
3.948273855302669
 30
0.0
 11
1.260931559137318
 21
3.948273855302669
 31
0.0
  0
LINE
  5
82DE
330
1F
100
AcDbEntity
  8
CONTINUOUS1
100
AcDbLine
 10
1.235931559137319
 20
3.933273855302669
 30
0.0
 11
1.235931559137319
 21
3.988273855302669
 31
0.0
  0
LINE
  5
82DF
330
1F
100
AcDbEntity
  8
CONTINUOUS1
100
AcDbLine
 10
1.210931559137319
 20
3.973273855302668
 30
0.0
 11
1.260931559137318
 21
3.973273855302668
 31
0.0
  0
LWPOLYLINE
  5
82E0
330
1F
100
AcDbEntity
  8
CONTINUOUS1
100
AcDbPolyline
 90
        3
 70
     0
 43
0.0
 10
2.402739920725005
 20
3.78255672929712
 10
2.402739920725005
 20
3.95755672929712
 10
2.45450372974551
 20
4.150741894554935
  0
LWPOLYLINE
  5
82E1
330
1F
100
AcDbEntity
  8
CONTINUOUS1
100
AcDbPolyline
 90
        3
 70
     0
 43
0.0
 10
2.624150082238779
 20
3.78255672929712
 10
2.624150082238779
 20
3.95755672929712
 10
2.675913891259284
 20
4.150741894554935
  0
LINE
  5
82E2
330
1F
100
AcDbEntity
  8
HIDDEN1
100
AcDbLine
 10
2.425945001481893
 20
4.044159269675564
 30
0.0
 11
2.647355162995667
 21
4.044159269675564
 31
0.0
  0
TEXT
  5
82E3
330
1F
100
AcDbEntity
  8
TEXT1
100
AcDbText
 10
2.392739920725004
 20
3.78255672929712
 30
0.0
 40
0.08
  1
12
 50
90.0
  7
ROMANS
 11
2.352739920725004
 21
3.78255672929712
 31
0.0
100
AcDbText
 73
     2
  0
TEXT
  5
82E4
330
1F
100
AcDbEntity
  8
TEXT1
100
AcDbText
 10
2.614150082238778
 20
3.78255672929712
 30
0.0
 40
0.08
  1
22
 50
90.0
  7
ROMANS
 11
2.574150082238778
 21
3.78255672929712
 31
0.0
100
AcDbText
 73
     2
  0
LWPOLYLINE
  5
82E5
330
1F
100
AcDbEntity
  8
CONTINUOUS1
100
AcDbPolyline
 90
        3
 70
     0
 43
0.0
 10
2.624150082238779
 20
4.330761810054008
 10
2.624150082238779
 20
4.130761810054007
 10
2.694150082238779
 20
4.130761810054007
  0
TEXT
  5
82E6
330
1F
100
AcDbEntity
  8
TEXT1
100
AcDbText
 10
2.392739920725004
 20
4.187666571958772
 30
0.0
 40
0.08
  1
11
 50
90.0
  7
ROMANS
 72
     2
 11
2.352739920725004
 21
4.30576181005401
 31
0.0
100
AcDbText
 73
     2
  0
TEXT
  5
82E7
330
1F
100
AcDbEntity
  8
TEXT1
100
AcDbText
 10
2.614150082238778
 20
4.187666571958772
 30
0.0
 40
0.08
  1
21
 50
90.0
  7
ROMANS
 72
     2
 11
2.574150082238778
 21
4.30576181005401
 31
0.0
100
AcDbText
 73
     2
  0
LWPOLYLINE
  5
82E8
330
1F
100
AcDbEntity
  8
CONTINUOUS1
100
AcDbPolyline
 90
        3
 70
     0
 43
0.0
 10
2.402739920725005
 20
4.330761810054008
 10
2.402739920725005
 20
4.130761810054007
 10
2.472739920725005
 20
4.130761810054007
  0
TEXT
  5
82E9
330
1F
100
AcDbEntity
  8
TEXT1
100
AcDbText
 10
4.168999999999999
 20
4.010773855302669
 30
0.0
 40
0.1
  1
XCSTE7533
 41
0.95
  7
ROMANS
 11
4.168999999999999
 21
4.060773855302668
 31
0.0
100
AcDbText
 73
     2
  0
TEXT
  5
82EA
330
1F
100
AcDbEntity
  8
TEXT1
100
AcDbText
 10
4.168999999999999
 20
3.510773855302665
 30
0.0
 40
0.1
  1
13 (0.360 kg)
  7
ROMANS
 11
4.168999999999999
 21
3.560773855302665
 31
0.0
100
AcDbText
 73
     2
  0
CIRCLE
  5
82EB
330
1F
100
AcDbEntity
  8
CONTINUOUS1
100
AcDbCircle
 10
3.93886758927509
 20
4.060773855302668
 30
0.0
 40
0.15
  0
LEADER
  5
82EC
330
1F
100
AcDbEntity
  8
CONTINUOUS1
100
AcDbLeader
  3
SCHNEIDERELECTRIC
 76
     2
 10
4.08886758927509
 20
4.060773855302668
 30
0.0
 10
3.788867589275089
 20
4.060773855302668
 30
0.0
1001
ACAD
1000
DSTYLE
1002
{
1070
     5
1000
SEARROW
1070
    40
1040
1.0
1002
}
  0
CIRCLE
  5
82ED
330
1F
100
AcDbEntity
  8
CONTINUOUS1
100
AcDbCircle
 10
5.18886758927509
 20
4.060773855302668
 30
0.0
 40
0.15
  0
LEADER
  5
82EE
330
1F
100
AcDbEntity
  8
CONTINUOUS1
100
AcDbLeader
  3
SCHNEIDERELECTRIC
 76
     2
 10
5.33886758927509
 20
4.060773855302668
 30
0.0
 10
5.038867589275089
 20
4.060773855302668
 30
0.0
1001
ACAD
1000
DSTYLE
1002
{
1070
     5
1000
SEARROW
1070
    40
1040
1.0
1002
}
  0
TEXT
  5
82EF
330
1F
100
AcDbEntity
  8
TEXT1
100
AcDbText
 10
2.918999999999999
 20
5.410773855302672
 30
0.0
 40
0.1
  1
XCSTE5513
 41
0.95
  7
ROMANS
 11
2.918999999999999
 21
5.460773855302671
 31
0.0
100
AcDbText
 73
     2
  0
TEXT
  5
82F0
330
1F
100
AcDbEntity
  8
TEXT1
100
AcDbText
 10
2.918999999999999
 20
4.71077385530267
 30
0.0
 40
0.1
  1
XCSTE6513
 41
0.95
  7
ROMANS
 11
2.918999999999999
 21
4.760773855302669
 31
0.0
100
AcDbText
 73
     2
  0
TEXT
  5
82F1
330
1F
100
AcDbEntity
  8
TEXT1
100
AcDbText
 10
2.918999999999999
 20
5.910773855302672
 30
0.0
 40
0.1
  1
24 Vac or Vdc
 41
0.95
  7
ROMANS
 11
2.918999999999999
 21
5.960773855302671
 31
0.0
100
AcDbText
 73
     2
  0
TEXT
  5
82F2
330
1F
100
AcDbEntity
  8
TEXT1
100
AcDbText
 10
2.918999999999999
 20
6.210773855302676
 30
0.0
 40
0.1
  1
With interlocking, locking by electromagnet
  7
ROMANS
 11
2.918999999999999
 21
6.260773855302676
 31
0.0
100
AcDbText
 73
     2
  0
HATCH
  5
82F3
330
1F
100
AcDbEntity
  8
CONTINUOUS1
100
AcDbHatch
 10
0.0
 20
0.0
 30
0.0
210
0.0
220
0.0
230
1.0
  2
SOLID
 70
     1
 71
     1
 91
        1
 92
        1
 93
       10
 72
     1
 10
1.300354497251359
 20
5.276224705021419
 11
1.332070430667901
 21
5.255628137035372
 72
     1
 10
1.332070430667901
 20
5.255628137035372
 11
1.318518060451493
 21
5.220323005583924
 72
     1
 10
1.318518060451493
 20
5.220323005583924
 11
1.347907323066117
 21
5.244121961196621
 72
     1
 10
1.347907323066117
 20
5.244121961196621
 11
1.37729658568074
 21
5.220323005583924
 72
     1
 10
1.37729658568074
 20
5.220323005583924
 11
1.363744215464333
 21
5.255628137035372
 72
     1
 10
1.363744215464333
 20
5.255628137035372
 11
1.395460148880874
 21
5.276224705021419
 72
     1
 10
1.395460148880874
 20
5.276224705021419
 11
1.357695060844389
 21
5.274245520623
 72
     1
 10
1.357695060844389
 20
5.274245520623
 11
1.347907323066117
 21
5.310773855302673
 72
     1
 10
1.347907323066117
 20
5.310773855302673
 11
1.338119585287845
 21
5.274245520623
 72
     1
 10
1.338119585287845
 20
5.274245520623
 11
1.300354497251359
 21
5.276224705021419
 97
        1
330
82F4
 75
     0
 76
     1
 98
        1
 10
0.9477168468756412
 20
-1.171892811363982
  0
LWPOLYLINE
  5
82F4
102
{ACAD_REACTORS
330
82F3
102
}
330
1F
100
AcDbEntity
  8
CONTINUOUS1
100
AcDbPolyline
 90
       10
 70
     1
 43
0.0
 10
1.300354497251359
 20
5.276224705021419
 10
1.332070430667901
 20
5.255628137035372
 10
1.318518060451493
 20
5.220323005583924
 10
1.347907323066117
 20
5.244121961196621
 10
1.37729658568074
 20
5.220323005583924
 10
1.363744215464333
 20
5.255628137035372
 10
1.395460148880874
 20
5.276224705021419
 10
1.357695060844389
 20
5.274245520623
 10
1.347907323066117
 20
5.310773855302673
 10
1.338119585287845
 20
5.274245520623
  0
LINE
  5
82F5
330
1F
100
AcDbEntity
  8
CONTINUOUS1
100
AcDbLine
 10
1.210931559137319
 20
4.548273855302671
 30
0.0
 11
1.260931559137318
 21
4.548273855302671
 31
0.0
  0
LINE
  5
82F6
330
1F
100
AcDbEntity
  8
CONTINUOUS1
100
AcDbLine
 10
1.235931559137318
 20
4.53327385530267
 30
0.0
 11
1.235931559137318
 21
4.58827385530267
 31
0.0
  0
LINE
  5
82F7
330
1F
100
AcDbEntity
  8
CONTINUOUS1
100
AcDbLine
 10
1.210931559137319
 20
4.573273855302669
 30
0.0
 11
1.260931559137318
 21
4.573273855302669
 31
0.0
  0
LINE
  5
82F8
330
1F
100
AcDbEntity
  8
CONTINUOUS1
100
AcDbLine
 10
1.210931559137319
 20
5.273273855302671
 30
0.0
 11
1.260931559137318
 21
5.273273855302671
 31
0.0
  0
LINE
  5
82F9
330
1F
100
AcDbEntity
  8
CONTINUOUS1
100
AcDbLine
 10
1.235931559137318
 20
5.233273855302672
 30
0.0
 11
1.235931559137318
 21
5.288273855302672
 31
0.0
  0
LINE
  5
82FA
330
1F
100
AcDbEntity
  8
CONTINUOUS1
100
AcDbLine
 10
1.210931559137319
 20
5.248273855302673
 30
0.0
 11
1.260931559137318
 21
5.248273855302673
 31
0.0
  0
TEXT
  5
82FB
330
1F
100
AcDbEntity
  8
TEXT1
100
AcDbText
 10
2.614150082238778
 20
5.182556729297121
 30
0.0
 40
0.08
  1
22
 50
90.0
  7
ROMANS
 11
2.574150082238778
 21
5.182556729297121
 31
0.0
100
AcDbText
 73
     2
  0
TEXT
  5
82FC
330
1F
100
AcDbEntity
  8
TEXT1
100
AcDbText
 10
2.43915008223878
 20
5.182556729297121
 30
0.0
 40
0.08
  1
14
 50
90.0
  7
ROMANS
 11
2.39915008223878
 21
5.182556729297121
 31
0.0
100
AcDbText
 73
     2
  0
LWPOLYLINE
  5
82FD
330
1F
100
AcDbEntity
  8
CONTINUOUS1
100
AcDbPolyline
 90
        3
 70
     0
 43
0.0
 10
2.624150082238779
 20
5.182556729297121
 10
2.624150082238779
 20
5.357556729297122
 10
2.675913891259284
 20
5.550741894554938
  0
LWPOLYLINE
  5
82FE
330
1F
100
AcDbEntity
  8
CONTINUOUS1
100
AcDbPolyline
 90
        4
 70
     0
 43
0.0
 10
2.449150082238781
 20
5.182556729297121
 10
2.449150082238781
 20
5.357556729297122
 10
2.397386273218276
 20
5.550741894554938
 10
2.349089981903822
 20
5.537800942299809
  0
TEXT
  5
82FF
330
1F
100
AcDbEntity
  8
TEXT1
100
AcDbText
 10
2.660560243752553
 20
4.864809429101629
 30
0.0
 40
0.08
  1
13
 50
90.0
  7
ROMANS
 72
     2
 11
2.620560243752553
 21
5.005761810054011
 31
0.0
100
AcDbText
 73
     2
  0
LINE
  5
8300
330
1F
100
AcDbEntity
  8
CONTINUOUS1
100
AcDbLine
 10
2.670560243752554
 20
4.850741894554936
 30
0.0
 11
2.670560243752555
 21
5.030761810054009
 31
0.0
  0
LWPOLYLINE
  5
8301
330
1F
100
AcDbEntity
  8
CONTINUOUS1
100
AcDbPolyline
 90
        3
 70
     0
 43
0.0
 10
2.402739920725004
 20
5.030761810054009
 10
2.402739920725004
 20
4.830761810054008
 10
2.472739920725004
 20
4.830761810054008
  0
LINE
  5
8302
330
1F
100
AcDbEntity
  8
HIDDEN1
100
AcDbLine
 10
2.425945001481893
 20
4.744159269675565
 30
0.0
 11
2.647355162995667
 21
4.744159269675565
 31
0.0
  0
TEXT
  5
8303
330
1F
100
AcDbEntity
  8
TEXT1
100
AcDbText
 10
2.660560243752555
 20
4.482556729297121
 30
0.0
 40
0.08
  1
14
 50
90.0
  7
ROMANS
 11
2.620560243752555
 21
4.482556729297121
 31
0.0
100
AcDbText
 73
     2
  0
TEXT
  5
8304
330
1F
100
AcDbEntity
  8
TEXT1
100
AcDbText
 10
2.392739920725003
 20
4.887666571958773
 30
0.0
 40
0.08
  1
21
 50
90.0
  7
ROMANS
 72
     2
 11
2.352739920725003
 21
5.005761810054011
 31
0.0
100
AcDbText
 73
     2
  0
TEXT
  5
8305
330
1F
100
AcDbEntity
  8
TEXT1
100
AcDbText
 10
2.614150082238777
 20
5.587666571958775
 30
0.0
 40
0.08
  1
21
 50
90.0
  7
ROMANS
 72
     2
 11
2.574150082238777
 21
5.705761810054013
 31
0.0
100
AcDbText
 73
     2
  0
TEXT
  5
8306
330
1F
100
AcDbEntity
  8
TEXT1
100
AcDbText
 10
2.439150082238779
 20
5.564809429101631
 30
0.0
 40
0.08
  1
13
 50
90.0
  7
ROMANS
 72
     2
 11
2.399150082238779
 21
5.705761810054013
 31
0.0
100
AcDbText
 73
     2
  0
LINE
  5
8307
330
1F
100
AcDbEntity
  8
CONTINUOUS1
100
AcDbLine
 10
2.449150082238779
 20
5.550741894554938
 30
0.0
 11
2.449150082238781
 21
5.730761810054011
 31
0.0
  0
LWPOLYLINE
  5
8308
330
1F
100
AcDbEntity
  8
CONTINUOUS1
100
AcDbPolyline
 90
        3
 70
     0
 43
0.0
 10
2.624150082238779
 20
5.730761810054011
 10
2.624150082238779
 20
5.530761810054008
 10
2.694150082238779
 20
5.530761810054008
  0
LINE
  5
8309
330
1F
100
AcDbEntity
  8
HIDDEN1
100
AcDbLine
 10
2.425945001481893
 20
5.444159269675565
 30
0.0
 11
2.647355162995667
 21
5.444159269675565
 31
0.0
  0
TEXT
  5
830A
330
1F
100
AcDbEntity
  8
TEXT1
100
AcDbText
 10
4.168999999999999
 20
5.910773855302672
 30
0.0
 40
0.1
  1
120 Vac or Vdc
 41
0.95
  7
ROMANS
 11
4.168999999999999
 21
5.960773855302671
 31
0.0
100
AcDbText
 73
     2
  0
TEXT
  5
830B
330
1F
100
AcDbEntity
  8
TEXT1
100
AcDbText
 10
4.168999999999999
 20
4.71077385530267
 30
0.0
 40
0.1
  1
XCSTE6533
 41
0.95
  7
ROMANS
 11
4.168999999999999
 21
4.760773855302669
 31
0.0
100
AcDbText
 73
     2
  0
TEXT
  5
830C
330
1F
100
AcDbEntity
  8
TEXT1
100
AcDbText
 10
4.168999999999999
 20
5.410773855302672
 30
0.0
 40
0.1
  1
XCSTE5533
 41
0.95
  7
ROMANS
 11
4.168999999999999
 21
5.460773855302671
 31
0.0
100
AcDbText
 73
     2
  0
CIRCLE
  5
830D
330
1F
100
AcDbEntity
  8
CONTINUOUS1
100
AcDbCircle
 10
3.93886758927509
 20
4.760773855302669
 30
0.0
 40
0.15
  0
LEADER
  5
830E
330
1F
100
AcDbEntity
  8
CONTINUOUS1
100
AcDbLeader
  3
SCHNEIDERELECTRIC
 76
     2
 10
4.08886758927509
 20
4.760773855302669
 30
0.0
 10
3.788867589275089
 20
4.760773855302669
 30
0.0
1001
ACAD
1000
DSTYLE
1002
{
1070
     5
1000
SEARROW
1070
    40
1040
1.0
1002
}
  0
CIRCLE
  5
830F
330
1F
100
AcDbEntity
  8
CONTINUOUS1
100
AcDbCircle
 10
3.93886758927509
 20
5.460773855302671
 30
0.0
 40
0.15
  0
LEADER
  5
8310
330
1F
100
AcDbEntity
  8
CONTINUOUS1
100
AcDbLeader
  3
SCHNEIDERELECTRIC
 76
     2
 10
4.08886758927509
 20
5.460773855302671
 30
0.0
 10
3.788867589275089
 20
5.460773855302671
 30
0.0
1001
ACAD
1000
DSTYLE
1002
{
1070
     5
1000
SEARROW
1070
    40
1040
1.0
1002
}
  0
CIRCLE
  5
8311
330
1F
100
AcDbEntity
  8
CONTINUOUS1
100
AcDbCircle
 10
5.18886758927509
 20
4.760773855302669
 30
0.0
 40
0.15
  0
LEADER
  5
8312
330
1F
100
AcDbEntity
  8
CONTINUOUS1
100
AcDbLeader
  3
SCHNEIDERELECTRIC
 76
     2
 10
5.33886758927509
 20
4.760773855302669
 30
0.0
 10
5.038867589275089
 20
4.760773855302669
 30
0.0
1001
ACAD
1000
DSTYLE
1002
{
1070
     5
1000
SEARROW
1070
    40
1040
1.0
1002
}
  0
LEADER
  5
8313
330
1F
100
AcDbEntity
  8
CONTINUOUS1
100
AcDbLeader
  3
SCHNEIDERELECTRIC
 76
     2
 10
5.33886758927509
 20
5.460773855302671
 30
0.0
 10
5.038867589275089
 20
5.460773855302671
 30
0.0
1001
ACAD
1000
DSTYLE
1002
{
1070
     5
1000
SEARROW
1070
    40
1040
1.0
1002
}
  0
CIRCLE
  5
8314
330
1F
100
AcDbEntity
  8
CONTINUOUS1
100
AcDbCircle
 10
5.18886758927509
 20
5.460773855302671
 30
0.0
 40
0.15
  0
LINE
  5
8315
330
1F
100
AcDbEntity
  8
CONTINUOUS1
100
AcDbLine
 10
6.829
 20
3.410773855302663
 30
0.0
 11
6.829
 21
6.410773855302688
 31
0.0
1001
GENIUS_GENOREF_13
1005
0
1005
0
1005
0
1005
0
1005
0
1005
0
1005
0
1005
0
1005
0
1005
0
1005
0
1005
0
1005
0
1005
0
1005
0
  0
CIRCLE
  5
8316
330
1F
100
AcDbEntity
  8
CONTINUOUS1
100
AcDbCircle
 10
6.538867589275089
 20
4.060773855302668
 30
0.0
 40
0.15
  0
LEADER
  5
8317
330
1F
100
AcDbEntity
  8
CONTINUOUS1
100
AcDbLeader
  3
SCHNEIDERELECTRIC
 76
     2
 10
6.68886758927509
 20
4.060773855302668
 30
0.0
 10
6.388867589275089
 20
4.060773855302668
 30
0.0
1001
ACAD
1000
DSTYLE
1002
{
1070
     5
1000
SEARROW
1070
    40
1040
1.0
1002
}
  0
CIRCLE
  5
8318
330
1F
100
AcDbEntity
  8
CONTINUOUS1
100
AcDbCircle
 10
6.538867589275089
 20
4.760773855302669
 30
0.0
 40
0.15
  0
LEADER
  5
8319
330
1F
100
AcDbEntity
  8
CONTINUOUS1
100
AcDbLeader
  3
SCHNEIDERELECTRIC
 76
     2
 10
6.68886758927509
 20
4.760773855302669
 30
0.0
 10
6.388867589275089
 20
4.760773855302669
 30
0.0
1001
ACAD
1000
DSTYLE
1002
{
1070
     5
1000
SEARROW
1070
    40
1040
1.0
1002
}
  0
CIRCLE
  5
831A
330
1F
100
AcDbEntity
  8
CONTINUOUS1
100
AcDbCircle
 10
6.538867589275089
 20
5.460773855302671
 30
0.0
 40
0.15
  0
LEADER
  5
831B
330
1F
100
AcDbEntity
  8
CONTINUOUS1
100
AcDbLeader
  3
SCHNEIDERELECTRIC
 76
     2
 10
6.68886758927509
 20
5.460773855302671
 30
0.0
 10
6.388867589275089
 20
5.460773855302671
 30
0.0
1001
ACAD
1000
DSTYLE
1002
{
1070
     5
1000
SEARROW
1070
    40
1040
1.0
1002
}
  0
LINE
  5
831C
330
1F
100
AcDbEntity
  8
CONTINUOUS1
100
AcDbLine
 10
0.3039999999999994
 20
6.410773855302678
 30
0.0
 11
6.829000000000001
 21
6.410773855302678
 31
0.0
1001
GENIUS_GENOREF_13
1005
0
1005
0
1005
0
1005
0
1005
0
1005
0
1005
0
1005
0
1005
0
1005
0
1005
0
1005
0
1005
0
1005
0
1005
0
  0
TEXT
  5
831D
330
1F
100
AcDbEntity
  8
TEXT2
100
AcDbText
 10
0.3040000000000003
 20
6.510773855302679
 30
0.0
 40
0.1
  1
Plastic, turret head , type XCSTE, locking with power, 1/2" NPT conduit
  7
ROMANS
 11
0.3040000000000003
 21
6.560773855302679
 31
0.0
100
AcDbText
 73
     2
  0
HATCH
  5
831E
330
1F
100
AcDbEntity
  8
CONTINUOUS1
100
AcDbHatch
 10
0.0
 20
0.0
 30
0.0
210
0.0
220
0.0
230
1.0
  2
SOLID
 70
     1
 71
     1
 91
        1
 92
        1
 93
        4
 72
     1
 10
1.853682784285363
 20
6.572516504294472
 11
1.853682784285363
 21
6.519483495705482
 72
     1
 10
1.853682784285363
 20
6.519483495705482
 11
1.906715792874354
 21
6.519483495705482
 72
     1
 10
1.906715792874354
 20
6.519483495705482
 11
1.906715792874354
 21
6.572516504294472
 72
     1
 10
1.906715792874354
 20
6.572516504294472
 11
1.853682784285363
 21
6.572516504294472
 97
        1
330
831F
 75
     0
 76
     1
 98
        1
 10
1.531913574294144
 20
-0.2866666666666768
  0
LWPOLYLINE
  5
831F
102
{ACAD_REACTORS
330
831E
102
}
330
1F
100
AcDbEntity
  8
CONTINUOUS1
100
AcDbPolyline
 90
        4
 70
     1
 43
0.0
 10
1.853682784285363
 20
6.572516504294472
 10
1.853682784285363
 20
6.519483495705482
 10
1.906715792874354
 20
6.519483495705482
 10
1.906715792874354
 20
6.572516504294472
  0
LINE
  5
83A1
330
1F
100
AcDbEntity
  8
CENTER1
100
AcDbLine
 10
7.522257944945238
 20
5.586877586788258
 30
0.0
 11
8.482491134771805
 21
5.586877586788258
 31
0.0
  0
LINE
  5
8463
330
1F
100
AcDbEntity
  8
0
100
AcDbLine
 10
13.12882664112493
 20
5.936877586788257
 30
0.0
 11
13.22882664112493
 21
6.036877586788256
 31
0.0
  0
VIEWPORT
  5
32
330
1B
100
AcDbEntity
 67
     1
  8
0
100
AcDbViewport
 10
8.197700928165525
 20
5.469890120772165
 30
0.0
 40
18.67335969917398
 41
11.91231567016271
 68
     1
 69
     1
1001
ACAD
1000
MVIEW
1002
{
1070
    16
1010
0.0
1020
0.0
1030
0.0
1010
0.0
1020
0.0
1030
1.0
1040
0.0
1040
11.91231567016271
1040
8.197700928165525
1040
5.469890120772165
1040
50.0
1040
0.0
1040
0.0
1070
     0
1070
   100
1070
     1
1070
     0
1070
     0
1070
     0
1070
     0
1070
     0
1040
0.0
1040
0.0
1040
0.0
1040
0.5
1040
0.5
1040
0.5
1040
0.5
1070
     0
1002
{
1002
}
1002
}
1001
GENIUS_GENOREF_13
1005
0
1005
0
1001
GENIUS_GENSCREG_15
1000
PF
1040
1.0
1000
DF
1040
1.0
1000
MIN
1011
-0.9868069047050553
1021
-0.4873716604564838
1031
0.0
1000
MAX
1011
17.59819885323597
1021
10.63627855607077
1031
0.0
1000
FLAGS
1070
     2
  0
LWPOLYLINE
  5
175
330
1B
100
AcDbEntity
 67
     1
  8
VIEWPORT
100
AcDbPolyline
 90
        6
 70
     1
 43
0.0
 10
16.40000099999999
 20
10.25
 10
16.40000099999999
 20
0.9120019999999993
 10
8.002461
 20
0.9120019999999993
 10
8.002461
 20
0.0
 10
0.0
 20
0.0
 10
0.0
 20
10.25
1001
GENIUS_GENOREF_13
1005
0
1005
0
1005
0
1005
0
1005
0
1005
0
1005
0
1005
0
1005
0
1005
0
1005
0
1005
0
1005
0
1005
0
1005
0
  0
VIEWPORT
  5
177
330
1B
100
AcDbEntity
 67
     1
  8
VIEWPORT
100
AcDbViewport
 10
8.200000499999999
 20
5.125
 30
0.0
 40
16.40000099999999
 41
10.25
 68
     2
 69
     2
1001
ACAD
1000
MVIEW
1002
{
1070
    16
1010
0.0
1020
0.0
1030
0.0
1010
0.0
1020
0.0
1030
1.0
1040
0.0
1040
10.25
1040
8.200501268966533
1040
5.125312980585007
1040
50.0
1040
0.0
1040
0.0
1070
     0
1070
   100
1070
     1
1070
     2
1070
     0
1070
     0
1070
     0
1070
     0
1040
0.0
1040
0.0
1040
0.0
1040
0.5
1040
0.5
1040
0.5
1040
0.5
1070
     0
1002
{
1002
}
1002
}
1001
GENIUS_GENOREF_13
1005
0
1005
0
1005
0
1005
0
1005
0
1005
0
1005
0
1005
0
1005
0
1005
0
1005
0
1005
0
1005
0
1005
0
1005
0
1001
GENIUS_GENSCREG_15
1000
PF
1040
0.0
1000
DF
1040
0.0
1000
MIN
1011
0.0
1021
0.0
1031
0.0
1000
MAX
1011
16.40000099999999
1021
10.25
1031
0.0
1000
FLAGS
1070
     2
  0
INSERT
  5
B2C
330
1B
100
AcDbEntity
 67
     1
  8
TITLEBLOCK
100
AcDbBlockReference
 66
     1
  2
TITLE-PAD
 10
0.0
 20
0.0
 30
0.0
  0
ATTRIB
  5
B2D
330
B2C
100
AcDbEntity
 67
     1
  8
TEXT1
 62
     0
100
AcDbText
 10
8.708981206080846
 20
0.6974460884590165
 30
0.0
 40
0.1
  1
XCSTE SAFETY INTERLOCK SWITCHES
  7
ROMANS
 72
     4
 11
10.10183834893798
 21
0.7474460884590166
 31
0.0
100
AcDbAttribute
  2
DESCRIPTION 1
 70
     0
  0
ATTRIB
  5
B2E
330
B2C
100
AcDbEntity
 67
     1
  8
TEXT1
 62
     0
100
AcDbText
 10
8.172314539414179
 20
0.5693422187597193
 30
0.0
 40
0.08
  1
XCSTE5313, XCSTE5333, XCSTE6313, XCSTE6333, XCSTE6343,
  7
ROMANS
 72
     4
 11
10.10183834893798
 21
0.6017231711406717
 31
0.0
100
AcDbAttribute
  2
DESCRIPTION 2
 70
     0
  0
ATTRIB
  5
B2F
330
B2C
100
AcDbEntity
 67
     1
  8
TEXT1
 62
     0
100
AcDbText
 10
8.172314539414179
 20
0.4236193014413744
 30
0.0
 40
0.08
  1
XCSTE7313, XCSTE7333, XCSTE7343, XCSTE5513, XCSTE5533,
  7
ROMANS
 72
     4
 11
10.10183834893798
 21
0.4560002538223267
 31
0.0
100
AcDbAttribute
  2
DESCRIPTION 3
 70
     0
  0
ATTRIB
  5
B30
330
B2C
100
AcDbEntity
 67
     1
  8
TEXT1
 62
     0
100
AcDbText
 10
8.172314539414179
 20
0.2878963841230309
 30
0.0
 40
0.08
  1
XCSTE5543, XCSTE5613, XCSTE6533, XCSTE6543, XCSTE7513,
  7
ROMANS
 72
     4
 11
10.10183834893798
 21
0.3202773365039833
 31
0.0
100
AcDbAttribute
  2
DESCRIPTION 4
 70
     0
  0
ATTRIB
  5
B31
330
B2C
100
AcDbEntity
 67
     1
  8
TEXT1
 62
     0
100
AcDbText
 10
9.37231453941418
 20
0.1521734668046875
 30
0.0
 40
0.08
  1
XCSTE7533, XCSTE7543
  7
ROMANS
 72
     4
 11
10.10183834893798
 21
0.1845544191856399
 31
0.0
100
AcDbAttribute
  2
DESCRIPTION 5
 70
     0
  0
ATTRIB
  5
B32
330
B2C
100
AcDbEntity
 67
     1
  8
TEXT1
 62
     0
100
AcDbText
 10
12.74772367103195
 20
0.096540546036505
 30
0.0
 40
0.12
  1
XCSTE_OUTLINE_001
 41
0.9512024731840066
  7
M_STANDARD
 11
12.74772367103195
 21
0.156540546036505
 31
0.0
100
AcDbAttribute
  2
DWGNO
 70
     0
 74
     2
  0
ATTRIB
  5
B33
330
B2C
100
AcDbEntity
 67
     1
  8
TEXT1
 62
     0
100
AcDbText
 10
16.35506454949325
 20
-0.1507193079929352
 30
0.0
 40
0.08
  1

  7
ROMANS
 72
     2
 11
16.35506454949325
 21
-0.1107193079929352
 31
0.0
100
AcDbAttribute
  2
REF
 70
     0
 74
     2
  0
ATTRIB
  5
B34
330
B2C
100
AcDbEntity
 67
     1
  8
TEXT1
 62
     0
100
AcDbText
 10
0.0266402374038712
 20
-0.1507193079929352
 30
0.0
 40
0.08
  1
MAY 2001
  7
ROMANS
 11
0.0266402374038712
 21
-0.1107193079929352
 31
0.0
100
AcDbAttribute
  2
DATE
 70
     0
 74
     2
  0
SEQEND
  5
B35
330
B2C
100
AcDbEntity
 67
     1
  8
0
  0
INSERT
  5
1DEF
330
1B
100
AcDbEntity
 67
     1
  8
0
100
AcDbBlockReference
  2
OEM-NOTES
 10
0.0
 20
0.0
 30
0.0
 41
0.5
 42
0.5
 43
0.5
  0
ENDSEC
  0
SECTION
  2
OBJECTS
  0
DICTIONARY
  5
C
330
0
100
AcDbDictionary
  3
ACAD_GROUP
350
D
  3
ACAD_LAYOUT
350
1A
  3
ACAD_MLINESTYLE
350
17
  3
ACAD_PLOTSETTINGS
350
19
  3
ACAD_PLOTSTYLENAME
350
E
  3
ACADDIM
350
7A6E
  3
ACDBVARIABLEDICTIONARY
350
374
  3
ACMDICTIONARY
350
383
  3
AMG
350
36B
  3
AMGSNAPSETTINGS
350
399
  3
ASE_INDEX_DICTIONARY
350
6A
  3
DWGPROPS
350
2DA4
  3
ACDBHEADERROUNDTRIPXREC
350
8572
  0
DICTIONARY
  5
73
330
1F
100
AcDbDictionary
280
     1
  3
ACAD_INDEX
360
3D25
  3
ACAD_LAYOUTSELFREF
360
8594
  0
DICTIONARY
  5
75
330
1B
100
AcDbDictionary
280
     1
  3
ACAD_LAYOUTSELFREF
360
8593
  0
DICTIONARY
  5
D
102
{ACAD_REACTORS
330
C
102
}
330
C
100
AcDbDictionary
  0
DICTIONARY
  5
1A
102
{ACAD_REACTORS
330
C
102
}
330
C
100
AcDbDictionary
  0
DICTIONARY
  5
17
102
{ACAD_REACTORS
330
C
102
}
330
C
100
AcDbDictionary
  3
STANDARD
350
18
  0
DICTIONARY
  5
19
102
{ACAD_REACTORS
330
C
102
}
330
C
100
AcDbDictionary
  3
A_SIZE_PAPER
350
2FF
  3
B_SIZE_PAPER
350
2FD
  3
D_SIZE_PAPER
350
2FE
  0
ACDBDICTIONARYWDFLT
  5
E
102
{ACAD_REACTORS
330
C
102
}
330
C
100
AcDbDictionary
281
     1
  3
Normal
350
F
100
AcDbDictionaryWithDefault
340
F
  0
XRECORD
  5
7A6E
102
{ACAD_REACTORS
330
C
102
}
330
C
100
AcDbXrecord
 90
   990106
  3

 60
     0
 61
     0
 62
     1
 63
     3
 64
     0
 65
     0
 66
     0
 67
     3
 68
     1
 69
     0
 70
     0
 71
     0
 72
     0
 40
0.0
170
     0
  0
DICTIONARY
  5
374
102
{ACAD_REACTORS
330
C
102
}
330
C
100
AcDbDictionary
  3
INDEXCTL
350
375
  3
SORTENTS
350
7997
  0
DICTIONARY
  5
383
102
{ACAD_REACTORS
330
C
102
}
330
C
100
AcDbDictionary
  0
DICTIONARY
  5
36B
102
{ACAD_REACTORS
330
C
102
}
330
C
100
AcDbDictionary
  3
ACMGSETTINGS
350
36C
  0
DICTIONARY
  5
399
102
{ACAD_REACTORS
330
C
102
}
330
C
100
AcDbDictionary
  0
DICTIONARY
  5
6A
102
{ACAD_REACTORS
330
C
102
}
330
C
100
AcDbDictionary
  3
ASEBLOCKHIERARCHYINDEXRECORD
350
6C
1001
DCO15
1040
1379130883.246999
  0
XRECORD
  5
2DA4
102
{ACAD_REACTORS
330
C
102
}
330
C
100
AcDbXrecord
  1
DWGPROPS COOKIE
  2

  3

  4

  6

  7

  8
mgp706
  9

300
AmdtFileType=84
301
=
302
=
303
=
304
=
305
=
306
=
307
=
308
=
309
=
 40
0.2586275694444444
 41
2451764.535041909
 42
2451880.62758956
  1

 90
        1
  0
DICTIONARY
  5
8572
102
{ACAD_REACTORS
330
C
102
}
330
C
100
AcDbDictionary
  3
TSTACKALIGN
350
8573
  3
TSTACKSIZE
350
8574
  3
HYPERLINKBASE
350
8575
  3
STYLESHEET
350
8576
  3
LAYOUTDICT
350
8577
  3
PLOTSETDICT
350
8578
  3
PLOTSTYLNAMDICT
350
8579
  3
LWETCUNION
350
857A
  3
INSUNITS
350
857B
  3
CEPSNTYPE
350
857C
  3
FINGERPRINTGUID
350
857D
  3
VERSIONGUID
350
857E
  3
PSVPSCALE
350
857F
  3
DIMSTYLEDATA
350
8580
  3
PUCSORTHOREF
350
8581
  3
PUCSORTHOVIEW
350
8582
  3
PUCSBASE
350
8583
  3
PUCSORGTOP
350
8584
  3
PUCSORGBOTTOM
350
8585
  3
PUCSORGLEFT
350
8586
  3
PUCSORGRIGHT
350
8587
  3
PUCSORGFRONT
350
8588
  3
PUCSORGBACK
350
8589
  3
UCSORTHOREF
350
858A
  3
UCSORTHOVIEW
350
858B
  3
UCSBASE
350
858C
  3
UCSORGTOP
350
858D
  3
UCSORGBOTTOM
350
858E
  3
UCSORGLEFT
350
858F
  3
UCSORGRIGHT
350
8590
  3
UCSORGFRONT
350
8591
  3
UCSORGBACK
350
8592
  0
DICTIONARY
  5
3D25
102
{ACAD_REACTORS
330
73
102
}
330
73
100
AcDbDictionary
  3
*A1
350
3D26
  0
XRECORD
  5
8594
102
{ACAD_REACTORS
330
73
102
}
330
73
100
AcDbXrecord
340
1F
  0
XRECORD
  5
8593
102
{ACAD_REACTORS
330
75
102
}
330
75
100
AcDbXrecord
340
1B
  0
MLINESTYLE
  5
18
102
{ACAD_REACTORS
330
17
102
}
330
17
100
AcDbMlineStyle
  2
STANDARD
 70
     0
  3

 62
   256
 51
90.0
 52
90.0
 71
     2
 49
0.5
 62
   256
  6
BYLAYER
 49
-0.5
 62
   256
  6
BYLAYER
  0
PLOTSETTINGS
  5
2FF
102
{ACAD_REACTORS
330
19
102
}
330
19
100
AcDbPlotSettings
  1
A Size Paper
  2
none_device
  4
ANSI_A_(8.50_x_11.00_Inches)
  6

 40
6.349999904632568
 41
19.04999923706054
 42
6.350006103515625
 43
19.04998779296875
 44
215.8999938964843
 45
279.3999938964843
 46
19.04999999999999
 47
-9.651999999999999
 48
0.0
 49
0.0
140
0.0
141
0.0
142
1.0
143
1.6
 70
   740
 72
     0
 73
     1
 74
     1
  7
monochrome.ctb
 75
     0
147
0.625
148
0.0034886547032954
149
0.0199946439100934
  0
PLOTSETTINGS
  5
2FD
102
{ACAD_REACTORS
330
19
102
}
330
19
100
AcDbPlotSettings
  1
B Size Paper
  2
none_device
  4
ANSI_B_(11.00_x_17.00_Inches)
  6

 40
6.349999904632568
 41
19.04999923706054
 42
6.350006103515625
 43
19.04998779296875
 44
279.3999938964843
 45
431.7999877929687
 46
1.27
 47
-11.43
 48
0.0
 49
0.0
140
0.0
141
0.0
142
1.0
143
1.0
 70
   756
 72
     0
 73
     1
 74
     1
  7
monochrome.ctb
 75
    16
147
1.0
148
0.0034886547032954
149
0.0199946439100934
  0
PLOTSETTINGS
  5
2FE
102
{ACAD_REACTORS
330
19
102
}
330
19
100
AcDbPlotSettings
  1
D Size Paper
  2
none_device
  4
ANSI_D_(22.00_x_34.00_Inches)
  6

 40
6.349999904632568
 41
19.04999923706054
 42
6.3499755859375
 43
19.04998779296875
 44
558.7999877929687
 45
863.5999755859375
 46
8.889999999999998
 47
-3.809999999999999
 48
0.0
 49
0.0
140
0.0
141
0.0
142
1.0
143
0.5
 70
   740
 72
     0
 73
     1
 74
     1
  7
monochrome.ctb
 75
     0
147
2.0
148
0.0034886547032954
149
0.0199946439100934
  0
ACDBPLACEHOLDER
  5
F
102
{ACAD_REACTORS
330
E
102
}
330
E
100
AcDbPlaceHolder
280
     0
  0
DICTIONARYVAR
  5
375
102
{ACAD_REACTORS
330
374
102
}
330
374
100
DictionaryVariables
280
     0
  1
1
  0
DICTIONARYVAR
  5
7997
102
{ACAD_REACTORS
330
374
102
}
330
374
100
DictionaryVariables
280
     0
  1
96
  0
DICTIONARY
  5
36C
102
{ACAD_REACTORS
330
36B
102
}
330
36B
100
AcDbDictionary
  3
DWGSETTINGS
350
2D90
  0
XRECORD
  5
6C
102
{ACAD_REACTORS
330
6A
102
}
330
6A
100
AcDbXrecord
  0
XRECORD
  5
8573
102
{ACAD_REACTORS
330
8572
102
}
330
8572
100
AcDbXrecord
 90
        1
  0
XRECORD
  5
8574
102
{ACAD_REACTORS
330
8572
102
}
330
8572
100
AcDbXrecord
 90
       70
  0
XRECORD
  5
8575
102
{ACAD_REACTORS
330
8572
102
}
330
8572
100
AcDbXrecord
  1

  0
XRECORD
  5
8576
102
{ACAD_REACTORS
330
8572
102
}
330
8572
100
AcDbXrecord
  1

  0
XRECORD
  5
8577
102
{ACAD_REACTORS
330
8572
102
}
330
8572
100
AcDbXrecord
340
1A
  0
XRECORD
  5
8578
102
{ACAD_REACTORS
330
8572
102
}
330
8572
100
AcDbXrecord
340
19
  0
XRECORD
  5
8579
102
{ACAD_REACTORS
330
8572
102
}
330
8572
100
AcDbXrecord
340
E
  0
XRECORD
  5
857A
102
{ACAD_REACTORS
330
8572
102
}
330
8572
100
AcDbXrecord
 90
    10269
  0
XRECORD
  5
857B
102
{ACAD_REACTORS
330
8572
102
}
330
8572
100
AcDbXrecord
 90
        1
  0
XRECORD
  5
857C
102
{ACAD_REACTORS
330
8572
102
}
330
8572
100
AcDbXrecord
 90
        0
  0
XRECORD
  5
857D
102
{ACAD_REACTORS
330
8572
102
}
330
8572
100
AcDbXrecord
  1
{4E694E3A-6C64-11D4-81E3-0004AC4461C9}
  0
XRECORD
  5
857E
102
{ACAD_REACTORS
330
8572
102
}
330
8572
100
AcDbXrecord
  1
{83F5F3D2-492D-11D5-B1E8-00062962DB88}
  0
XRECORD
  5
857F
102
{ACAD_REACTORS
330
8572
102
}
330
8572
100
AcDbXrecord
 40
1.0
  0
XRECORD
  5
8580
102
{ACAD_REACTORS
330
8572
102
}
330
8572
100
AcDbXrecord
1000
DSTYLE
1002
{
1070
    79
 70
     1
1070
   148
 40
0.1
1070
   341
340
2FD7
1070
   342
340
2FD7
1070
   371
 70
    -1
1070
   372
 70
    -1
1002
}
  0
XRECORD
  5
8581
102
{ACAD_REACTORS
330
8572
102
}
330
8572
100
AcDbXrecord
340
0
  0
XRECORD
  5
8582
102
{ACAD_REACTORS
330
8572
102
}
330
8572
100
AcDbXrecord
 70
     0
  0
XRECORD
  5
8583
102
{ACAD_REACTORS
330
8572
102
}
330
8572
100
AcDbXrecord
340
0
  0
XRECORD
  5
8584
102
{ACAD_REACTORS
330
8572
102
}
330
8572
100
AcDbXrecord
 10
0.0
 20
0.0
 30
0.0
  0
XRECORD
  5
8585
102
{ACAD_REACTORS
330
8572
102
}
330
8572
100
AcDbXrecord
 10
0.0
 20
0.0
 30
0.0
  0
XRECORD
  5
8586
102
{ACAD_REACTORS
330
8572
102
}
330
8572
100
AcDbXrecord
 10
0.0
 20
0.0
 30
0.0
  0
XRECORD
  5
8587
102
{ACAD_REACTORS
330
8572
102
}
330
8572
100
AcDbXrecord
 10
0.0
 20
0.0
 30
0.0
  0
XRECORD
  5
8588
102
{ACAD_REACTORS
330
8572
102
}
330
8572
100
AcDbXrecord
 10
0.0
 20
0.0
 30
0.0
  0
XRECORD
  5
8589
102
{ACAD_REACTORS
330
8572
102
}
330
8572
100
AcDbXrecord
 10
0.0
 20
0.0
 30
0.0
  0
XRECORD
  5
858A
102
{ACAD_REACTORS
330
8572
102
}
330
8572
100
AcDbXrecord
340
0
  0
XRECORD
  5
858B
102
{ACAD_REACTORS
330
8572
102
}
330
8572
100
AcDbXrecord
 70
     0
  0
XRECORD
  5
858C
102
{ACAD_REACTORS
330
8572
102
}
330
8572
100
AcDbXrecord
340
0
  0
XRECORD
  5
858D
102
{ACAD_REACTORS
330
8572
102
}
330
8572
100
AcDbXrecord
 10
0.0
 20
0.0
 30
0.0
  0
XRECORD
  5
858E
102
{ACAD_REACTORS
330
8572
102
}
330
8572
100
AcDbXrecord
 10
0.0
 20
0.0
 30
0.0
  0
XRECORD
  5
858F
102
{ACAD_REACTORS
330
8572
102
}
330
8572
100
AcDbXrecord
 10
0.0
 20
0.0
 30
0.0
  0
XRECORD
  5
8590
102
{ACAD_REACTORS
330
8572
102
}
330
8572
100
AcDbXrecord
 10
0.0
 20
0.0
 30
0.0
  0
XRECORD
  5
8591
102
{ACAD_REACTORS
330
8572
102
}
330
8572
100
AcDbXrecord
 10
0.0
 20
0.0
 30
0.0
  0
XRECORD
  5
8592
102
{ACAD_REACTORS
330
8572
102
}
330
8572
100
AcDbXrecord
 10
0.0
 20
0.0
 30
0.0
  0
LAYER_INDEX
  5
3D26
102
{ACAD_REACTORS
330
3D25
102
}
330
3D25
100
AcDbIndex
 40
2452062.402920648
100
AcDbLayerIndex
  8
0
360
3D27
 90
       61
  8
BLOCKS
360
3D28
 90
        0
  8
CENTER1
360
3D29
 90
        7
  8
CENTER2
360
3D2A
 90
        0
  8
CENTER3
360
3D2B
 90
        0
  8
CONSTRUCTION
360
3D2C
 90
        0
  8
CONTINUOUS1
360
3D2D
 90
      196
  8
CONTINUOUS2
360
3D2E
 90
        0
  8
CONTINUOUS3
360
3D2F
 90
        0
  8
DASHDOT1
360
3D30
 90
        0
  8
DASHDOT2
360
3D31
 90
        0
  8
DASHDOT3
360
3D32
 90
        0
  8
DIM
360
3D33
 90
       15
  8
HIDDEN1
360
3D34
 90
        6
  8
HIDDEN2
360
3D35
 90
        0
  8
HIDDEN3
360
3D36
 90
        0
  8
PHANTOM1
360
3D37
 90
        0
  8
PHANTOM2
360
3D38
 90
        0
  8
PHANTOM3
360
3D39
 90
        0
  8
TEXT1
360
3D3A
 90
       89
  8
TEXT2
360
3D3B
 90
        2
  8
TEXT3
360
3D3C
 90
        0
  8
TITLEBLOCK
360
3D3D
 90
        0
  8
VIEWPORT
360
3D3E
 90
        2
  8
Defpoints
360
3D3F
 90
        0
  0
XRECORD
  5
2D90
102
{ACAD_REACTORS
330
36C
102
}
330
36C
100
AcDbXrecord
  1
VERSION
140
15.0
  1
PRODUCT
  2
AutoCAD Mechanical 2000
  0
IDBUFFER
  5
3D27
330
0
100
AcDbIdBuffer
330
79E
330
2517
330
2C37
330
7AD0
330
7AD1
330
7AD2
330
7AD3
330
7DE4
330
7DE5
330
7DEC
330
7DED
330
7DF4
330
7DF8
330
7DFB
330
7DFC
330
7E03
330
7E07
330
7E0B
330
7E0D
330
7E0E
330
7E0F
330
7E11
330
7E12
330
7E13
330
7E15
330
7E16
330
7E17
330
7E18
330
7E19
330
7E1A
330
7E25
330
7E26
330
7E3C
330
7E3F
330
7F73
330
7F74
330
7F8A
330
7F8B
330
7F97
330
7FA6
330
7FA7
330
7FA8
330
7FA9
330
7FAC
330
7FAF
330
7FB5
330
7FB6
330
7FB7
330
7FB8
330
7FB9
330
7FBA
330
7FBB
330
7FC7
330
7FC8
330
82A8
330
82A9
330
82AA
330
82AB
330
82CB
330
82CC
330
8463
  0
IDBUFFER
  5
3D28
330
0
100
AcDbIdBuffer
  0
IDBUFFER
  5
3D29
330
0
100
AcDbIdBuffer
330
747E
330
777E
330
7835
330
7A4C
330
7B59
330
7DD6
330
83A1
  0
IDBUFFER
  5
3D2A
330
0
100
AcDbIdBuffer
  0
IDBUFFER
  5
3D2B
330
0
100
AcDbIdBuffer
  0
IDBUFFER
  5
3D2C
330
0
100
AcDbIdBuffer
  0
IDBUFFER
  5
3D2D
330
0
100
AcDbIdBuffer
330
7497
330
7498
330
74A9
330
74AA
330
74B7
330
74BA
330
74BC
330
74BD
330
74BF
330
74C0
330
74C1
330
74C2
330
74C6
330
74C7
330
74C8
330
74C9
330
74CA
330
74CB
330
74CC
330
74CD
330
7721
330
7776
330
7778
330
7779
330
777B
330
777D
330
777F
330
7780
330
7782
330
783D
330
783E
330
783F
330
7840
330
7841
330
7842
330
7843
330
7844
330
7886
330
7887
330
7889
330
7893
330
7ACF
330
7AD4
330
7DE2
330
7DE3
330
7DE6
330
7DE7
330
7DEB
330
7DEE
330
7DEF
330
7DF1
330
7DF2
330
7DF3
330
7DF5
330
7DF6
330
7DFA
330
7DFD
330
7DFE
330
7E00
330
7E01
330
7E02
330
7E04
330
7E05
330
7E27
330
7E40
330
7F6A
330
7F6B
330
7F6C
330
7F6D
330
7F6E
330
7F6F
330
7F70
330
7F71
330
7FA4
330
7FB4
330
8031
330
8032
330
80F8
330
80F9
330
80FC
330
8100
330
8104
330
8105
330
8108
330
8110
330
8111
330
8112
330
8113
330
8114
330
8117
330
8118
330
8119
330
811A
330
811C
330
811F
330
8123
330
8124
330
8125
330
8126
330
8127
330
8128
330
8129
330
812A
330
812C
330
812E
330
8131
330
8132
330
8136
330
8137
330
813A
330
813E
330
813F
330
8140
330
8141
330
8142
330
8143
330
8144
330
8146
330
814A
330
814B
330
814F
330
8150
330
8151
330
8152
330
8153
330
8154
330
8155
330
8158
330
8159
330
815D
330
815E
330
815F
330
8160
330
82B1
330
82B2
330
82B3
330
82B4
330
82B5
330
82B6
330
82CA
330
82CD
330
82CE
330
82CF
330
82D0
330
82D1
330
82D2
330
82D3
330
82D4
330
82D5
330
82D6
330
82D7
330
82D9
330
82DA
330
82DD
330
82DE
330
82DF
330
82E0
330
82E1
330
82E5
330
82E8
330
82EB
330
82EC
330
82ED
330
82EE
330
82F3
330
82F4
330
82F5
330
82F6
330
82F7
330
82F8
330
82F9
330
82FA
330
82FD
330
82FE
330
8300
330
8301
330
8307
330
8308
330
830D
330
830E
330
830F
330
8310
330
8311
330
8312
330
8313
330
8314
330
8315
330
8316
330
8317
330
8318
330
8319
330
831A
330
831B
330
831C
330
831E
330
831F
  0
IDBUFFER
  5
3D2E
330
0
100
AcDbIdBuffer
  0
IDBUFFER
  5
3D2F
330
0
100
AcDbIdBuffer
  0
IDBUFFER
  5
3D30
330
0
100
AcDbIdBuffer
  0
IDBUFFER
  5
3D31
330
0
100
AcDbIdBuffer
  0
IDBUFFER
  5
3D32
330
0
100
AcDbIdBuffer
  0
IDBUFFER
  5
3D33
330
0
100
AcDbIdBuffer
330
74F8
330
7783
330
779F
330
77E7
330
7850
330
78BD
330
7A6F
330
7A7D
330
7A8B
330
7B5A
330
7D50
330
7D7C
330
7D8A
330
7E95
330
7FC9
  0
IDBUFFER
  5
3D34
330
0
100
AcDbIdBuffer
330
811D
330
8135
330
813B
330
82E2
330
8302
330
8309
  0
IDBUFFER
  5
3D35
330
0
100
AcDbIdBuffer
  0
IDBUFFER
  5
3D36
330
0
100
AcDbIdBuffer
  0
IDBUFFER
  5
3D37
330
0
100
AcDbIdBuffer
  0
IDBUFFER
  5
3D38
330
0
100
AcDbIdBuffer
  0
IDBUFFER
  5
3D39
330
0
100
AcDbIdBuffer
  0
IDBUFFER
  5
3D3A
330
0
100
AcDbIdBuffer
330
7838
330
783A
330
7934
330
7B25
330
80F7
330
80FA
330
80FB
330
80FD
330
80FE
330
80FF
330
8101
330
8102
330
8103
330
8106
330
8115
330
8116
330
811B
330
811E
330
8120
330
8121
330
8122
330
812B
330
812D
330
812F
330
8130
330
8133
330
8134
330
8138
330
8139
330
813C
330
813D
330
8145
330
8147
330
8148
330
8149
330
814C
330
814D
330
814E
330
8156
330
8157
330
815A
330
815B
330
815C
330
82AC
330
82AD
330
82AE
330
82AF
330
82B0
330
82B8
330
82B9
330
82BA
330
82BB
330
82BC
330
82BD
330
82BE
330
82BF
330
82C0
330
82C1
330
82C2
330
82C3
330
82C4
330
82C5
330
82C6
330
82C7
330
82C8
330
82C9
330
82D8
330
82DB
330
82DC
330
82E3
330
82E4
330
82E6
330
82E7
330
82E9
330
82EA
330
82EF
330
82F0
330
82F1
330
82F2
330
82FB
330
82FC
330
82FF
330
8303
330
8304
330
8305
330
8306
330
830A
330
830B
330
830C
  0
IDBUFFER
  5
3D3B
330
0
100
AcDbIdBuffer
330
8107
330
831D
  0
IDBUFFER
  5
3D3C
330
0
100
AcDbIdBuffer
  0
IDBUFFER
  5
3D3D
330
0
100
AcDbIdBuffer
  0
IDBUFFER
  5
3D3E
330
0
100
AcDbIdBuffer
330
BF7
330
BF8
  0
IDBUFFER
  5
3D3F
330
0
100
AcDbIdBuffer
  0
ENDSEC
  0
EOF
