  0
SECTION
  2
HEADER
  9
$ACADVER
  1
AC1009
  9
$INSBASE
 10
402.590624
 20
-1.041018
 30
0.0
  9
$EXTMIN
 10
301.944407
 20
1.228457
 30
0.0
  9
$EXTMAX
 10
419.348377
 20
168.228457
 30
0.0
  9
$LIMMIN
 10
-407.970438
 20
-367.832444
  9
$LIMMAX
 10
429.804077
 20
234.370848
  9
$ORTHOMODE
 70
     1
  9
$REGENMODE
 70
     1
  9
$FILLMODE
 70
     1
  9
$QTEXTMODE
 70
     0
  9
$MIRRTEXT
 70
     1
  9
$DRAGMODE
 70
     2
  9
$LTSCALE
 40
10.0
  9
$OSMODE
 70
    33
  9
$ATTMODE
 70
     1
  9
$TEXTSIZE
 40
6.0
  9
$TRACEWID
 40
1.0
  9
$TEXTSTYLE
  7
ROMANS
  9
$CLAYER
  8
ALPHA
  9
$CELTYPE
  6
BYLAYER
  9
$CECOLOR
 62
   256
  9
$DIMSCALE
 40
1.0
  9
$DIMASZ
 40
5.0
  9
$DIMEXO
 40
2.0
  9
$DIMDLI
 40
0.38
  9
$DIMRND
 40
0.0
  9
$DIMDLE
 40
0.0
  9
$DIMEXE
 40
2.5
  9
$DIMTP
 40
0.0
  9
$DIMTM
 40
0.0
  9
$DIMTXT
 40
2.5
  9
$DIMCEN
 40
0.0
  9
$DIMTSZ
 40
0.0
  9
$DIMTOL
 70
     0
  9
$DIMLIM
 70
     0
  9
$DIMTIH
 70
     1
  9
$DIMTOH
 70
     1
  9
$DIMSE1
 70
     0
  9
$DIMSE2
 70
     0
  9
$DIMTAD
 70
     1
  9
$DIMZIN
 70
    12
  9
$DIMBLK
  1
OPEN30
  9
$DIMASO
 70
     1
  9
$DIMSHO
 70
     1
  9
$DIMPOST
  1

  9
$DIMAPOST
  1

  9
$DIMALT
 70
     0
  9
$DIMALTD
 70
     2
  9
$DIMALTF
 40
25.4
  9
$DIMLFAC
 40
1.0
  9
$DIMTOFL
 70
     0
  9
$DIMTVP
 40
0.0
  9
$DIMTIX
 70
     0
  9
$DIMSOXD
 70
     0
  9
$DIMSAH
 70
     0
  9
$DIMBLK1
  1

  9
$DIMBLK2
  1

  9
$DIMSTYLE
  2
SC_DEFAUT
  9
$DIMCLRD
 70
     0
  9
$DIMCLRE
 70
     0
  9
$DIMCLRT
 70
     0
  9
$DIMTFAC
 40
1.0
  9
$DIMGAP
 40
2.0
  9
$LUNITS
 70
     2
  9
$LUPREC
 70
     1
  9
$SKETCHINC
 40
0.1
  9
$FILLETRAD
 40
0.0
  9
$AUNITS
 70
     0
  9
$AUPREC
 70
     0
  9
$MENU
  1
acad
  9
$ELEVATION
 40
0.0
  9
$PELEVATION
 40
0.0
  9
$THICKNESS
 40
0.0
  9
$LIMCHECK
 70
     0
  9
$BLIPMODE
 70
     0
  9
$CHAMFERA
 40
0.0
  9
$CHAMFERB
 40
0.0
  9
$SKPOLY
 70
     0
  9
$TDCREATE
 40
2450373.687919
  9
$TDUPDATE
 40
2452824.588684
  9
$TDINDWG
 40
1.368512
  9
$TDUSRTIMER
 40
1.368512
  9
$USRTIMER
 70
     1
  9
$ANGBASE
 50
0.0
  9
$ANGDIR
 70
     0
  9
$PDMODE
 70
    32
  9
$PDSIZE
 40
0.0
  9
$PLINEWID
 40
0.0
  9
$COORDS
 70
     1
  9
$SPLFRAME
 70
     0
  9
$SPLINETYPE
 70
     6
  9
$SPLINESEGS
 70
     8
  9
$ATTDIA
 70
     0
  9
$ATTREQ
 70
     1
  9
$HANDLING
 70
     1
  9
$HANDSEED
  5
E92C
  9
$SURFTAB1
 70
     6
  9
$SURFTAB2
 70
     6
  9
$SURFTYPE
 70
     6
  9
$SURFU
 70
     6
  9
$SURFV
 70
     6
  9
$UCSNAME
  2

  9
$UCSORG
 10
0.0
 20
0.0
 30
0.0
  9
$UCSXDIR
 10
1.0
 20
0.0
 30
0.0
  9
$UCSYDIR
 10
0.0
 20
1.0
 30
0.0
  9
$PUCSNAME
  2

  9
$PUCSORG
 10
0.0
 20
0.0
 30
0.0
  9
$PUCSXDIR
 10
1.0
 20
0.0
 30
0.0
  9
$PUCSYDIR
 10
0.0
 20
1.0
 30
0.0
  9
$USERI1
 70
     0
  9
$USERI2
 70
     0
  9
$USERI3
 70
     0
  9
$USERI4
 70
     0
  9
$USERI5
 70
     0
  9
$USERR1
 40
0.0
  9
$USERR2
 40
0.0
  9
$USERR3
 40
0.0
  9
$USERR4
 40
0.0
  9
$USERR5
 40
0.0
  9
$WORLDVIEW
 70
     1
  9
$SHADEDGE
 70
     3
  9
$SHADEDIF
 70
    70
  9
$TILEMODE
 70
     1
  9
$MAXACTVP
 70
    16
  9
$PLIMCHECK
 70
     0
  9
$PEXTMIN
 10
-1.452248
 20
-0.437698
 30
0.0
  9
$PEXTMAX
 10
12.749749
 20
8.310198
 30
0.0
  9
$PLIMMIN
 10
0.0
 20
0.0
  9
$PLIMMAX
 10
12.0
 20
9.0
  9
$UNITMODE
 70
     0
  9
$VISRETAIN
 70
     0
  9
$PLINEGEN
 70
     0
  9
$PSLTSCALE
 70
     0
  0
ENDSEC
  0
SECTION
  2
TABLES
  0
TABLE
  2
VPORT
 70
     2
  0
VPORT
  2
*ACTIVE
 70
     0
 10
0.0
 20
0.0
 11
1.0
 21
1.0
 12
360.671319
 22
84.725133
 13
0.0
 23
0.0
 14
1.0
 24
1.0
 15
10.0
 25
10.0
 16
0.0
 26
0.0
 36
1.0
 17
0.0
 27
0.0
 37
0.0
 40
168.437586
 41
1.56
 42
50.0
 43
0.0
 44
0.0
 50
0.0
 51
0.0
 71
     0
 72
   100
 73
     1
 74
     0
 75
     0
 76
     0
 77
     0
 78
     0
  0
ENDTAB
  0
TABLE
  2
LTYPE
 70
     3
  0
LTYPE
  2
CONTINUOUS
 70
     0
  3
Solid line
 72
    65
 73
     0
 40
0.0
  0
LTYPE
  2
AXES2
 70
     0
  3
___ _ ___ _ ___ _ ___ _ ___ _ ___ _ ___ _ ___ _
 72
    65
 73
     4
 40
1.125
 49
0.75
 49
-0.125
 49
0.125
 49
-0.125
  0
LTYPE
  2
CACHE2
 70
     0
  3
Caché (x.5) _ _ _ _ _ _ _ _ _ _ _ _ _ _ _ _ _
 72
    65
 73
     2
 40
0.1875
 49
0.125
 49
-0.0625
  0
ENDTAB
  0
TABLE
  2
LAYER
 70
     7
  0
LAYER
  2
0
 70
     0
 62
   255
  6
CONTINUOUS
  0
LAYER
  2
COTATION1
 70
     0
 62
     2
  6
CONTINUOUS
  0
LAYER
  2
AXE
 70
     0
 62
    80
  6
AXES2
  0
LAYER
  2
DEFPOINTS
 70
     0
 62
     7
  6
CONTINUOUS
  0
LAYER
  2
ALPHA
 70
     0
 62
   254
  6
CONTINUOUS
  0
LAYER
  2
POINTILLE_COURT
 70
     0
 62
    41
  6
CACHE2
  0
LAYER
  2
POINTILLE_COURT
 70
     0
 62
    41
  6
CACHE2
  0
ENDTAB
  0
TABLE
  2
STYLE
 70
     2
  0
STYLE
  2
ROMANS
 70
     0
 40
0.0
 41
1.0
 50
0.0
 71
     0
 42
6.0
  3
romans
  4

  0
STYLE
  2
STANDARD
 70
     0
 40
0.2
 41
1.0
 50
0.0
 71
     0
 42
0.2
  3
txt
  4

  0
ENDTAB
  0
TABLE
  2
VIEW
 70
     0
  0
ENDTAB
  0
TABLE
  2
UCS
 70
     0
  0
ENDTAB
  0
TABLE
  2
APPID
 70
     1
  0
APPID
  2
ACAD
 70
     0
  0
ENDTAB
  0
TABLE
  2
DIMSTYLE
 70
     1
  0
DIMSTYLE
  2
SC_DEFAUT
 70
     0
  3

  4

  5
OPEN30
  6

  7

 40
1.0
 41
5.0
 42
2.0
 43
0.38
 44
2.5
 45
0.0
 46
0.0
 47
0.0
 48
0.0
140
2.5
141
0.0
142
0.0
143
25.4
144
1.0
145
0.0
146
1.0
147
2.0
 71
     0
 72
     0
 73
     1
 74
     1
 75
     0
 76
     0
 77
     1
 78
    12
170
     0
171
     2
172
     0
173
     0
174
     0
175
     0
176
     0
177
     0
178
     0
  0
ENDTAB
  0
ENDSEC
  0
SECTION
  2
BLOCKS
  0
BLOCK
  8
0
  2
$MODEL_SPACE
 70
     0
 10
0.0
 20
0.0
 30
0.0
  3
$MODEL_SPACE
  1

  0
ENDBLK
  5
E917
  8
0
  0
BLOCK
 67
     1
  8
0
  2
$PAPER_SPACE
 70
     0
 10
0.0
 20
0.0
 30
0.0
  3
$PAPER_SPACE
  1

  0
ENDBLK
  5
E915
 67
     1
  8
0
  0
BLOCK
  8
0
  2
COTE
 70
     0
 10
0.0
 20
0.0
 30
0.0
  3
COTE
  1

  0
ENDBLK
  5
F
  8
0
  0
BLOCK
  8
0
  2
FOND
 70
     0
 10
0.0
 20
0.0
 30
0.0
  3
FOND
  1

  0
ENDBLK
  5
75
  8
0
  0
BLOCK
  8
0
  2
_OPEN30
 70
     0
 10
0.0
 20
0.0
 30
0.0
  3
_OPEN30
  1

  0
LINE
  5
4B05
  8
COTATION1
 62
     0
 10
-1.0
 20
0.267949
 30
0.0
 11
0.0
 21
0.0
 31
0.0
1001
ACAD
1000
RTLwPs
1070
   158
  0
LINE
  5
4B06
  8
COTATION1
 62
     0
 10
0.0
 20
0.0
 30
0.0
 11
-1.0
 21
-0.267949
 31
0.0
1001
ACAD
1000
RTLwPs
1070
   158
  0
LINE
  5
4B07
  8
COTATION1
 62
     0
 10
0.0
 20
0.0
 30
0.0
 11
-1.0
 21
0.0
 31
0.0
1001
ACAD
1000
RTLwPs
1070
   158
  0
ENDBLK
  5
4B09
  8
0
  0
BLOCK
  8
0
  2
*D3
 70
     1
 10
0.0
 20
0.0
 30
0.0
  3
*D3
  1

  0
LINE
  5
E7A7
  8
COTATION1
 62
     0
 10
357.038854
 20
139.228457
 30
0.0
 11
418.038854
 21
139.228457
 31
0.0
1001
ACAD
1000
RTLwPs
1070
   158
  0
LINE
  5
E7A8
  8
COTATION1
 62
     0
 10
369.038854
 20
39.728457
 30
0.0
 11
418.038854
 21
39.728457
 31
0.0
1001
ACAD
1000
RTLwPs
1070
   158
  0
LINE
  5
E7A9
  8
COTATION1
 62
     0
 10
415.538854
 20
134.228457
 30
0.0
 11
415.538854
 21
92.728457
 31
0.0
1001
ACAD
1000
RTLwPs
1070
   158
  0
LINE
  5
E7AA
  8
COTATION1
 62
     0
 10
415.538854
 20
44.728457
 30
0.0
 11
415.538854
 21
86.228457
 31
0.0
1001
ACAD
1000
RTLwPs
1070
   158
  0
INSERT
  5
E7AB
  8
COTATION1
 62
     0
  2
_OPEN30
 10
415.538854
 20
139.228457
 30
0.0
 41
5.0
 42
5.0
 43
5.0
 50
90.0
1001
ACAD
1000
RTLwPs
1070
   158
  0
INSERT
  5
E7AC
  8
COTATION1
 62
     0
  2
_OPEN30
 10
415.538854
 20
39.728457
 30
0.0
 41
5.0
 42
5.0
 43
5.0
 50
270.0
1001
ACAD
1000
RTLwPs
1070
   158
  0
TEXT
  5
E7AD
  8
COTATION1
 62
     0
 10
411.372187
 20
88.228457
 30
0.0
 40
2.5
  1
99.5
1001
ACAD
1000
MTEXTBEGIN
1070
    73
1070
     1
1070
    44
1040
1.0
1070
    74
1070
     0
1000
MTEXTEND
1000
MTEXTBEGIN
1070
    73
1070
     1
1070
    44
1040
1.0
1070
    74
1070
     0
1000
MTEXTEND
1000
MTEXTBEGIN
1070
    73
1070
     1
1070
    44
1040
1.0
1070
    74
1070
     0
1000
MTEXTEND
  0
POINT
  5
E7AE
  8
DEFPOINTS
 62
     0
 10
355.038854
 20
139.228457
 30
0.0
  0
POINT
  5
E7AF
  8
DEFPOINTS
 62
     0
 10
367.038854
 20
39.728457
 30
0.0
  0
POINT
  5
E7B0
  8
DEFPOINTS
 62
     0
 10
415.538854
 20
39.728457
 30
0.0
  0
ENDBLK
  5
DF4C
  8
0
  0
BLOCK
  8
0
  2
*D4
 70
     1
 10
0.0
 20
0.0
 30
0.0
  3
*D4
  1

  0
LINE
  5
E178
  8
COTATION1
 62
     0
 10
338.038854
 20
89.010263
 30
0.0
 11
338.038854
 21
1.228457
 31
0.0
1001
ACAD
1000
RTLwPs
1070
   158
  0
LINE
  5
E179
  8
COTATION1
 62
     0
 10
372.038854
 20
89.010263
 30
0.0
 11
372.038854
 21
1.228457
 31
0.0
1001
ACAD
1000
RTLwPs
1070
   158
  0
LINE
  5
E17A
  8
COTATION1
 62
     0
 10
343.038854
 20
3.728457
 30
0.0
 11
367.038854
 21
3.728457
 31
0.0
1001
ACAD
1000
RTLwPs
1070
   158
  0
INSERT
  5
E17B
  8
COTATION1
 62
     0
  2
_OPEN30
 10
338.038854
 20
3.728457
 30
0.0
 41
5.0
 42
5.0
 43
5.0
 50
180.0
1001
ACAD
1000
RTLwPs
1070
   158
  0
INSERT
  5
E17C
  8
COTATION1
 62
     0
  2
_OPEN30
 10
372.038854
 20
3.728457
 30
0.0
 41
5.0
 42
5.0
 43
5.0
1001
ACAD
1000
RTLwPs
1070
   158
  0
TEXT
  5
E17D
  8
COTATION1
 62
     0
 10
352.598377
 20
5.728457
 30
0.0
 40
2.5
  1
34
1001
ACAD
1000
MTEXTBEGIN
1070
    73
1070
     1
1070
    44
1040
1.0
1070
    74
1070
     0
1000
MTEXTEND
1000
MTEXTBEGIN
1070
    73
1070
     1
1070
    44
1040
1.0
1070
    74
1070
     0
1000
MTEXTEND
1000
MTEXTBEGIN
1070
    73
1070
     1
1070
    44
1040
1.0
1070
    74
1070
     0
1000
MTEXTEND
1000
MTEXTBEGIN
1070
    73
1070
     1
1070
    44
1040
1.0
1070
    74
1070
     0
1000
MTEXTEND
1000
MTEXTBEGIN
1070
    73
1070
     1
1070
    44
1040
1.0
1070
    74
1070
     0
1000
MTEXTEND
1000
MTEXTBEGIN
1070
    73
1070
     1
1070
    44
1040
1.0
1070
    74
1070
     0
1000
MTEXTEND
  0
POINT
  5
E17E
  8
DEFPOINTS
 62
     0
 10
338.038854
 20
91.010263
 30
0.0
  0
POINT
  5
E17F
  8
DEFPOINTS
 62
     0
 10
372.038854
 20
91.010263
 30
0.0
  0
POINT
  5
E180
  8
DEFPOINTS
 62
     0
 10
372.038854
 20
3.728457
 30
0.0
  0
ENDBLK
  5
DF76
  8
0
  0
BLOCK
  8
0
  2
*D5
 70
     1
 10
0.0
 20
0.0
 30
0.0
  3
*D5
  1

  0
LINE
  5
E383
  8
COTATION1
 62
     0
 10
345.038854
 20
114.878457
 30
0.0
 11
345.038854
 21
156.228457
 31
0.0
1001
ACAD
1000
RTLwPs
1070
   158
  0
LINE
  5
E384
  8
COTATION1
 62
     0
 10
365.038854
 20
114.878457
 30
0.0
 11
365.038854
 21
156.228457
 31
0.0
1001
ACAD
1000
RTLwPs
1070
   158
  0
LINE
  5
E385
  8
COTATION1
 62
     0
 10
350.038854
 20
153.728457
 30
0.0
 11
360.038854
 21
153.728457
 31
0.0
1001
ACAD
1000
RTLwPs
1070
   158
  0
INSERT
  5
E386
  8
COTATION1
 62
     0
  2
_OPEN30
 10
345.038854
 20
153.728457
 30
0.0
 41
5.0
 42
5.0
 43
5.0
 50
180.0
1001
ACAD
1000
RTLwPs
1070
   158
  0
INSERT
  5
E387
  8
COTATION1
 62
     0
  2
_OPEN30
 10
365.038854
 20
153.728457
 30
0.0
 41
5.0
 42
5.0
 43
5.0
1001
ACAD
1000
RTLwPs
1070
   158
  0
TEXT
  5
E388
  8
COTATION1
 62
     0
 10
352.657901
 20
155.728457
 30
0.0
 40
2.5
  1
20
1001
ACAD
1000
MTEXTBEGIN
1070
    73
1070
     1
1070
    44
1040
1.0
1070
    74
1070
     0
1000
MTEXTEND
1000
MTEXTBEGIN
1070
    73
1070
     1
1070
    44
1040
1.0
1070
    74
1070
     0
1000
MTEXTEND
1000
MTEXTBEGIN
1070
    73
1070
     1
1070
    44
1040
1.0
1070
    74
1070
     0
1000
MTEXTEND
1000
MTEXTBEGIN
1070
    73
1070
     1
1070
    44
1040
1.0
1070
    74
1070
     0
1000
MTEXTEND
1000
MTEXTBEGIN
1070
    73
1070
     1
1070
    44
1040
1.0
1070
    74
1070
     0
1000
MTEXTEND
  0
POINT
  5
E389
  8
DEFPOINTS
 62
     0
 10
345.038854
 20
112.878457
 30
0.0
  0
POINT
  5
E38A
  8
DEFPOINTS
 62
     0
 10
365.038854
 20
112.878457
 30
0.0
  0
POINT
  5
E38B
  8
DEFPOINTS
 62
     0
 10
365.038854
 20
153.728457
 30
0.0
  0
ENDBLK
  5
DF8B
  8
0
  0
BLOCK
  8
0
  2
*D6
 70
     1
 10
0.0
 20
0.0
 30
0.0
  3
*D6
  1

  0
LINE
  5
E38C
  8
COTATION1
 62
     0
 10
344.038854
 20
116.878457
 30
0.0
 11
344.038854
 21
166.228457
 31
0.0
1001
ACAD
1000
RTLwPs
1070
   158
  0
LINE
  5
E38D
  8
COTATION1
 62
     0
 10
366.038854
 20
116.878457
 30
0.0
 11
366.038854
 21
166.228457
 31
0.0
1001
ACAD
1000
RTLwPs
1070
   158
  0
LINE
  5
E38E
  8
COTATION1
 62
     0
 10
349.038854
 20
163.728457
 30
0.0
 11
361.038854
 21
163.728457
 31
0.0
1001
ACAD
1000
RTLwPs
1070
   158
  0
INSERT
  5
E38F
  8
COTATION1
 62
     0
  2
_OPEN30
 10
344.038854
 20
163.728457
 30
0.0
 41
5.0
 42
5.0
 43
5.0
 50
180.0
1001
ACAD
1000
RTLwPs
1070
   158
  0
INSERT
  5
E390
  8
COTATION1
 62
     0
  2
_OPEN30
 10
366.038854
 20
163.728457
 30
0.0
 41
5.0
 42
5.0
 43
5.0
1001
ACAD
1000
RTLwPs
1070
   158
  0
TEXT
  5
E391
  8
COTATION1
 62
     0
 10
352.657901
 20
165.728457
 30
0.0
 40
2.5
  1
22
1001
ACAD
1000
MTEXTBEGIN
1070
    73
1070
     1
1070
    44
1040
1.0
1070
    74
1070
     0
1000
MTEXTEND
1000
MTEXTBEGIN
1070
    73
1070
     1
1070
    44
1040
1.0
1070
    74
1070
     0
1000
MTEXTEND
1000
MTEXTBEGIN
1070
    73
1070
     1
1070
    44
1040
1.0
1070
    74
1070
     0
1000
MTEXTEND
1000
MTEXTBEGIN
1070
    73
1070
     1
1070
    44
1040
1.0
1070
    74
1070
     0
1000
MTEXTEND
1000
MTEXTBEGIN
1070
    73
1070
     1
1070
    44
1040
1.0
1070
    74
1070
     0
1000
MTEXTEND
  0
POINT
  5
E392
  8
DEFPOINTS
 62
     0
 10
344.038854
 20
114.878457
 30
0.0
  0
POINT
  5
E393
  8
DEFPOINTS
 62
     0
 10
366.038854
 20
114.878457
 30
0.0
  0
POINT
  5
E394
  8
DEFPOINTS
 62
     0
 10
366.038854
 20
163.728457
 30
0.0
  0
ENDBLK
  5
DF97
  8
0
  0
BLOCK
  8
0
  2
*D7
 70
     1
 10
0.0
 20
0.0
 30
0.0
  3
*D7
  1

  0
LINE
  5
E3B0
  8
COTATION1
 62
     0
 10
353.038854
 20
139.228457
 30
0.0
 11
317.038854
 21
139.228457
 31
0.0
1001
ACAD
1000
RTLwPs
1070
   158
  0
LINE
  5
E3B1
  8
COTATION1
 62
     0
 10
338.888854
 20
108.728457
 30
0.0
 11
317.038854
 21
108.728457
 31
0.0
1001
ACAD
1000
RTLwPs
1070
   158
  0
LINE
  5
E3B2
  8
COTATION1
 62
     0
 10
319.538854
 20
134.228457
 30
0.0
 11
319.538854
 21
127.228457
 31
0.0
1001
ACAD
1000
RTLwPs
1070
   158
  0
LINE
  5
E3B3
  8
COTATION1
 62
     0
 10
319.538854
 20
113.728457
 30
0.0
 11
319.538854
 21
120.728457
 31
0.0
1001
ACAD
1000
RTLwPs
1070
   158
  0
TEXT
  5
E3B4
  8
COTATION1
 62
     0
 10
315.372187
 20
122.728457
 30
0.0
 40
2.5
  1
30.5
1001
ACAD
1000
MTEXTBEGIN
1070
    73
1070
     1
1070
    44
1040
1.0
1070
    74
1070
     0
1000
MTEXTEND
1000
MTEXTBEGIN
1070
    73
1070
     1
1070
    44
1040
1.0
1070
    74
1070
     0
1000
MTEXTEND
1000
MTEXTBEGIN
1070
    73
1070
     1
1070
    44
1040
1.0
1070
    74
1070
     0
1000
MTEXTEND
1000
MTEXTBEGIN
1070
    73
1070
     1
1070
    44
1040
1.0
1070
    74
1070
     0
1000
MTEXTEND
1000
MTEXTBEGIN
1070
    73
1070
     1
1070
    44
1040
1.0
1070
    74
1070
     0
1000
MTEXTEND
  0
INSERT
  5
E3B5
  8
COTATION1
 62
     0
  2
_OPEN30
 10
319.538854
 20
139.228457
 30
0.0
 41
5.0
 42
5.0
 43
5.0
 50
90.0
1001
ACAD
1000
RTLwPs
1070
   158
  0
INSERT
  5
E3B6
  8
COTATION1
 62
     0
  2
_OPEN30
 10
319.538854
 20
108.728457
 30
0.0
 41
5.0
 42
5.0
 43
5.0
 50
270.0
1001
ACAD
1000
RTLwPs
1070
   158
  0
POINT
  5
E3B7
  8
DEFPOINTS
 62
     0
 10
355.038854
 20
139.228457
 30
0.0
  0
POINT
  5
E3B8
  8
DEFPOINTS
 62
     0
 10
340.888854
 20
108.728457
 30
0.0
  0
POINT
  5
E3B9
  8
DEFPOINTS
 62
     0
 10
319.538854
 20
108.728457
 30
0.0
  0
ENDBLK
  5
DFA4
  8
0
  0
BLOCK
  8
0
  2
*D8
 70
     1
 10
0.0
 20
0.0
 30
0.0
  3
*D8
  1

  0
LINE
  5
E3CE
  8
COTATION1
 62
     0
 10
387.26032
 20
146.727462
 30
0.0
 11
375.379367
 21
146.727462
 31
0.0
1001
ACAD
1000
RTLwPs
1070
   158
  0
LINE
  5
E3CF
  8
COTATION1
 62
     0
 10
375.379367
 20
146.727462
 30
0.0
 11
364.07824
 21
139.338575
 31
0.0
1001
ACAD
1000
RTLwPs
1070
   158
  0
TEXT
  5
E3D0
  8
COTATION1
 62
     0
 10
377.141272
 20
148.727462
 30
0.0
 40
2.5
  1
%%c11.6
1001
ACAD
1000
MTEXTBEGIN
1070
    73
1070
     1
1070
    44
1040
1.0
1070
    74
1070
     0
1000
MTEXTEND
1000
MTEXTBEGIN
1070
    73
1070
     1
1070
    44
1040
1.0
1070
    74
1070
     0
1000
MTEXTEND
1000
MTEXTBEGIN
1070
    73
1070
     1
1070
    44
1040
1.0
1070
    74
1070
     0
1000
MTEXTEND
1000
MTEXTBEGIN
1070
    73
1070
     1
1070
    44
1040
1.0
1070
    74
1070
     0
1000
MTEXTEND
1000
MTEXTBEGIN
1070
    73
1070
     1
1070
    44
1040
1.0
1070
    74
1070
     0
1000
MTEXTEND
  0
INSERT
  5
E3D1
  8
COTATION1
 62
     0
  2
_OPEN30
 10
359.893339
 20
136.602409
 30
0.0
 41
5.0
 42
5.0
 43
5.0
 50
213.177402
1001
ACAD
1000
RTLwPs
1070
   158
  0
POINT
  5
E3D2
  8
DEFPOINTS
 62
     0
 10
359.893339
 20
136.602409
 30
0.0
  0
POINT
  5
E3D3
  8
DEFPOINTS
 62
     0
 10
350.184368
 20
130.254505
 30
0.0
  0
ENDBLK
  5
E3CD
  8
0
  0
BLOCK
  8
0
  2
*D9
 70
     1
 10
0.0
 20
0.0
 30
0.0
  3
*D9
  1

  0
LINE
  5
E75A
  8
COTATION1
 62
     0
 10
345.538854
 20
51.228457
 30
0.0
 11
345.538854
 21
11.228457
 31
0.0
1001
ACAD
1000
RTLwPs
1070
   158
  0
LINE
  5
E75B
  8
COTATION1
 62
     0
 10
364.538854
 20
51.228457
 30
0.0
 11
364.538854
 21
11.228457
 31
0.0
1001
ACAD
1000
RTLwPs
1070
   158
  0
LINE
  5
E75C
  8
COTATION1
 62
     0
 10
350.538854
 20
13.728457
 30
0.0
 11
359.538854
 21
13.728457
 31
0.0
1001
ACAD
1000
RTLwPs
1070
   158
  0
INSERT
  5
E75D
  8
COTATION1
 62
     0
  2
_OPEN30
 10
345.538854
 20
13.728457
 30
0.0
 41
5.0
 42
5.0
 43
5.0
 50
180.0
1001
ACAD
1000
RTLwPs
1070
   158
  0
INSERT
  5
E75E
  8
COTATION1
 62
     0
  2
_OPEN30
 10
364.538854
 20
13.728457
 30
0.0
 41
5.0
 42
5.0
 43
5.0
1001
ACAD
1000
RTLwPs
1070
   158
  0
TEXT
  5
E75F
  8
COTATION1
 62
     0
 10
352.538854
 20
15.728457
 30
0.0
 40
2.5
  1
19
1001
ACAD
1000
MTEXTBEGIN
1070
    73
1070
     1
1070
    44
1040
1.0
1070
    74
1070
     0
1000
MTEXTEND
1000
MTEXTBEGIN
1070
    73
1070
     1
1070
    44
1040
1.0
1070
    74
1070
     0
1000
MTEXTEND
1000
MTEXTBEGIN
1070
    73
1070
     1
1070
    44
1040
1.0
1070
    74
1070
     0
1000
MTEXTEND
  0
POINT
  5
E760
  8
DEFPOINTS
 62
     0
 10
345.538854
 20
53.228457
 30
0.0
  0
POINT
  5
E761
  8
DEFPOINTS
 62
     0
 10
364.538854
 20
53.228457
 30
0.0
  0
POINT
  5
E762
  8
DEFPOINTS
 62
     0
 10
364.538854
 20
13.728457
 30
0.0
  0
ENDBLK
  5
E69B
  8
0
  0
BLOCK
  8
0
  2
*D10
 70
     1
 10
0.0
 20
0.0
 30
0.0
  3
*D10
  1

  0
LINE
  5
E80F
  8
COTATION1
 62
     0
 10
316.970273
 20
74.952719
 30
0.0
 11
327.303607
 21
74.952719
 31
0.0
1001
ACAD
1000
RTLwPs
1070
   158
  0
LINE
  5
E810
  8
COTATION1
 62
     0
 10
327.303607
 20
74.952719
 30
0.0
 11
340.813538
 21
62.191796
 31
0.0
1001
ACAD
1000
RTLwPs
1070
   158
  0
TEXT
  5
E811
  8
COTATION1
 62
     0
 10
316.61313
 20
76.952719
 30
0.0
 40
2.5
  1
2x%%c3
1001
ACAD
1000
MTEXTBEGIN
1070
    73
1070
     1
1070
    44
1040
1.0
1070
    74
1070
     0
1000
MTEXTEND
1000
MTEXTBEGIN
1070
    73
1070
     1
1070
    44
1040
1.0
1070
    74
1070
     0
1000
MTEXTEND
  0
INSERT
  5
E812
  8
COTATION1
 62
     0
  2
_OPEN30
 10
344.448396
 20
58.758458
 30
0.0
 41
5.0
 42
5.0
 43
5.0
 50
316.633116
1001
ACAD
1000
RTLwPs
1070
   158
  0
POINT
  5
E813
  8
DEFPOINTS
 62
     0
 10
344.448396
 20
58.758458
 30
0.0
  0
POINT
  5
E814
  8
DEFPOINTS
 62
     0
 10
346.629311
 20
56.698456
 30
0.0
  0
ENDBLK
  5
E6B0
  8
0
  0
BLOCK
  8
0
  2
*D11
 70
     1
 10
0.0
 20
0.0
 30
0.0
  3
*D11
  1

  0
LINE
  5
E7A1
  8
COTATION1
 62
     0
 10
301.944407
 20
93.24713
 30
0.0
 11
315.849169
 21
93.24713
 31
0.0
1001
ACAD
1000
RTLwPs
1070
   158
  0
LINE
  5
E7A2
  8
COTATION1
 62
     0
 10
315.849169
 20
93.24713
 30
0.0
 11
338.722274
 21
105.378334
 31
0.0
1001
ACAD
1000
RTLwPs
1070
   158
  0
TEXT
  5
E7A3
  8
COTATION1
 62
     0
 10
301.587264
 20
95.24713
 30
0.0
 40
2.5
  1
2x%%c4.3
1001
ACAD
1000
MTEXTBEGIN
1070
    73
1070
     1
1070
    44
1040
1.0
1070
    74
1070
     0
1000
MTEXTEND
1000
MTEXTBEGIN
1070
    73
1070
     1
1070
    44
1040
1.0
1070
    74
1070
     0
1000
MTEXTEND
1000
MTEXTBEGIN
1070
    73
1070
     1
1070
    44
1040
1.0
1070
    74
1070
     0
1000
MTEXTEND
  0
INSERT
  5
E7A4
  8
COTATION1
 62
     0
  2
_OPEN30
 10
343.139463
 20
107.721078
 30
0.0
 41
5.0
 42
5.0
 43
5.0
 50
27.940128
1001
ACAD
1000
RTLwPs
1070
   158
  0
POINT
  5
E7A5
  8
DEFPOINTS
 62
     0
 10
343.139463
 20
107.721078
 30
0.0
  0
POINT
  5
E7A6
  8
DEFPOINTS
 62
     0
 10
346.938245
 20
109.735837
 30
0.0
  0
ENDBLK
  5
E6B9
  8
0
  0
BLOCK
  8
0
  2
*D12
 70
     1
 10
0.0
 20
0.0
 30
0.0
  3
*D12
  1

  0
LINE
  5
E773
  8
COTATION1
 62
     0
 10
371.188854
 20
108.728457
 30
0.0
 11
408.038854
 21
108.728457
 31
0.0
1001
ACAD
1000
RTLwPs
1070
   158
  0
LINE
  5
E774
  8
COTATION1
 62
     0
 10
371.038854
 20
57.728457
 30
0.0
 11
408.038854
 21
57.728457
 31
0.0
1001
ACAD
1000
RTLwPs
1070
   158
  0
LINE
  5
E775
  8
COTATION1
 62
     0
 10
405.538854
 20
103.728457
 30
0.0
 11
405.538854
 21
86.478457
 31
0.0
1001
ACAD
1000
RTLwPs
1070
   158
  0
LINE
  5
E776
  8
COTATION1
 62
     0
 10
405.538854
 20
62.728457
 30
0.0
 11
405.538854
 21
79.978457
 31
0.0
1001
ACAD
1000
RTLwPs
1070
   158
  0
INSERT
  5
E777
  8
COTATION1
 62
     0
  2
_OPEN30
 10
405.538854
 20
108.728457
 30
0.0
 41
5.0
 42
5.0
 43
5.0
 50
90.0
1001
ACAD
1000
RTLwPs
1070
   158
  0
INSERT
  5
E778
  8
COTATION1
 62
     0
  2
_OPEN30
 10
405.538854
 20
57.728457
 30
0.0
 41
5.0
 42
5.0
 43
5.0
 50
270.0
1001
ACAD
1000
RTLwPs
1070
   158
  0
TEXT
  5
E779
  8
COTATION1
 62
     0
 10
403.515044
 20
81.978457
 30
0.0
 40
2.5
  1
51
1001
ACAD
1000
MTEXTBEGIN
1070
    73
1070
     1
1070
    44
1040
1.0
1070
    74
1070
     0
1000
MTEXTEND
1000
MTEXTBEGIN
1070
    73
1070
     1
1070
    44
1040
1.0
1070
    74
1070
     0
1000
MTEXTEND
1000
MTEXTBEGIN
1070
    73
1070
     1
1070
    44
1040
1.0
1070
    74
1070
     0
1000
MTEXTEND
  0
POINT
  5
E77A
  8
DEFPOINTS
 62
     0
 10
369.188854
 20
108.728457
 30
0.0
  0
POINT
  5
E77B
  8
DEFPOINTS
 62
     0
 10
369.038854
 20
57.728457
 30
0.0
  0
POINT
  5
E77C
  8
DEFPOINTS
 62
     0
 10
405.538854
 20
57.728457
 30
0.0
  0
ENDBLK
  5
E6C6
  8
0
  0
BLOCK
  8
0
  2
*D13
 70
     1
 10
0.0
 20
0.0
 30
0.0
  3
*D13
  1

  0
LINE
  5
E8AC
  8
COTATION1
 62
     0
 10
372.538854
 20
53.728457
 30
0.0
 11
398.038854
 21
53.728457
 31
0.0
  0
LINE
  5
E8AD
  8
COTATION1
 62
     0
 10
369.038854
 20
39.728457
 30
0.0
 11
398.038854
 21
39.728457
 31
0.0
  0
LINE
  5
E8AE
  8
COTATION1
 62
     0
 10
395.538854
 20
58.728457
 30
0.0
 11
395.538854
 21
63.728457
 31
0.0
  0
LINE
  5
E8AF
  8
COTATION1
 62
     0
 10
395.538854
 20
34.728457
 30
0.0
 11
395.538854
 21
29.728457
 31
0.0
  0
TEXT
  5
E8B0
  8
COTATION1
 62
     0
 10
392.919806
 20
45.478457
 30
0.0
 40
2.5
  1
14
  0
INSERT
  5
E8B1
  8
COTATION1
 62
     0
  2
_OPEN30
 10
395.538854
 20
53.728457
 30
0.0
 41
5.0
 42
5.0
 43
5.0
 50
270.0
  0
INSERT
  5
E8B2
  8
COTATION1
 62
     0
  2
_OPEN30
 10
395.538854
 20
39.728457
 30
0.0
 41
5.0
 42
5.0
 43
5.0
 50
90.0
  0
POINT
  5
E8B3
  8
DEFPOINTS
 62
     0
 10
370.538854
 20
53.728457
 30
0.0
  0
POINT
  5
E8B4
  8
DEFPOINTS
 62
     0
 10
367.038854
 20
39.728457
 30
0.0
  0
POINT
  5
E8B5
  8
DEFPOINTS
 62
     0
 10
395.538854
 20
39.728457
 30
0.0
  0
ENDBLK
  5
E6E0
  8
0
  0
BLOCK
  8
0
  2
*D14
 70
     1
 10
0.0
 20
0.0
 30
0.0
  3
*D14
  1

  0
LINE
  5
E79B
  8
COTATION1
 62
     0
 10
401.241872
 20
130.55409
 30
0.0
 11
379.36092
 21
130.55409
 31
0.0
1001
ACAD
1000
RTLwPs
1070
   158
  0
LINE
  5
E79C
  8
COTATION1
 62
     0
 10
379.36092
 20
130.55409
 30
0.0
 11
370.026689
 21
116.663074
 31
0.0
1001
ACAD
1000
RTLwPs
1070
   158
  0
TEXT
  5
E79D
  8
COTATION1
 62
     0
 10
381.003777
 20
132.55409
 30
0.0
 40
2.5
  1
2x%%c4.3x6.3
1001
ACAD
1000
MTEXTBEGIN
1070
    73
1070
     1
1070
    44
1040
1.0
1070
    74
1070
     0
1000
MTEXTEND
1000
MTEXTBEGIN
1070
    73
1070
     1
1070
    44
1040
1.0
1070
    74
1070
     0
1000
MTEXTEND
1000
MTEXTBEGIN
1070
    73
1070
     1
1070
    44
1040
1.0
1070
    74
1070
     0
1000
MTEXTEND
  0
INSERT
  5
E79E
  8
COTATION1
 62
     0
  2
_OPEN30
 10
367.237993
 20
112.512992
 30
0.0
 41
5.0
 42
5.0
 43
5.0
 50
236.10041
1001
ACAD
1000
RTLwPs
1070
   158
  0
POINT
  5
E79F
  8
DEFPOINTS
 62
     0
 10
367.237993
 20
112.512992
 30
0.0
  0
POINT
  5
E7A0
  8
DEFPOINTS
 62
     0
 10
364.839714
 20
108.943922
 30
0.0
  0
ENDBLK
  5
E6E9
  8
0
  0
BLOCK
  8
0
  2
*D15
 70
     1
 10
0.0
 20
0.0
 30
0.0
  3
*D15
  1

  0
LINE
  5
E8B6
  8
COTATION1
 62
     0
 10
372.188854
 20
110.728457
 30
0.0
 11
398.038854
 21
110.728457
 31
0.0
  0
LINE
  5
E8B7
  8
COTATION1
 62
     0
 10
371.188854
 20
108.728457
 30
0.0
 11
398.038854
 21
108.728457
 31
0.0
  0
LINE
  5
E8B8
  8
COTATION1
 62
     0
 10
395.538854
 20
115.728457
 30
0.0
 11
395.538854
 21
120.728457
 31
0.0
  0
LINE
  5
E8B9
  8
COTATION1
 62
     0
 10
395.538854
 20
103.728457
 30
0.0
 11
395.538854
 21
98.728457
 31
0.0
  0
TEXT
  5
E8BA
  8
COTATION1
 62
     0
 10
391.515044
 20
99.080197
 30
0.0
 40
2.5
  1
2
  0
INSERT
  5
E8BB
  8
COTATION1
 62
     0
  2
_OPEN30
 10
395.538854
 20
110.728457
 30
0.0
 41
5.0
 42
5.0
 43
5.0
 50
270.0
  0
INSERT
  5
E8BC
  8
COTATION1
 62
     0
  2
_OPEN30
 10
395.538854
 20
108.728457
 30
0.0
 41
5.0
 42
5.0
 43
5.0
 50
90.0
  0
POINT
  5
E8BD
  8
DEFPOINTS
 62
     0
 10
370.188854
 20
110.728457
 30
0.0
  0
POINT
  5
E8BE
  8
DEFPOINTS
 62
     0
 10
369.188854
 20
108.728457
 30
0.0
  0
POINT
  5
E8BF
  8
DEFPOINTS
 62
     0
 10
395.538854
 20
108.728457
 30
0.0
  0
ENDBLK
  5
E6F6
  8
0
  0
BLOCK
  8
0
  2
*D16
 70
     1
 10
0.0
 20
0.0
 30
0.0
  3
*D16
  1

  0
LINE
  5
E8C0
  8
COTATION1
 62
     0
 10
357.038854
 20
118.728457
 30
0.0
 11
408.038854
 21
118.728457
 31
0.0
  0
LINE
  5
E8C1
  8
COTATION1
 62
     0
 10
371.188854
 20
108.728457
 30
0.0
 11
408.038854
 21
108.728457
 31
0.0
  0
LINE
  5
E8C2
  8
COTATION1
 62
     0
 10
405.538854
 20
123.728457
 30
0.0
 11
405.538854
 21
128.728457
 31
0.0
  0
LINE
  5
E8C3
  8
COTATION1
 62
     0
 10
405.538854
 20
103.728457
 30
0.0
 11
405.538854
 21
98.728457
 31
0.0
  0
TEXT
  5
E8C4
  8
COTATION1
 62
     0
 10
402.97933
 20
112.478457
 30
0.0
 40
2.5
  1
10
  0
INSERT
  5
E8C5
  8
COTATION1
 62
     0
  2
_OPEN30
 10
405.538854
 20
118.728457
 30
0.0
 41
5.0
 42
5.0
 43
5.0
 50
270.0
  0
INSERT
  5
E8C6
  8
COTATION1
 62
     0
  2
_OPEN30
 10
405.538854
 20
108.728457
 30
0.0
 41
5.0
 42
5.0
 43
5.0
 50
90.0
  0
POINT
  5
E8C7
  8
DEFPOINTS
 62
     0
 10
355.038854
 20
118.728457
 30
0.0
  0
POINT
  5
E8C8
  8
DEFPOINTS
 62
     0
 10
369.188854
 20
108.728457
 30
0.0
  0
POINT
  5
E8C9
  8
DEFPOINTS
 62
     0
 10
405.538854
 20
108.728457
 30
0.0
  0
ENDBLK
  5
E703
  8
0
  0
ENDSEC
  0
SECTION
  2
ENTITIES
  0
INSERT
  5
A
  8
0
  2
COTE
 10
0.0
 20
0.0
 30
0.0
  0
INSERT
  5
17
  8
0
  2
COTE
 10
284.010391
 20
6.373258
 30
0.0
  0
INSERT
  5
72
  8
0
  2
FOND
 10
0.0
 20
0.0
 30
0.0
  0
DIMENSION
  5
DE5D
  8
COTATION1
  2
*D6
 10
366.038854
 20
163.728457
 30
0.0
 11
355.038854
 21
166.978457
 31
0.0
 13
344.038854
 23
114.878457
 33
0.0
 14
366.038854
 24
114.878457
 34
0.0
  0
DIMENSION
  5
DE5E
  8
COTATION1
  2
*D5
 10
365.038854
 20
153.728457
 30
0.0
 11
355.038854
 21
156.978457
 31
0.0
 13
345.038854
 23
112.878457
 33
0.0
 14
365.038854
 24
112.878457
 34
0.0
  0
LINE
  5
DE60
  8
AXE
 10
355.038854
 20
143.728457
 30
0.0
 11
355.038854
 21
23.728457
 31
0.0
  0
DIMENSION
  5
DE61
  8
COTATION1
  2
*D3
 10
415.538854
 20
39.728457
 30
0.0
 11
415.538854
 21
89.478457
 31
0.0
 13
355.038854
 23
139.228457
 33
0.0
 14
367.038854
 24
39.728457
 34
0.0
 50
90.0
  0
LINE
  5
DE63
  8
ALPHA
 10
339.538854
 20
93.510263
 30
0.0
 11
339.538854
 21
53.728457
 31
0.0
  0
LINE
  5
DE64
  8
ALPHA
 10
370.538854
 20
93.510263
 30
0.0
 11
370.538854
 21
53.728457
 31
0.0
  0
DIMENSION
  5
DE65
  8
COTATION1
  2
*D4
 10
372.038854
 20
3.728457
 30
0.0
 11
355.038854
 21
6.978457
 31
0.0
 13
338.038854
 23
91.010263
 33
0.0
 14
372.038854
 24
91.010263
 34
0.0
  0
TEXT
  5
DE67
  8
AXE
 10
347.562663
 20
23.728457
 30
0.0
 40
8.0
  1
Y
 72
     2
 11
354.038854
 21
23.728457
 31
0.0
  0
ARC
  5
DE68
  8
ALPHA
 10
355.038854
 20
34.395124
 30
0.0
 40
14.833333
 50
64.010766
 51
115.989234
  0
LINE
  5
DE69
  8
ALPHA
 10
355.038854
 20
49.228457
 30
0.0
 11
366.738854
 21
49.228457
 31
0.0
  0
LINE
  5
DE6A
  8
ALPHA
 10
355.038854
 20
39.728457
 30
0.0
 11
367.038854
 21
39.728457
 31
0.0
  0
LINE
  5
DE6B
  8
ALPHA
 10
344.038854
 20
54.728457
 30
0.0
 11
366.038854
 21
54.728457
 31
0.0
  0
LINE
  5
DE6C
  8
ALPHA
 10
339.538854
 20
53.728457
 30
0.0
 11
370.538854
 21
53.728457
 31
0.0
  0
LINE
  5
DE6D
  8
ALPHA
 10
367.538854
 20
58.780776
 30
0.0
 11
355.038854
 21
58.780776
 31
0.0
  0
LINE
  5
DE6F
  8
ALPHA
 10
348.538854
 20
47.728457
 30
0.0
 11
348.538854
 21
39.728457
 31
0.0
  0
LINE
  5
DE70
  8
ALPHA
 10
343.038854
 20
47.728457
 30
0.0
 11
343.038854
 21
39.728457
 31
0.0
  0
LINE
  5
DE71
  8
ALPHA
 10
355.038854
 20
39.728457
 30
0.0
 11
343.038854
 21
39.728457
 31
0.0
  0
ARC
  5
DE72
  8
ALPHA
 10
338.899472
 20
51.192498
 30
0.0
 40
4.854438
 50
336.134766
 51
31.493383
  0
LINE
  5
DE73
  8
ALPHA
 10
343.338854
 20
49.228457
 30
0.0
 11
343.038854
 21
47.728457
 31
0.0
  0
LINE
  5
DE74
  8
ALPHA
 10
355.038854
 20
49.228457
 30
0.0
 11
343.338854
 21
49.228457
 31
0.0
  0
LINE
  5
DE75
  8
ALPHA
 10
348.538854
 20
47.728457
 30
0.0
 11
343.038854
 21
47.728457
 31
0.0
  0
LINE
  5
DE76
  8
ALPHA
 10
339.538854
 20
54.728457
 30
0.0
 11
342.538854
 21
54.728457
 31
0.0
  0
LINE
  5
DE77
  8
ALPHA
 10
344.038854
 20
58.780776
 30
0.0
 11
345.051654
 21
54.728457
 31
0.0
  0
LINE
  5
DE78
  8
ALPHA
 10
342.538854
 20
54.728457
 30
0.0
 11
342.538854
 21
58.780776
 31
0.0
  0
LINE
  5
DE79
  8
ALPHA
 10
344.038854
 20
54.728457
 30
0.0
 11
344.038854
 21
58.780776
 31
0.0
  0
LINE
  5
DE7A
  8
ALPHA
 10
342.538854
 20
58.780776
 30
0.0
 11
355.038854
 21
58.780776
 31
0.0
  0
LINE
  5
DE7E
  8
ALPHA
 10
361.538854
 20
47.728457
 30
0.0
 11
361.538854
 21
39.728457
 31
0.0
  0
LINE
  5
DE7F
  8
ALPHA
 10
367.038854
 20
47.728457
 30
0.0
 11
367.038854
 21
39.728457
 31
0.0
  0
LINE
  5
DE80
  8
ALPHA
 10
361.538854
 20
47.728457
 30
0.0
 11
367.038854
 21
47.728457
 31
0.0
  0
LINE
  5
DE81
  8
ALPHA
 10
366.738854
 20
49.228457
 30
0.0
 11
367.038854
 21
47.728457
 31
0.0
  0
ARC
  5
DE82
  8
ALPHA
 10
371.178235
 20
51.192498
 30
0.0
 40
4.854438
 50
148.506617
 51
203.865234
  0
LINE
  5
DE83
  8
ALPHA
 10
367.538854
 20
54.728457
 30
0.0
 11
370.538854
 21
54.728457
 31
0.0
  0
LINE
  5
DE84
  8
ALPHA
 10
367.538854
 20
54.728457
 30
0.0
 11
367.538854
 21
58.780776
 31
0.0
  0
LINE
  5
DE85
  8
ALPHA
 10
366.038854
 20
58.780776
 30
0.0
 11
365.026053
 21
54.728457
 31
0.0
  0
LINE
  5
DE86
  8
ALPHA
 10
366.038854
 20
54.728457
 30
0.0
 11
366.038854
 21
58.780776
 31
0.0
  0
DIMENSION
  5
DE8E
  8
COTATION1
  2
*D7
 10
319.538854
 20
108.728457
 30
0.0
 11
319.538854
 21
123.978457
 31
0.0
 70
   128
 13
355.038854
 23
139.228457
 33
0.0
 14
340.888854
 24
108.728457
 34
0.0
 50
90.0
  0
ARC
  5
DE95
  8
ALPHA
 10
355.038854
 20
64.233363
 30
0.0
 40
54.495095
 50
72.206739
 51
107.793261
  0
LINE
  5
DE9B
  8
AXE
 10
335.538854
 20
86.228457
 30
0.0
 11
385.538854
 21
86.228457
 31
0.0
  0
LINE
  5
DE9D
  8
AXE
 10
344.038854
 20
106.578457
 30
0.0
 11
344.038854
 21
114.878457
 31
0.0
  0
LINE
  5
DEA6
  8
AXE
 10
340.888854
 20
108.728457
 30
0.0
 11
349.188854
 21
108.728457
 31
0.0
  0
LINE
  5
DEA9
  8
AXE
 10
339.888854
 20
110.728457
 30
0.0
 11
348.188854
 21
110.728457
 31
0.0
  0
LINE
  5
DEAB
  8
AXE
 10
345.038854
 20
104.578457
 30
0.0
 11
345.038854
 21
112.878457
 31
0.0
  0
LINE
  5
DED7
  8
AXE
 10
366.038854
 20
106.578457
 30
0.0
 11
366.038854
 21
114.878457
 31
0.0
  0
TEXT
  5
DED8
  8
AXE
 10
379.062663
 20
87.228457
 30
0.0
 40
8.0
  1
X
 72
     2
 11
385.538854
 21
87.228457
 31
0.0
  0
LINE
  5
DEDD
  8
AXE
 10
370.188854
 20
110.728457
 30
0.0
 11
361.888854
 21
110.728457
 31
0.0
  0
LINE
  5
DEDF
  8
AXE
 10
369.188854
 20
108.728457
 30
0.0
 11
360.888854
 21
108.728457
 31
0.0
  0
LINE
  5
DEE0
  8
AXE
 10
365.038854
 20
104.578457
 30
0.0
 11
365.038854
 21
112.878457
 31
0.0
  0
LINE
  5
E04D
  8
ALPHA
 10
338.038854
 20
91.010263
 30
0.0
 11
339.538854
 21
91.010263
 31
0.0
  0
LINE
  5
E04E
  8
ALPHA
 10
338.038854
 20
115.64562
 30
0.0
 11
338.038854
 21
91.010263
 31
0.0
  0
LINE
  5
E050
  8
ALPHA
 10
372.038854
 20
115.64562
 30
0.0
 11
372.038854
 21
91.010263
 31
0.0
  0
LINE
  5
E051
  8
ALPHA
 10
372.038854
 20
91.010263
 30
0.0
 11
370.538854
 21
91.010263
 31
0.0
  0
ARC
  5
E053
  8
ALPHA
 10
355.038854
 20
40.464958
 30
0.0
 40
55.263499
 50
73.711476
 51
106.288524
  0
ARC
  5
E054
  8
ALPHA
 10
338.538854
 20
115.64562
 30
0.0
 40
0.5
 50
107.793261
 51
180.0
  0
ARC
  5
E055
  8
ALPHA
 10
371.538854
 20
115.64562
 30
0.0
 40
0.5
 50
0.0
 51
72.206739
  0
ARC
  5
E057
  8
ALPHA
 10
355.038854
 20
40.464958
 30
0.0
 40
57.763499
 50
72.884223
 51
107.115777
  0
CIRCLE
  5
E058
  8
ALPHA
 10
355.038854
 20
107.728457
 30
0.0
 40
4.25
  0
CIRCLE
  5
E059
  8
ALPHA
 10
355.038854
 20
107.728457
 30
0.0
 40
1.5
  0
POLYLINE
  5
E05A
  8
POINTILLE_COURT
 66
     1
 10
0.0
 20
0.0
 30
0.0
 70
   129
  0
VERTEX
  5
E91D
  8
POINTILLE_COURT
 10
365.038854
 20
106.578457
 30
0.0
  0
VERTEX
  5
E91E
  8
POINTILLE_COURT
 10
366.038854
 20
106.578457
 30
0.0
 42
0.414214
  0
VERTEX
  5
E91F
  8
POINTILLE_COURT
 10
368.188854
 20
108.728457
 30
0.0
  0
VERTEX
  5
E920
  8
POINTILLE_COURT
 10
368.188854
 20
110.728457
 30
0.0
 42
1.0
  0
VERTEX
  5
E921
  8
POINTILLE_COURT
 10
363.888854
 20
110.728457
 30
0.0
  0
VERTEX
  5
E922
  8
POINTILLE_COURT
 10
363.888854
 20
110.545047
 30
0.0
 42
0.751258
  0
SEQEND
  5
E923
  8
POINTILLE_COURT
  0
POLYLINE
  5
E05B
  8
POINTILLE_COURT
 66
     1
 10
0.0
 20
0.0
 30
0.0
 70
   129
  0
VERTEX
  5
E924
  8
POINTILLE_COURT
 10
345.038854
 20
106.578457
 30
0.0
  0
VERTEX
  5
E925
  8
POINTILLE_COURT
 10
344.038854
 20
106.578457
 30
0.0
 42
-0.414214
  0
VERTEX
  5
E926
  8
POINTILLE_COURT
 10
341.888854
 20
108.728457
 30
0.0
  0
VERTEX
  5
E927
  8
POINTILLE_COURT
 10
341.888854
 20
110.728457
 30
0.0
 42
-1.0
  0
VERTEX
  5
E928
  8
POINTILLE_COURT
 10
346.188854
 20
110.728457
 30
0.0
  0
VERTEX
  5
E929
  8
POINTILLE_COURT
 10
346.188854
 20
110.545047
 30
0.0
 42
-0.751258
  0
SEQEND
  5
E92A
  8
POINTILLE_COURT
  0
CIRCLE
  5
E2FA
  8
ALPHA
 10
355.038854
 20
133.428457
 30
0.0
 40
1.0
  0
CIRCLE
  5
E2FB
  8
ALPHA
 10
355.038854
 20
133.428457
 30
0.0
 40
1.0
  0
ARC
  5
E2FC
  8
ALPHA
 10
355.038854
 20
133.428457
 30
0.0
 40
1.5
 50
189.745055
 51
270.0
  0
LINE
  5
E2FD
  8
AXE
 10
362.056071
 20
133.428457
 30
0.0
 11
348.021637
 21
133.428457
 31
0.0
  0
LINE
  5
E2FE
  8
ALPHA
 10
355.038854
 20
120.67456
 30
0.0
 11
347.788854
 21
120.67456
 31
0.0
  0
LINE
  5
E2FF
  8
ALPHA
 10
355.038854
 20
120.17456
 30
0.0
 11
347.288854
 21
120.17456
 31
0.0
  0
LINE
  5
E300
  8
ALPHA
 10
355.038854
 20
136.17456
 30
0.0
 11
352.288854
 21
136.17456
 31
0.0
  0
ARC
  5
E301
  8
ALPHA
 10
355.038854
 20
133.428457
 30
0.0
 40
5.8
 50
90.0
 51
189.64639
  0
LINE
  5
E303
  8
ALPHA
 10
349.038854
 20
132.17456
 30
0.0
 11
349.038854
 21
120.67456
 31
0.0
  0
LINE
  5
E304
  8
ALPHA
 10
347.288854
 20
120.17456
 30
0.0
 11
347.788854
 21
120.67456
 31
0.0
  0
LINE
  5
E307
  8
ALPHA
 10
347.288854
 20
120.17456
 30
0.0
 11
347.288854
 21
118.17456
 31
0.0
  0
LINE
  5
E309
  8
ALPHA
 10
352.288854
 20
136.17456
 30
0.0
 11
352.288854
 21
133.17456
 31
0.0
  0
LINE
  5
E30A
  8
ALPHA
 10
349.038854
 20
132.17456
 30
0.0
 11
350.038854
 21
133.17456
 31
0.0
  0
LINE
  5
E30B
  8
ALPHA
 10
353.560498
 20
133.17456
 30
0.0
 11
350.038854
 21
133.17456
 31
0.0
  0
LINE
  5
E30C
  8
ALPHA
 10
354.215602
 20
132.17456
 30
0.0
 11
349.038854
 21
132.17456
 31
0.0
  0
LINE
  5
E30D
  8
ALPHA
 10
361.038854
 20
132.17456
 30
0.0
 11
361.038854
 21
120.67456
 31
0.0
  0
LINE
  5
E30E
  8
ALPHA
 10
362.788854
 20
120.17456
 30
0.0
 11
362.288854
 21
120.67456
 31
0.0
  0
LINE
  5
E30F
  8
ALPHA
 10
362.788854
 20
120.17456
 30
0.0
 11
362.788854
 21
118.17456
 31
0.0
  0
LINE
  5
E310
  8
ALPHA
 10
355.038854
 20
120.67456
 30
0.0
 11
362.288854
 21
120.67456
 31
0.0
  0
LINE
  5
E311
  8
ALPHA
 10
355.038854
 20
120.17456
 30
0.0
 11
362.788854
 21
120.17456
 31
0.0
  0
LINE
  5
E315
  8
ALPHA
 10
361.038854
 20
132.17456
 30
0.0
 11
360.038854
 21
133.17456
 31
0.0
  0
LINE
  5
E316
  8
ALPHA
 10
357.788854
 20
136.17456
 30
0.0
 11
357.788854
 21
133.17456
 31
0.0
  0
LINE
  5
E317
  8
ALPHA
 10
356.51721
 20
133.17456
 30
0.0
 11
360.038854
 21
133.17456
 31
0.0
  0
LINE
  5
E318
  8
ALPHA
 10
355.862105
 20
132.17456
 30
0.0
 11
361.038854
 21
132.17456
 31
0.0
  0
LINE
  5
E319
  8
ALPHA
 10
355.038854
 20
136.17456
 30
0.0
 11
357.788854
 21
136.17456
 31
0.0
  0
ARC
  5
E31A
  8
ALPHA
 10
355.038854
 20
133.428457
 30
0.0
 40
1.5
 50
270.0
 51
350.254945
  0
ARC
  5
E31B
  8
ALPHA
 10
355.038854
 20
133.428457
 30
0.0
 40
5.8
 50
350.35361
 51
90.0
  0
DIMENSION
  5
E3C4
  8
COTATION1
  2
*D8
 10
350.184368
 20
130.254505
 30
0.0
 11
375.379367
 21
146.727462
 31
0.0
 70
   131
 15
359.893339
 25
136.602409
 35
0.0
 40
0.0
1001
ACAD
1000
DSTYLE
1002
{
1070
   288
1070
     1
1002
}
  0
DIMENSION
  5
E62B
  8
COTATION1
  2
*D9
 10
364.538854
 20
13.728457
 30
0.0
 11
355.038854
 21
16.978457
 31
0.0
 13
345.538854
 23
53.228457
 33
0.0
 14
364.538854
 24
53.228457
 34
0.0
  0
DIMENSION
  5
E640
  8
COTATION1
  2
*D10
 10
346.629311
 20
56.698456
 30
0.0
 11
327.303607
 21
74.952719
 31
0.0
 70
   131
  1
2x<>
 15
344.448396
 25
58.758458
 35
0.0
 40
0.0
  0
CIRCLE
  5
E645
  8
POINTILLE_COURT
 10
345.538854
 20
57.728457
 30
0.0
 40
1.5
  0
LINE
  5
E646
  8
AXE
 10
350.038854
 20
57.728457
 30
0.0
 11
341.038854
 21
57.728457
 31
0.0
  0
LINE
  5
E64A
  8
AXE
 10
345.538854
 20
53.228457
 30
0.0
 11
345.538854
 21
62.228457
 31
0.0
  0
DIMENSION
  5
E64B
  8
COTATION1
  2
*D11
 10
346.938245
 20
109.735837
 30
0.0
 11
315.849169
 21
93.24713
 31
0.0
 70
   131
  1
2x<>
 15
343.139463
 25
107.721078
 35
0.0
 40
0.0
1001
ACAD
1000
DSTYLE
1002
{
1070
   288
1070
     1
1002
}
  0
DIMENSION
  5
E65F
  8
COTATION1
  2
*D12
 10
405.538854
 20
57.728457
 30
0.0
 11
405.538854
 21
83.228457
 31
0.0
 13
369.188854
 23
108.728457
 33
0.0
 14
369.038854
 24
57.728457
 34
0.0
 50
90.0
  0
DIMENSION
  5
E664
  8
COTATION1
  2
*D13
 10
395.538854
 20
39.728457
 30
0.0
 11
395.538854
 21
46.728457
 31
0.0
 70
   128
 13
370.538854
 23
53.728457
 33
0.0
 14
367.038854
 24
39.728457
 34
0.0
 50
90.0
1001
ACAD
1000
DSTYLE
1002
{
1070
   287
1070
     5
1070
   287
1070
     5
1070
   287
1070
     5
1070
   287
1070
     5
1070
   287
1070
     5
1070
   287
1070
     5
1070
   279
1070
     2
1070
   175
1070
     0
1070
   172
1070
     0
1070
   282
1070
     0
1070
   281
1070
     0
1002
}
  0
LINE
  5
E667
  8
AXE
 10
360.038854
 20
57.728457
 30
0.0
 11
369.038854
 21
57.728457
 31
0.0
  0
LINE
  5
E66F
  8
AXE
 10
364.538854
 20
53.228457
 30
0.0
 11
364.538854
 21
62.228457
 31
0.0
  0
CIRCLE
  5
E671
  8
POINTILLE_COURT
 10
364.538854
 20
57.728457
 30
0.0
 40
1.5
  0
DIMENSION
  5
E672
  8
COTATION1
  2
*D14
 10
364.839714
 20
108.943922
 30
0.0
 11
379.36092
 21
130.55409
 31
0.0
 70
   131
  1
2x<>x6.3
 15
367.237993
 25
112.512992
 35
0.0
 40
0.0
1001
ACAD
1000
DSTYLE
1002
{
1070
   288
1070
     1
1002
}
  0
DIMENSION
  5
E674
  8
COTATION1
  2
*D15
 10
395.538854
 20
108.728457
 30
0.0
 11
392.70552
 21
100.330197
 31
0.0
 70
   128
 13
370.188854
 23
110.728457
 33
0.0
 14
369.188854
 24
108.728457
 34
0.0
 50
90.0
1001
ACAD
1000
DSTYLE
1002
{
1070
   287
1070
     5
1070
   287
1070
     5
1070
   287
1070
     5
1070
   287
1070
     5
1070
   279
1070
     2
1070
   289
1070
     3
1002
}
  0
DIMENSION
  5
E675
  8
COTATION1
  2
*D16
 10
405.538854
 20
108.728457
 30
0.0
 11
405.538854
 21
113.728457
 31
0.0
 70
   128
 13
355.038854
 23
118.728457
 33
0.0
 14
369.188854
 24
108.728457
 34
0.0
 50
90.0
1001
ACAD
1000
DSTYLE
1002
{
1070
   287
1070
     5
1070
   287
1070
     5
1070
   287
1070
     5
1070
   287
1070
     5
1070
   279
1070
     2
1070
   289
1070
     3
1002
}
  0
VIEWPORT
  5
494D
 67
     1
  8
0
 10
4.995325
 20
6.556512
 30
0.0
 40
22.70986
 41
13.988421
 68
    -1
 69
     1
1001
ACAD
1000
MVIEW
1002
{
1070
    16
1010
0.0
1020
0.0
1030
0.0
1010
0.0
1020
0.0
1030
1.0
1040
0.0
1040
13.988421
1040
4.995325
1040
6.556512
1040
50.0
1040
0.0
1040
0.0
1070
     0
1070
   100
1070
     1
1070
     1
1070
     0
1070
     0
1070
     0
1070
     0
1040
0.0
1040
0.0
1040
0.0
1040
10.0
1040
10.0
1040
10.0
1040
10.0
1070
     0
1002
{
1002
}
1002
}
  0
ENDSEC
  0
EOF
