  0
SECTION
  2
HEADER
  9
$ACADVER
  1
AC1009
  9
$INSBASE
 10
402.590624
 20
-1.041018
 30
0.0
  9
$EXTMIN
 10
-58.202671
 20
32.332779
 30
0.0
  9
$EXTMAX
 10
-14.702671
 20
162.332779
 30
0.0
  9
$LIMMIN
 10
-407.970438
 20
-367.832444
  9
$LIMMAX
 10
429.804077
 20
234.370848
  9
$ORTHOMODE
 70
     1
  9
$REGENMODE
 70
     1
  9
$FILLMODE
 70
     1
  9
$QTEXTMODE
 70
     0
  9
$MIRRTEXT
 70
     1
  9
$DRAGMODE
 70
     2
  9
$LTSCALE
 40
10.0
  9
$OSMODE
 70
    37
  9
$ATTMODE
 70
     1
  9
$TEXTSIZE
 40
6.0
  9
$TRACEWID
 40
1.0
  9
$TEXTSTYLE
  7
ROMANS
  9
$CLAYER
  8
ALPHA
  9
$CELTYPE
  6
BYLAYER
  9
$CECOLOR
 62
   256
  9
$DIMSCALE
 40
1.0
  9
$DIMASZ
 40
5.0
  9
$DIMEXO
 40
2.0
  9
$DIMDLI
 40
0.38
  9
$DIMRND
 40
0.0
  9
$DIMDLE
 40
0.0
  9
$DIMEXE
 40
2.5
  9
$DIMTP
 40
0.0
  9
$DIMTM
 40
0.0
  9
$DIMTXT
 40
2.5
  9
$DIMCEN
 40
0.0
  9
$DIMTSZ
 40
0.0
  9
$DIMTOL
 70
     0
  9
$DIMLIM
 70
     0
  9
$DIMTIH
 70
     1
  9
$DIMTOH
 70
     1
  9
$DIMSE1
 70
     0
  9
$DIMSE2
 70
     0
  9
$DIMTAD
 70
     1
  9
$DIMZIN
 70
    12
  9
$DIMBLK
  1
OPEN30
  9
$DIMASO
 70
     1
  9
$DIMSHO
 70
     1
  9
$DIMPOST
  1

  9
$DIMAPOST
  1

  9
$DIMALT
 70
     0
  9
$DIMALTD
 70
     2
  9
$DIMALTF
 40
25.4
  9
$DIMLFAC
 40
1.0
  9
$DIMTOFL
 70
     0
  9
$DIMTVP
 40
0.0
  9
$DIMTIX
 70
     0
  9
$DIMSOXD
 70
     0
  9
$DIMSAH
 70
     0
  9
$DIMBLK1
  1

  9
$DIMBLK2
  1

  9
$DIMSTYLE
  2
SC_DEFAUT
  9
$DIMCLRD
 70
     0
  9
$DIMCLRE
 70
     0
  9
$DIMCLRT
 70
     0
  9
$DIMTFAC
 40
1.0
  9
$DIMGAP
 40
2.0
  9
$LUNITS
 70
     2
  9
$LUPREC
 70
     1
  9
$SKETCHINC
 40
0.1
  9
$FILLETRAD
 40
5.0
  9
$AUNITS
 70
     0
  9
$AUPREC
 70
     0
  9
$MENU
  1
acad
  9
$ELEVATION
 40
0.0
  9
$PELEVATION
 40
0.0
  9
$THICKNESS
 40
0.0
  9
$LIMCHECK
 70
     0
  9
$BLIPMODE
 70
     0
  9
$CHAMFERA
 40
0.0
  9
$CHAMFERB
 40
0.0
  9
$SKPOLY
 70
     0
  9
$TDCREATE
 40
2450373.687919
  9
$TDUPDATE
 40
2452850.429703
  9
$TDINDWG
 40
1.583746
  9
$TDUSRTIMER
 40
1.583746
  9
$USRTIMER
 70
     1
  9
$ANGBASE
 50
0.0
  9
$ANGDIR
 70
     0
  9
$PDMODE
 70
    32
  9
$PDSIZE
 40
0.0
  9
$PLINEWID
 40
0.0
  9
$COORDS
 70
     1
  9
$SPLFRAME
 70
     0
  9
$SPLINETYPE
 70
     6
  9
$SPLINESEGS
 70
     8
  9
$ATTDIA
 70
     0
  9
$ATTREQ
 70
     1
  9
$HANDLING
 70
     1
  9
$HANDSEED
  5
1174A
  9
$SURFTAB1
 70
     6
  9
$SURFTAB2
 70
     6
  9
$SURFTYPE
 70
     6
  9
$SURFU
 70
     6
  9
$SURFV
 70
     6
  9
$UCSNAME
  2

  9
$UCSORG
 10
0.0
 20
0.0
 30
0.0
  9
$UCSXDIR
 10
1.0
 20
0.0
 30
0.0
  9
$UCSYDIR
 10
0.0
 20
1.0
 30
0.0
  9
$PUCSNAME
  2

  9
$PUCSORG
 10
0.0
 20
0.0
 30
0.0
  9
$PUCSXDIR
 10
1.0
 20
0.0
 30
0.0
  9
$PUCSYDIR
 10
0.0
 20
1.0
 30
0.0
  9
$USERI1
 70
     0
  9
$USERI2
 70
     0
  9
$USERI3
 70
     0
  9
$USERI4
 70
     0
  9
$USERI5
 70
     0
  9
$USERR1
 40
0.0
  9
$USERR2
 40
0.0
  9
$USERR3
 40
0.0
  9
$USERR4
 40
0.0
  9
$USERR5
 40
0.0
  9
$WORLDVIEW
 70
     1
  9
$SHADEDGE
 70
     3
  9
$SHADEDIF
 70
    70
  9
$TILEMODE
 70
     1
  9
$MAXACTVP
 70
    16
  9
$PLIMCHECK
 70
     0
  9
$PEXTMIN
 10
-1.452248
 20
-0.437698
 30
0.0
  9
$PEXTMAX
 10
12.749749
 20
8.310198
 30
0.0
  9
$PLIMMIN
 10
0.0
 20
0.0
  9
$PLIMMAX
 10
12.0
 20
9.0
  9
$UNITMODE
 70
     0
  9
$VISRETAIN
 70
     0
  9
$PLINEGEN
 70
     0
  9
$PSLTSCALE
 70
     0
  0
ENDSEC
  0
SECTION
  2
TABLES
  0
TABLE
  2
VPORT
 70
     2
  0
VPORT
  2
*ACTIVE
 70
     0
 10
0.0
 20
0.0
 11
1.0
 21
1.0
 12
-36.445767
 22
97.336888
 13
0.0
 23
0.0
 14
1.0
 24
1.0
 15
10.0
 25
10.0
 16
0.0
 26
0.0
 36
1.0
 17
0.0
 27
0.0
 37
0.0
 40
131.135727
 41
1.56
 42
50.0
 43
0.0
 44
0.0
 50
0.0
 51
0.0
 71
     0
 72
   100
 73
     1
 74
     0
 75
     0
 76
     0
 77
     0
 78
     0
  0
ENDTAB
  0
TABLE
  2
LTYPE
 70
     2
  0
LTYPE
  2
CONTINUOUS
 70
     0
  3
Solid line
 72
    65
 73
     0
 40
0.0
  0
LTYPE
  2
AXES2
 70
     0
  3
___ _ ___ _ ___ _ ___ _ ___ _ ___ _ ___ _ ___ _
 72
    65
 73
     4
 40
1.125
 49
0.75
 49
-0.125
 49
0.125
 49
-0.125
  0
ENDTAB
  0
TABLE
  2
LAYER
 70
     6
  0
LAYER
  2
0
 70
     0
 62
   255
  6
CONTINUOUS
  0
LAYER
  2
COTATION1
 70
     0
 62
     2
  6
CONTINUOUS
  0
LAYER
  2
AXE
 70
     0
 62
    80
  6
AXES2
  0
LAYER
  2
DEFPOINTS
 70
     0
 62
     7
  6
CONTINUOUS
  0
LAYER
  2
ALPHA
 70
     0
 62
   254
  6
CONTINUOUS
  0
LAYER
  2
ALPHA_FIN
 70
     0
 62
   255
  6
CONTINUOUS
  0
ENDTAB
  0
TABLE
  2
STYLE
 70
     2
  0
STYLE
  2
ROMANS
 70
     0
 40
0.0
 41
1.0
 50
0.0
 71
     0
 42
6.0
  3
romans
  4

  0
STYLE
  2
STANDARD
 70
     0
 40
0.2
 41
1.0
 50
0.0
 71
     0
 42
0.2
  3
txt
  4

  0
ENDTAB
  0
TABLE
  2
VIEW
 70
     0
  0
ENDTAB
  0
TABLE
  2
UCS
 70
     0
  0
ENDTAB
  0
TABLE
  2
APPID
 70
     1
  0
APPID
  2
ACAD
 70
     0
  0
ENDTAB
  0
TABLE
  2
DIMSTYLE
 70
     1
  0
DIMSTYLE
  2
SC_DEFAUT
 70
     0
  3

  4

  5
OPEN30
  6

  7

 40
1.0
 41
5.0
 42
2.0
 43
0.38
 44
2.5
 45
0.0
 46
0.0
 47
0.0
 48
0.0
140
2.5
141
0.0
142
0.0
143
25.4
144
1.0
145
0.0
146
1.0
147
2.0
 71
     0
 72
     0
 73
     1
 74
     1
 75
     0
 76
     0
 77
     1
 78
    12
170
     0
171
     2
172
     0
173
     0
174
     0
175
     0
176
     0
177
     0
178
     0
  0
ENDTAB
  0
ENDSEC
  0
SECTION
  2
BLOCKS
  0
BLOCK
  8
0
  2
$MODEL_SPACE
 70
     0
 10
0.0
 20
0.0
 30
0.0
  3
$MODEL_SPACE
  1

  0
ENDBLK
  5
11743
  8
0
  0
BLOCK
 67
     1
  8
0
  2
$PAPER_SPACE
 70
     0
 10
0.0
 20
0.0
 30
0.0
  3
$PAPER_SPACE
  1

  0
ENDBLK
  5
11741
 67
     1
  8
0
  0
BLOCK
  8
0
  2
COTE
 70
     0
 10
0.0
 20
0.0
 30
0.0
  3
COTE
  1

  0
ENDBLK
  5
F
  8
0
  0
BLOCK
  8
0
  2
FOND
 70
     0
 10
0.0
 20
0.0
 30
0.0
  3
FOND
  1

  0
ENDBLK
  5
75
  8
0
  0
BLOCK
  8
0
  2
_OPEN30
 70
     0
 10
0.0
 20
0.0
 30
0.0
  3
_OPEN30
  1

  0
LINE
  5
4B05
  8
COTATION1
 62
     0
 10
-1.0
 20
0.267949
 30
0.0
 11
0.0
 21
0.0
 31
0.0
1001
ACAD
1000
RTLwPs
1070
   158
  0
LINE
  5
4B06
  8
COTATION1
 62
     0
 10
0.0
 20
0.0
 30
0.0
 11
-1.0
 21
-0.267949
 31
0.0
1001
ACAD
1000
RTLwPs
1070
   158
  0
LINE
  5
4B07
  8
COTATION1
 62
     0
 10
0.0
 20
0.0
 30
0.0
 11
-1.0
 21
0.0
 31
0.0
1001
ACAD
1000
RTLwPs
1070
   158
  0
ENDBLK
  5
4B09
  8
0
  0
BLOCK
  8
0
  2
*D3
 70
     1
 10
0.0
 20
0.0
 30
0.0
  3
*D3
  1

  0
LINE
  5
1039B
  8
COTATION1
 62
     0
 10
-53.202671
 20
64.832779
 30
0.0
 11
-53.202671
 21
32.332779
 31
0.0
1001
ACAD
1000
RTLwPs
1070
   158
  0
LINE
  5
1039C
  8
COTATION1
 62
     0
 10
-37.202671
 20
64.832779
 30
0.0
 11
-37.202671
 21
32.332779
 31
0.0
1001
ACAD
1000
RTLwPs
1070
   158
  0
LINE
  5
1039D
  8
COTATION1
 62
     0
 10
-48.202671
 20
34.832779
 30
0.0
 11
-42.202671
 21
34.832779
 31
0.0
1001
ACAD
1000
RTLwPs
1070
   158
  0
INSERT
  5
1039E
  8
COTATION1
 62
     0
  2
_OPEN30
 10
-53.202671
 20
34.832779
 30
0.0
 41
5.0
 42
5.0
 43
5.0
 50
180.0
1001
ACAD
1000
RTLwPs
1070
   158
  0
INSERT
  5
1039F
  8
COTATION1
 62
     0
  2
_OPEN30
 10
-37.202671
 20
34.832779
 30
0.0
 41
5.0
 42
5.0
 43
5.0
1001
ACAD
1000
RTLwPs
1070
   158
  0
TEXT
  5
103A0
  8
COTATION1
 62
     0
 10
-47.762194
 20
36.832779
 30
0.0
 40
2.5
  1
16
1001
ACAD
1000
MTEXTBEGIN
1070
    73
1070
     1
1070
    44
1040
1.0
1070
    74
1070
     0
1000
MTEXTEND
1000
MTEXTBEGIN
1070
    73
1070
     1
1070
    44
1040
1.0
1070
    74
1070
     0
1000
MTEXTEND
1000
MTEXTBEGIN
1070
    73
1070
     1
1070
    44
1040
1.0
1070
    74
1070
     0
1000
MTEXTEND
1000
MTEXTBEGIN
1070
    73
1070
     1
1070
    44
1040
1.0
1070
    74
1070
     0
1000
MTEXTEND
1000
MTEXTBEGIN
1070
    73
1070
     1
1070
    44
1040
1.0
1070
    74
1070
     0
1000
MTEXTEND
1000
MTEXTBEGIN
1070
    73
1070
     1
1070
    44
1040
1.0
1070
    74
1070
     0
1000
MTEXTEND
  0
POINT
  5
103A1
  8
DEFPOINTS
 62
     0
 10
-53.202671
 20
66.832779
 30
0.0
  0
POINT
  5
103A2
  8
DEFPOINTS
 62
     0
 10
-37.202671
 20
66.832779
 30
0.0
  0
POINT
  5
103A3
  8
DEFPOINTS
 62
     0
 10
-37.202671
 20
34.832779
 30
0.0
  0
ENDBLK
  5
100B4
  8
0
  0
BLOCK
  8
0
  2
*D4
 70
     1
 10
0.0
 20
0.0
 30
0.0
  3
*D4
  1

  0
LINE
  5
115AB
  8
COTATION1
 62
     0
 10
-43.202671
 20
142.832779
 30
0.0
 11
-14.702671
 21
142.832779
 31
0.0
1001
ACAD
1000
RTLwPs
1070
   158
  0
LINE
  5
115AC
  8
COTATION1
 62
     0
 10
-35.202671
 20
66.832779
 30
0.0
 11
-14.702671
 21
66.832779
 31
0.0
1001
ACAD
1000
RTLwPs
1070
   158
  0
LINE
  5
115AD
  8
COTATION1
 62
     0
 10
-17.202671
 20
137.832779
 30
0.0
 11
-17.202671
 21
108.082779
 31
0.0
1001
ACAD
1000
RTLwPs
1070
   158
  0
LINE
  5
115AE
  8
COTATION1
 62
     0
 10
-17.202671
 20
71.832779
 30
0.0
 11
-17.202671
 21
101.582779
 31
0.0
1001
ACAD
1000
RTLwPs
1070
   158
  0
INSERT
  5
115AF
  8
COTATION1
 62
     0
  2
_OPEN30
 10
-17.202671
 20
142.832779
 30
0.0
 41
5.0
 42
5.0
 43
5.0
 50
90.0
1001
ACAD
1000
RTLwPs
1070
   158
  0
INSERT
  5
115B0
  8
COTATION1
 62
     0
  2
_OPEN30
 10
-17.202671
 20
66.832779
 30
0.0
 41
5.0
 42
5.0
 43
5.0
 50
270.0
1001
ACAD
1000
RTLwPs
1070
   158
  0
TEXT
  5
115B1
  8
COTATION1
 62
     0
 10
-19.583623
 20
103.582779
 30
0.0
 40
2.5
  1
76
1001
ACAD
1000
MTEXTBEGIN
1070
    73
1070
     1
1070
    44
1040
1.0
1070
    74
1070
     0
1000
MTEXTEND
1000
MTEXTBEGIN
1070
    73
1070
     1
1070
    44
1040
1.0
1070
    74
1070
     0
1000
MTEXTEND
  0
POINT
  5
115B2
  8
DEFPOINTS
 62
     0
 10
-45.202671
 20
142.832779
 30
0.0
  0
POINT
  5
115B3
  8
DEFPOINTS
 62
     0
 10
-37.202671
 20
66.832779
 30
0.0
  0
POINT
  5
115B4
  8
DEFPOINTS
 62
     0
 10
-17.202671
 20
66.832779
 30
0.0
  0
ENDBLK
  5
1159E
  8
0
  0
BLOCK
  8
0
  2
*D5
 70
     1
 10
0.0
 20
0.0
 30
0.0
  3
*D5
  1

  0
LINE
  5
115B5
  8
COTATION1
 62
     0
 10
-53.90268
 20
136.586426
 30
0.0
 11
-53.90268
 21
160.332779
 31
0.0
1001
ACAD
1000
RTLwPs
1070
   158
  0
LINE
  5
115B6
  8
COTATION1
 62
     0
 10
-36.502662
 20
136.586426
 30
0.0
 11
-36.502662
 21
160.332779
 31
0.0
1001
ACAD
1000
RTLwPs
1070
   158
  0
LINE
  5
115B7
  8
COTATION1
 62
     0
 10
-48.90268
 20
157.832779
 30
0.0
 11
-41.502662
 21
157.832779
 31
0.0
1001
ACAD
1000
RTLwPs
1070
   158
  0
INSERT
  5
115B8
  8
COTATION1
 62
     0
  2
_OPEN30
 10
-53.90268
 20
157.832779
 30
0.0
 41
5.0
 42
5.0
 43
5.0
 50
180.0
1001
ACAD
1000
RTLwPs
1070
   158
  0
INSERT
  5
115B9
  8
COTATION1
 62
     0
  2
_OPEN30
 10
-36.502662
 20
157.832779
 30
0.0
 41
5.0
 42
5.0
 43
5.0
1001
ACAD
1000
RTLwPs
1070
   158
  0
TEXT
  5
115BA
  8
COTATION1
 62
     0
 10
-49.607433
 20
159.832779
 30
0.0
 40
2.5
  1
17.4
1001
ACAD
1000
MTEXTBEGIN
1070
    73
1070
     1
1070
    44
1040
1.0
1070
    74
1070
     0
1000
MTEXTEND
1000
MTEXTBEGIN
1070
    73
1070
     1
1070
    44
1040
1.0
1070
    74
1070
     0
1000
MTEXTEND
  0
POINT
  5
115BB
  8
DEFPOINTS
 62
     0
 10
-53.90268
 20
134.586426
 30
0.0
  0
POINT
  5
115BC
  8
DEFPOINTS
 62
     0
 10
-36.502662
 20
134.586426
 30
0.0
  0
POINT
  5
115BD
  8
DEFPOINTS
 62
     0
 10
-36.502662
 20
157.832779
 30
0.0
  0
ENDBLK
  5
115AA
  8
0
  0
ENDSEC
  0
SECTION
  2
ENTITIES
  0
INSERT
  5
A
  8
0
  2
COTE
 10
0.0
 20
0.0
 30
0.0
  0
INSERT
  5
17
  8
0
  2
COTE
 10
284.010391
 20
6.373258
 30
0.0
  0
INSERT
  5
72
  8
0
  2
FOND
 10
0.0
 20
0.0
 30
0.0
  0
LINE
  5
10079
  8
AXE
 10
-45.202671
 20
147.832779
 30
0.0
 11
-45.202671
 21
44.832779
 31
0.0
  0
LINE
  5
1007D
  8
ALPHA
 10
-53.202671
 20
66.832779
 30
0.0
 11
-53.202671
 21
116.832779
 31
0.0
  0
LINE
  5
1007E
  8
ALPHA
 10
-37.202671
 20
66.832779
 30
0.0
 11
-37.202671
 21
116.832779
 31
0.0
  0
DIMENSION
  5
1007F
  8
COTATION1
  2
*D3
 10
-37.202671
 20
34.832779
 30
0.0
 11
-45.202671
 21
38.082779
 31
0.0
 13
-53.202671
 23
66.832779
 33
0.0
 14
-37.202671
 24
66.832779
 34
0.0
  0
TEXT
  5
10080
  8
AXE
 10
-52.678861
 20
44.832779
 30
0.0
 40
8.0
  1
Y
 72
     2
 11
-46.202671
 21
44.832779
 31
0.0
  0
LINE
  5
10086
  8
AXE
 10
-58.202671
 20
91.832779
 30
0.0
 11
-24.702671
 21
91.832779
 31
0.0
  0
TEXT
  5
10098
  8
AXE
 10
-31.178861
 20
92.832779
 30
0.0
 40
8.0
  1
Z
 72
     2
 11
-24.702671
 21
92.832779
 31
0.0
  0
ARC
  5
1037F
  8
ALPHA
 10
-45.202671
 20
74.332779
 30
0.0
 40
3.5
 50
0.0
 51
180.0
  0
LINE
  5
10380
  8
ALPHA
 10
-51.952671
 20
80.832779
 30
0.0
 11
-51.952671
 21
66.832779
 31
0.0
  0
LINE
  5
10381
  8
ALPHA
 10
-49.952671
 20
79.332779
 30
0.0
 11
-49.952671
 21
72.832779
 31
0.0
  0
LINE
  5
10382
  8
ALPHA
 10
-40.452671
 20
79.332779
 30
0.0
 11
-40.452671
 21
72.832779
 31
0.0
  0
LINE
  5
10383
  8
ALPHA
 10
-38.452671
 20
80.832779
 30
0.0
 11
-38.452671
 21
66.832779
 31
0.0
  0
LINE
  5
10384
  8
ALPHA
 10
-41.185635
 20
66.832779
 30
0.0
 11
-37.202671
 21
66.832779
 31
0.0
  0
LINE
  5
10385
  8
ALPHA
 10
-53.202671
 20
66.832779
 30
0.0
 11
-48.185635
 21
66.832779
 31
0.0
  0
LINE
  5
10386
  8
ALPHA
 10
-49.952671
 20
72.832779
 30
0.0
 11
-48.702671
 21
72.832779
 31
0.0
  0
LINE
  5
10387
  8
ALPHA
 10
-48.702671
 20
74.332779
 30
0.0
 11
-48.702671
 21
72.332779
 31
0.0
  0
LINE
  5
10388
  8
ALPHA
 10
-40.452671
 20
72.832779
 30
0.0
 11
-41.702671
 21
72.832779
 31
0.0
  0
LINE
  5
10389
  8
ALPHA
 10
-41.702671
 20
74.332779
 30
0.0
 11
-41.702671
 21
72.332779
 31
0.0
  0
LINE
  5
1038A
  8
ALPHA
 10
-38.452671
 20
80.832779
 30
0.0
 11
-45.202671
 21
80.832779
 31
0.0
  0
LINE
  5
1038B
  8
ALPHA
 10
-38.452671
 20
79.332779
 30
0.0
 11
-40.452671
 21
79.332779
 31
0.0
  0
LINE
  5
1038C
  8
ALPHA
 10
-51.952671
 20
80.832779
 30
0.0
 11
-45.202671
 21
80.832779
 31
0.0
  0
LINE
  5
1038D
  8
ALPHA
 10
-51.952671
 20
79.332779
 30
0.0
 11
-49.952671
 21
79.332779
 31
0.0
  0
ARC
  5
1038E
  8
ALPHA
 10
-15.429615
 20
72.028312
 30
0.0
 40
26.27482
 50
179.336055
 51
207.655412
  0
ARC
  5
1038F
  8
ALPHA
 10
-22.429615
 20
72.028312
 30
0.0
 40
26.27482
 50
179.336055
 51
207.655412
  0
LINE
  5
10390
  8
AXE
 10
-47.202671
 20
59.832779
 30
0.0
 11
-37.202671
 21
59.832779
 31
0.0
  0
LINE
  5
11553
  8
ALPHA
 10
-40.852663
 20
121.079131
 30
0.0
 11
-40.852663
 21
123.086426
 31
0.0
  0
LINE
  5
11554
  8
ALPHA
 10
-36.502662
 20
121.079131
 30
0.0
 11
-36.502662
 21
123.086426
 31
0.0
  0
LINE
  5
11555
  8
ALPHA
 10
-49.552678
 20
121.079131
 30
0.0
 11
-49.552678
 21
123.086426
 31
0.0
  0
LINE
  5
11556
  8
ALPHA
 10
-53.90268
 20
121.079131
 30
0.0
 11
-53.90268
 21
123.086426
 31
0.0
  0
ARC
  5
11557
  8
ALPHA
 10
-51.727679
 20
123.875119
 30
0.0
 40
3.54234
 50
232.120618
 51
307.879383
  0
LINE
  5
11558
  8
ALPHA
 10
-51.727663
 20
120.332779
 30
0.0
 11
-38.677678
 21
120.332779
 31
0.0
  0
LINE
  5
11559
  8
ALPHA
 10
-52.952671
 20
118.332779
 30
0.0
 11
-45.202671
 21
118.332779
 31
0.0
  0
LINE
  5
1155A
  8
ALPHA
 10
-52.452671
 20
118.832779
 30
0.0
 11
-45.202671
 21
118.832779
 31
0.0
  0
LINE
  5
1155B
  8
ALPHA
 10
-52.952671
 20
116.289312
 30
0.0
 11
-37.452671
 21
116.289312
 31
0.0
  0
LINE
  5
1155C
  8
ALPHA
 10
-53.202671
 20
114.832779
 30
0.0
 11
-37.202671
 21
114.832779
 31
0.0
  0
LINE
  5
1155D
  8
ALPHA
 10
-51.202671
 20
120.332779
 30
0.0
 11
-51.202671
 21
118.832779
 31
0.0
  0
LINE
  5
1155E
  8
ALPHA
 10
-52.952671
 20
118.332779
 30
0.0
 11
-52.452671
 21
118.832779
 31
0.0
  0
LINE
  5
1155F
  8
ALPHA
 10
-52.952671
 20
118.332779
 30
0.0
 11
-52.952671
 21
116.289312
 31
0.0
  0
LINE
  5
11560
  8
ALPHA
 10
-52.952671
 20
117.732779
 30
0.0
 11
-52.952671
 21
116.289312
 31
0.0
  0
LINE
  5
11561
  8
ALPHA
 10
-53.202671
 20
116.832779
 30
0.0
 11
-52.952671
 21
116.832779
 31
0.0
  0
ARC
  5
11562
  8
ALPHA
 10
-45.202671
 20
133.38265
 30
0.0
 40
13.04987
 50
250.528552
 51
289.471449
  0
LINE
  5
11563
  8
ALPHA
 10
-37.952671
 20
118.832779
 30
0.0
 11
-45.202671
 21
118.832779
 31
0.0
  0
LINE
  5
11564
  8
ALPHA
 10
-37.452671
 20
118.332779
 30
0.0
 11
-45.202671
 21
118.332779
 31
0.0
  0
LINE
  5
11565
  8
ALPHA_FIN
 10
-50.18257
 20
118.832779
 30
0.0
 11
-50.18257
 21
120.332779
 31
0.0
  0
ARC
  5
11566
  8
ALPHA
 10
-38.677663
 20
123.875119
 30
0.0
 40
3.54234
 50
232.120618
 51
307.879383
  0
LINE
  5
11567
  8
ALPHA_FIN
 10
-40.222771
 20
118.832779
 30
0.0
 11
-40.222771
 21
120.332779
 31
0.0
  0
LINE
  5
11568
  8
ALPHA
 10
-37.452671
 20
118.332779
 30
0.0
 11
-37.952671
 21
118.832779
 31
0.0
  0
LINE
  5
11569
  8
ALPHA
 10
-37.452671
 20
118.332779
 30
0.0
 11
-37.452671
 21
116.322196
 31
0.0
  0
LINE
  5
1156A
  8
ALPHA
 10
-39.202671
 20
120.332779
 30
0.0
 11
-39.202671
 21
118.832779
 31
0.0
  0
LINE
  5
1156B
  8
ALPHA
 10
-37.452671
 20
117.732779
 30
0.0
 11
-37.452671
 21
116.322196
 31
0.0
  0
LINE
  5
1156C
  8
ALPHA
 10
-37.452671
 20
116.832779
 30
0.0
 11
-37.202671
 21
116.832779
 31
0.0
  0
LINE
  5
1156D
  8
ALPHA
 10
-38.677678
 20
135.332779
 30
0.0
 11
-51.727663
 21
135.332779
 31
0.0
  0
LINE
  5
1156E
  8
ALPHA
 10
-51.727663
 20
131.832779
 30
0.0
 11
-38.677678
 21
131.832779
 31
0.0
  0
LINE
  5
1156F
  8
ALPHA
 10
-45.202671
 20
136.466753
 30
0.0
 11
-51.202671
 21
136.466753
 31
0.0
  0
ARC
  5
11570
  8
ALPHA
 10
-51.727679
 20
135.375119
 30
0.0
 40
3.54234
 50
232.120618
 51
307.879383
  0
ARC
  5
11571
  8
ALPHA
 10
-51.727679
 20
131.790438
 30
0.0
 40
3.54234
 50
52.120631
 51
127.879364
  0
LINE
  5
11572
  8
ALPHA
 10
-51.202671
 20
136.466753
 30
0.0
 11
-49.702671
 21
137.332779
 31
0.0
  0
LINE
  5
11573
  8
ALPHA
 10
-38.677678
 20
123.832779
 30
0.0
 11
-51.727663
 21
123.832779
 31
0.0
  0
ARC
  5
11574
  8
ALPHA
 10
-51.727679
 20
120.290438
 30
0.0
 40
3.54234
 50
52.120631
 51
127.879364
  0
LINE
  5
11575
  8
ALPHA
 10
-53.90268
 20
132.579131
 30
0.0
 11
-53.90268
 21
134.586426
 31
0.0
  0
LINE
  5
11576
  8
ALPHA
 10
-51.202671
 20
131.832779
 30
0.0
 11
-51.202671
 21
123.832779
 31
0.0
  0
LINE
  5
11577
  8
ALPHA
 10
-51.202671
 20
136.466753
 30
0.0
 11
-51.202671
 21
135.332779
 31
0.0
  0
LINE
  5
11578
  8
ALPHA
 10
-40.852663
 20
132.579131
 30
0.0
 11
-40.852663
 21
134.586426
 31
0.0
  0
LINE
  5
11579
  8
ALPHA
 10
-36.502662
 20
132.579131
 30
0.0
 11
-36.502662
 21
134.586426
 31
0.0
  0
LINE
  5
1157A
  8
ALPHA
 10
-49.552678
 20
132.579131
 30
0.0
 11
-49.552678
 21
134.586426
 31
0.0
  0
ARC
  5
1157B
  8
ALPHA
 10
-45.202671
 20
144.88265
 30
0.0
 40
13.04987
 50
250.528552
 51
289.471449
  0
ARC
  5
1157C
  8
ALPHA
 10
-45.202671
 20
110.782907
 30
0.0
 40
13.04987
 50
70.52854
 51
109.471458
  0
LINE
  5
1157D
  8
ALPHA_FIN
 10
-50.18257
 20
123.832779
 30
0.0
 11
-50.18257
 21
131.832779
 31
0.0
  0
ARC
  5
1157E
  8
ALPHA
 10
-38.677663
 20
135.375119
 30
0.0
 40
3.54234
 50
232.120618
 51
307.879383
  0
ARC
  5
1157F
  8
ALPHA
 10
-38.677663
 20
120.290438
 30
0.0
 40
3.54234
 50
52.120631
 51
127.879364
  0
LINE
  5
11580
  8
ALPHA_FIN
 10
-40.222771
 20
123.832779
 30
0.0
 11
-40.222771
 21
131.832779
 31
0.0
  0
LINE
  5
11581
  8
ALPHA
 10
-39.202671
 20
131.832779
 30
0.0
 11
-39.202671
 21
123.832779
 31
0.0
  0
ARC
  5
11582
  8
ALPHA
 10
-45.202671
 20
136.207779
 30
0.0
 40
6.625
 50
58.109208
 51
121.890792
  0
LINE
  5
11583
  8
ALPHA
 10
-41.702671
 20
141.832779
 30
0.0
 11
-45.202671
 21
141.832779
 31
0.0
  0
ARC
  5
11584
  8
ALPHA
 10
-45.202671
 20
122.282907
 30
0.0
 40
13.04987
 50
70.52854
 51
109.471458
  0
LINE
  5
11585
  8
ALPHA
 10
-45.202671
 20
136.466753
 30
0.0
 11
-39.202671
 21
136.466753
 31
0.0
  0
LINE
  5
11586
  8
ALPHA
 10
-40.702671
 20
137.332779
 30
0.0
 11
-45.202671
 21
137.332779
 31
0.0
  0
LINE
  5
11587
  8
ALPHA
 10
-48.702671
 20
141.832779
 30
0.0
 11
-45.202671
 21
141.832779
 31
0.0
  0
LINE
  5
11588
  8
ALPHA
 10
-49.702671
 20
137.332779
 30
0.0
 11
-45.202671
 21
137.332779
 31
0.0
  0
LINE
  5
11589
  8
ALPHA_FIN
 10
-50.18257
 20
135.332779
 30
0.0
 11
-50.18257
 21
137.055709
 31
0.0
  0
LINE
  5
1158A
  8
ALPHA
 10
-48.702671
 20
141.832779
 30
0.0
 11
-48.702671
 21
137.332779
 31
0.0
  0
ARC
  5
1158B
  8
ALPHA
 10
-38.677663
 20
131.790438
 30
0.0
 40
3.54234
 50
52.120631
 51
127.879364
  0
LINE
  5
1158C
  8
ALPHA
 10
-39.202671
 20
136.466753
 30
0.0
 11
-40.702671
 21
137.332779
 31
0.0
  0
LINE
  5
1158D
  8
ALPHA_FIN
 10
-40.222771
 20
135.332779
 30
0.0
 11
-40.222771
 21
137.055709
 31
0.0
  0
LINE
  5
1158E
  8
ALPHA
 10
-39.202671
 20
136.466753
 30
0.0
 11
-39.202671
 21
135.332779
 31
0.0
  0
LINE
  5
1158F
  8
ALPHA
 10
-41.702671
 20
141.832779
 30
0.0
 11
-41.702671
 21
137.332779
 31
0.0
  0
DIMENSION
  5
11590
  8
COTATION1
  2
*D4
 10
-17.202671
 20
66.832779
 30
0.0
 11
-17.202671
 21
104.832779
 31
0.0
 13
-45.202671
 23
142.832779
 33
0.0
 14
-37.202671
 24
66.832779
 34
0.0
 50
90.0
  0
DIMENSION
  5
11591
  8
COTATION1
  2
*D5
 10
-36.502662
 20
157.832779
 30
0.0
 11
-45.202671
 21
161.082779
 31
0.0
 13
-53.90268
 23
134.586426
 33
0.0
 14
-36.502662
 24
134.586426
 34
0.0
  0
VIEWPORT
  5
494D
 67
     1
  8
0
 10
4.995325
 20
6.556512
 30
0.0
 40
22.70986
 41
13.988421
 68
    -1
 69
     1
1001
ACAD
1000
MVIEW
1002
{
1070
    16
1010
0.0
1020
0.0
1030
0.0
1010
0.0
1020
0.0
1030
1.0
1040
0.0
1040
13.988421
1040
4.995325
1040
6.556512
1040
50.0
1040
0.0
1040
0.0
1070
     0
1070
   100
1070
     1
1070
     1
1070
     0
1070
     0
1070
     0
1070
     0
1040
0.0
1040
0.0
1040
0.0
1040
10.0
1040
10.0
1040
10.0
1040
10.0
1070
     0
1002
{
1002
}
1002
}
  0
ENDSEC
  0
EOF
